osu file format v14

[General]
AudioFilename: audio.mp3
AudioLeadIn: 0
PreviewTime: 67705
Countdown: 0
SampleSet: Soft
StackLeniency: 0.4
Mode: 0
LetterboxInBreaks: 0
WidescreenStoryboard: 0

[Editor]
Bookmarks: 19705,58105,67705,106105,144505
DistanceSpacing: 2.2
BeatDivisor: 4
GridSize: 4
TimelineZoom: 1

[Metadata]
Title:Regulosa
TitleUnicode:Regulosa
Artist:Musashinoclan
ArtistUnicode:Musashinoclan
Creator:Kobold84
Version:Insane
Source:
Tags:武蔵野 茶人 musashino sajin hard gu.w-c.i gucci
BeatmapID:2035598
BeatmapSetID:972203

[Difficulty]
HPDrainRate:6
CircleSize:4
OverallDifficulty:7
ApproachRate:9
SliderMultiplier:1.2
SliderTickRate:1

[Events]
//Background and Video events
0,0,"teg.png",0,0
//Break Periods
//Storyboard Layer 0 (Background)
//Storyboard Layer 1 (Fail)
//Storyboard Layer 2 (Pass)
//Storyboard Layer 3 (Foreground)
//Storyboard Sound Samples

[TimingPoints]
505,300,4,2,0,70,1,0
505,-200,4,2,0,50,0,0
19705,-100,4,2,0,70,0,0
58105,-200,4,2,0,50,0,0
66505,-100,4,2,0,70,0,0
144505,-200,4,2,0,50,0,0

[HitObjects]
75,138,505,6,0,L|197:146,4,120
75,138,3955,2,0,L|115:140,1,30
194,145,4405,2,0,L|75:138,1,120
326,109,5305,6,0,L|258:210,4,120
326,109,8755,2,0,L|304:142,1,30
258,208,9205,2,0,L|326:109,1,120
225,340,10105,6,0,L|170:230,4,120
225,340,13555,2,0,L|206:304,1,30
171,232,14005,2,0,L|225:340,1,120
326,109,14905,5,0,0:0:0:0:
256,192,15055,12,0,18505,0:0:0:0:
154,290,19705,6,0,L|143:207,1,60
180,161,20005,1,0,0:0:0:0:
237,219,20155,1,0,0:0:0:0:
246,299,20305,2,0,P|238:328|221:353,1,60
87,151,20605,2,0,P|95:122|113:98,1,60
200,70,20905,5,0,0:0:0:0:
291,90,21055,1,0,0:0:0:0:
291,90,21130,1,0,0:0:0:0:
291,90,21205,2,0,L|283:30,1,60
262,240,21505,1,0,0:0:0:0:
263,240,21655,2,0,L|271:181,2,60
402,296,22105,6,0,B|369:326|320:321|320:321|328:269,1,120
336,211,22555,1,0,0:0:0:0:
263,240,22705,2,0,P|230:237|202:218,1,60
147,291,23005,2,0,P|125:265|119:232,1,60
23,144,23305,6,0,P|67:144|132:89,1,120
46,54,23755,1,0,0:0:0:0:
220,41,23905,2,0,L|161:29,1,60
320,103,24205,2,0,L|261:114,1,60
417,37,24505,6,0,P|404:86|430:154,1,120
510,85,24955,1,0,0:0:0:0:
512,302,25105,2,0,P|525:253|499:185,1,120
420,253,25555,1,0,0:0:0:0:
300,265,25705,6,0,L|419:252,1,120
280,182,26155,1,0,0:0:0:0:
280,182,26305,2,0,P|293:208|316:227,1,60
456,298,26605,2,0,P|442:271|419:252,1,60
316,227,26905,5,0,0:0:0:0:
242,305,27055,1,0,0:0:0:0:
242,305,27205,2,0,L|183:293,1,60
81,158,27505,2,0,P|101:206|101:233,1,60
21,294,27805,2,0,P|1:246|1:219,1,60
0,125,28105,6,0,P|21:88|113:71,1,120
165,119,28555,1,0,0:0:0:0:
165,119,28705,2,0,P|194:112|219:96,2,60
393,69,29305,5,0,0:0:0:0:
314,133,29455,1,0,0:0:0:0:
314,133,29605,1,0,0:0:0:0:
298,32,29755,1,0,0:0:0:0:
409,170,29905,2,0,L|419:248,1,60
272,330,30205,6,0,L|280:271,1,60
172,310,30505,2,0,P|140:299|47:332,1,120
0,156,31105,6,0,P|54:178|112:166,1,120
65,72,31555,1,0,0:0:0:0:
131,26,31705,2,0,P|167:33|194:45,1,60
354,97,32005,2,0,P|324:103|296:113,1,60
420,143,32305,1,0,0:0:0:0:
420,143,32380,1,0,0:0:0:0:
420,143,32455,1,0,0:0:0:0:
453,298,32605,5,0,0:0:0:0:
376,337,32755,1,0,0:0:0:0:
376,337,32905,2,0,L|310:328,1,60
248,161,33205,2,0,L|314:170,1,60
224,313,33505,2,0,P|221:283|229:254,1,60
400,185,33805,2,0,P|401:220|391:251,1,60
476,126,34105,6,0,P|440:103|417:24,1,120
415,32,34555,1,0,0:0:0:0:
316,118,34705,2,0,P|258:104|222:57,1,120
308,26,35155,1,0,0:0:0:0:
476,126,35305,6,0,L|399:131,1,60
345,234,35605,2,0,L|405:231,1,60
486,280,35905,1,0,0:0:0:0:
486,280,35980,1,0,0:0:0:0:
486,280,36055,1,0,0:0:0:0:
345,234,36205,1,0,0:0:0:0:
235,334,36505,6,0,P|185:321|151:326,1,60
71,318,36805,2,0,P|83:345|103:368,1,60
125,226,37105,2,0,B|45:227|45:227|9:259,1,120
192,159,37555,1,0,0:0:0:0:
192,159,37705,2,0,L|115:129,1,60
52,99,38005,5,0,0:0:0:0:
127,46,38155,1,0,0:0:0:0:
216,71,38305,2,0,P|255:84|347:52,1,120
329,66,38755,1,0,0:0:0:0:
401,10,38905,5,0,0:0:0:0:
401,10,39055,1,0,0:0:0:0:
385,137,39205,2,0,P|387:167|396:196,1,60
479,248,39505,2,0,P|433:286|352:281,1,120
104,353,40105,6,0,L|118:273,1,60
225,345,40405,2,0,L|211:265,1,60
26,263,40705,2,0,P|79:208|134:202,1,120
199,207,41155,1,0,0:0:0:0:
332,226,41305,2,0,P|271:231|253:222,1,60
165,134,41605,2,0,P|193:125|223:127,1,60
324,63,41905,2,0,B|272:72|235:32|235:32|263:5,1,120
481,21,42505,5,0,0:0:0:0:
425,108,42655,1,0,0:0:0:0:
425,108,42805,2,0,L|500:96,1,60
441,199,43105,2,0,P|370:182|335:124,1,120
128,316,43705,5,0,0:0:0:0:
196,252,43855,1,0,0:0:0:0:
196,252,44005,2,0,L|182:185,1,60
285,278,44305,2,0,P|256:322|232:337,1,60
94,167,44605,2,0,P|123:123|147:108,1,60
220,107,44905,1,0,0:0:0:0:
220,107,45055,1,0,0:0:0:0:
164,32,45205,5,0,0:0:0:0:
164,32,45280,1,0,0:0:0:0:
164,32,45355,1,0,0:0:0:0:
256,21,45505,2,0,P|293:52|307:134,1,120
309,119,45955,1,0,0:0:0:0:
318,222,46105,2,0,B|392:176|392:176|389:125,1,120
431,316,46705,6,0,P|461:317|488:328,1,60
343,374,47005,2,0,P|313:373|285:361,1,60
215,285,47305,1,0,0:0:0:0:
115,308,47455,1,0,0:0:0:0:
115,308,47605,2,0,L|27:296,1,60
215,285,47905,2,0,P|172:224|126:208,1,120
11,67,48505,6,0,L|130:87,1,120
236,146,48955,1,0,0:0:0:0:
236,146,49105,2,0,L|226:74,1,60
317,217,49405,2,0,L|326:158,1,60
376,289,49705,2,0,P|322:310|265:294,1,120
206,238,50155,1,0,0:0:0:0:
150,297,50305,5,0,0:0:0:0:
150,297,50380,1,0,0:0:0:0:
150,297,50455,1,0,0:0:0:0:
91,241,50605,2,0,P|50:244|25:255,1,60
146,181,50905,2,0,P|123:140|125:56,1,120
172,2,51355,1,0,0:0:0:0:
293,70,51505,6,0,P|325:60|353:27,1,60
411,102,51805,2,0,P|426:72|423:29,1,60
490,209,52105,2,0,L|476:142,1,60
411,102,52405,1,0,0:0:0:0:
356,222,52555,1,0,0:0:0:0:
356,222,52705,2,0,P|321:224|246:178,1,120
213,114,53155,1,0,0:0:0:0:
164,239,53305,6,0,L|172:313,2,60
213,114,53755,1,0,0:0:0:0:
213,114,53905,2,0,L|206:173,1,60
127,170,54205,1,0,0:0:0:0:
164,239,54355,1,0,0:0:0:0:
85,236,54505,6,0,P|61:211|76:109,1,120
213,114,54955,1,0,0:0:0:0:
280,154,55105,2,0,P|287:95|254:47,1,120
475,262,55705,6,0,L|403:255,1,60
310,324,56005,2,0,L|370:330,1,60
446,178,56305,2,0,B|411:151|358:174|358:174|375:206,1,120
27,216,56905,6,0,B|43:194|43:194|108:186|108:186|127:205,1,120
139,282,57355,1,0,0:0:0:0:
140,282,57505,2,0,B|124:304|124:304|59:312|59:312|39:292,1,120
365,205,58105,6,0,P|311:200|260:144,4,120
365,205,61555,2,0,L|331:205,1,30
264,156,62005,2,0,P|305:197|364:204,1,120
256,192,62905,12,0,66205,0:0:0:0:
75,86,66505,5,0,0:0:0:0:
75,86,66580,1,0,0:0:0:0:
225,132,67005,2,0,L|186:140,2,40
83,209,67705,2,0,P|124:248|196:265,1,120
253,205,68155,1,0,0:0:0:0:
270,296,68305,2,0,L|263:367,1,60
341,236,68605,2,0,L|335:176,1,60
197,77,68905,6,0,B|180:90|180:90|215:136|267:118,1,120
324,60,69355,1,0,0:0:0:0:
324,60,69505,2,0,P|369:57|395:64,1,60
253,205,69805,2,0,P|223:209|193:205,1,60
124,70,70105,5,0,0:0:0:0:
111,229,70255,1,0,0:0:0:0:
111,229,70405,1,0,0:0:0:0:
87,147,70555,1,0,0:0:0:0:
113,321,70705,2,0,P|70:312|36:282,1,90
111,229,71005,2,0,L|172:253,1,60
200,331,71305,5,0,0:0:0:0:
200,331,71380,1,0,0:0:0:0:
200,331,71455,1,0,0:0:0:0:
313,356,71605,2,0,P|338:342|368:335,1,60
478,334,71905,2,0,P|446:313|414:231,1,120
490,94,72505,5,0,0:0:0:0:
490,94,72655,1,0,0:0:0:0:
366,40,72805,1,0,0:0:0:0:
451,19,72955,1,0,0:0:0:0:
405,115,73105,2,0,P|346:122|288:72,1,120
238,19,73555,5,0,0:0:0:0:
238,19,73705,2,0,P|205:67|212:126,1,120
286,181,74155,1,0,0:0:0:0:
286,181,74305,2,0,P|293:239|260:288,1,120
202,218,74755,1,0,0:0:0:0:
125,163,74905,6,0,L|65:172,1,60
17,252,75205,2,0,P|44:263|74:263,1,60
173,83,75505,2,0,P|145:71|115:71,1,60
261,58,75805,2,0,P|249:30|228:9,1,60
239,147,76105,6,0,P|311:135|347:89,1,120
339,10,76555,1,0,0:0:0:0:
338,9,76705,2,0,P|394:27|428:76,1,120
185,339,77305,6,0,P|220:331|250:307,1,60
351,183,77605,2,0,P|321:188|296:204,1,60
346,344,77905,2,0,P|338:309|314:279,1,60
190,177,78205,2,0,P|195:207|211:232,1,60
273,104,78505,5,0,0:0:0:0:
273,104,78655,1,0,0:0:0:0:
351,183,78805,2,0,P|405:197|471:168,2,120
381,76,79555,1,0,0:0:0:0:
273,104,79705,6,0,P|235:89|212:64,1,60
112,18,80005,2,0,P|115:47|129:74,1,60
97,160,80305,2,0,L|25:153,1,60
171,218,80605,1,0,0:0:0:0:
247,165,80755,1,0,0:0:0:0:
299,296,80905,6,0,P|326:306|358:301,1,60
389,206,81205,1,0,0:0:0:0:
389,206,81280,1,0,0:0:0:0:
389,206,81355,1,0,0:0:0:0:
493,237,81505,2,0,B|415:238|415:238|379:195,1,120
184,34,82105,6,0,P|162:88|175:146,1,120
268,97,82555,1,0,0:0:0:0:
258,209,82705,2,0,P|280:154|267:96,1,120
175,146,83155,1,0,0:0:0:0:
78,186,83305,5,0,0:0:0:0:
78,186,83380,1,0,0:0:0:0:
78,186,83455,1,0,0:0:0:0:
118,283,83605,1,0,0:0:0:0:
175,146,83755,1,0,0:0:0:0:
215,243,83905,2,0,L|341:249,1,120
334,248,84355,1,0,0:0:0:0:
463,197,84505,6,0,P|433:191|408:175,1,60
411,68,84805,1,0,0:0:0:0:
411,68,84955,1,0,0:0:0:0:
283,120,85105,2,0,P|237:104|198:45,1,120
198,46,85555,1,0,0:0:0:0:
108,37,85705,2,0,L|26:48,1,60
39,135,86005,2,0,L|98:127,1,60
189,137,86305,2,0,P|175:174|101:218,1,120
442,308,86905,6,0,L|366:301,1,60
219,335,87205,1,0,0:0:0:0:
219,335,87280,1,0,0:0:0:0:
219,335,87355,1,0,0:0:0:0:
308,356,87505,2,0,P|306:307|244:246,1,120
262,253,87955,1,0,0:0:0:0:
115,275,88105,6,0,P|141:261|170:255,1,60
22,265,88405,2,0,P|31:236|47:211,1,60
137,185,88705,1,0,0:0:0:0:
70,120,88855,1,0,0:0:0:0:
70,120,89005,2,0,L|80:39,1,60
214,18,89305,6,0,L|222:78,1,60
376,55,89605,2,0,P|347:49|317:48,1,60
222,78,89905,1,0,0:0:0:0:
222,78,89980,1,0,0:0:0:0:
222,78,90055,1,0,0:0:0:0:
252,173,90205,6,0,L|244:232,1,60
347,143,90505,1,0,0:0:0:0:
341,304,90655,1,0,0:0:0:0:
402,227,90805,1,0,0:0:0:0:
402,227,90955,1,0,0:0:0:0:
341,303,91105,6,0,P|315:319|286:324,1,60
189,253,91405,2,0,P|214:237|243:232,1,60
402,227,91705,2,0,L|382:158,1,60
405,92,92005,1,0,0:0:0:0:
462,148,92155,1,0,0:0:0:0:
328,112,92305,5,0,0:0:0:0:
328,112,92380,1,0,0:0:0:0:
328,112,92455,1,0,0:0:0:0:
217,80,92605,2,0,P|242:63|271:56,1,60
161,153,92905,2,0,P|136:122|139:34,1,120
46,275,93505,6,0,P|23:295|9:321,1,60
135,275,93805,2,0,P|128:245|113:220,1,60
89,353,94105,2,0,P|117:362|147:361,1,60
296,339,94405,1,0,0:0:0:0:
215,307,94555,1,0,0:0:0:0:
363,290,94705,2,0,P|389:276|419:190,1,120
8,217,95305,6,0,P|48:226|89:215,1,60
210,36,95605,2,0,P|181:27|151:29,1,60
49,133,95905,2,0,L|168:119,1,120
168,119,96355,1,0,0:0:0:0:
267,172,96505,6,0,L|260:113,1,60
366,225,96805,2,0,L|373:165,1,60
354,317,97105,2,0,P|411:305|450:261,1,120
366,225,97555,1,0,0:0:0:0:
280,260,97705,5,0,0:0:0:0:
280,260,97780,1,0,0:0:0:0:
280,260,97855,1,0,0:0:0:0:
268,352,98005,2,0,P|238:348|211:335,1,60
67,282,98305,2,0,B|119:314|157:263|157:263|124:241,1,120
2,66,98905,6,0,P|6:95|26:117,1,60
177,170,99205,2,0,P|172:140|152:118,1,60
88,181,99505,2,0,L|31:206,1,60
90,55,99805,2,0,L|154:25,1,60
226,67,100105,6,0,P|259:85|355:70,1,120
409,28,100555,1,0,0:0:0:0:
389,150,100705,1,0,0:0:0:0:
389,150,100855,1,0,0:0:0:0:
460,99,101005,1,0,0:0:0:0:
311,328,101305,6,0,P|247:296|186:296,1,120
104,359,101755,1,0,0:0:0:0:
104,359,101905,2,0,P|115:320|112:283,1,60
84,217,102205,1,0,0:0:0:0:
84,217,102355,1,0,0:0:0:0:
153,165,102505,6,0,P|104:134|31:149,1,120
222,213,102955,1,0,0:0:0:0:
222,213,103105,2,0,P|271:244|344:229,1,120
389,143,103555,5,0,0:0:0:0:
389,143,103705,1,0,0:0:0:0:
102,143,104155,1,0,0:0:0:0:
102,143,104305,2,0,P|72:137|43:140,1,60
67,228,104605,1,0,0:0:0:0:
67,228,104680,1,0,0:0:0:0:
67,228,104755,1,0,0:0:0:0:
188,179,104905,6,0,P|194:149|191:119,1,60
152,264,105205,2,0,P|181:270|211:267,1,60
67,228,105505,2,0,P|60:257|63:287,2,60
188,179,105955,1,0,0:0:0:0:
275,203,106105,6,0,L|408:190,1,120
467,142,106555,1,0,0:0:0:0:
467,142,106705,2,0,P|448:120|422:106,1,60
333,87,107005,2,0,P|291:95|251:89,1,60
207,32,107305,2,0,P|185:73|206:157,1,120
276,186,107755,1,0,0:0:0:0:
208,301,107905,6,0,L|277:292,1,60
335,178,108205,2,0,L|266:187,1,60
208,301,108505,1,0,0:0:0:0:
208,301,108655,1,0,0:0:0:0:
119,311,108805,2,0,P|86:295|61:265,1,60
208,301,109105,2,0,P|271:289|323:324,1,120
409,374,109555,1,0,0:0:0:0:
409,374,109705,2,0,L|396:307,1,60
478,65,110155,5,0,0:0:0:0:
478,65,110305,2,0,P|421:67|360:11,1,120
285,68,110755,1,0,0:0:0:0:
196,41,110905,2,0,P|160:48|137:64,2,60
60,32,111355,1,0,0:0:0:0:
32,112,111505,1,0,0:0:0:0:
112,140,111655,5,0,0:0:0:0:
112,140,111805,2,0,P|118:182|102:220,1,60
0,289,112105,2,0,P|33:262|74:257,1,60
185,311,112405,2,0,P|145:295|120:262,1,60
113,198,112705,5,0,0:0:0:0:
113,198,112780,1,0,0:0:0:0:
113,198,112855,1,0,0:0:0:0:
247,193,113005,2,0,L|317:172,1,60
349,108,113305,1,0,0:0:0:0:
349,108,113455,1,0,0:0:0:0:
371,220,113605,6,0,L|422:235,2,30
470,244,113905,2,0,P|463:186|416:153,1,120
304,175,114355,1,0,0:0:0:0:
304,175,114505,2,0,P|270:154|255:110,1,60
180,171,114805,2,0,P|170:132|191:90,1,60
238,51,115105,1,0,0:0:0:0:
260,236,115405,6,0,L|246:295,1,60
166,321,115705,1,0,0:0:0:0:
86,295,115855,1,0,0:0:0:0:
0,303,116005,2,0,P|7:246|52:208,1,120
159,135,116455,1,0,0:0:0:0:
159,135,116605,2,0,P|112:144|87:136,1,60
3,43,116905,6,0,L|132:63,1,120
249,101,117355,1,0,0:0:0:0:
249,101,117505,2,0,P|209:74|197:50,1,60
336,140,117805,2,0,P|326:111|329:81,1,60
398,30,118105,1,0,0:0:0:0:
398,30,118180,1,0,0:0:0:0:
398,30,118255,1,0,0:0:0:0:
404,193,118405,5,0,0:0:0:0:
404,193,118480,1,0,0:0:0:0:
404,193,118555,1,0,0:0:0:0:
371,275,118705,2,0,B|298:275|298:275|254:308,1,120
148,291,119155,1,0,0:0:0:0:
148,291,119305,2,0,L|197:254,1,60
77,57,119755,5,0,0:0:0:0:
77,57,119905,2,0,P|40:47|-5:53,1,60
195,127,120205,2,0,P|165:126|136:117,1,60
244,48,120505,2,0,P|271:76|271:180,1,120
400,223,120955,5,0,0:0:0:0:
400,223,121105,2,0,P|437:233|482:227,1,60
282,153,121405,2,0,P|311:153|340:162,1,60
233,232,121705,2,0,P|206:204|206:100,1,120
262,64,122155,1,0,0:0:0:0:
174,37,122305,1,0,0:0:0:0:
174,37,122455,1,0,0:0:0:0:
106,99,122605,6,0,B|43:122|24:81|24:81|50:68,1,120
262,64,123205,1,0,0:0:0:0:
106,99,123355,1,0,0:0:0:0:
78,187,123505,2,0,P|96:226|129:256,2,60
58,316,123955,1,0,0:0:0:0:
58,316,124105,2,0,P|98:330|142:328,1,60
191,277,124405,2,0,P|259:268|329:288,2,120
440,260,125305,6,0,P|400:248|380:229,1,60
358,154,125605,1,0,0:0:0:0:
443,171,125755,1,0,0:0:0:0:
312,189,125905,2,0,P|342:160|368:152,1,60
437,113,126205,2,0,P|446:153|440:180,1,60
312,189,126505,6,0,P|257:178|200:121,1,120
190,58,126955,1,0,0:0:0:0:
131,115,127105,2,0,L|50:122,1,60
2,196,127405,2,0,L|83:203,1,60
139,245,127705,2,0,P|104:278|31:283,1,120
327,264,128305,6,0,P|297:268|268:260,1,60
393,227,128605,2,0,P|422:222|451:230,1,60
391,301,128905,2,0,P|396:331|388:360,1,60
328,189,129205,2,0,P|323:159|331:130,2,60
64,51,129805,5,0,0:0:0:0:
64,51,130105,2,0,L|81:181,1,120
81,257,130555,1,0,0:0:0:0:
81,257,130705,2,0,P|46:257|24:240,1,60
171,265,131005,1,0,0:0:0:0:
120,339,131155,1,0,0:0:0:0:
79,169,131305,6,0,P|96:138|122:128,1,60
156,211,131605,2,0,P|173:241|169:268,1,60
120,339,131905,2,0,P|172:355|246:314,1,120
230,331,132355,1,0,0:0:0:0:
297,205,132505,1,0,0:0:0:0:
261,125,132655,1,0,0:0:0:0:
261,125,132730,1,0,0:0:0:0:
261,125,132805,2,0,L|277:55,1,60
297,205,133105,6,0,P|252:211|183:151,1,120
377,169,133555,1,0,0:0:0:0:
341,89,133705,1,0,0:0:0:0:
341,89,133855,1,0,0:0:0:0:
377,169,134005,1,0,0:0:0:0:
377,169,134155,1,0,0:0:0:0:
357,255,134305,6,0,B|337:295|337:295|393:297|425:320,1,120
261,346,134755,1,0,0:0:0:0:
261,346,134905,2,0,P|214:333|182:338,1,60
116,373,135205,1,0,0:0:0:0:
163,246,135355,1,0,0:0:0:0:
163,246,135505,1,0,0:0:0:0:
76,286,135655,1,0,0:0:0:0:
169,90,135955,5,0,0:0:0:0:
169,90,136105,2,0,L|228:84,1,60
284,157,136405,2,0,L|322:110,1,60
325,22,136705,2,0,P|373:38|411:109,1,120
310,246,137155,1,0,0:0:0:0:
310,245,137305,2,0,P|280:248|251:242,1,60
194,171,137605,1,0,0:0:0:0:
194,171,137680,1,0,0:0:0:0:
194,171,137755,1,0,0:0:0:0:
180,299,137905,5,0,0:0:0:0:
64,224,138055,1,0,0:0:0:0:
64,224,138205,2,0,P|93:221|122:227,1,60
251,242,138505,1,0,0:0:0:0:
338,200,138655,1,0,0:0:0:0:
338,200,138805,2,0,L|347:127,1,60
425,158,139105,2,0,L|416:85,1,60
272,30,139405,5,0,0:0:0:0:
345,140,139555,1,0,0:0:0:0:
272,30,139705,2,0,P|228:30|195:46,1,60
171,112,140005,2,0,P|127:112|94:96,1,60
5,36,140305,2,0,P|31:67|29:159,2,120
112,106,141055,5,0,0:0:0:0:
107,190,141205,2,0,L|102:267,1,60
191,296,141505,2,0,L|187:236,1,60
183,153,141805,1,0,0:0:0:0:
486,184,142105,6,0,P|449:192|419:188,1,60
354,143,142405,1,0,0:0:0:0:
354,143,142480,1,0,0:0:0:0:
354,143,142555,1,0,0:0:0:0:
453,274,142705,2,0,P|395:271|352:232,1,120
295,149,143155,5,0,0:0:0:0:
295,149,143305,2,0,P|323:141|353:142,1,60
427,190,143605,1,0,0:0:0:0:
427,190,143755,1,0,0:0:0:0:
352,232,143905,1,0,0:0:0:0:
352,232,144055,1,0,0:0:0:0:
353,142,144205,1,0,0:0:0:0:
60,267,144505,6,0,P|65:213|121:162,4,120
60,267,147955,2,0,L|60:233,1,30
109,166,148405,2,0,P|68:207|61:266,1,120
256,192,149305,12,0,152605,0:0:0:0:
