osu file format v14

[General]
AudioFilename: audio.mp3
AudioLeadIn: 0
PreviewTime: 502
Countdown: 0
SampleSet: Normal
StackLeniency: 0.7
Mode: 0
LetterboxInBreaks: 0
WidescreenStoryboard: 1

[Editor]
DistanceSpacing: 1.4
BeatDivisor: 2
GridSize: 32
TimelineZoom: 1

[Metadata]
Title:Ofuzake Mode
TitleUnicode:おふざけモード
Artist:Musashi Project & Toshiro Masuda
ArtistUnicode:六三四プロジェクト&増田俊郎
Creator:Wixdom
Version:Yikes!
Source:NARUTO-ナルト-
Tags:naruto OST 2
BeatmapID:2191668
BeatmapSetID:1048012

[Difficulty]
HPDrainRate:6.5
CircleSize:4.2
OverallDifficulty:7.2
ApproachRate:7.8
SliderMultiplier:1.6
SliderTickRate:1

[Events]
//Background and Video events
0,0,"bg.jpg",0,0
//Break Periods
//Storyboard Layer 0 (Background)
//Storyboard Layer 1 (Fail)
//Storyboard Layer 2 (Pass)
//Storyboard Layer 3 (Foreground)
//Storyboard Layer 4 (Overlay)
//Storyboard Sound Samples

[TimingPoints]
1102,480,4,1,1,40,1,0
6862,-100,4,1,2,40,0,0
7342,-100,4,1,1,40,0,0
14542,-100,4,1,2,40,0,0
15022,-100,4,1,1,40,0,0
22222,-100,4,1,2,40,0,0
22702,-100,4,1,1,40,0,0
29902,-100,4,1,2,40,0,0
30382,-100,4,1,1,40,0,0
33262,-100,4,1,2,40,0,0
33742,-100,4,1,1,40,0,0
39022,-100,4,1,2,40,0,0
41422,-100,4,1,1,40,0,0
46702,-100,4,1,2,40,0,0

[HitObjects]
250,80,622,5,0,0:0:0:0:
222,57,742,1,0,0:0:0:0:
188,46,862,1,0,0:0:0:0:
152,47,982,1,0,0:0:0:0:
119,61,1102,6,0,L|114:155,1,80,4|0,0:0|0:0,0:0:0:0:
144,188,1462,1,0,0:0:0:0:
144,188,1582,1,2,0:0:0:0:
398,189,1822,1,4,0:0:0:0:
195,261,2062,1,8,0:0:0:0:
195,261,2182,1,0,0:0:0:0:
195,261,2302,1,0,0:0:0:0:
342,68,2542,1,2,0:0:0:0:
110,81,2782,1,0,0:0:0:0:
297,296,3022,5,4,0:0:0:0:
266,138,3262,1,0,0:0:0:0:
266,138,3382,1,0,0:0:0:0:
266,138,3502,1,2,0:0:0:0:
219,344,3742,1,4,0:0:0:0:
373,174,3982,5,8,0:0:0:0:
373,174,4102,1,0,0:0:0:0:
373,174,4222,1,0,0:0:0:0:
64,217,4462,1,2,0:0:0:0:
276,233,4702,1,0,0:0:0:0:
16,168,4942,6,0,L|15:67,1,80,4|0,0:0|0:0,0:0:0:0:
48,42,5302,1,0,0:0:0:0:
48,42,5422,1,2,0:0:0:0:
43,317,5662,1,4,0:0:0:0:
139,84,5902,5,8,0:0:0:0:
139,84,6022,1,0,0:0:0:0:
139,84,6142,1,0,0:0:0:0:
251,296,6382,1,2,0:0:0:0:
94,177,6622,1,0,0:0:0:0:
282,157,6862,5,2,0:0:0:0:
203,296,7342,5,0,0:0:0:0:
361,277,7822,1,0,0:0:0:0:
114,69,8782,6,0,L|114:168,1,80,4|0,0:0|0:0,0:0:0:0:
139,199,9142,1,0,0:0:0:0:
139,199,9262,1,2,0:0:0:0:
375,68,9502,1,4,0:0:0:0:
384,315,9742,1,8,0:0:0:0:
384,315,9862,1,0,0:0:0:0:
384,315,9982,1,0,0:0:0:0:
252,94,10222,1,2,0:0:0:0:
488,245,10462,1,0,0:0:0:0:
236,225,10702,5,4,0:0:0:0:
340,98,10942,1,0,0:0:0:0:
340,98,11062,1,0,0:0:0:0:
340,98,11182,1,2,0:0:0:0:
335,216,11422,1,4,0:0:0:0:
166,88,11662,5,8,0:0:0:0:
166,88,11782,1,0,0:0:0:0:
166,88,11902,1,0,0:0:0:0:
187,339,12142,1,2,0:0:0:0:
222,104,12382,1,0,0:0:0:0:
214,341,12622,5,4,0:0:0:0:
320,245,12862,1,0,0:0:0:0:
320,245,12982,1,0,0:0:0:0:
320,245,13102,1,2,0:0:0:0:
115,282,13342,1,4,0:0:0:0:
302,184,13582,5,8,0:0:0:0:
302,184,13702,1,0,0:0:0:0:
302,184,13822,1,0,0:0:0:0:
200,304,14062,1,2,0:0:0:0:
210,94,14302,1,0,0:0:0:0:
391,323,14542,5,2,0:0:0:0:
363,165,15022,5,0,0:0:0:0:
245,273,15502,1,0,0:0:0:0:
424,58,16462,6,0,L|410:161,1,80,4|0,0:0|0:0,0:0:0:0:
377,180,16822,1,0,0:0:0:0:
377,180,16942,1,2,0:0:0:0:
329,15,17182,1,4,0:0:0:0:
323,296,17422,1,8,0:0:0:0:
323,296,17542,1,0,0:0:0:0:
323,296,17662,1,0,0:0:0:0:
222,148,17902,1,2,0:0:0:0:
229,350,18142,1,0,0:0:0:0:
144,102,18382,5,4,0:0:0:0:
343,144,18622,1,0,0:0:0:0:
343,144,18742,1,0,0:0:0:0:
343,144,18862,1,2,0:0:0:0:
133,253,19102,1,4,0:0:0:0:
213,66,19342,5,8,0:0:0:0:
213,66,19462,1,0,0:0:0:0:
213,66,19582,1,0,0:0:0:0:
201,318,19822,1,2,0:0:0:0:
254,78,20062,1,0,0:0:0:0:
294,222,20302,6,0,L|291:307,1,80,4|0,0:0|0:0,0:0:0:0:
260,348,20662,1,0,0:0:0:0:
260,348,20782,1,2,0:0:0:0:
207,152,21022,1,4,0:0:0:0:
411,197,21262,1,8,0:0:0:0:
411,197,21382,1,0,0:0:0:0:
411,197,21502,1,0,0:0:0:0:
127,282,21742,1,2,0:0:0:0:
324,85,21982,1,0,0:0:0:0:
335,346,22222,5,2,0:0:0:0:
272,198,22702,5,0,0:0:0:0:
159,312,23182,1,0,0:0:0:0:
332,231,24142,6,0,L|269:165,1,80,4|0,0:0|0:0,0:0:0:0:
264,118,24502,1,0,0:0:0:0:
264,118,24622,1,2,0:0:0:0:
494,261,24862,1,4,0:0:0:0:
337,65,25102,5,8,0:0:0:0:
297,42,25222,1,0,0:0:0:0:
254,35,25342,1,0,0:0:0:0:
268,242,25582,1,2,0:0:0:0:
437,151,25822,1,0,0:0:0:0:
162,165,26062,1,4,0:0:0:0:
342,339,26302,5,0,0:0:0:0:
385,336,26422,1,0,0:0:0:0:
420,311,26542,1,2,0:0:0:0:
354,99,26782,1,4,0:0:0:0:
194,283,27022,1,8,0:0:0:0:
194,283,27142,1,0,0:0:0:0:
194,283,27262,1,0,0:0:0:0:
419,166,27502,1,2,0:0:0:0:
118,165,27742,1,0,0:0:0:0:
356,84,27982,5,4,0:0:0:0:
243,263,28222,1,0,0:0:0:0:
243,306,28342,1,0,0:0:0:0:
257,348,28462,1,2,0:0:0:0:
388,181,28702,1,4,0:0:0:0:
149,264,28942,5,8,0:0:0:0:
149,264,29062,1,0,0:0:0:0:
149,264,29182,1,0,0:0:0:0:
385,309,29422,1,2,0:0:0:0:
119,139,29662,1,0,0:0:0:0:
395,286,29902,1,2,0:0:0:0:
323,142,30382,5,0,0:0:0:0:
258,288,30862,1,0,0:0:0:0:
192,32,31822,5,0,0:0:0:0:
192,352,32062,1,0,0:0:0:0:
320,32,32302,1,0,0:0:0:0:
288,352,32542,1,0,0:0:0:0:
160,32,32782,1,0,0:0:0:0:
402,197,33262,5,2,0:0:0:0:
192,32,33742,5,0,0:0:0:0:
352,352,33982,1,0,0:0:0:0:
320,32,34222,1,0,0:0:0:0:
192,352,34462,1,0,0:0:0:0:
224,32,34702,1,0,0:0:0:0:
352,256,35182,5,4,0:0:0:0:
117,95,35662,5,0,0:0:0:0:
441,115,35902,1,0,0:0:0:0:
143,336,36142,1,0,0:0:0:0:
289,60,36382,1,0,0:0:0:0:
302,361,36622,1,0,0:0:0:0:
71,166,36862,1,0,0:0:0:0:
419,207,37102,1,0,0:0:0:0:
211,48,37342,1,0,0:0:0:0:
183,317,37582,5,0,0:0:0:0:
336,68,37822,1,0,0:0:0:0:
93,226,38062,1,0,0:0:0:0:
380,265,38302,1,0,0:0:0:0:
148,90,38542,1,0,0:0:0:0:
345,150,39022,5,8,0:0:0:0:
160,352,39502,1,0,0:0:0:0:
352,64,39742,1,0,0:0:0:0:
192,352,39982,1,0,0:0:0:0:
160,32,40222,1,0,0:0:0:0:
352,320,40462,1,0,0:0:0:0:
216,180,40942,5,8,0:0:0:0:
384,64,41422,1,0,0:0:0:0:
288,352,41662,1,0,0:0:0:0:
160,64,41902,1,0,0:0:0:0:
448,224,42142,1,0,0:0:0:0:
96,224,42382,1,0,0:0:0:0:
231,138,42862,5,4,0:0:0:0:
343,85,43342,5,0,0:0:0:0:
322,292,43582,1,0,0:0:0:0:
258,51,43822,5,0,0:0:0:0:
367,362,44062,1,0,0:0:0:0:
188,167,44302,5,0,0:0:0:0:
441,190,44542,1,0,0:0:0:0:
239,326,44782,1,0,0:0:0:0:
388,71,45022,1,0,0:0:0:0:
42,151,45262,1,0,0:0:0:0:
512,248,45502,1,0,0:0:0:0:
23,309,45742,1,2,0:0:0:0:
501,72,45982,1,2,0:0:0:0:
26,86,46222,1,4,0:0:0:0:
228,147,46702,5,2,0:0:0:0:
