osu file format v14

[General]
AudioFilename: audio.mp3
AudioLeadIn: 0
PreviewTime: 502
Countdown: 0
SampleSet: Normal
StackLeniency: 0.7
Mode: 0
LetterboxInBreaks: 0
WidescreenStoryboard: 1

[Editor]
DistanceSpacing: 2.5
BeatDivisor: 4
GridSize: 32
TimelineZoom: 1

[Metadata]
Title:Ofuzake Mode
TitleUnicode:おふざけモード
Artist:Musashi Project & Toshiro Masuda
ArtistUnicode:六三四プロジェクト&増田俊郎
Creator:Wixdom
Version:Gotta Run!
Source:NARUTO-ナルト-
Tags:naruto OST 2
BeatmapID:2190594
BeatmapSetID:1048012

[Difficulty]
HPDrainRate:6.5
CircleSize:4.5
OverallDifficulty:8.2
ApproachRate:7.8
SliderMultiplier:1.6
SliderTickRate:1

[Events]
//Background and Video events
0,0,"bg.jpg",0,0
//Break Periods
//Storyboard Layer 0 (Background)
//Storyboard Layer 1 (Fail)
//Storyboard Layer 2 (Pass)
//Storyboard Layer 3 (Foreground)
//Storyboard Layer 4 (Overlay)
//Storyboard Sound Samples

[TimingPoints]
1102,480,4,1,1,40,1,0
33262,-100,4,1,2,40,0,0
33742,-100,4,1,1,40,0,0
39022,-100,4,1,2,40,0,0
41422,-100,4,1,1,40,0,0
46702,-100,4,1,2,40,0,0

[HitObjects]
135,93,1102,6,0,L|138:273,1,160,4|2,0:0|0:0,0:0:0:0:
304,241,1822,1,4,0:0:0:0:
209,94,2062,1,8,0:0:0:0:
209,94,2182,1,0,0:0:0:0:
209,94,2302,1,0,0:0:0:0:
378,71,2542,1,2,0:0:0:0:
411,228,2782,1,0,0:0:0:0:
239,171,3022,6,0,P|177:146|79:143,1,160,4|2,0:0|0:0,0:0:0:0:
99,341,3742,1,4,0:0:0:0:
84,142,3982,1,8,0:0:0:0:
84,142,4102,1,0,0:0:0:0:
84,142,4222,1,0,0:0:0:0:
229,308,4462,1,2,0:0:0:0:
175,133,4702,1,0,0:0:0:0:
150,335,4942,6,0,P|179:363|307:357,1,160,4|2,0:0|0:0,0:0:0:0:
301,164,5662,1,4,0:0:0:0:
292,366,5902,1,8,0:0:0:0:
292,366,6022,1,0,0:0:0:0:
292,366,6142,1,0,0:0:0:0:
408,212,6382,1,2,0:0:0:0:
201,296,6622,1,0,0:0:0:0:
475,298,6862,5,10,0:0:0:0:
251,171,7342,5,0,0:0:0:0:
251,171,7822,1,0,0:0:0:0:
442,98,8782,6,0,L|437:266,1,160,4|2,0:0|0:0,0:0:0:0:
202,211,9502,1,4,0:0:0:0:
437,257,9742,1,8,0:0:0:0:
437,257,9862,1,0,0:0:0:0:
437,257,9982,1,0,0:0:0:0:
282,155,10222,1,2,0:0:0:0:
327,360,10462,1,0,0:0:0:0:
282,155,10702,6,0,P|246:120|132:83,1,160,4|2,0:0|0:0,0:0:0:0:
80,279,11422,1,4,0:0:0:0:
151,91,11662,1,8,0:0:0:0:
151,91,11782,1,0,0:0:0:0:
151,91,11902,1,0,0:0:0:0:
189,280,12142,1,2,0:0:0:0:
170,57,12382,1,0,0:0:0:0:
174,308,12622,6,0,P|243:355|331:366,1,160,4|2,0:0|0:0,0:0:0:0:
160,184,13342,1,4,0:0:0:0:
368,192,13582,1,8,0:0:0:0:
368,192,13702,1,0,0:0:0:0:
368,192,13822,1,0,0:0:0:0:
160,184,14062,1,2,0:0:0:0:
244,84,14302,1,0,0:0:0:0:
261,341,14542,5,10,0:0:0:0:
372,187,15022,5,0,0:0:0:0:
372,187,15502,1,0,0:0:0:0:
160,80,16462,6,0,P|209:80|240:93,1,80,4|0,0:0|0:0,0:0:0:0:
256,126,16822,1,0,0:0:0:0:
256,126,16942,1,2,0:0:0:0:
322,338,17182,1,4,0:0:0:0:
322,76,17422,5,8,0:0:0:0:
322,76,17542,1,0,0:0:0:0:
322,76,17662,1,0,0:0:0:0:
397,208,17902,1,2,0:0:0:0:
170,67,18142,1,0,0:0:0:0:
276,297,18382,6,0,P|321:352|358:370,1,80,4|0,0:0|0:0,0:0:0:0:
366,350,18742,1,0,0:0:0:0:
366,350,18862,1,2,0:0:0:0:
280,101,19102,1,4,0:0:0:0:
149,280,19342,1,8,0:0:0:0:
149,280,19462,1,0,0:0:0:0:
149,280,19582,1,0,0:0:0:0:
357,163,19822,1,2,0:0:0:0:
221,298,20062,1,0,0:0:0:0:
206,97,20302,6,0,P|260:79|309:83,1,80,4|0,0:0|0:0,0:0:0:0:
314,102,20662,1,0,0:0:0:0:
314,102,20782,1,2,0:0:0:0:
333,333,21022,1,4,0:0:0:0:
426,189,21262,1,8,0:0:0:0:
426,189,21382,1,0,0:0:0:0:
426,189,21502,1,0,0:0:0:0:
196,192,21742,1,2,0:0:0:0:
390,94,21982,1,0,0:0:0:0:
390,312,22222,5,10,0:0:0:0:
251,192,22702,5,0,0:0:0:0:
251,192,23182,1,0,0:0:0:0:
100,92,24142,5,4,0:0:0:0:
68,284,24382,1,0,0:0:0:0:
68,284,24502,1,0,0:0:0:0:
68,284,24622,1,2,0:0:0:0:
192,76,24862,1,4,0:0:0:0:
188,235,25102,5,8,0:0:0:0:
188,235,25222,1,0,0:0:0:0:
188,235,25342,1,0,0:0:0:0:
76,106,25582,1,2,0:0:0:0:
251,109,25822,1,0,0:0:0:0:
247,301,26062,6,0,P|284:339|324:358,1,80,4|0,0:0|0:0,0:0:0:0:
345,344,26422,1,0,0:0:0:0:
345,344,26542,1,2,0:0:0:0:
377,185,26782,1,4,0:0:0:0:
425,294,27022,5,8,0:0:0:0:
425,294,27142,1,0,0:0:0:0:
425,294,27262,1,0,0:0:0:0:
374,128,27502,1,2,0:0:0:0:
257,234,27742,1,0,0:0:0:0:
482,121,27982,6,0,P|472:70|454:40,1,80,4|0,0:0|0:0,0:0:0:0:
419,34,28342,1,0,0:0:0:0:
419,34,28462,1,2,0:0:0:0:
316,156,28702,1,4,0:0:0:0:
414,282,28942,5,8,0:0:0:0:
414,282,29062,1,0,0:0:0:0:
414,282,29182,1,0,0:0:0:0:
405,85,29422,1,2,0:0:0:0:
339,325,29662,1,0,0:0:0:0:
291,122,29902,5,10,0:0:0:0:
203,237,30382,5,0,0:0:0:0:
203,236,30862,1,0,0:0:0:0:
332,77,31822,6,0,L|327:171,1,80
339,320,32302,1,0,0:0:0:0:
167,157,32542,1,0,0:0:0:0:
416,169,32782,1,0,0:0:0:0:
416,169,33262,5,2,0:0:0:0:
130,304,33742,6,0,L|138:217,1,80
218,72,34222,1,0,0:0:0:0:
236,322,34462,1,0,0:0:0:0:
106,123,34702,1,0,0:0:0:0:
106,123,35182,5,2,0:0:0:0:
352,225,35662,6,0,L|344:307,1,80
440,88,36142,2,0,L|447:171,1,80
448,320,36622,1,0,0:0:0:0:
320,96,36862,1,0,0:0:0:0:
321,295,37102,2,0,L|314:374,1,80
183,228,37582,5,0,0:0:0:0:
382,149,37822,1,0,0:0:0:0:
91,147,38062,1,0,0:0:0:0:
157,336,38302,1,0,0:0:0:0:
148,94,38542,1,0,0:0:0:0:
148,94,39022,5,8,0:0:0:0:
266,268,39502,6,0,L|257:184,1,80
263,53,39982,1,0,0:0:0:0:
345,256,40222,1,0,0:0:0:0:
104,223,40462,1,0,0:0:0:0:
104,223,40942,5,2,0:0:0:0:
356,127,41422,6,0,L|353:216,1,80
256,320,41902,1,0,0:0:0:0:
262,144,42142,1,0,0:0:0:0:
352,320,42382,1,0,0:0:0:0:
352,320,42862,5,4,0:0:0:0:
175,111,43342,5,0,0:0:0:0:
295,352,43582,1,0,0:0:0:0:
295,111,43822,5,0,0:0:0:0:
175,352,44062,1,0,0:0:0:0:
379,154,44302,1,0,0:0:0:0:
131,202,44542,1,0,0:0:0:0:
295,352,44782,1,0,0:0:0:0:
281,114,45022,1,0,0:0:0:0:
144,293,45262,5,0,0:0:0:0:
409,195,45502,1,0,0:0:0:0:
103,100,45742,1,2,0:0:0:0:
321,336,45982,1,2,0:0:0:0:
333,5,46222,1,8,0:0:0:0:
335,12,46702,5,2,0:0:0:0:
