osu file format v14

[General]
AudioFilename: audio.mp3
AudioLeadIn: 0
PreviewTime: 502
Countdown: 0
SampleSet: Normal
StackLeniency: 0.7
Mode: 0
LetterboxInBreaks: 0
WidescreenStoryboard: 1

[Editor]
DistanceSpacing: 1.5
BeatDivisor: 4
GridSize: 16
TimelineZoom: 1

[Metadata]
Title:Ofuzake Mode
TitleUnicode:おふざけモード
Artist:Musashi Project & Toshiro Masuda
ArtistUnicode:六三四プロジェクト&増田俊郎
Creator:Wixdom
Version:Fooled!
Source:NARUTO-ナルト-
Tags:naruto OST 2 wixdom dt double time
BeatmapID:2190593
BeatmapSetID:1048012

[Difficulty]
HPDrainRate:6.4
CircleSize:4.6
OverallDifficulty:9
ApproachRate:7.6
SliderMultiplier:1.6
SliderTickRate:1

[Events]
//Background and Video events
0,0,"bg.jpg",0,0
//Break Periods
//Storyboard Layer 0 (Background)
//Storyboard Layer 1 (Fail)
//Storyboard Layer 2 (Pass)
//Storyboard Layer 3 (Foreground)
//Storyboard Layer 4 (Overlay)
//Storyboard Sound Samples

[TimingPoints]
1102,480,4,1,1,60,1,0
33262,-100,4,1,2,60,0,0
33742,-100,4,1,1,60,0,0
39022,-100,4,1,2,60,0,0
41422,-100,4,1,1,60,0,0
46702,-100,4,1,2,60,0,0

[HitObjects]
257,229,622,6,0,L|272:257,4,20
355,297,1102,6,0,B|370:224|328:185|352:117,1,160,4|2,0:0|0:0,0:0:0:0:
405,33,1822,1,4,0:0:0:0:
451,143,2062,1,8,0:0:0:0:
451,143,2182,1,0,0:0:0:0:
451,143,2302,1,0,0:0:0:0:
340,190,2542,1,2,0:0:0:0:
299,77,2782,1,0,0:0:0:0:
299,77,3022,6,0,B|288:126|245:138|245:138|256:181|219:216,1,160,4|2,0:0|0:0,0:0:0:0:
109,173,3742,1,4,0:0:0:0:
54,279,3982,1,8,0:0:0:0:
54,279,4102,1,0,0:0:0:0:
54,279,4222,1,0,0:0:0:0:
173,273,4462,1,2,0:0:0:0:
231,168,4702,1,0,0:0:0:0:
231,168,4942,6,0,B|306:237|306:237|271:228|238:236,1,160,4|2,0:0|0:0,0:0:0:0:
167,322,5662,1,4,0:0:0:0:
285,304,5902,1,8,0:0:0:0:
285,304,6022,1,0,0:0:0:0:
285,304,6142,1,0,0:0:0:0:
394,353,6382,1,2,0:0:0:0:
437,241,6622,1,0,0:0:0:0:
328,189,6862,5,10,0:0:0:0:
328,189,7342,5,0,0:0:0:0:
331,190,7822,1,0,0:0:0:0:
228,108,8782,6,0,B|230:160|230:160|210:197|210:197|218:237|218:270,1,160,4|2,0:0|0:0,0:0:0:0:
144,357,9502,1,4,0:0:0:0:
87,251,9742,1,8,0:0:0:0:
87,251,9862,1,0,0:0:0:0:
87,251,9982,1,0,0:0:0:0:
159,155,10222,1,2,0:0:0:0:
61,85,10462,1,0,0:0:0:0:
61,85,10702,6,0,B|130:125|186:70|251:123,1,160,4|2,0:0|0:0,0:0:0:0:
212,223,11422,1,4,0:0:0:0:
331,216,11662,1,8,0:0:0:0:
331,216,11782,1,0,0:0:0:0:
331,216,11902,1,0,0:0:0:0:
331,336,12142,1,2,0:0:0:0:
323,216,12382,1,0,0:0:0:0:
270,108,12622,6,0,B|198:65|198:65|110:60,1,160,4|2,0:0|0:0,0:0:0:0:
44,152,13342,1,4,0:0:0:0:
158,188,13582,1,8,0:0:0:0:
158,188,13702,1,0,0:0:0:0:
158,188,13822,1,0,0:0:0:0:
53,247,14062,1,2,0:0:0:0:
56,366,14302,1,0,0:0:0:0:
142,283,14542,5,10,0:0:0:0:
142,283,15022,5,0,0:0:0:0:
142,283,15502,1,0,0:0:0:0:
137,127,16462,6,0,B|168:87|212:95|212:95|221:52|269:37,1,160,4|2,0:0|0:0,0:0:0:0:
377,56,17182,1,4,0:0:0:0:
335,168,17422,1,8,0:0:0:0:
335,168,17542,1,0,0:0:0:0:
335,168,17662,1,0,0:0:0:0:
475,255,17902,1,2,0:0:0:0:
320,279,18142,1,0,0:0:0:0:
320,279,18382,6,0,P|220:306|160:274,1,160,4|2,0:0|0:0,0:0:0:0:
109,182,19102,1,4,0:0:0:0:
126,357,19342,1,8,0:0:0:0:
126,357,19462,1,0,0:0:0:0:
126,357,19582,1,0,0:0:0:0:
27,289,19822,1,2,0:0:0:0:
31,169,20062,1,0,0:0:0:0:
31,169,20302,6,0,B|72:107|119:135|159:68,1,160,4|2,0:0|0:0,0:0:0:0:
56,4,21022,1,4,0:0:0:0:
235,16,21262,1,8,0:0:0:0:
235,16,21382,1,0,0:0:0:0:
235,16,21502,1,0,0:0:0:0:
230,135,21742,1,2,0:0:0:0:
347,110,21982,1,0,0:0:0:0:
321,227,22222,5,10,0:0:0:0:
321,227,22702,5,0,0:0:0:0:
321,227,23182,1,0,0:0:0:0:
456,55,24142,2,0,L|465:219,1,160,4|2,0:0|0:0,0:0:0:0:
425,328,24862,1,4,0:0:0:0:
334,248,25102,1,8,0:0:0:0:
334,248,25222,1,0,0:0:0:0:
334,248,25342,1,0,0:0:0:0:
321,356,25582,1,2,0:0:0:0:
227,195,25822,1,0,0:0:0:0:
227,195,26062,6,0,B|283:110|283:110|280:146|293:177,1,160,4|2,0:0|0:0,0:0:0:0:
330,290,26782,1,4,0:0:0:0:
357,134,27022,1,8,0:0:0:0:
357,134,27142,1,0,0:0:0:0:
357,134,27262,1,0,0:0:0:0:
469,175,27502,1,2,0:0:0:0:
359,224,27742,1,0,0:0:0:0:
287,127,27982,6,0,P|245:100|123:115,1,160,4|2,0:0|0:0,0:0:0:0:
232,180,28702,1,4,0:0:0:0:
235,320,28942,1,8,0:0:0:0:
235,320,29062,1,0,0:0:0:0:
235,320,29182,1,0,0:0:0:0:
348,279,29422,1,2,0:0:0:0:
166,269,29662,1,0,0:0:0:0:
381,365,29902,5,10,0:0:0:0:
381,365,30382,5,0,0:0:0:0:
381,365,30862,1,0,0:0:0:0:
324,197,31822,5,0,0:0:0:0:
292,81,32062,1,0,0:0:0:0:
174,107,32302,1,0,0:0:0:0:
239,207,32542,1,0,0:0:0:0:
119,194,32782,1,0,0:0:0:0:
119,194,33262,5,2,0:0:0:0:
327,283,33742,5,0,0:0:0:0:
361,168,33982,1,0,0:0:0:0:
469,218,34222,1,0,0:0:0:0:
403,318,34462,1,0,0:0:0:0:
433,133,34702,1,0,0:0:0:0:
433,133,35182,5,4,0:0:0:0:
356,157,35662,5,0,0:0:0:0:
358,37,35902,1,0,0:0:0:0:
356,157,36142,5,0,0:0:0:0:
358,37,36382,1,0,0:0:0:0:
356,157,36622,2,0,L|358:247,1,80
424,336,37102,1,0,0:0:0:0:
496,240,37342,1,0,0:0:0:0:
435,136,37582,5,0,0:0:0:0:
393,248,37822,1,0,0:0:0:0:
330,145,38062,1,0,0:0:0:0:
324,308,38302,1,0,0:0:0:0:
232,146,38542,1,0,0:0:0:0:
232,146,39022,5,8,0:0:0:0:
141,280,39502,5,0,0:0:0:0:
65,123,39742,1,0,0:0:0:0:
44,298,39982,1,0,0:0:0:0:
151,125,40222,1,0,0:0:0:0:
181,300,40462,1,0,0:0:0:0:
181,300,40942,5,2,0:0:0:0:
242,158,41422,5,0,0:0:0:0:
349,278,41662,1,0,0:0:0:0:
335,106,41902,1,0,0:0:0:0:
245,265,42142,1,0,0:0:0:0:
431,183,42382,1,0,0:0:0:0:
431,183,42862,5,8,0:0:0:0:
280,108,43342,5,0,0:0:0:0:
384,272,43582,1,0,0:0:0:0:
379,116,43822,1,0,0:0:0:0:
288,288,44062,1,0,0:0:0:0:
272,112,44302,1,0,0:0:0:0:
406,237,44542,1,0,0:0:0:0:
180,201,44782,1,0,0:0:0:0:
309,306,45022,1,0,0:0:0:0:
279,107,45262,5,0,0:0:0:0:
279,107,45502,1,0,0:0:0:0:
393,144,45742,1,2,0:0:0:0:
393,263,45982,1,2,0:0:0:0:
351,65,46222,5,8,0:0:0:0:
351,65,46702,5,2,0:0:0:0:
