osu file format v14

[General]
AudioFilename: audio.mp3
AudioLeadIn: 0
PreviewTime: 142489
Countdown: 0
SampleSet: Normal
StackLeniency: 0.7
Mode: 1
LetterboxInBreaks: 0
WidescreenStoryboard: 0

[Editor]
Bookmarks: 435,8218,16002,19894,27678,35462,43245,51029,66272,66597,84110,91894,99678,107462,115245,123029,130813,138597,142489,150272,160002,175245,175570,193083,200867,208326
DistanceSpacing: 1.2
BeatDivisor: 4
GridSize: 32
TimelineZoom: 1.7

[Metadata]
Title:hypnoSpirA
TitleUnicode:hypnoSpirA
Artist:MuryokuP
ArtistUnicode:無力P
Creator:eiri-
Version:Muzukashii
Source:osu!
Tags:Ayyri Featured Artist FA Powerless Sounds Japanese Rock jrock j-rock Vocaloid 巡音ルカ Megurine Luka Eschatology
BeatmapID:2871404
BeatmapSetID:1371448

[Difficulty]
HPDrainRate:6
CircleSize:2
OverallDifficulty:5
ApproachRate:10
SliderMultiplier:1.4
SliderTickRate:1

[Events]
//Background and Video events
0,0,"Luka 476.jpg",0,85
//Break Periods
//Storyboard Layer 0 (Background)
//Storyboard Layer 1 (Fail)
//Storyboard Layer 2 (Pass)
//Storyboard Layer 3 (Foreground)
//Storyboard Layer 4 (Overlay)
//Storyboard Sound Samples

[TimingPoints]
435,324.324324324325,3,1,0,100,1,0
17907,-100,3,1,0,80,0,0
19205,-100,3,1,0,90,0,0
19853,-100,3,1,0,75,0,0
35421,-100,3,1,0,75,0,0
37367,-100,3,1,0,50,0,0
47097,-100,3,1,0,55,0,0
48070,-100,3,1,0,60,0,0
49043,-100,3,1,0,75,0,0
50016,-100,3,1,0,80,0,0
50664,-100,3,1,0,90,0,0
51029,-100,3,1,0,100,0,1
66272,-100,3,1,0,100,0,0
66597,-100,3,1,0,100,0,1
84110,-100,3,1,0,100,0,0
85043,-100,3,1,0,80,0,0
87962,-100,3,1,0,100,0,0
88935,-100,3,1,0,80,0,0
91853,-100,3,1,0,100,0,0
92826,-100,3,1,0,80,0,0
95745,-100,3,1,0,100,0,0
96718,-100,3,1,0,80,0,0
98664,-100,3,1,0,85,0,0
99637,-100,3,1,0,90,0,0
107421,-100,3,1,0,100,0,0
115205,-100,3,1,0,75,0,0
126880,-100,3,1,0,90,0,0
134664,-100,3,1,0,95,0,0
138556,-100,3,1,0,100,0,0
142448,-100,3,1,0,75,0,0
144394,-100,3,1,0,50,0,0
156070,-100,3,1,0,55,0,0
158016,-100,3,1,0,60,0,0
159637,-100,3,1,0,75,0,0
160002,-100,3,1,0,100,0,1
175245,-100,3,1,0,100,0,0
175570,-100,3,1,0,100,0,1
193083,-100,3,1,0,95,0,0
200826,-100,3,1,0,100,0,0
208286,-100,3,1,0,75,0,0

[HitObjects]
256,192,435,5,12,0:0:0:0:
256,192,597,1,0,0:0:0:0:
256,192,921,1,0,0:0:0:0:
256,192,1083,1,8,0:0:0:0:
256,192,1245,1,0,0:0:0:0:
256,192,1407,1,0,0:0:0:0:
256,192,1732,1,8,0:0:0:0:
256,192,1894,1,0,0:0:0:0:
256,192,2056,1,8,0:0:0:0:
256,192,2380,1,12,0:0:0:0:
256,192,2543,1,0,0:0:0:0:
256,192,2867,1,0,0:0:0:0:
256,192,3029,1,8,0:0:0:0:
256,192,3191,1,0,0:0:0:0:
256,192,3353,1,0,0:0:0:0:
256,192,3678,1,8,0:0:0:0:
256,192,4326,1,12,0:0:0:0:
256,192,4489,1,0,0:0:0:0:
256,192,4813,1,0,0:0:0:0:
256,192,4975,1,8,0:0:0:0:
256,192,5137,1,0,0:0:0:0:
256,192,5299,1,0,0:0:0:0:
256,192,5624,1,8,0:0:0:0:
256,192,5786,1,0,0:0:0:0:
256,192,5948,1,8,0:0:0:0:
256,192,6110,1,0,0:0:0:0:
256,192,6272,1,0,0:0:0:0:
256,192,6353,1,0,0:0:0:0:
256,192,6435,1,0,0:0:0:0:
256,192,6597,1,0,0:0:0:0:
256,192,6921,1,8,0:0:0:0:
256,192,7245,1,0,0:0:0:0:
256,192,7326,1,0,0:0:0:0:
256,192,7407,1,0,0:0:0:0:
256,192,7570,1,8,0:0:0:0:
256,192,8218,1,12,0:0:0:0:
256,192,8380,1,0,0:0:0:0:
256,192,8704,1,0,0:0:0:0:
256,192,8866,1,8,0:0:0:0:
256,192,9028,1,0,0:0:0:0:
256,192,9190,1,0,0:0:0:0:
256,192,9515,1,8,0:0:0:0:
256,192,9677,1,0,0:0:0:0:
256,192,9839,1,8,0:0:0:0:
256,192,10163,1,12,0:0:0:0:
256,192,10326,1,0,0:0:0:0:
256,192,10650,1,0,0:0:0:0:
256,192,10812,1,8,0:0:0:0:
256,192,10974,1,0,0:0:0:0:
256,192,11136,1,0,0:0:0:0:
256,192,11461,1,8,0:0:0:0:
256,192,12109,1,12,0:0:0:0:
256,192,12272,1,0,0:0:0:0:
256,192,12596,1,0,0:0:0:0:
256,192,12758,1,8,0:0:0:0:
256,192,12920,1,0,0:0:0:0:
256,192,13082,1,0,0:0:0:0:
256,192,13407,1,8,0:0:0:0:
256,192,13569,1,0,0:0:0:0:
256,192,13731,1,8,0:0:0:0:
256,192,13893,1,0,0:0:0:0:
256,192,14055,1,0,0:0:0:0:
256,192,14136,1,0,0:0:0:0:
256,192,14218,1,0,0:0:0:0:
256,192,14380,1,0,0:0:0:0:
256,192,14704,1,8,0:0:0:0:
256,192,15029,1,0,0:0:0:0:
256,192,15110,1,0,0:0:0:0:
256,192,15191,1,0,0:0:0:0:
256,192,15353,1,8,0:0:0:0:
256,192,15516,1,0,0:0:0:0:
256,192,15678,1,8,0:0:0:0:
256,192,15759,1,8,0:0:0:0:
256,192,15840,1,8,0:0:0:0:
256,192,16002,1,12,0:0:0:0:
256,192,17948,1,4,0:0:0:0:
256,192,18921,1,0,0:0:0:0:
256,192,19083,1,0,0:0:0:0:
256,192,19245,1,8,0:0:0:0:
256,192,19407,1,0,0:0:0:0:
256,192,19570,1,8,0:0:0:0:
256,192,19894,1,12,0:0:0:0:
256,192,20056,1,0,0:0:0:0:
256,192,20380,1,0,0:0:0:0:
256,192,20705,1,0,0:0:0:0:
256,192,20867,1,8,0:0:0:0:
256,192,21029,1,0,0:0:0:0:
256,192,21353,1,0,0:0:0:0:
256,192,21516,1,8,0:0:0:0:
256,192,21840,1,0,0:0:0:0:
256,192,22002,1,0,0:0:0:0:
256,192,22326,1,0,0:0:0:0:
256,192,22651,1,0,0:0:0:0:
256,192,22813,1,8,0:0:0:0:
256,192,23137,1,8,0:0:0:0:
256,192,23462,1,8,0:0:0:0:
256,192,23624,1,0,0:0:0:0:
256,192,23786,1,12,0:0:0:0:
256,192,24272,1,0,0:0:0:0:
256,192,24597,1,0,0:0:0:0:
256,192,24759,1,8,0:0:0:0:
256,192,24921,1,0,0:0:0:0:
256,192,25245,1,0,0:0:0:0:
256,192,25407,1,8,0:0:0:0:
256,192,25732,1,0,0:0:0:0:
256,192,25894,1,0,0:0:0:0:
256,192,26218,1,0,0:0:0:0:
256,192,26543,1,0,0:0:0:0:
256,192,26705,1,8,0:0:0:0:
256,192,27029,1,8,0:0:0:0:
256,192,27191,1,0,0:0:0:0:
256,192,27353,1,8,0:0:0:0:
256,192,27678,1,12,0:0:0:0:
256,192,27840,1,0,0:0:0:0:
256,192,28164,1,0,0:0:0:0:
256,192,28489,1,0,0:0:0:0:
256,192,28651,1,8,0:0:0:0:
256,192,28813,1,0,0:0:0:0:
256,192,29137,1,0,0:0:0:0:
256,192,29300,1,8,0:0:0:0:
256,192,29624,1,0,0:0:0:0:
256,192,29786,1,0,0:0:0:0:
256,192,30110,1,0,0:0:0:0:
256,192,30435,1,0,0:0:0:0:
256,192,30597,1,8,0:0:0:0:
256,192,30921,1,8,0:0:0:0:
256,192,31246,1,8,0:0:0:0:
256,192,31408,1,0,0:0:0:0:
256,192,31570,1,12,0:0:0:0:
256,192,32056,1,0,0:0:0:0:
256,192,32381,1,0,0:0:0:0:
256,192,32543,1,8,0:0:0:0:
256,192,32705,1,0,0:0:0:0:
256,192,33029,1,0,0:0:0:0:
256,192,33191,1,8,0:0:0:0:
256,192,33516,1,0,0:0:0:0:
256,192,33678,1,0,0:0:0:0:
256,192,34002,1,0,0:0:0:0:
256,192,34327,1,0,0:0:0:0:
256,192,34489,1,8,0:0:0:0:
256,192,34813,1,8,0:0:0:0:
256,192,34975,1,0,0:0:0:0:
256,192,35137,1,8,0:0:0:0:
256,192,35462,1,4,0:0:0:0:
256,192,37407,1,8,0:0:0:0:
256,192,39353,1,0,0:0:0:0:
256,192,41299,1,8,0:0:0:0:
256,192,42272,1,0,0:0:0:0:
256,192,43245,1,8,0:0:0:0:
256,192,45191,1,0,0:0:0:0:
256,192,47137,1,8,0:0:0:0:
256,192,48110,1,0,0:0:0:0:
256,192,49083,1,12,0:0:0:0:
256,192,49245,1,0,0:0:0:0:
256,192,49570,1,8,0:0:0:0:
256,192,49894,1,8,0:0:0:0:
256,192,50056,1,0,0:0:0:0:
256,192,50218,1,0,0:0:0:0:
256,192,50380,1,8,0:0:0:0:
256,192,50462,1,8,0:0:0:0:
256,192,50543,1,8,0:0:0:0:
256,192,50705,1,12,0:0:0:0:
256,192,51029,1,12,0:0:0:0:
256,192,51191,1,0,0:0:0:0:
256,192,51516,1,0,0:0:0:0:
256,192,51840,1,0,0:0:0:0:
256,192,52002,1,8,0:0:0:0:
256,192,52164,1,0,0:0:0:0:
256,192,52326,1,8,0:0:0:0:
256,192,52651,1,8,0:0:0:0:
256,192,52975,1,12,0:0:0:0:
256,192,53462,1,0,0:0:0:0:
256,192,53786,1,0,0:0:0:0:
256,192,53948,1,0,0:0:0:0:
256,192,54029,1,0,0:0:0:0:
256,192,54110,1,0,0:0:0:0:
256,192,54272,1,8,0:0:0:0:
256,192,54597,1,8,0:0:0:0:
256,192,54759,1,0,0:0:0:0:
256,192,54921,1,12,0:0:0:0:
256,192,55083,1,0,0:0:0:0:
256,192,55407,1,0,0:0:0:0:
256,192,55570,1,8,0:0:0:0:
256,192,55732,1,0,0:0:0:0:
256,192,55894,1,0,0:0:0:0:
256,192,56218,1,0,0:0:0:0:
256,192,56299,1,0,0:0:0:0:
256,192,56380,1,0,0:0:0:0:
256,192,56543,1,8,0:0:0:0:
256,192,56705,1,0,0:0:0:0:
256,192,56867,1,12,0:0:0:0:
256,192,57191,1,8,0:0:0:0:
256,192,57353,1,0,0:0:0:0:
256,192,57516,1,8,0:0:0:0:
256,192,57840,1,0,0:0:0:0:
256,192,58002,1,0,0:0:0:0:
256,192,58164,1,8,0:0:0:0:
256,192,58489,1,8,0:0:0:0:
256,192,58651,1,0,0:0:0:0:
256,192,58813,1,12,0:0:0:0:
256,192,59299,1,0,0:0:0:0:
256,192,59624,1,8,0:0:0:0:
256,192,59786,1,0,0:0:0:0:
256,192,59948,1,0,0:0:0:0:
256,192,60110,1,8,0:0:0:0:
256,192,60435,1,8,0:0:0:0:
256,192,60597,1,0,0:0:0:0:
256,192,60759,1,12,0:0:0:0:
256,192,60921,1,0,0:0:0:0:
256,192,61245,1,0,0:0:0:0:
256,192,61570,1,0,0:0:0:0:
256,192,61732,1,8,0:0:0:0:
256,192,62056,1,8,0:0:0:0:
256,192,62380,1,8,0:0:0:0:
256,192,62462,1,8,0:0:0:0:
256,192,62543,1,8,0:0:0:0:
256,192,62705,1,12,0:0:0:0:
256,192,63191,1,0,0:0:0:0:
256,192,63516,1,8,0:0:0:0:
256,192,63678,1,0,0:0:0:0:
256,192,64002,1,8,0:0:0:0:
256,192,64164,1,0,0:0:0:0:
256,192,64326,1,8,0:0:0:0:
256,192,64651,1,0,0:0:0:0:
256,192,64732,1,0,0:0:0:0:
256,192,64813,1,0,0:0:0:0:
256,192,64975,1,0,0:0:0:0:
256,192,65299,1,12,0:0:0:0:
256,192,65624,1,0,0:0:0:0:
256,192,65705,1,0,0:0:0:0:
256,192,65786,1,0,0:0:0:0:
256,192,65948,1,8,0:0:0:0:
256,192,66110,1,0,0:0:0:0:
256,192,66272,1,8,0:0:0:0:
256,192,66353,1,8,0:0:0:0:
256,192,66435,1,8,0:0:0:0:
256,192,66597,1,12,0:0:0:0:
256,192,66921,1,8,0:0:0:0:
256,192,67083,1,0,0:0:0:0:
256,192,67164,1,0,0:0:0:0:
256,192,67245,1,0,0:0:0:0:
256,192,67407,1,0,0:0:0:0:
256,192,67570,1,8,0:0:0:0:
256,192,67894,1,8,0:0:0:0:
256,192,68218,1,8,0:0:0:0:
256,192,68380,1,0,0:0:0:0:
256,192,68543,1,12,0:0:0:0:
256,192,69029,1,0,0:0:0:0:
256,192,69353,1,0,0:0:0:0:
256,192,69516,1,8,0:0:0:0:
256,192,69840,1,8,0:0:0:0:
256,192,70002,1,0,0:0:0:0:
256,192,70164,1,8,0:0:0:0:
256,192,70245,1,8,0:0:0:0:
256,192,70326,1,8,0:0:0:0:
256,192,70489,1,12,0:0:0:0:
256,192,70813,1,8,0:0:0:0:
256,192,70975,1,0,0:0:0:0:
256,192,71137,1,8,0:0:0:0:
256,192,71299,1,8,0:0:0:0:
256,192,71462,1,8,0:0:0:0:
256,192,71786,1,0,0:0:0:0:
256,192,71867,1,0,0:0:0:0:
256,192,71948,1,0,0:0:0:0:
256,192,72110,1,8,0:0:0:0:
256,192,72272,1,0,0:0:0:0:
256,192,72435,1,12,0:0:0:0:
256,192,72759,1,8,0:0:0:0:
256,192,73083,1,8,0:0:0:0:
256,192,73245,1,8,0:0:0:0:
256,192,73407,1,4,0:0:0:0:
256,192,73732,1,8,0:0:0:0:
256,192,74056,1,8,0:0:0:0:
256,192,74218,1,8,0:0:0:0:
256,192,74380,1,12,0:0:0:0:
256,192,74705,1,8,0:0:0:0:
256,192,74867,1,0,0:0:0:0:
256,192,74948,1,0,0:0:0:0:
256,192,75029,1,0,0:0:0:0:
256,192,75191,1,0,0:0:0:0:
256,192,75353,1,8,0:0:0:0:
256,192,75678,1,8,0:0:0:0:
256,192,76002,1,8,0:0:0:0:
256,192,76164,1,0,0:0:0:0:
256,192,76326,1,12,0:0:0:0:
256,192,76813,1,0,0:0:0:0:
256,192,77137,1,0,0:0:0:0:
256,192,77299,1,8,0:0:0:0:
256,192,77624,1,8,0:0:0:0:
256,192,77948,1,8,0:0:0:0:
256,192,78110,1,0,0:0:0:0:
256,192,78272,1,12,0:0:0:0:
256,192,78435,1,0,0:0:0:0:
256,192,78759,1,0,0:0:0:0:
256,192,79083,1,8,0:0:0:0:
256,192,79245,1,0,0:0:0:0:
256,192,79570,1,0,0:0:0:0:
256,192,79894,1,8,0:0:0:0:
256,192,80056,1,0,0:0:0:0:
256,192,80218,1,12,0:0:0:0:
256,192,80705,1,12,0:0:0:0:
256,192,81029,1,0,0:0:0:0:
256,192,81191,1,12,0:0:0:0:
256,192,81516,1,12,0:0:0:0:
256,192,81840,1,0,0:0:0:0:
256,192,82002,1,8,0:0:0:0:
256,192,82164,1,4,0:0:0:0:
256,192,82489,1,0,0:0:0:0:
256,192,82813,1,12,0:0:0:0:
256,192,83137,1,8,0:0:0:0:
256,192,83299,1,0,0:0:0:0:
256,192,83462,1,8,0:0:0:0:
256,192,83786,1,8,0:0:0:0:
256,192,83867,1,8,0:0:0:0:
256,192,83948,1,8,0:0:0:0:
256,192,84110,1,4,0:0:0:0:
256,192,85083,1,8,0:0:0:0:
256,192,86056,1,8,0:0:0:0:
256,192,87029,1,8,0:0:0:0:
256,192,88002,1,4,0:0:0:0:
256,192,88975,1,8,0:0:0:0:
256,192,89948,1,8,0:0:0:0:
256,192,90921,1,8,0:0:0:0:
256,192,91894,1,4,0:0:0:0:
256,192,92867,1,8,0:0:0:0:
256,192,93840,1,0,0:0:0:0:
256,192,94813,1,8,0:0:0:0:
256,192,95786,1,4,0:0:0:0:
256,192,96759,1,8,0:0:0:0:
256,192,97732,1,8,0:0:0:0:
256,192,98705,1,0,0:0:0:0:
256,192,98786,1,0,0:0:0:0:
256,192,98867,1,0,0:0:0:0:
256,192,99029,1,8,0:0:0:0:
256,192,99110,1,8,0:0:0:0:
256,192,99191,1,8,0:0:0:0:
256,192,99353,1,0,0:0:0:0:
256,192,99678,1,0,0:0:0:0:
256,192,99759,1,0,0:0:0:0:
256,192,99840,1,0,0:0:0:0:
256,192,100002,1,0,0:0:0:0:
256,192,100326,1,8,0:0:0:0:
256,192,100651,1,0,0:0:0:0:
256,192,100732,1,0,0:0:0:0:
256,192,100813,1,0,0:0:0:0:
256,192,100975,1,0,0:0:0:0:
256,192,101299,1,8,0:0:0:0:
256,192,101462,1,8,0:0:0:0:
256,192,101624,1,0,0:0:0:0:
256,192,101705,1,0,0:0:0:0:
256,192,101786,1,0,0:0:0:0:
256,192,101948,1,0,0:0:0:0:
256,192,102272,1,8,0:0:0:0:
256,192,102597,1,0,0:0:0:0:
256,192,102678,1,0,0:0:0:0:
256,192,102759,1,0,0:0:0:0:
256,192,102921,1,8,0:0:0:0:
256,192,103083,1,0,0:0:0:0:
256,192,103245,1,8,0:0:0:0:
256,192,103570,1,0,0:0:0:0:
256,192,103651,1,0,0:0:0:0:
256,192,103732,1,0,0:0:0:0:
256,192,103894,1,0,0:0:0:0:
256,192,104218,1,8,0:0:0:0:
256,192,104543,1,0,0:0:0:0:
256,192,104624,1,0,0:0:0:0:
256,192,104705,1,0,0:0:0:0:
256,192,104867,1,0,0:0:0:0:
256,192,105191,1,8,0:0:0:0:
256,192,105353,1,8,0:0:0:0:
256,192,105516,1,0,0:0:0:0:
256,192,105597,1,0,0:0:0:0:
256,192,105678,1,0,0:0:0:0:
256,192,105840,1,0,0:0:0:0:
256,192,106164,1,8,0:0:0:0:
256,192,106326,1,8,0:0:0:0:
256,192,106489,1,0,0:0:0:0:
256,192,106975,1,0,0:0:0:0:
256,192,107137,1,8,0:0:0:0:
256,192,107218,1,8,0:0:0:0:
256,192,107299,1,8,0:0:0:0:
256,192,107462,1,4,0:0:0:0:
256,192,107786,1,0,0:0:0:0:
256,192,108110,1,0,0:0:0:0:
256,192,108272,1,0,0:0:0:0:
256,192,108435,1,12,0:0:0:0:
256,192,108759,1,0,0:0:0:0:
256,192,109083,1,8,0:0:0:0:
256,192,109245,1,8,0:0:0:0:
256,192,109407,1,4,0:0:0:0:
256,192,109732,1,0,0:0:0:0:
256,192,109894,1,8,0:0:0:0:
256,192,110218,1,0,0:0:0:0:
256,192,110380,1,12,0:0:0:0:
256,192,110705,1,8,0:0:0:0:
256,192,111029,1,8,0:0:0:0:
256,192,111191,1,0,0:0:0:0:
256,192,111353,1,4,0:0:0:0:
256,192,111840,1,0,0:0:0:0:
256,192,112002,1,8,0:0:0:0:
256,192,112326,1,12,0:0:0:0:
256,192,112651,1,8,0:0:0:0:
256,192,112813,1,0,0:0:0:0:
256,192,112975,1,8,0:0:0:0:
256,192,113299,1,12,0:0:0:0:
256,192,113462,1,0,0:0:0:0:
256,192,113624,1,0,0:0:0:0:
256,192,113786,1,12,0:0:0:0:
256,192,114110,1,0,0:0:0:0:
256,192,114272,1,12,0:0:0:0:
256,192,114597,1,8,0:0:0:0:
256,192,114759,1,0,0:0:0:0:
256,192,114840,1,0,0:0:0:0:
256,192,114921,1,0,0:0:0:0:
256,192,115083,1,8,0:0:0:0:
256,192,115245,1,4,0:0:0:0:
256,192,116867,1,0,0:0:0:0:
256,192,117029,1,0,0:0:0:0:
256,192,117191,1,0,0:0:0:0:
256,192,118164,1,8,0:0:0:0:
256,192,118489,1,0,0:0:0:0:
256,192,118813,1,0,0:0:0:0:
256,192,118975,1,0,0:0:0:0:
256,192,119137,1,0,0:0:0:0:
256,192,120759,1,0,0:0:0:0:
256,192,120921,1,0,0:0:0:0:
256,192,121083,1,0,0:0:0:0:
256,192,122056,1,8,0:0:0:0:
256,192,122380,1,8,0:0:0:0:
256,192,122705,1,0,0:0:0:0:
256,192,122867,1,0,0:0:0:0:
256,192,123029,1,0,0:0:0:0:
256,192,124651,1,0,0:0:0:0:
256,192,124813,1,0,0:0:0:0:
256,192,124975,1,0,0:0:0:0:
256,192,125948,1,8,0:0:0:0:
256,192,126272,1,0,0:0:0:0:
256,192,126597,1,0,0:0:0:0:
256,192,126759,1,0,0:0:0:0:
256,192,126921,1,12,0:0:0:0:
256,192,127407,1,0,0:0:0:0:
256,192,127732,1,0,0:0:0:0:
256,192,127894,1,8,0:0:0:0:
256,192,128056,1,0,0:0:0:0:
256,192,128380,1,0,0:0:0:0:
256,192,128543,1,8,0:0:0:0:
256,192,128867,1,4,0:0:0:0:
256,192,129353,1,0,0:0:0:0:
256,192,129678,1,0,0:0:0:0:
256,192,129840,1,8,0:0:0:0:
256,192,130164,1,8,0:0:0:0:
256,192,130326,1,0,0:0:0:0:
256,192,130489,1,8,0:0:0:0:
256,192,130813,1,4,0:0:0:0:
256,192,131299,1,0,0:0:0:0:
256,192,131624,1,0,0:0:0:0:
256,192,131786,1,8,0:0:0:0:
256,192,132110,1,8,0:0:0:0:
256,192,132272,1,0,0:0:0:0:
256,192,132435,1,8,0:0:0:0:
256,192,132759,1,4,0:0:0:0:
256,192,133083,1,8,0:0:0:0:
256,192,133732,1,4,0:0:0:0:
256,192,134056,1,8,0:0:0:0:
256,192,134380,1,0,0:0:0:0:
256,192,134543,1,8,0:0:0:0:
256,192,134705,1,4,0:0:0:0:
256,192,135029,1,0,0:0:0:0:
256,192,135353,1,0,0:0:0:0:
256,192,135678,1,0,0:0:0:0:
256,192,136002,1,0,0:0:0:0:
256,192,136326,1,0,0:0:0:0:
256,192,136489,1,8,0:0:0:0:
256,192,136651,1,4,0:0:0:0:
256,192,136975,1,0,0:0:0:0:
256,192,137299,1,0,0:0:0:0:
256,192,137624,1,8,0:0:0:0:
256,192,137786,1,0,0:0:0:0:
256,192,137948,1,8,0:0:0:0:
256,192,138110,1,8,0:0:0:0:
256,192,138272,1,0,0:0:0:0:
256,192,138597,1,4,0:0:0:0:
256,192,138921,1,8,0:0:0:0:
256,192,139083,1,0,0:0:0:0:
256,192,139245,1,8,0:0:0:0:
256,192,139570,1,4,0:0:0:0:
256,192,139894,1,8,0:0:0:0:
256,192,140056,1,0,0:0:0:0:
256,192,140218,1,8,0:0:0:0:
256,192,140543,1,12,0:0:0:0:
256,192,140705,1,0,0:0:0:0:
256,192,140867,1,0,0:0:0:0:
256,192,141029,1,8,0:0:0:0:
256,192,141353,1,0,0:0:0:0:
256,192,141516,1,0,0:0:0:0:
256,192,141678,1,8,0:0:0:0:
256,192,141759,1,8,0:0:0:0:
256,192,141840,1,8,0:0:0:0:
256,192,142002,1,0,0:0:0:0:
256,192,142164,1,8,0:0:0:0:
256,192,142245,1,8,0:0:0:0:
256,192,142326,1,8,0:0:0:0:
256,192,142489,1,12,0:0:0:0:
256,192,143462,1,8,0:0:0:0:
256,192,144435,1,0,0:0:0:0:
256,192,145407,1,0,0:0:0:0:
256,192,146380,1,8,0:0:0:0:
256,192,147353,1,8,0:0:0:0:
256,192,148326,1,0,0:0:0:0:
256,192,149299,1,8,0:0:0:0:
256,192,149624,1,0,0:0:0:0:
256,192,149948,1,8,0:0:0:0:
256,192,150272,1,0,0:0:0:0:
256,192,151245,1,0,0:0:0:0:
256,192,152218,1,8,0:0:0:0:
256,192,153191,1,8,0:0:0:0:
256,192,154164,1,0,0:0:0:0:
256,192,154651,1,0,0:0:0:0:
256,192,155137,1,8,0:0:0:0:
256,192,155462,1,0,0:0:0:0:
256,192,155786,1,8,0:0:0:0:
256,192,156110,1,0,0:0:0:0:
256,192,156597,1,8,0:0:0:0:
256,192,157083,1,0,0:0:0:0:
256,192,158056,1,8,0:0:0:0:
256,192,158543,1,0,0:0:0:0:
256,192,159029,1,8,0:0:0:0:
256,192,159678,1,0,0:0:0:0:
256,192,159840,1,0,0:0:0:0:
256,192,160002,1,12,0:0:0:0:
256,192,160326,1,0,0:0:0:0:
256,192,160651,1,0,0:0:0:0:
256,192,160975,1,0,0:0:0:0:
256,192,161624,1,0,0:0:0:0:
256,192,161786,1,8,0:0:0:0:
256,192,161948,1,4,0:0:0:0:
256,192,162272,1,0,0:0:0:0:
256,192,162597,1,0,0:0:0:0:
256,192,162921,1,0,0:0:0:0:
256,192,163083,1,8,0:0:0:0:
256,192,163570,1,8,0:0:0:0:
256,192,163894,1,4,0:0:0:0:
256,192,164218,1,0,0:0:0:0:
256,192,164543,1,0,0:0:0:0:
256,192,164867,1,8,0:0:0:0:
256,192,165191,1,0,0:0:0:0:
256,192,165516,1,0,0:0:0:0:
256,192,165678,1,8,0:0:0:0:
256,192,165840,1,4,0:0:0:0:
256,192,166002,1,0,0:0:0:0:
256,192,166164,1,8,0:0:0:0:
256,192,166489,1,8,0:0:0:0:
256,192,166813,1,0,0:0:0:0:
256,192,166894,1,0,0:0:0:0:
256,192,166975,1,0,0:0:0:0:
256,192,167137,1,8,0:0:0:0:
256,192,167299,1,0,0:0:0:0:
256,192,167462,1,8,0:0:0:0:
256,192,167543,1,8,0:0:0:0:
256,192,167624,1,8,0:0:0:0:
256,192,167786,1,4,0:0:0:0:
256,192,168110,1,8,0:0:0:0:
256,192,168272,1,0,0:0:0:0:
256,192,168353,1,0,0:0:0:0:
256,192,168435,1,0,0:0:0:0:
256,192,168597,1,0,0:0:0:0:
256,192,168759,1,8,0:0:0:0:
256,192,169083,1,0,0:0:0:0:
256,192,169407,1,8,0:0:0:0:
256,192,169570,1,0,0:0:0:0:
256,192,169732,1,4,0:0:0:0:
256,192,170056,1,8,0:0:0:0:
256,192,170218,1,0,0:0:0:0:
256,192,170299,1,0,0:0:0:0:
256,192,170380,1,0,0:0:0:0:
256,192,170543,1,0,0:0:0:0:
256,192,170705,1,8,0:0:0:0:
256,192,171029,1,8,0:0:0:0:
256,192,171353,1,8,0:0:0:0:
256,192,171516,1,0,0:0:0:0:
256,192,171678,1,4,0:0:0:0:
256,192,172002,1,8,0:0:0:0:
256,192,172164,1,0,0:0:0:0:
256,192,172651,1,8,0:0:0:0:
256,192,172975,1,0,0:0:0:0:
256,192,173299,1,8,0:0:0:0:
256,192,173462,1,8,0:0:0:0:
256,192,173624,1,0,0:0:0:0:
256,192,173705,1,0,0:0:0:0:
256,192,173786,1,0,0:0:0:0:
256,192,173948,1,0,0:0:0:0:
256,192,174272,1,8,0:0:0:0:
256,192,174597,1,0,0:0:0:0:
256,192,174678,1,0,0:0:0:0:
256,192,174759,1,0,0:0:0:0:
256,192,174921,1,8,0:0:0:0:
256,192,175083,1,0,0:0:0:0:
256,192,175245,1,8,0:0:0:0:
256,192,175326,1,8,0:0:0:0:
256,192,175407,1,8,0:0:0:0:
256,192,175570,1,12,0:0:0:0:
256,192,175894,1,0,0:0:0:0:
256,192,176219,1,0,0:0:0:0:
256,192,176543,1,0,0:0:0:0:
256,192,177192,1,0,0:0:0:0:
256,192,177354,1,8,0:0:0:0:
256,192,177516,1,4,0:0:0:0:
256,192,177840,1,0,0:0:0:0:
256,192,178165,1,0,0:0:0:0:
256,192,178489,1,0,0:0:0:0:
256,192,178651,1,8,0:0:0:0:
256,192,179138,1,8,0:0:0:0:
256,192,179462,1,4,0:0:0:0:
256,192,179786,1,0,0:0:0:0:
256,192,180111,1,0,0:0:0:0:
256,192,180435,1,8,0:0:0:0:
256,192,181084,1,0,0:0:0:0:
256,192,181246,1,8,0:0:0:0:
256,192,181408,1,4,0:0:0:0:
256,192,181732,1,8,0:0:0:0:
256,192,182057,1,8,0:0:0:0:
256,192,182219,1,8,0:0:0:0:
256,192,182380,1,0,0:0:0:0:
256,192,182705,1,8,0:0:0:0:
256,192,182867,1,0,0:0:0:0:
256,192,183029,1,8,0:0:0:0:
256,192,183353,1,4,0:0:0:0:
256,192,183840,1,0,0:0:0:0:
256,192,184002,1,8,0:0:0:0:
256,192,184164,1,0,0:0:0:0:
256,192,184326,1,0,0:0:0:0:
256,192,184651,1,8,0:0:0:0:
256,192,184813,1,0,0:0:0:0:
256,192,184975,1,8,0:0:0:0:
256,192,185299,1,4,0:0:0:0:
256,192,185786,1,0,0:0:0:0:
256,192,185948,1,8,0:0:0:0:
256,192,186272,1,0,0:0:0:0:
256,192,186353,1,0,0:0:0:0:
256,192,186435,1,0,0:0:0:0:
256,192,186597,1,8,0:0:0:0:
256,192,186759,1,0,0:0:0:0:
256,192,186921,1,8,0:0:0:0:
256,192,187245,1,4,0:0:0:0:
256,192,187732,1,0,0:0:0:0:
256,192,187894,1,8,0:0:0:0:
256,192,188056,1,0,0:0:0:0:
256,192,188218,1,0,0:0:0:0:
256,192,188543,1,0,0:0:0:0:
256,192,188705,1,0,0:0:0:0:
256,192,188867,1,8,0:0:0:0:
256,192,189191,1,4,0:0:0:0:
256,192,189678,1,8,0:0:0:0:
256,192,190002,1,0,0:0:0:0:
256,192,190164,1,8,0:0:0:0:
256,192,190489,1,8,0:0:0:0:
256,192,190813,1,0,0:0:0:0:
256,192,190975,1,8,0:0:0:0:
256,192,191137,1,4,0:0:0:0:
256,192,191462,1,0,0:0:0:0:
256,192,191786,1,8,0:0:0:0:
256,192,192110,1,8,0:0:0:0:
256,192,192272,1,0,0:0:0:0:
256,192,192435,1,8,0:0:0:0:
256,192,192759,1,8,0:0:0:0:
256,192,193083,1,0,0:0:0:0:
256,192,193164,1,0,0:0:0:0:
256,192,193245,1,0,0:0:0:0:
256,192,193407,1,0,0:0:0:0:
256,192,193731,1,8,0:0:0:0:
256,192,194056,1,0,0:0:0:0:
256,192,194137,1,0,0:0:0:0:
256,192,194218,1,0,0:0:0:0:
256,192,194380,1,0,0:0:0:0:
256,192,194704,1,8,0:0:0:0:
256,192,194867,1,8,0:0:0:0:
256,192,195029,1,0,0:0:0:0:
256,192,195110,1,0,0:0:0:0:
256,192,195191,1,0,0:0:0:0:
256,192,195353,1,0,0:0:0:0:
256,192,195677,1,8,0:0:0:0:
256,192,196002,1,0,0:0:0:0:
256,192,196083,1,0,0:0:0:0:
256,192,196164,1,0,0:0:0:0:
256,192,196326,1,8,0:0:0:0:
256,192,196650,1,8,0:0:0:0:
256,192,196812,1,8,0:0:0:0:
256,192,196975,1,0,0:0:0:0:
256,192,197056,1,0,0:0:0:0:
256,192,197137,1,0,0:0:0:0:
256,192,197299,1,0,0:0:0:0:
256,192,197623,1,8,0:0:0:0:
256,192,197948,1,0,0:0:0:0:
256,192,198029,1,0,0:0:0:0:
256,192,198110,1,0,0:0:0:0:
256,192,198272,1,0,0:0:0:0:
256,192,198596,1,8,0:0:0:0:
256,192,198758,1,8,0:0:0:0:
256,192,198921,1,0,0:0:0:0:
256,192,199002,1,0,0:0:0:0:
256,192,199083,1,0,0:0:0:0:
256,192,199245,1,0,0:0:0:0:
256,192,199569,1,8,0:0:0:0:
256,192,199731,1,8,0:0:0:0:
256,192,199894,1,0,0:0:0:0:
256,192,200218,1,8,0:0:0:0:
256,192,200380,1,0,0:0:0:0:
256,192,200542,1,8,0:0:0:0:
256,192,200623,1,8,0:0:0:0:
256,192,200704,1,8,0:0:0:0:
256,192,200867,1,12,0:0:0:0:
256,192,201353,1,8,0:0:0:0:
256,192,201678,1,0,0:0:0:0:
256,192,201840,1,8,0:0:0:0:
256,192,202164,1,0,0:0:0:0:
256,192,202489,1,8,0:0:0:0:
256,192,202813,1,4,0:0:0:0:
256,192,202975,1,8,0:0:0:0:
256,192,203299,1,8,0:0:0:0:
256,192,203624,1,0,0:0:0:0:
256,192,203786,1,8,0:0:0:0:
256,192,204110,1,0,0:0:0:0:
256,192,204435,1,8,0:0:0:0:
256,192,204759,1,12,0:0:0:0:
256,192,204921,1,0,0:0:0:0:
256,192,205245,1,0,0:0:0:0:
256,192,205407,1,8,0:0:0:0:
256,192,205732,1,12,0:0:0:0:
256,192,206056,1,8,0:0:0:0:
256,192,206218,1,0,0:0:0:0:
256,192,206380,1,8,0:0:0:0:
256,192,206705,1,8,0:0:0:0:
256,192,206786,1,8,0:0:0:0:
256,192,206867,1,8,0:0:0:0:
256,192,207029,1,8,0:0:0:0:
256,192,207353,1,0,0:0:0:0:
256,192,207678,1,8,0:0:0:0:
256,192,207759,1,8,0:0:0:0:
256,192,207840,1,8,0:0:0:0:
256,192,208002,1,8,0:0:0:0:
256,192,208326,1,0,0:0:0:0:
