osu file format v14

[General]
AudioFilename: audio.mp3
AudioLeadIn: 0
PreviewTime: 1169
Countdown: 0
SampleSet: Soft
StackLeniency: 0.5
Mode: 0
LetterboxInBreaks: 0
WidescreenStoryboard: 1

[Editor]
Bookmarks: 50784,100015,109861,168784
DistanceSpacing: 1
BeatDivisor: 4
GridSize: 32
TimelineZoom: 2.799999

[Metadata]
Title:Sweet Sweet Cendrillon Drug
TitleUnicode:Sweet Sweet Cendrillon Drug
Artist:MuryokuP
ArtistUnicode:無力P
Creator:Mordred
Version:Stjpa's Extreme
Source:
Tags:VOCALOID Megurine Luka Leda uz uzP kz Remix Ao Rock nao tomori naotoshi stjpa trynna
BeatmapID:1850948
BeatmapSetID:878167

[Difficulty]
HPDrainRate:6
CircleSize:4
OverallDifficulty:9
ApproachRate:9.3
SliderMultiplier:1.8
SliderTickRate:1

[Events]
//Background and Video events
0,0,"needabetterbgtbh.png",0,0
//Break Periods
2,90215,99461
2,107599,108692
2,149292,168230
2,198521,207613
//Storyboard Layer 0 (Background)
//Storyboard Layer 1 (Fail)
//Storyboard Layer 2 (Pass)
//Storyboard Layer 3 (Foreground)
//Storyboard Sound Samples

[TimingPoints]
323,307.692307692308,4,2,10,70,1,0
19784,-100,4,2,10,5,0,0
19861,-100,4,2,10,50,0,0
20630,-100,4,2,10,5,0,0
20784,-66.6666666666667,4,2,10,70,0,0
21015,-66.6666666666667,4,2,10,5,0,0
21092,-66.6666666666667,4,2,10,80,0,0
21246,-83.3333333333333,4,2,10,80,0,1
21784,-83.3333333333333,4,2,10,5,0,1
21861,-83.3333333333333,4,2,10,80,0,1
23784,-83.3333333333333,4,2,10,5,0,1
23861,-83.3333333333333,4,2,10,80,0,1
25015,-83.3333333333333,4,2,10,5,0,1
25092,-83.3333333333333,4,2,10,80,0,1
26246,-83.3333333333333,4,2,10,5,0,1
26323,-83.3333333333333,4,2,10,80,0,1
26707,-83.3333333333333,4,2,10,5,0,1
26784,-83.3333333333333,4,2,10,80,0,1
27476,-83.3333333333333,4,2,10,5,0,1
27553,-83.3333333333333,4,2,10,80,0,1
28707,-83.3333333333333,4,2,10,5,0,1
28784,-83.3333333333333,4,2,10,80,0,1
29938,-83.3333333333333,4,2,10,5,0,1
30015,-83.3333333333333,4,2,10,80,0,1
31169,-83.3333333333333,4,2,10,5,0,1
31246,-83.3333333333333,4,2,10,80,0,1
31630,-83.3333333333333,4,2,10,5,0,1
31707,-83.3333333333333,4,2,10,80,0,1
32399,-83.3333333333333,4,2,10,5,0,1
32476,-83.3333333333333,4,2,10,80,0,1
33630,-83.3333333333333,4,2,10,5,0,1
33707,-83.3333333333333,4,2,10,80,0,1
34092,-83.3333333333333,4,2,10,5,0,1
34169,-83.3333333333333,4,2,10,80,0,1
34861,-83.3333333333333,4,2,10,5,0,1
34938,-83.3333333333333,4,2,10,80,0,1
36092,-83.3333333333333,4,2,10,5,0,1
36169,-83.3333333333333,4,2,10,80,0,1
36553,-83.3333333333333,4,2,10,5,0,1
36630,-83.3333333333333,4,2,10,80,0,1
37323,-83.3333333333333,4,2,10,5,0,1
37399,-83.3333333333333,4,2,10,80,0,1
38553,-83.3333333333333,4,2,10,5,0,1
38630,-83.3333333333333,4,2,10,80,0,1
40938,-117.647058823529,4,2,10,60,0,0
50207,-117.647058823529,4,2,10,5,0,0
50246,-117.647058823529,4,2,10,70,0,0
50284,-117.647058823529,4,2,10,5,0,0
50323,-117.647058823529,4,2,10,70,0,0
50361,-117.647058823529,4,2,10,5,0,0
50399,-117.647058823529,4,2,10,70,0,0
50438,-117.647058823529,4,2,10,5,0,0
50476,-117.647058823529,4,2,10,70,0,0
50784,-100,4,2,10,70,0,0
52092,-100,4,2,10,5,0,0
52169,-100,4,2,10,70,0,0
52707,-100,4,2,10,5,0,0
52784,-100,4,2,10,70,0,0
53169,-100,4,2,10,5,0,0
53246,-100,4,2,10,70,0,0
53476,-100,4,2,10,5,0,0
53553,-100,4,2,10,70,0,0
53784,-100,4,2,10,5,0,0
53861,-100,4,2,10,70,0,0
55938,-100,4,2,10,5,0,0
56015,-100,4,2,10,70,0,0
56246,-100,4,2,10,5,0,0
56323,-100,4,2,10,70,0,0
56707,-100,4,2,10,5,0,0
56784,-100,4,2,10,70,0,0
57015,-100,4,2,10,5,0,0
57092,-100,4,2,10,70,0,0
57476,-100,4,2,10,5,0,0
57553,-100,4,2,10,70,0,0
57938,-100,4,2,10,5,0,0
58015,-100,4,2,10,70,0,0
58246,-100,4,2,10,5,0,0
58323,-100,4,2,10,70,0,0
61169,-100,4,2,10,5,0,0
61246,-100,4,2,10,70,0,0
61938,-100,4,2,10,5,0,0
62015,-100,4,2,10,70,0,0
62553,-100,4,2,10,5,0,0
62630,-100,4,2,10,70,0,0
63169,-100,4,2,10,5,0,0
63246,-100,4,2,10,70,0,0
63630,-100,4,2,10,5,0,0
63707,-100,4,2,10,70,0,0
64399,-100,4,2,10,5,0,0
64476,-100,4,2,10,70,0,0
65015,-100,4,2,10,5,0,0
65092,-100,4,2,10,70,0,0
65630,-100,4,2,10,5,0,0
65707,-100,4,2,10,70,0,0
66092,-100,4,2,10,5,0,0
66169,-100,4,2,10,70,0,0
66861,-100,4,2,10,5,0,0
66938,-100,4,2,10,70,0,0
67476,-100,4,2,10,5,0,0
67553,-100,4,2,10,70,0,0
68092,-100,4,2,10,5,0,0
68169,-100,4,2,10,70,0,0
70323,-83.3333333333333,4,2,10,80,0,1
70553,-83.3333333333333,4,2,10,5,0,1
70630,-83.3333333333333,4,2,10,80,0,1
72246,-83.3333333333333,4,2,10,5,0,1
72323,-83.3333333333333,4,2,10,80,0,1
73015,-83.3333333333333,4,2,10,5,0,1
73092,-83.3333333333333,4,2,10,80,0,1
75476,-83.3333333333333,4,2,10,5,0,1
75553,-83.3333333333333,4,2,10,80,0,1
79169,-83.3333333333333,4,2,10,5,0,1
79246,-83.3333333333333,4,2,10,80,0,1
80399,-83.3333333333333,4,2,10,5,0,1
80476,-83.3333333333333,4,2,10,80,0,1
82861,-83.3333333333333,4,2,10,5,0,1
82938,-83.3333333333333,4,2,10,80,0,1
85323,-83.3333333333333,4,2,10,5,0,1
85399,-83.3333333333333,4,2,10,80,0,1
87784,-83.3333333333333,4,2,10,5,0,1
87861,-83.3333333333333,4,2,10,80,0,1
89592,-83.3333333333333,4,2,10,5,0,1
89630,-83.3333333333333,4,2,10,80,0,1
89669,-83.3333333333333,4,2,10,5,0,1
89707,-83.3333333333333,4,2,10,80,0,1
89746,-83.3333333333333,4,2,10,5,0,1
89784,-83.3333333333333,4,2,10,80,0,1
89823,-83.3333333333333,4,2,10,5,0,1
89861,-83.3333333333333,4,2,10,80,0,1
89899,-83.3333333333333,4,2,10,5,0,1
89938,-83.3333333333333,4,2,10,80,0,1
89976,-83.3333333333333,4,2,10,5,0,1
90015,-83.3333333333333,4,2,10,80,0,0
100015,-250,4,2,10,30,0,0
107399,-250,4,2,10,40,0,0
109861,-100,4,2,10,70,0,0
111169,-100,4,2,10,5,0,0
111246,-100,4,2,10,70,0,0
111784,-100,4,2,10,5,0,0
111861,-100,4,2,10,70,0,0
112246,-100,4,2,10,5,0,0
112323,-100,4,2,10,70,0,0
112553,-100,4,2,10,5,0,0
112630,-100,4,2,10,70,0,0
112861,-100,4,2,10,5,0,0
112938,-100,4,2,10,70,0,0
115015,-100,4,2,10,5,0,0
115092,-100,4,2,10,70,0,0
115323,-100,4,2,10,5,0,0
115399,-100,4,2,10,70,0,0
115784,-100,4,2,10,5,0,0
115861,-100,4,2,10,70,0,0
116092,-100,4,2,10,70,0,0
116169,-100,4,2,10,70,0,0
116553,-100,4,2,10,5,0,0
116630,-100,4,2,10,70,0,0
117015,-100,4,2,10,5,0,0
117092,-100,4,2,10,70,0,0
117323,-100,4,2,10,5,0,0
117399,-100,4,2,10,70,0,0
120246,-100,4,2,10,5,0,0
120323,-100,4,2,10,70,0,0
121015,-100,4,2,10,5,0,0
121092,-100,4,2,10,70,0,0
121630,-100,4,2,10,5,0,0
121707,-100,4,2,10,70,0,0
122246,-100,4,2,10,5,0,0
122323,-100,4,2,10,70,0,0
122707,-100,4,2,10,5,0,0
122784,-100,4,2,10,70,0,0
123476,-100,4,2,10,5,0,0
123553,-100,4,2,10,70,0,0
124092,-100,4,2,10,5,0,0
124169,-100,4,2,10,70,0,0
124707,-100,4,2,10,5,0,0
124784,-100,4,2,10,70,0,0
125169,-100,4,2,10,5,0,0
125246,-100,4,2,10,70,0,0
125938,-100,4,2,10,5,0,0
126015,-100,4,2,10,70,0,0
126553,-100,4,2,10,5,0,0
126630,-100,4,2,10,70,0,0
129399,-76.9230769230769,4,2,10,80,0,1
129630,-76.9230769230769,4,2,10,5,0,1
129707,-76.9230769230769,4,2,10,80,0,1
132092,-76.9230769230769,4,2,10,5,0,1
132169,-76.9230769230769,4,2,10,80,0,1
134553,-76.9230769230769,4,2,10,5,0,1
134630,-76.9230769230769,4,2,10,80,0,1
138246,-76.9230769230769,4,2,10,5,0,1
138323,-76.9230769230769,4,2,10,80,0,1
139476,-76.9230769230769,4,2,10,5,0,1
139553,-76.9230769230769,4,2,10,80,0,1
141938,-76.9230769230769,4,2,10,5,0,1
142015,-76.9230769230769,4,2,10,80,0,1
144399,-76.9230769230769,4,2,10,5,0,1
144476,-76.9230769230769,4,2,10,80,0,1
146861,-76.9230769230769,4,2,10,5,0,1
146938,-76.9230769230769,4,2,10,80,0,1
148669,-76.9230769230769,4,2,10,30,0,1
148707,-76.9230769230769,4,2,10,35,0,1
148746,-76.9230769230769,4,2,10,40,0,1
148784,-76.9230769230769,4,2,10,45,0,1
148823,-76.9230769230769,4,2,10,50,0,1
148861,-76.9230769230769,4,2,10,55,0,1
148899,-76.9230769230769,4,2,10,60,0,1
148938,-76.9230769230769,4,2,10,65,0,1
148976,-76.9230769230769,4,2,10,70,0,1
149015,-76.9230769230769,4,2,10,75,0,1
149092,307.692307692308,4,2,10,80,1,0
149092,-83.3333333333333,4,2,10,80,0,0
168784,-666.666666666667,4,2,10,60,0,0
188476,-83.3333333333333,4,2,10,80,0,1
188629,307.692307692308,4,2,10,80,1,1
188630,-83.3333333333333,4,2,10,80,0,1
188705,-83.3333333333333,4,2,10,5,0,1
188782,-83.3333333333333,4,2,10,80,0,1
198321,-100,4,2,10,80,0,0
207859,-100,4,2,10,60,0,0
208167,-76.9230769230769,4,2,10,80,0,1
208398,-76.9230769230769,4,2,10,5,0,1
208475,-76.9230769230769,4,2,10,80,0,1
210859,-76.9230769230769,4,2,10,5,0,1
210936,-76.9230769230769,4,2,10,80,0,1
213321,-76.9230769230769,4,2,10,5,0,1
213398,-76.9230769230769,4,2,10,80,0,1
217013,-76.9230769230769,4,2,10,5,0,1
217090,-76.9230769230769,4,2,10,80,0,1
218013,-100,4,2,10,80,0,0
222936,-90.9090909090909,4,2,10,80,0,0
223036,-90.9090909090909,4,2,10,5,0,0
223244,-90.9090909090909,4,2,10,80,0,0
223629,-90.9090909090909,4,2,10,5,0,0
223705,-90.9090909090909,4,2,10,80,0,0
224244,-90.9090909090909,4,2,10,5,0,0
224321,-90.9090909090909,4,2,10,80,0,0
225013,-90.9090909090909,4,2,10,5,0,0
225090,-90.9090909090909,4,2,10,80,0,0
225629,-90.9090909090909,4,2,10,5,0,0
225705,-90.9090909090909,4,2,10,80,0,0
227437,-90.9090909090909,4,2,10,5,0,0
227475,-90.9090909090909,4,2,10,80,0,0
227514,-90.9090909090909,4,2,10,5,0,0
227552,-90.9090909090909,4,2,10,80,0,0
227591,-90.9090909090909,4,2,10,5,0,0
227629,-90.9090909090909,4,2,10,80,0,0
227668,-90.9090909090909,4,2,10,5,0,0
227706,-90.9090909090909,4,2,10,80,0,0
227744,-90.9090909090909,4,2,10,5,0,0
227783,-90.9090909090909,4,2,10,80,0,0
227821,-90.9090909090909,4,2,10,5,0,0
227859,-76.9230769230769,4,2,10,80,0,1
228090,-76.9230769230769,4,2,10,5,0,1
228167,-76.9230769230769,4,2,10,80,0,1
236705,-76.9230769230769,4,2,10,5,0,1
236782,-76.9230769230769,4,2,10,80,0,1
237167,-76.9230769230769,4,2,10,5,0,1
237244,-76.9230769230769,4,2,10,80,0,1
237705,-100,4,2,10,80,0,0
240398,-100,4,2,10,30,0,0

[Colours]
Combo1 : 255,128,0
Combo2 : 255,128,128
Combo3 : 255,128,64
Combo4 : 166,83,83

[HitObjects]
256,192,18630,12,0,19784,0:0:0:0:
256,192,19861,12,0,20630,0:0:0:0:
283,91,20784,6,0,B|234:71|234:71|396:65,1,202.500007724762,2|0,0:0|0:0,0:0:0:0:
469,30,21092,6,0,P|429:63|432:165,1,135.000005149842,12|0,0:0|0:0,0:0:0:0:
362,335,21399,1,8,0:0:0:0:
462,299,21553,2,0,L|278:288,1,161.999995056153,8|0,0:1|0:0,0:0:0:0:
225,328,21861,1,8,0:0:0:0:
293,137,22015,1,8,0:0:0:0:
51,87,22169,1,8,0:1:0:0:
115,286,22323,6,0,P|145:240|222:226,1,107.999996704102,12|0,0:0|0:0,0:0:0:0:
362,335,22630,1,8,0:0:0:0:
85,177,22784,1,8,0:1:0:0:
266,29,22938,1,8,0:1:0:0:
212,26,23015,1,8,0:1:0:0:
158,23,23092,1,8,0:0:0:0:
237,172,23246,1,8,0:0:0:0:
455,12,23399,1,8,0:1:0:0:
428,216,23553,6,0,P|396:152|280:143,1,161.999995056153,12|0,0:0|0:0,0:0:0:0:
241,84,23861,1,8,0:0:0:0:
474,333,24015,2,0,B|425:363|425:363|311:350,1,161.999995056153,8|0,0:1|0:0,0:0:0:0:
241,320,24323,1,8,0:0:0:0:
313,129,24476,1,8,0:0:0:0:
111,369,24630,1,8,0:1:0:0:
4,159,24784,6,0,L|177:168,1,161.999995056153,12|0,0:0|0:0,0:0:0:0:
248,209,25092,1,8,0:0:0:0:
464,18,25246,2,0,L|446:132,1,107.999996704102,8|0,0:1|0:0,0:0:0:0:
433,356,25553,1,8,0:1:0:0:
243,225,25707,1,8,0:0:0:0:
494,231,25861,1,8,0:1:0:0:
158,314,26015,6,0,P|197:268|159:170,1,161.999995056153,12|0,0:0|0:0,0:0:0:0:
100,132,26323,1,8,0:0:0:0:
271,373,26476,2,0,L|441:355,1,161.999995056153,8|0,0:1|0:0,0:0:0:0:
497,301,26784,1,8,0:0:0:0:
401,132,26938,1,8,0:0:0:0:
172,265,27092,1,8,0:1:0:0:
277,68,27246,6,0,B|229:94|229:94|107:73,1,161.999995056153,12|0,0:0|0:0,0:0:0:0:
47,19,27553,1,8,0:0:0:0:
32,282,27707,2,0,L|17:165,1,107.999996704102,8|0,0:1|0:0,0:0:0:0:
203,363,28015,1,8,0:1:0:0:
405,270,28169,1,8,0:0:0:0:
165,241,28323,1,8,0:1:0:0:
478,351,28476,6,0,P|439:305|477:207,1,161.999995056153,12|0,0:0|0:0,0:0:0:0:
508,139,28784,1,8,0:0:0:0:
218,30,28938,2,0,L|110:26,1,107.999996704102,8|0,0:1|0:0,0:0:0:0:
151,182,29246,1,8,0:0:0:0:
151,182,29399,1,8,0:0:0:0:
336,46,29553,1,8,0:1:0:0:
394,125,29707,6,0,L|380:308,1,161.999995056153,12|0,0:0|0:0,0:0:0:0:
304,349,30015,1,8,0:0:0:0:
255,363,30091,1,8,0:0:0:0:
207,351,30169,6,0,P|180:352|171:357,1,26.9999991760254,10|0,0:1|0:0,0:0:0:0:
194,300,30245,1,8,0:0:0:0:
212,254,30322,1,8,0:0:0:0:
232,218,30399,6,0,P|254:232|260:241,1,26.9999991760254,10|0,0:0|0:0,0:0:0:0:
248,176,30475,1,8,0:1:0:0:
248,133,30552,1,8,0:0:0:0:
231,85,30630,6,0,P|208:99|202:108,1,26.9999991760254,10|0,0:0|0:0,0:0:0:0:
209,57,30706,1,8,0:0:0:0:
169,33,30784,6,0,P|183:10|192:4,1,26.9999991760254,10|0,0:1|0:0,0:0:0:0:
125,24,30861,2,0,P|110:1|101:-4,1,26.9999991760254,10|0,0:0|0:0,0:0:0:0:
87,22,30938,6,0,B|67:-10|67:-10|46:129,1,161.999995056153,12|0,0:0|0:0,0:0:0:0:
83,188,31246,1,8,0:0:0:0:
4,376,31399,2,0,P|44:326|136:332,1,161.999995056153,8|0,0:1|0:0,0:0:0:0:
211,378,31707,1,8,0:0:0:0:
81,201,31861,1,8,0:0:0:0:
308,287,32015,1,8,0:1:0:0:
457,122,32169,6,0,B|463:183|463:183|443:232|443:232|446:287,1,161.999995056153,12|0,0:0|0:0,0:0:0:0:
489,364,32476,1,8,0:0:0:0:
318,180,32630,1,8,0:1:0:0:
211,378,32784,1,8,0:1:0:0:
205,325,32861,1,8,0:1:0:0:
199,272,32938,1,8,0:0:0:0:
126,108,33092,1,8,0:0:0:0:
419,121,33246,1,8,0:1:0:0:
203,132,33399,6,0,P|144:134|68:228,1,161.999995056153,12|0,0:0|0:0,0:0:0:0:
78,294,33707,1,8,0:0:0:0:
19,39,33861,2,0,L|185:22,1,161.999995056153,8|0,0:1|0:0,0:0:0:0:
266,54,34169,1,8,0:0:0:0:
316,230,34323,1,8,0:0:0:0:
455,21,34476,1,8,0:1:0:0:
416,195,34630,6,0,L|250:178,1,161.999995056153,12|0,0:0|0:0,0:0:0:0:
169,210,34938,1,8,0:0:0:0:
468,301,35092,2,0,L|346:314,1,107.999996704102,8|0,0:1|0:0,0:0:0:0:
98,330,35399,1,8,0:1:0:0:
40,146,35553,1,8,0:0:0:0:
20,379,35707,1,8,0:1:0:0:
26,64,35861,6,0,P|62:110|174:102,1,161.999995056153,12|0,0:0|0:0,0:0:0:0:
243,64,36169,1,8,0:0:0:0:
318,340,36323,2,0,L|309:175,1,161.999995056153,8|0,0:1|0:0,0:0:0:0:
338,100,36630,1,8,0:0:0:0:
216,240,36784,1,8,0:0:0:0:
459,127,36938,1,8,0:1:0:0:
279,19,37092,6,0,B|228:41|228:41|114:25,1,161.999995056153,12|0,0:0|0:0,0:0:0:0:
33,56,37399,1,8,0:0:0:0:
216,240,37553,2,0,L|207:114,1,107.999996704102,8|0,0:1|0:0,0:0:0:0:
118,346,37861,1,8,0:1:0:0:
326,317,38015,1,8,0:0:0:0:
68,268,38169,1,8,0:1:0:0:
389,379,38323,6,0,B|367:328|367:328|383:214,1,161.999995056153,12|0,0:0|0:0,0:0:0:0:
424,151,38630,1,8,0:0:0:0:
435,162,38938,1,8,0:0:0:0:
435,162,39015,1,8,0:0:0:0:
435,162,39092,1,8,0:1:0:0:
359,47,39246,1,8,0:0:0:0:
485,286,39399,1,8,0:1:0:0:
263,236,39553,6,0,L|389:243,1,107.999996704102,12|0,0:0|0:0,0:0:0:0:
225,349,39861,1,8,0:0:0:0:
147,113,40015,1,8,0:1:0:0:
28,286,40169,1,8,0:0:0:0:
322,136,40323,1,8,0:1:0:0:
50,72,40476,1,10,0:0:0:0:
47,55,40553,1,10,0:0:0:0:
43,39,40630,1,10,0:1:0:0:
68,30,40707,1,10,0:1:0:0:
105,32,40784,1,10,0:1:0:0:
153,36,40861,1,10,0:1:0:0:
212,41,40938,6,0,P|269:41|310:28,1,76.5000014591217,12|0,0:0|0:0,0:0:0:0:
420,21,41246,2,0,P|391:70|384:104,1,76.5000014591217,8|0,0:1|0:0,0:0:0:0:
398,195,41553,1,8,0:0:0:0:
348,299,41707,1,8,0:0:0:0:
306,135,41861,1,8,0:1:0:0:
452,252,42015,6,0,P|365:219|277:222,1,153.000002918243,8|0,0:0|0:0,0:0:0:0:
195,151,42476,2,0,P|149:232|79:287,1,153.000002918243,8|0,0:1|0:0,0:0:0:0:
17,321,42938,1,8,0:0:0:0:
5,173,43092,2,0,P|15:122|33:84,1,76.5000014591217,8|0,0:1|0:0,0:0:0:0:
130,10,43399,6,0,P|140:61|158:99,1,76.5000014591217,10|0,0:0|0:0,0:0:0:0:
171,179,43707,2,0,P|214:207|253:222,1,76.5000014591217,10|0,0:1|0:0,0:0:0:0:
321,278,44015,1,8,0:0:0:0:
424,227,44169,1,8,0:0:0:0:
307,163,44323,1,8,0:1:0:0:
470,300,44476,6,0,P|454:262|456:151,1,153.000002918243,8|0,0:0|0:0,0:0:0:0:
504,54,44938,1,8,0:1:0:0:
403,7,45092,1,8,0:0:0:0:
403,7,45169,1,8,0:0:0:0:
326,80,45323,1,8,0:1:0:0:
326,80,45399,1,8,0:0:0:0:
173,37,45553,1,8,0:1:0:0:
339,93,45707,1,8,0:1:0:0:
179,202,45861,6,0,P|187:158|209:118,1,76.5000014591217,8|0,0:0|0:0,0:0:0:0:
304,174,46169,2,0,P|312:218|334:258,1,76.5000014591217,8|0,0:1|0:0,0:0:0:0:
386,331,46476,1,8,0:0:0:0:
490,292,46630,1,8,0:0:0:0:
402,179,46784,1,8,0:1:0:0:
458,368,46938,6,0,P|410:358|300:357,1,153.000002918243,8|0,0:0|0:0,0:0:0:0:
225,263,47399,2,0,P|188:295|93:351,1,153.000002918243,8|0,0:1|0:0,0:0:0:0:
6,296,47861,1,8,0:0:0:0:
82,171,48015,2,0,P|92:216|91:252,1,76.5000014591217,8|0,0:1|0:0,0:0:0:0:
15,90,48323,6,0,P|60:80|96:81,1,76.5000014591217,10|0,0:0|0:0,0:0:0:0:
194,48,48630,2,0,P|236:65|265:87,1,76.5000014591217,10|0,0:1|0:0,0:0:0:0:
286,179,48938,1,8,0:0:0:0:
190,141,49092,1,8,0:0:0:0:
273,275,49246,1,8,0:1:0:0:
369,237,49400,1,8,0:0:0:0:
467,376,49553,6,0,L|439:382,1,19.1250003647804,10|0,0:0|0:0,0:0:0:0:
463,347,49629,1,8,0:0:0:0:
459,317,49706,1,8,0:0:0:0:
455,286,49783,1,8,0:0:0:0:
470,252,49861,6,0,L|498:258,1,19.1250003647804,10|0,0:1|0:0,0:0:0:0:
475,208,49937,1,8,0:0:0:0:
483,159,50015,6,0,L|455:165,1,19.1250003647804,10|0,0:0|0:0,0:0:0:0:
489,115,50092,2,0,L|517:121,1,19.1250003647804,10|0,0:0|0:0,0:0:0:0:
486,62,50169,5,10,0:1:0:0:
433,86,50245,1,8,0:0:0:0:
377,99,50322,1,8,0:0:0:0:
321,92,50399,1,8,0:0:0:0:
267,71,50476,1,8,0:1:0:0:
213,54,50553,1,8,0:0:0:0:
156,53,50630,1,8,0:1:0:0:
101,69,50707,1,8,0:1:0:0:
49,94,50784,6,0,P|32:140|33:182,1,90,12|0,0:0|0:0,0:0:0:0:
2,328,51092,2,0,P|46:328|88:344,1,90,8|0,0:1|0:0,0:0:0:0:
209,378,51399,1,8,0:0:0:0:
150,246,51553,1,8,0:0:0:0:
314,133,51707,1,8,0:1:0:0:
280,257,51861,6,0,P|293:188|279:113,1,135,8|0,0:0|0:0,0:0:0:0:
230,54,52169,1,8,0:0:0:0:
447,159,52323,1,8,0:1:0:0:
434,21,52476,2,0,L|418:178,1,135,8|0,0:0|0:0,0:0:0:0:
372,223,52784,1,8,0:0:0:0:
496,375,52938,2,0,B|457:349|457:349|346:365,1,135,8|0,0:1|0:0,0:0:0:0:
288,330,53246,6,0,B|249:356|249:356|138:340,1,135,12|0,0:0|0:0,0:0:0:0:
63,358,53553,2,0,P|88:309|87:222,1,135,8|0,0:1|0:0,0:0:0:0:
50,160,53861,1,8,0:0:0:0:
136,25,54015,1,8,0:0:0:0:
254,274,54169,1,8,0:1:0:0:
168,139,54323,6,0,P|218:131|262:108,1,90,8|0,0:0|0:0,0:0:0:0:
386,8,54630,1,8,0:0:0:0:
356,200,54784,1,8,0:1:0:0:
474,86,54938,1,8,0:0:0:0:
474,86,55015,1,8,0:0:0:0:
489,244,55169,1,8,0:1:0:0:
489,244,55246,1,8,0:0:0:0:
477,69,55399,1,8,0:1:0:0:
483,263,55553,1,8,0:1:0:0:
359,122,55707,6,0,B|302:116|302:116|272:125|272:125|192:111,1,135,12|0,0:0|0:0,0:0:0:0:
151,69,56015,2,0,P|137:129|66:200,1,135,8|0,0:1|0:0,0:0:0:0:
14,240,56323,1,8,0:0:0:0:
149,357,56476,2,0,L|303:346,1,135,8|0,0:0|0:0,0:0:0:0:
368,363,56784,6,0,P|354:303|283:232,1,135,8|0,0:1|0:0,0:0:0:0:
232,192,57092,1,8,0:0:0:0:
51,358,57246,2,0,B|76:312|76:312|67:202,1,135,8|0,0:1|0:0,0:0:0:0:
26,149,57553,1,8,0:0:0:0:
176,16,57707,2,0,L|319:20,1,135,8|0,0:1|0:0,0:0:0:0:
377,79,58015,6,0,B|352:125|352:125|361:235,1,135,12|0,0:0|0:0,0:0:0:0:
402,287,58323,1,8,0:0:0:0:
181,234,58476,1,8,0:1:0:0:
453,211,58630,1,8,0:0:0:0:
116,295,58784,1,8,0:1:0:0:
343,218,58938,1,8,0:0:0:0:
50,190,59092,1,8,0:1:0:0:
200,366,59246,2,0,L|212:310,1,45,8|0,0:0|0:0,0:0:0:0:
282,127,59399,5,2,0:0:0:0:
280,118,59476,1,2,0:0:0:0:
278,109,59553,1,10,0:0:0:0:
276,100,59630,1,2,0:0:0:0:
274,91,59707,5,10,0:0:0:0:
270,77,59784,1,10,0:0:0:0:
252,62,59861,1,10,0:0:0:0:
227,51,59938,1,10,0:0:0:0:
190,50,60015,1,10,0:1:0:0:
148,68,60092,1,10,0:0:0:0:
119,113,60169,1,10,0:0:0:0:
112,175,60246,1,10,0:0:0:0:
152,234,60323,1,10,0:1:0:0:
230,250,60399,1,10,0:0:0:0:
306,222,60476,1,6,0:0:0:0:
478,219,60630,5,8,0:0:0:0:
323,138,60784,1,8,0:0:0:0:
444,364,60938,2,0,B|399:347|399:347|300:365,1,135,8|0,0:1|0:0,0:0:0:0:
229,333,61246,1,8,0:0:0:0:
58,367,61399,1,8,0:0:0:0:
213,166,61553,1,8,0:1:0:0:
384,200,61707,6,0,P|370:140|299:69,1,135,8|0,0:0|0:0,0:0:0:0:
245,20,62015,1,8,0:0:0:0:
36,132,62169,1,8,0:1:0:0:
101,281,62323,2,0,B|158:275|158:275|188:284|188:284|268:270,1,135,8|0,0:0|0:0,0:0:0:0:
307,225,62630,1,8,0:0:0:0:
105,100,62784,1,8,0:1:0:0:
245,20,62938,6,0,L|411:31,1,135,12|0,0:0|0:0,0:0:0:0:
465,73,63246,1,8,0:0:0:0:
307,225,63399,2,0,L|141:236,1,135,8|0,0:1|0:0,0:0:0:0:
87,278,63707,1,8,0:0:0:0:
127,128,63861,1,8,0:0:0:0:
218,354,64015,1,8,0:1:0:0:
364,303,64169,6,0,P|331:250|331:150,1,135,8|0,0:0|0:0,0:0:0:0:
382,94,64476,1,8,0:0:0:0:
147,25,64630,1,8,0:1:0:0:
41,130,64784,2,0,P|8:182|8:282,1,135,8|0,0:0|0:0,0:0:0:0:
57,323,65092,1,8,0:0:0:0:
160,130,65246,1,8,0:1:0:0:
261,236,65399,6,0,L|411:222,1,135,12|0,0:0|0:0,0:0:0:0:
489,252,65707,1,8,0:0:0:0:
225,327,65861,2,0,P|223:280|187:192,1,135,8|0,0:1|0:0,0:0:0:0:
122,142,66169,1,8,0:0:0:0:
192,1,66323,1,8,0:0:0:0:
342,206,66476,1,8,0:1:0:0:
272,65,66630,6,0,B|327:60|327:60|360:69|360:69|415:65,1,135,8|0,0:0|0:0,0:0:0:0:
482,21,66938,1,8,0:0:0:0:
342,206,67092,1,8,0:1:0:0:
448,323,67246,2,0,P|394:330|312:366,1,135,8|0,0:0|0:0,0:0:0:0:
223,328,67553,1,8,0:0:0:0:
318,103,67707,1,8,0:1:0:0:
82,189,67861,6,0,L|226:171,1,135,12|0,0:0|0:0,0:0:0:0:
297,231,68169,1,8,0:0:0:0:
67,8,68323,2,0,L|74:104,1,90,8|0,0:1|0:0,0:0:0:0:
324,13,68630,2,0,L|317:109,1,90,8|0,0:1|0:0,0:0:0:0:
235,328,68938,1,8,0:1:0:0:
309,243,69092,1,8,0:0:0:0:
49,346,70323,6,0,P|93:305|90:206,1,161.999995056153,12|0,0:0|0:0,0:0:0:0:
28,144,70630,1,8,0:0:0:0:
299,28,70784,6,0,L|459:36,1,107.999996704102,8|0,0:1|0:0,0:0:0:0:
298,326,71092,2,0,L|138:334,1,107.999996704102,8|0,0:1|0:0,0:0:0:0:
309,38,71399,2,0,L|469:46,1,107.999996704102,8|0,0:1|0:0,0:0:0:0:
288,316,71707,2,0,L|128:324,1,107.999996704102,8|0,0:1|0:0,0:0:0:0:
410,358,72015,2,0,P|406:278|312:199,1,161.999995056153,8|0,0:1|0:0,0:0:0:0:
327,201,72323,1,8,0:1:0:0:
248,34,72476,1,8,0:0:0:0:
73,130,72630,1,8,0:1:0:0:
157,354,72784,6,0,P|134:298|176:200,1,161.999995056153,12|0,0:0|0:0,0:0:0:0:
227,144,73092,1,8,0:0:0:0:
457,371,73246,6,0,L|465:258,1,107.999996704102,8|0,0:1|0:0,0:0:0:0:
202,22,73553,2,0,L|210:135,1,107.999996704102,8|0,0:1|0:0,0:0:0:0:
467,381,73861,2,0,L|475:268,1,107.999996704102,8|0,0:1|0:0,0:0:0:0:
192,32,74169,2,0,L|200:145,1,107.999996704102,8|0,0:1|0:0,0:0:0:0:
141,361,74476,1,8,0:1:0:0:
312,302,74630,1,8,0:0:0:0:
85,270,74784,1,8,0:1:0:0:
390,358,74938,1,8,0:0:0:0:
219,211,75092,1,8,0:1:0:0:
402,57,75246,6,0,P|376:108|410:208,1,161.999995056153,12|0,0:0|0:0,0:0:0:0:
472,268,75553,1,8,0:0:0:0:
158,50,75707,6,0,L|-2:58,1,107.999996704102,8|0,0:1|0:0,0:0:0:0:
159,348,76015,2,0,L|319:356,1,107.999996704102,8|0,0:1|0:0,0:0:0:0:
148,60,76322,2,0,L|-12:68,1,107.999996704102,8|0,0:1|0:0,0:0:0:0:
169,338,76630,2,0,L|329:346,1,107.999996704102,8|0,0:1|0:0,0:0:0:0:
138,70,76938,2,0,L|-22:78,1,107.999996704102,8|0,0:1|0:0,0:0:0:0:
179,328,77246,2,0,L|339:336,1,107.999996704102,8|0,0:1|0:0,0:0:0:0:
105,186,77553,1,8,0:1:0:0:
242,18,77707,6,0,P|225:72|352:151,1,215.999993408203,12|0,0:0|0:0,0:0:0:0:
486,91,78169,1,8,0:1:0:0:
385,273,78323,1,8,0:0:0:0:
402,45,78476,1,8,0:1:0:0:
475,323,78630,1,8,0:0:0:0:
480,7,78784,1,8,0:1:0:0:
439,214,78938,6,0,B|384:240|384:240|256:207,1,161.999995056153,12|0,0:0|0:0,0:0:0:0:
204,205,79246,1,8,0:0:0:0:
220,164,79323,1,8,0:0:0:0:
214,121,79399,1,8,0:1:0:0:
94,29,79553,1,8,0:0:0:0:
118,282,79707,1,8,0:1:0:0:
167,303,79783,1,8,0:1:0:0:
220,306,79860,1,8,0:1:0:0:
272,290,79937,1,8,0:1:0:0:
323,273,80014,1,8,0:1:0:0:
376,274,80091,1,8,0:1:0:0:
427,294,80169,6,0,P|444:231|398:129,1,161.999995056153,12|0,0:0|0:0,0:0:0:0:
348,82,80476,1,8,0:0:0:0:
22,362,80630,6,0,L|14:249,1,107.999996704102,8|0,0:1|0:0,0:0:0:0:
277,13,80938,2,0,L|269:126,1,107.999996704102,8|0,0:1|0:0,0:0:0:0:
12,372,81246,2,0,L|4:259,1,107.999996704102,8|0,0:1|0:0,0:0:0:0:
287,23,81553,2,0,L|279:136,1,107.999996704102,8|0,0:1|0:0,0:0:0:0:
206,353,81861,1,8,0:1:0:0:
349,251,82015,1,8,0:0:0:0:
117,182,82169,1,8,0:1:0:0:
208,371,82323,1,8,0:0:0:0:
346,159,82476,1,8,0:1:0:0:
397,361,82630,6,0,P|369:308|271:276,1,161.999995056153,12|0,0:0|0:0,0:0:0:0:
182,276,82938,1,8,0:0:0:0:
375,29,83092,6,0,L|535:37,1,107.999996704102,8|0,0:1|0:0,0:0:0:0:
127,192,83400,2,0,L|-33:200,1,107.999996704102,8|0,0:1|0:0,0:0:0:0:
385,39,83707,2,0,L|545:47,1,107.999996704102,8|0,0:1|0:0,0:0:0:0:
117,182,84015,2,0,L|-43:190,1,107.999996704102,8|0,0:1|0:0,0:0:0:0:
200,110,84323,1,8,0:1:0:0:
149,268,84476,1,8,0:0:0:0:
121,60,84630,1,8,0:1:0:0:
219,327,84784,1,8,0:0:0:0:
33,29,84938,1,8,0:1:0:0:
245,18,85092,6,0,P|309:16|374:82,1,161.999995056153,12|0,0:0|0:0,0:0:0:0:
422,153,85399,1,8,0:0:0:0:
38,346,85553,6,0,L|30:233,1,107.999996704102,8|0,0:1|0:0,0:0:0:0:
397,237,85861,2,0,L|389:350,1,107.999996704102,8|0,0:1|0:0,0:0:0:0:
28,356,86169,2,0,L|20:243,1,107.999996704102,8|0,0:1|0:0,0:0:0:0:
407,247,86476,2,0,L|399:360,1,107.999996704102,8|0,0:1|0:0,0:0:0:0:
18,366,86784,2,0,L|10:253,1,107.999996704102,8|0,0:1|0:0,0:0:0:0:
416,257,87092,2,0,L|408:370,1,107.999996704102,8|0,0:1|0:0,0:0:0:0:
487,102,87399,1,8,0:1:0:0:
347,178,87553,6,0,L|168:162,1,161.999995056153,12|0,0:0|0:0,0:0:0:0:
113,111,87861,1,8,0:0:0:0:
206,342,88015,1,8,0:1:0:0:
347,270,88169,1,8,0:0:0:0:
46,323,88323,1,8,0:1:0:0:
65,272,88399,1,8,0:1:0:0:
62,219,88476,1,8,0:1:0:0:
39,170,88553,1,8,0:1:0:0:
23,119,88630,1,8,0:1:0:0:
31,66,88707,1,8,0:1:0:0:
57,19,88784,1,12,0:0:0:0:
65,26,89092,5,8,0:1:0:0:
65,26,89169,1,8,0:1:0:0:
65,26,89246,1,8,0:1:0:0:
166,158,89399,1,8,0:0:0:0:
415,22,89553,1,10,0:1:0:0:
410,31,89630,1,2,0:0:0:0:
406,41,89707,1,2,0:0:0:0:
403,51,89784,1,2,0:0:0:0:
402,61,89861,1,2,0:0:0:0:
403,71,89938,1,2,0:0:0:0:
404,81,90015,5,12,0:0:0:0:
78,101,100015,6,0,L|69:24,3,72,8|2|2|2,0:0|0:0|0:0|0:0,0:0:0:0:
197,128,101246,2,0,L|206:51,3,72,2|2|2|2,0:0|0:0|0:0|0:0,0:0:0:0:
316,101,102476,2,0,L|324:29,3,72,2|2|2|2,0:0|0:0|0:0|0:0,0:0:0:0:
435,128,103707,2,0,L|426:51,3,72,2|2|2|2,0:0|0:0|0:0|0:0,0:0:0:0:
434,283,104938,6,0,L|443:360,3,72,2|2|2|2,0:0|0:0|0:0|0:0,0:0:0:0:
315,256,106169,2,0,L|306:333,3,72,2|2|2|2,0:0|0:0|0:0|0:0,0:0:0:0:
196,283,107399,1,10,0:0:0:0:
31,303,109246,5,10,0:0:0:0:
84,327,109322,1,10,0:0:0:0:
140,340,109399,1,10,0:0:0:0:
196,333,109476,1,10,0:0:0:0:
250,312,109553,1,10,0:0:0:0:
304,295,109630,1,10,0:0:0:0:
361,294,109707,1,10,0:0:0:0:
416,310,109784,1,10,0:0:0:0:
467,333,109861,6,0,P|481:296|474:235,1,90,12|0,0:0|0:0,0:0:0:0:
455,71,110169,2,0,P|426:105|385:124,1,90,10|0,0:1|0:0,0:0:0:0:
279,83,110476,1,8,0:0:0:0:
322,228,110630,1,8,0:0:0:0:
140,86,110784,1,8,0:1:0:0:
103,221,110938,6,0,P|115:170|100:83,1,135,8|0,0:0|0:0,0:0:0:0:
42,18,111246,1,8,0:0:0:0:
243,71,111399,1,8,0:1:0:0:
252,214,111553,2,0,L|267:69,1,135,8|0,0:0|0:0,0:0:0:0:
321,10,111861,1,8,0:0:0:0:
466,132,112015,2,0,B|446:172|446:172|456:264,1,135,8|0,0:1|0:0,0:0:0:0:
448,354,112323,6,0,B|408:334|408:334|316:344,1,135,8|0,0:0|0:0,0:0:0:0:
236,374,112630,2,0,L|220:222,1,135,8|0,0:1|0:0,0:0:0:0:
256,162,112938,1,8,0:0:0:0:
97,215,113092,1,8,0:0:0:0:
206,10,113246,1,8,0:1:0:0:
63,103,113399,6,0,P|109:113|160:105,1,90,8|0,0:0|0:0,0:0:0:0:
309,65,113707,1,8,0:0:0:0:
234,281,113861,1,8,0:1:0:0:
373,133,114015,1,8,0:0:0:0:
373,133,114092,1,8,0:0:0:0:
395,289,114246,1,8,0:1:0:0:
395,289,114323,1,8,0:0:0:0:
379,110,114476,1,8,0:1:0:0:
383,305,114630,1,8,0:1:0:0:
196,377,114784,6,0,L|40:360,1,135,8|0,0:0|0:0,0:0:0:0:
7,298,115092,2,0,P|30:253|50:155,1,135,8|0,0:1|0:0,0:0:0:0:
16,89,115399,1,8,0:0:0:0:
140,215,115553,2,0,B|197:206|197:206|224:221|224:221|281:210,1,135,8|0,0:0|0:0,0:0:0:0:
345,164,115861,6,0,P|322:209|302:307,1,135,8|0,0:1|0:0,0:0:0:0:
340,365,116169,1,8,0:0:0:0:
477,218,116323,2,0,B|462:170|462:170|480:74,1,135,8|0,0:1|0:0,0:0:0:0:
499,4,116630,1,8,0:0:0:0:
314,73,116784,2,0,L|175:64,1,135,8|0,0:1|0:0,0:0:0:0:
105,17,117092,6,0,P|124:72|116:154,1,135,12|0,0:0|0:0,0:0:0:0:
69,218,117399,1,8,0:0:0:0:
261,369,117553,1,8,0:1:0:0:
364,270,117707,1,8,0:0:0:0:
93,320,117861,1,8,0:1:0:0:
172,197,118015,1,8,0:0:0:0:
390,372,118169,1,8,0:1:0:0:
279,183,118323,2,0,L|335:176,1,45,8|0,0:0|0:0,0:0:0:0:
493,82,118476,5,2,0:0:0:0:
491,73,118553,1,2,0:0:0:0:
489,64,118630,1,10,0:0:0:0:
487,55,118707,1,2,0:0:0:0:
485,46,118784,5,10,0:0:0:0:
481,32,118861,1,10,0:0:0:0:
463,17,118938,1,10,0:0:0:0:
438,6,119015,1,10,0:0:0:0:
401,5,119092,1,10,0:1:0:0:
359,23,119169,1,10,0:0:0:0:
340,74,119246,1,10,0:0:0:0:
357,143,119323,1,10,0:0:0:0:
317,202,119400,1,10,0:1:0:0:
239,218,119476,1,10,0:0:0:0:
163,190,119553,1,10,0:0:0:0:
3,181,119707,5,12,0:0:0:0:
141,102,119861,1,8,0:0:0:0:
62,295,120015,2,0,B|106:272|106:272|226:290,1,135,8|0,0:1|0:0,0:0:0:0:
269,332,120323,1,8,0:0:0:0:
246,185,120476,1,8,0:0:0:0:
374,372,120630,1,8,0:1:0:0:
397,225,120784,6,0,B|414:175|414:175|405:81,1,135,8|0,0:0|0:0,0:0:0:0:
379,13,121092,1,8,0:0:0:0:
248,165,121246,1,8,0:1:0:0:
194,38,121399,2,0,L|40:51,1,135,8|0,0:0|0:0,0:0:0:0:
2,110,121707,1,8,0:0:0:0:
162,287,121861,1,8,0:1:0:0:
251,146,122015,6,0,L|405:159,1,135,12|0,0:0|0:0,0:0:0:0:
465,118,122323,1,8,0:0:0:0:
498,318,122476,2,0,B|452:328|452:328|410:309|410:309|351:321,1,135,8|0,0:1|0:0,0:0:0:0:
290,365,122784,1,8,0:0:0:0:
202,239,122938,1,8,0:0:0:0:
1,337,123092,1,8,0:1:0:0:
89,211,123246,6,0,P|59:167|43:85,1,135,8|0,0:0|0:0,0:0:0:0:
78,7,123553,1,8,0:0:0:0:
231,112,123707,1,8,0:1:0:0:
362,38,123861,2,0,P|332:82|316:164,1,135,8|0,0:0|0:0,0:0:0:0:
348,243,124169,1,8,0:0:0:0:
120,320,124323,1,8,0:1:0:0:
297,372,124476,6,0,L|446:353,1,135,12|0,0:0|0:0,0:0:0:0:
511,379,124784,1,8,0:0:0:0:
504,179,124938,2,0,B|459:193|459:193|360:169,1,135,8|0,0:1|0:0,0:0:0:0:
305,118,125246,1,8,0:0:0:0:
383,0,125399,1,8,0:0:0:0:
205,164,125553,1,8,0:1:0:0:
124,42,125707,6,0,L|109:201,1,135,8|0,0:0|0:0,0:0:0:0:
62,265,126015,1,8,0:0:0:0:
242,372,126169,1,8,0:1:0:0:
308,233,126323,2,0,L|293:74,1,135,8|0,0:0|0:0,0:0:0:0:
238,39,126630,1,8,0:0:0:0:
449,207,126784,1,8,0:1:0:0:
411,306,126938,1,8,0:0:0:0:
6,169,129399,6,0,P|67:178|147:103,1,175.499991966248,12|0,0:0|0:0,0:0:0:0:
179,22,129707,1,8,0:0:0:0:
437,234,129861,6,0,B|448:293|448:293|444:358,1,116.999994644165,8|0,0:1|0:0,0:0:0:0:
66,345,130169,2,0,B|55:286|55:286|59:221,1,116.999994644165,8|0,0:1|0:0,0:0:0:0:
447,244,130476,2,0,B|458:303|458:303|454:368,1,116.999994644165,8|0,0:1|0:0,0:0:0:0:
56,335,130784,2,0,B|45:276|45:276|49:211,1,116.999994644165,8|0,0:1|0:0,0:0:0:0:
132,34,131092,1,8,0:1:0:0:
293,64,131246,1,8,0:0:0:0:
61,97,131399,1,8,0:1:0:0:
378,19,131553,1,8,0:0:0:0:
151,120,131707,1,8,0:1:0:0:
355,140,131861,6,0,P|321:197|384:291,1,175.499991966248,12|0,0:0|0:0,0:0:0:0:
450,327,132169,1,8,0:0:0:0:
155,361,132323,6,0,B|98:373|98:373|40:365,1,116.999994644165,8|0,0:1|0:0,0:0:0:0:
176,35,132630,2,0,B|233:23|233:23|291:31,1,116.999994644165,8|0,0:1|0:0,0:0:0:0:
145,351,132938,2,0,B|88:363|88:363|30:355,1,116.999994644165,8|0,0:1|0:0,0:0:0:0:
186,45,133246,2,0,B|243:33|243:33|301:41,1,116.999994644165,8|0,0:1|0:0,0:0:0:0:
474,214,133553,1,8,0:1:0:0:
372,357,133707,1,8,0:0:0:0:
303,125,133861,1,8,0:1:0:0:
492,216,134015,1,8,0:0:0:0:
280,354,134168,1,8,0:1:0:0:
166,148,134323,6,0,P|236:154|279:57,1,175.499991966248,12|0,0:0|0:0,0:0:0:0:
236,1,134630,1,8,0:0:0:0:
43,225,134784,6,0,B|32:284|32:284|36:349,1,116.999994644165,8|0,0:1|0:0,0:0:0:0:
414,336,135092,2,0,B|425:277|425:277|421:212,1,116.999994644165,8|0,0:1|0:0,0:0:0:0:
33,235,135399,2,0,B|22:294|22:294|26:359,1,116.999994644165,8|0,0:1|0:0,0:0:0:0:
424,326,135707,2,0,B|435:267|435:267|431:202,1,116.999994644165,8|0,0:1|0:0,0:0:0:0:
23,245,136015,2,0,B|12:304|12:304|16:369,1,116.999994644165,8|0,0:1|0:0,0:0:0:0:
434,316,136323,2,0,B|445:257|445:257|441:192,1,116.999994644165,8|0,0:1|0:0,0:0:0:0:
301,368,136630,1,8,0:1:0:0:
172,204,136784,6,0,P|114:180|130:34,1,233.999989288331,12|0,0:0|0:0,0:0:0:0:
367,19,137246,1,8,0:1:0:0:
321,187,137399,1,8,0:0:0:0:
380,29,137553,1,8,0:1:0:0:
427,242,137707,1,8,0:0:0:0:
355,42,137861,1,8,0:1:0:0:
252,276,138015,6,0,B|202:258|202:258|73:279,1,175.499991966248,12|0,0:0|0:0,0:0:0:0:
16,217,138323,1,8,0:0:0:0:
7,173,138400,1,8,0:0:0:0:
20,132,138476,1,8,0:1:0:0:
129,33,138630,1,8,0:0:0:0:
335,237,138784,1,8,0:1:0:0:
392,239,138860,1,8,0:1:0:0:
445,214,138937,1,8,0:1:0:0:
479,168,139014,1,8,0:1:0:0:
488,111,139091,1,8,0:1:0:0:
468,56,139168,1,8,0:1:0:0:
425,17,139246,6,0,P|361:67|382:189,1,175.499991966248,12|0,0:0|0:0,0:0:0:0:
392,239,139553,1,8,0:0:0:0:
142,37,139707,6,0,B|85:25|85:25|27:33,1,116.999994644165,8|0,0:1|0:0,0:0:0:0:
163,363,140015,2,0,B|220:375|220:375|278:367,1,116.999994644165,8|0,0:1|0:0,0:0:0:0:
132,47,140323,2,0,B|75:35|75:35|17:43,1,116.999994644165,8|0,0:1|0:0,0:0:0:0:
173,353,140630,2,0,B|230:365|230:365|288:357,1,116.999994644165,8|0,0:1|0:0,0:0:0:0:
465,220,140938,1,8,0:1:0:0:
292,174,141092,1,8,0:0:0:0:
504,145,141246,1,8,0:1:0:0:
226,232,141399,1,8,0:0:0:0:
509,290,141553,1,8,0:1:0:0:
278,361,141707,6,0,P|267:303|155:294,1,175.499991966248,12|0,0:0|0:0,0:0:0:0:
90,339,142015,1,8,0:0:0:0:
413,82,142169,6,0,B|424:141|424:141|420:206,1,116.999994644165,8|0,0:1|0:0,0:0:0:0:
42,193,142477,2,0,B|31:134|31:134|35:69,1,116.999994644165,8|0,0:1|0:0,0:0:0:0:
423,92,142784,2,0,B|434:151|434:151|430:216,1,116.999994644165,8|0,0:1|0:0,0:0:0:0:
32,183,143092,2,0,B|21:124|21:124|25:59,1,116.999994644165,8|0,0:1|0:0,0:0:0:0:
230,86,143399,1,8,0:1:0:0:
152,206,143553,1,8,0:0:0:0:
339,57,143707,1,8,0:1:0:0:
148,33,143861,1,8,0:0:0:0:
316,278,144015,1,8,0:1:0:0:
509,187,144169,6,0,P|451:209|370:131,1,175.499991966248,12|0,0:0|0:0,0:0:0:0:
339,57,144476,1,8,0:0:0:0:
384,360,144630,6,0,B|327:372|327:372|269:364,1,116.999994644165,8|0,0:1|0:0,0:0:0:0:
50,60,144938,2,0,B|107:48|107:48|165:56,1,116.999994644165,8|0,0:1|0:0,0:0:0:0:
374,350,145245,2,0,B|317:362|317:362|259:354,1,116.999994644165,8|0,0:1|0:0,0:0:0:0:
60,70,145553,2,0,B|117:58|117:58|175:66,1,116.999994644165,8|0,0:1|0:0,0:0:0:0:
364,340,145861,2,0,B|307:352|307:352|249:344,1,116.999994644165,8|0,0:1|0:0,0:0:0:0:
70,80,146169,2,0,B|127:68|127:68|185:76,1,116.999994644165,8|0,0:1|0:0,0:0:0:0:
409,149,146476,1,8,0:1:0:0:
277,250,146630,6,0,L|90:237,1,175.499991966248,12|0,0:0|0:0,0:0:0:0:
36,162,146938,1,8,0:0:0:0:
229,336,147092,1,8,0:1:0:0:
371,237,147246,1,8,0:0:0:0:
160,97,147399,1,8,0:1:0:0:
211,116,147475,1,8,0:1:0:0:
264,113,147552,1,8,0:1:0:0:
313,90,147629,1,8,0:1:0:0:
364,74,147706,1,8,0:1:0:0:
417,82,147783,1,8,0:1:0:0:
464,108,147860,1,12,0:0:0:0:
472,115,148169,5,8,0:1:0:0:
472,115,148246,1,8,0:1:0:0:
472,115,148323,1,8,0:1:0:0:
393,282,148476,1,8,0:0:0:0:
110,122,148630,2,0,L|91:182,5,58.4999973220826,10|2|2|2|2|2,0:1|0:0|0:0|0:0|0:0|0:0,0:1:0:0:
90,51,149092,5,8,0:0:0:0:
180,154,168784,6,0,P|170:126|129:94,1,80.9999975280763,2|0,3:0|0:0,0:0:0:0:
130,94,169861,1,2,0:0:0:0:
11,190,170015,2,0,P|40:195|88:175,1,80.9999975280763,2|0,3:0|0:0,0:0:0:0:
86,177,171092,1,2,0:0:0:0:
59,33,171245,2,0,P|39:55|32:107,1,80.9999975280763,2|0,3:0|0:0,0:0:0:0:
32,104,172322,1,2,0:0:0:0:
130,94,172476,2,0,L|173:89,2,40.4999987640381,2|0|0,3:0|3:0|3:0,0:0:0:0:
295,128,173707,6,0,P|305:100|346:68,1,80.9999975280763,2|0,3:0|0:0,0:0:0:0:
344,68,174784,1,2,0:0:0:0:
464,164,174938,2,0,P|434:169|386:149,1,80.9999975280763,2|0,3:0|0:0,0:0:0:0:
389,151,176015,1,2,0:0:0:0:
416,7,176168,2,0,P|435:29|442:81,1,80.9999975280763,2|0,3:0|0:0,0:0:0:0:
443,78,177245,1,2,0:0:0:0:
345,68,177399,2,0,L|302:63,2,40.4999987640381,2|0|0,3:0|3:0|3:0,0:0:0:0:
492,253,178630,6,0,L|479:334,1,80.9999975280763,2|0,3:0|0:0,0:0:0:0:
479,332,179707,1,2,0:0:0:0:
384,256,179861,2,0,L|397:337,1,80.9999975280763,2|0,3:0|0:0,0:0:0:0:
396,335,180938,1,2,0:0:0:0:
288,256,181092,2,0,L|275:337,1,80.9999975280763,2|0,3:0|0:0,0:0:0:0:
275,335,182168,1,2,0:0:0:0:
281,246,182322,2,0,L|325:244,2,40.4999987640381,2|0|0,3:0|3:0|3:0,0:0:0:0:
20,253,183553,6,0,L|33:334,1,80.9999975280763,2|0,3:0|0:0,0:0:0:0:
33,332,184630,1,2,0:0:0:0:
128,256,184784,2,0,L|115:337,1,80.9999975280763,2|0,3:0|0:0,0:0:0:0:
116,335,185861,1,2,0:0:0:0:
224,256,186015,2,0,L|237:337,1,80.9999975280763,2|0,3:0|0:0,0:0:0:0:
236,335,187091,1,0,0:0:0:0:
231,246,187245,1,8,0:0:0:0:
98,153,188476,6,0,B|145:130|145:130|266:139,1,161.999995056153,12|0,0:0|0:0,0:0:0:0:
324,184,188782,1,8,0:0:0:0:
46,345,188936,6,0,B|32:289|32:289|44:224,1,107.999996704102,8|0,0:1|0:0,0:0:0:0:
476,324,189244,2,0,B|490:268|490:268|478:203,1,107.999996704102,8|0,0:1|0:0,0:0:0:0:
41,335,189552,2,0,B|27:279|27:279|39:214,1,107.999996704102,8|0,0:1|0:0,0:0:0:0:
481,314,189859,2,0,B|495:258|495:258|483:193,1,107.999996704102,8|0,0:1|0:0,0:0:0:0:
36,325,190167,2,0,B|22:269|22:269|34:204,1,107.999996704102,8|0,0:1|0:0,0:0:0:0:
486,304,190475,2,0,B|500:248|500:248|488:183,1,107.999996704102,8|0,0:1|0:0,0:0:0:0:
31,315,190782,1,8,0:1:0:0:
143,82,190936,1,12,0:0:0:0:
143,82,191244,1,8,0:0:0:0:
205,345,191398,6,0,B|261:359|261:359|326:347,1,107.999996704102,8|0,0:1|0:0,0:0:0:0:
237,34,191705,2,0,B|293:20|293:20|358:32,1,107.999996704102,8|0,0:1|0:0,0:0:0:0:
215,350,192013,2,0,B|271:364|271:364|336:352,1,107.999996704102,8|0,0:1|0:0,0:0:0:0:
247,29,192321,2,0,B|303:15|303:15|368:27,1,107.999996704102,8|0,0:1|0:0,0:0:0:0:
225,355,192629,2,0,B|281:369|281:369|346:357,1,107.999996704102,8|0,0:1|0:0,0:0:0:0:
257,24,192936,2,0,B|313:10|313:10|378:22,1,107.999996704102,8|0,0:1|0:0,0:0:0:0:
235,360,193244,1,8,0:1:0:0:
165,125,193398,1,12,0:0:0:0:
165,125,193705,1,8,0:0:0:0:
466,39,193859,6,0,B|480:95|480:95|468:160,1,107.999996704102,8|0,0:1|0:0,0:0:0:0:
36,60,194167,2,0,B|22:116|22:116|34:181,1,107.999996704102,8|0,0:1|0:0,0:0:0:0:
471,49,194475,2,0,B|485:105|485:105|473:170,1,107.999996704102,8|0,0:1|0:0,0:0:0:0:
31,70,194782,2,0,B|17:126|17:126|29:191,1,107.999996704102,8|0,0:1|0:0,0:0:0:0:
476,59,195090,2,0,B|490:115|490:115|478:180,1,107.999996704102,8|0,0:1|0:0,0:0:0:0:
26,80,195398,2,0,B|12:136|12:136|24:201,1,107.999996704102,8|0,0:1|0:0,0:0:0:0:
481,69,195705,1,8,0:1:0:0:
203,103,195859,1,12,0:0:0:0:
203,103,196167,1,8,0:0:0:0:
174,346,196321,6,0,B|118:360|118:360|53:348,1,107.999996704102,8|0,0:1|0:0,0:0:0:0:
142,35,196628,2,0,B|86:21|86:21|21:33,1,107.999996704102,8|0,0:1|0:0,0:0:0:0:
164,351,196936,2,0,B|108:365|108:365|43:353,1,107.999996704102,12|0,0:1|0:0,0:0:0:0:
58,355,197398,5,8,0:0:0:0:
58,355,197475,1,8,0:0:0:0:
58,355,197552,1,8,0:1:0:0:
143,216,197705,1,8,0:0:0:0:
22,73,197859,1,8,0:1:0:0:
24,62,197936,1,8,0:1:0:0:
26,51,198013,1,8,0:1:0:0:
28,40,198090,1,8,0:1:0:0:
30,29,198167,1,8,0:1:0:0:
171,88,198321,5,12,0:0:0:0:
307,72,208167,6,0,P|362:57|418:179,1,175.499991966248,12|0,0:0|0:0,0:0:0:0:
441,221,208475,1,8,0:0:0:0:
134,65,208629,6,0,B|77:42|77:42|5:78,1,116.999994644165,8|0,0:1|0:0,0:0:0:0:
325,338,208936,2,0,B|381:360|381:360|453:324,1,116.999994644165,8|0,0:1|0:0,0:0:0:0:
124,55,209244,2,0,B|67:32|67:32|-4:68,1,116.999994644165,8|0,0:1|0:0,0:0:0:0:
335,348,209552,2,0,B|391:370|391:370|463:334,1,116.999994644165,8|0,0:1|0:0,0:0:0:0:
243,168,209859,1,8,0:1:0:0:
163,329,210013,1,8,0:0:0:0:
174,110,210167,1,8,0:1:0:0:
240,375,210321,1,8,0:0:0:0:
321,128,210475,1,8,0:1:0:0:
144,23,210629,6,0,P|92:65|127:181,1,175.499991966248,12|0,0:0|0:0,0:0:0:0:
156,232,210936,1,8,0:0:0:0:
466,126,211090,6,0,B|488:70|488:70|452:-2,1,116.999994644165,8|0,0:1|0:0,0:0:0:0:
155,251,211398,2,0,B|133:307|133:307|169:379,1,116.999994644165,8|0,0:1|0:0,0:0:0:0:
456,116,211705,2,0,B|478:60|478:60|442:-12,1,116.999994644165,8|0,0:1|0:0,0:0:0:0:
145,261,212013,2,0,B|123:317|123:317|159:389,1,116.999994644165,8|0,0:1|0:0,0:0:0:0:
309,166,212321,1,8,0:1:0:0:
143,108,212475,1,8,0:0:0:0:
320,290,212629,1,8,0:1:0:0:
237,104,212782,1,8,0:0:0:0:
20,256,212936,1,8,0:1:0:0:
256,353,213090,6,0,P|230:298|299:209,1,175.499991966248,12|0,0:0|0:0,0:0:0:0:
380,191,213398,1,8,0:0:0:0:
138,365,213552,6,0,B|82:387|82:387|10:351,1,116.999994644165,8|0,0:1|0:0,0:0:0:0:
267,37,213859,2,0,B|323:15|323:15|395:51,1,116.999994644165,8|0,0:1|0:0,0:0:0:0:
128,355,214167,2,0,B|72:377|72:377|0:341,1,116.999994644165,8|0,0:1|0:0,0:0:0:0:
277,47,214475,2,0,B|333:25|333:25|405:61,1,116.999994644165,8|0,0:1|0:0,0:0:0:0:
118,345,214782,2,0,B|62:367|62:367|-10:331,1,116.999994644165,8|0,0:1|0:0,0:0:0:0:
287,57,215090,2,0,B|343:35|343:35|415:71,1,116.999994644165,8|0,0:1|0:0,0:0:0:0:
152,138,215398,1,8,0:1:0:0:
251,307,215552,6,0,P|266:244|441:228,1,233.999989288331,12|0,0:0|0:0,0:0:0:0:
507,368,216013,1,8,0:1:0:0:
492,178,216167,1,8,0:0:0:0:
336,381,216321,1,8,0:1:0:0:
264,133,216475,1,8,0:0:0:0:
17,325,216629,1,8,0:1:0:0:
32,133,216782,6,0,B|75:94|75:94|202:89,1,175.499991966248,12|0,0:0|0:0,0:0:0:0:
262,42,217090,1,8,0:0:0:0:
319,54,217167,1,8,0:0:0:0:
375,37,217244,1,8,0:1:0:0:
507,192,217398,1,8,0:0:0:0:
258,355,217552,1,8,0:1:0:0:
155,156,217705,1,8,0:0:0:0:
157,132,217782,1,8,0:0:0:0:
158,108,217859,1,8,0:0:0:0:
159,84,217936,1,8,0:0:0:0:
160,60,218013,1,12,0:0:0:0:
160,60,218321,5,8,0:0:0:0:
35,132,218629,1,8,0:0:0:0:
35,132,218706,1,8,0:0:0:0:
35,132,218783,1,8,0:1:0:0:
35,132,219398,5,8,0:0:0:0:
106,284,219552,1,8,0:0:0:0:
106,284,219859,5,8,0:0:0:0:
198,111,220013,1,8,0:1:0:0:
334,196,220167,1,8,0:0:0:0:
242,23,220321,1,8,0:1:0:0:
408,54,220475,1,8,0:0:0:0:
408,54,220782,5,8,0:0:0:0:
478,189,221090,1,8,0:0:0:0:
478,189,221167,1,8,0:0:0:0:
478,189,221244,1,8,0:1:0:0:
478,189,221859,5,8,0:0:0:0:
364,341,222013,1,8,0:0:0:0:
364,341,222321,5,8,0:0:0:0:
321,163,222475,1,8,0:1:0:0:
321,163,222782,5,8,0:1:0:0:
364,341,222936,2,0,B|313:320|313:320|215:339,1,148.50000453186,12|0,0:0|0:0,0:0:0:0:
147,377,223244,1,8,0:0:0:0:
21,172,223398,2,0,B|72:151|72:151|170:170,1,148.50000453186,8|0,0:1|0:0,0:0:0:0:
237,221,223705,1,8,0:0:0:0:
350,115,223859,1,8,0:0:0:0:
463,346,224013,2,0,B|474:286|474:286|457:252|457:252|466:194,1,148.50000453186,8|0,0:1|0:0,0:0:0:0:
505,122,224321,5,8,0:0:0:0:
362,10,224475,1,8,0:0:0:0:
203,166,224629,1,8,0:1:0:0:
128,45,224782,2,0,P|92:78|53:184,1,148.50000453186,8|0,0:0|0:0,0:0:0:0:
95,247,225090,1,8,0:1:0:0:
206,384,225244,1,8,0:0:0:0:
199,149,225398,6,0,L|395:160,1,148.50000453186,12|0,0:1|0:0,0:0:0:0:
427,200,225705,1,8,0:0:0:0:
196,281,225859,1,8,0:1:0:0:
100,125,226013,1,8,0:0:0:0:
108,76,226090,1,8,0:0:0:0:
117,27,226167,1,8,0:1:0:0:
212,166,226321,1,8,0:0:0:0:
7,358,226475,1,8,0:1:0:0:
87,224,226629,1,8,0:0:0:0:
239,362,226782,5,2,0:0:0:0:
276,374,226858,1,2,0:0:0:0:
315,379,226935,1,10,0:0:0:0:
354,375,227012,1,2,0:0:0:0:
399,365,227090,6,0,P|412:357|426:353,1,24.7500007553101,10|0,0:1|0:0,0:0:0:0:
358,337,227166,1,8,0:0:0:0:
326,299,227243,1,8,0:0:0:0:
305,254,227321,2,0,P|289:254|275:259,1,24.7500007553101,10|0,0:0|0:0,0:0:0:0:
296,206,227397,1,8,0:0:0:0:
300,157,227475,2,0,P|284:156|270:151,1,24.7500007553101,10|0,0:0|0:0,0:0:0:0:
316,110,227552,2,0,P|331:110|345:115,1,24.7500007553101,10|0,0:0|0:0,0:0:0:0:
345,70,227628,1,8,0:0:0:0:
382,38,227705,2,0,P|369:29|359:18,1,24.7500007553101,10|0,0:1|0:0,0:0:0:0:
427,17,227782,2,0,P|436:29|441:42,1,24.7500007553101,10|0,0:0|0:0,0:0:0:0:
473,3,227859,6,0,B|495:59|495:59|477:184,1,175.499991966248,12|0,0:0|0:0,0:0:0:0:
506,259,228167,1,8,0:0:0:0:
109,68,228321,6,0,B|64:24|64:24|25:76,1,116.999994644165,8|0,0:1|0:0,0:0:0:0:
366,321,228629,2,0,B|410:364|410:364|449:312,1,116.999994644165,8|0,0:1|0:0,0:0:0:0:
94,83,228936,2,0,B|49:39|49:39|10:91,1,116.999994644165,8|4,0:1|0:0,0:0:0:0:
84,98,229398,5,8,0:0:0:0:
376,336,229552,2,0,B|420:379|420:379|459:327,1,116.999994644165,12|0,0:1|0:0,0:0:0:0:
241,340,229859,1,8,0:1:0:0:
248,267,229935,1,8,0:1:0:0:
255,194,230012,1,8,0:1:0:0:
262,121,230089,1,8,0:1:0:0:
269,48,230166,1,8,0:1:0:0:
79,288,230321,6,0,B|36:332|36:332|87:371,1,116.999994644165,12|0,0:0|0:0,0:0:0:0:
64,273,230629,1,8,0:0:0:0:
441,113,230782,2,0,B|484:69|484:69|432:30,1,116.999994644165,8|0,0:1|0:0,0:0:0:0:
49,258,231090,2,0,B|6:302|6:302|57:341,1,116.999994644165,8|0,0:1|0:0,0:0:0:0:
456,128,231398,2,0,B|499:84|499:84|447:45,1,116.999994644165,8|4,0:1|0:0,0:0:0:0:
471,143,231859,5,8,0:0:0:0:
34,243,232013,2,0,B|-9:287|-9:287|42:326,1,116.999994644165,12|0,0:1|0:0,0:0:0:0:
16,119,232321,1,8,0:1:0:0:
89,112,232397,1,8,0:1:0:0:
162,105,232474,1,8,0:1:0:0:
235,98,232551,1,8,0:1:0:0:
308,91,232628,1,8,0:1:0:0:
110,335,232782,6,0,B|151:377|151:377|193:327,1,116.999994644165,12|0,0:0|0:0,0:0:0:0:
95,320,233090,1,8,0:0:0:0:
402,49,233244,2,0,B|358:8|358:8|319:57,1,116.999994644165,8|0,0:1|0:0,0:0:0:0:
80,305,233552,2,0,B|121:347|121:347|163:297,1,116.999994644165,8|0,0:1|0:0,0:0:0:0:
417,64,233859,2,0,B|373:23|373:23|334:72,1,116.999994644165,8|4,0:1|0:0,0:0:0:0:
432,79,234321,5,8,0:0:0:0:
65,290,234475,2,0,B|106:332|106:332|148:282,1,116.999994644165,12|0,0:1|0:0,0:0:0:0:
337,373,234782,1,8,0:1:0:0:
330,300,234858,1,8,0:1:0:0:
323,227,234935,1,8,0:1:0:0:
316,154,235012,1,8,0:1:0:0:
309,81,235089,1,8,0:1:0:0:
59,28,235244,6,0,B|17:69|17:69|67:111,1,116.999994644165,12|0,0:0|0:0,0:0:0:0:
74,43,235552,1,8,0:0:0:0:
412,356,235705,2,0,B|454:315|454:315|404:273,1,116.999994644165,8|0,0:1|0:0,0:0:0:0:
192,184,236013,1,8,0:0:0:0:
274,33,236167,1,8,0:0:0:0:
93,253,236321,1,8,0:1:0:0:
19,113,236475,6,0,P|78:84|195:82,1,175.499991966248,12|0,0:0|0:0,0:0:0:0:
271,126,236782,1,8,0:0:0:0:
461,15,236936,2,0,L|486:210,1,175.499991966248,8|0,0:1|0:0,0:0:0:0:
444,278,237244,1,8,0:1:0:0:
246,376,237398,1,8,0:0:0:0:
246,376,237475,1,8,0:0:0:0:
246,376,237552,1,8,0:1:0:0:
9,292,237705,5,12,0:0:0:0:
256,192,237782,12,0,240398,0:0:0:0:
