osu file format v14

[General]
AudioFilename: audio.mp3
AudioLeadIn: 0
PreviewTime: 1169
Countdown: 0
SampleSet: Soft
StackLeniency: 0.7
Mode: 0
LetterboxInBreaks: 0
WidescreenStoryboard: 1

[Editor]
Bookmarks: 20784,31015,40861,50784,60707,70323,80323,90169,100015,109861,119707,129476,149168,168861,188476,198321,208090,218013,227859,237859
DistanceSpacing: 0.8
BeatDivisor: 4
GridSize: 32
TimelineZoom: 2.799999

[Metadata]
Title:Sweet Sweet Cendrillon Drug
TitleUnicode:Sweet Sweet Cendrillon Drug
Artist:MuryokuP
ArtistUnicode:無力P
Creator:Mordred
Version:Nao's Hard
Source:
Tags:VOCALOID Megurine Luka Leda uz uzP kz Remix Ao Rock nao tomori naotoshi stjpa trynna
BeatmapID:1844331
BeatmapSetID:878167

[Difficulty]
HPDrainRate:4.5
CircleSize:3.2
OverallDifficulty:6.5
ApproachRate:8
SliderMultiplier:1.4
SliderTickRate:1

[Events]
//Background and Video events
0,0,"needabetterbgtbh.png",0,0
//Break Periods
2,149291,167553
2,198521,207090
//Storyboard Layer 0 (Background)
//Storyboard Layer 1 (Fail)
//Storyboard Layer 2 (Pass)
//Storyboard Layer 3 (Foreground)
//Storyboard Sound Samples

[TimingPoints]
323,307.692307692308,4,2,1,70,1,0
18630,-100,4,2,1,20,0,0
19861,-100,4,2,1,50,0,0
20784,-76.9230769230769,4,2,1,70,0,0
21092,-100,4,2,1,80,0,0
40938,-114.942528735632,4,2,1,60,0,0
50476,-100,4,2,1,70,0,0
50784,-105.263157894737,4,2,1,70,0,0
60476,-100,4,2,1,70,0,0
68938,-50,4,2,1,70,0,0
70323,-86.9565217391304,4,2,1,80,0,1
90015,-100,4,2,1,80,0,0
99707,-76.9230769230769,4,2,1,80,0,0
100323,-294.117647058824,4,2,1,40,0,0
107399,-100,4,2,1,40,0,0
109861,-105.263157894737,4,2,1,70,0,0
119553,-100,4,2,1,70,0,0
129399,-83.3333333333333,4,2,1,80,0,1
148938,-100,4,2,1,80,0,1
149092,307.692307692308,4,2,1,80,1,0
168784,-133.333333333333,4,2,1,60,0,0
188476,-76.9230769230769,4,2,1,80,0,1
188629,307.692307692308,4,2,1,80,1,1
188629,-76.9230769230769,4,2,1,80,0,1
198321,-100,4,2,1,80,0,0
207859,-76.9230769230769,4,2,1,60,0,0
208167,-83.3333333333333,4,2,1,80,0,1
217705,-83.3333333333333,4,2,2,80,0,1
218013,-100,4,2,1,80,0,0
218782,-100,4,2,1,80,0,1
218859,-100,4,2,1,80,0,0
220475,-100,4,2,1,80,0,1
220552,-100,4,2,1,80,0,0
221859,-100,4,2,1,80,0,1
221936,-100,4,2,1,80,0,0
222936,-100,4,2,1,80,0,1
227821,-83.3333333333333,4,2,1,80,0,0
227859,-83.3333333333333,4,2,1,80,0,1
237705,-100,4,2,1,80,0,0
240398,-100,4,2,1,40,0,0

[Colours]
Combo1 : 255,128,0
Combo2 : 255,128,128
Combo3 : 255,128,64
Combo4 : 166,83,83

[HitObjects]
120,155,20784,6,0,P|188:147|230:214,1,136.499993751526,0|0,0:2|0:2,0:0:0:0:
147,234,21092,6,0,P|84:204|14:198,1,140,6|0,3:2|3:2,0:0:0:0:
182,329,21553,2,0,P|244:299|314:293,1,140,8|2,0:2|3:2,0:0:0:0:
409,344,22015,1,0,3:2:0:0:
409,344,22169,1,8,0:2:0:0:
500,278,22323,6,0,P|505:218|499:110,1,140,6|0,3:2|3:2,0:0:0:0:
430,49,22784,1,8,0:2:0:0:
340,101,22938,1,8,0:2:0:0:
340,101,23015,1,8,0:2:0:0:
340,101,23092,2,0,L|249:96,2,70,2|0|8,3:2|3:2|0:2,0:0:0:0:
206,23,23553,6,0,P|175:77|152:154,1,140,6|0,3:2|3:2,0:0:0:0:
228,243,24015,2,0,P|253:302|194:378,1,140,8|2,0:2|3:2,0:0:0:0:
118,341,24476,1,0,3:2:0:0:
118,341,24630,1,8,0:2:0:0:
16,373,24784,6,0,P|5:332|-8:230,1,140,6|0,3:2|3:2,0:0:0:0:
71,81,25246,2,0,P|86:134|73:174,1,70,12|0,0:2|3:2,0:0:0:0:
225,104,25553,2,0,P|202:154|166:176,1,70,14|0,0:2|3:2,0:0:0:0:
316,192,25861,1,12,0:2:0:0:
316,192,26015,6,0,P|275:236|194:268,1,140,6|0,3:2|3:2,0:0:0:0:
48,198,26476,2,0,P|84:158|164:189,1,140,8|2,0:2|3:2,0:0:0:0:
57,296,26938,1,0,3:2:0:0:
57,296,27092,1,8,0:2:0:0:
12,190,27246,6,0,P|11:131|15:28,1,140,6|0,3:2|3:2,0:0:0:0:
131,12,27707,1,8,0:2:0:0:
354,132,28015,1,10,0:2:0:0:
354,132,28169,1,0,3:2:0:0:
354,132,28323,1,8,0:2:0:0:
447,56,28476,6,0,P|464:129|485:214,1,140,6|0,3:2|3:2,0:0:0:0:
422,302,28938,2,0,P|369:337|267:319,1,140,8|2,0:2|3:2,0:0:0:0:
222,252,29399,1,0,3:2:0:0:
222,252,29553,1,8,0:2:0:0:
130,342,29707,6,0,P|57:331|15:265,1,140,6|0,3:2|3:2,0:0:0:0:
34,244,30092,1,0,3:2:0:0:
34,244,30169,2,0,L|42:169,1,70,0|0,3:2|3:2,0:0:0:0:
132,106,30476,1,2,3:2:0:0:
144,104,30553,1,2,3:2:0:0:
157,108,30630,1,2,3:2:0:0:
165,117,30707,1,2,3:2:0:0:
169,130,30784,1,2,3:2:0:0:
151,213,30938,6,0,P|206:175|296:202,1,140,6|0,3:2|3:2,0:0:0:0:
359,130,31399,2,0,P|377:191|410:286,1,140,8|2,0:2|3:2,0:0:0:0:
493,328,31861,1,0,3:2:0:0:
493,328,32015,1,8,0:2:0:0:
375,373,32169,6,0,B|298:364|215:365|215:365,1,140,6|0,3:2|3:2,0:0:0:0:
142,301,32630,2,0,P|125:246|132:217,1,70,8|8,0:2|0:2,0:0:0:0:
144,203,32861,1,8,0:2:0:0:
144,203,32938,1,2,3:2:0:0:
249,249,33092,2,0,P|326:235|327:235,1,70,0|8,3:2|0:2,0:0:0:0:
438,302,33399,6,0,P|413:241|419:142,1,140,6|0,3:2|3:2,0:0:0:0:
472,62,33861,1,8,0:2:0:0:
240,12,34169,1,2,3:2:0:0:
240,12,34323,1,0,3:2:0:0:
240,12,34476,1,8,0:2:0:0:
313,88,34630,6,0,P|312:157|287:222,1,140,6|0,3:2|3:2,0:0:0:0:
121,261,35092,2,0,P|159:235|206:227,1,70,12|0,0:2|3:2,0:0:0:0:
104,120,35399,2,0,P|149:124|190:148,1,70,14|0,0:2|3:2,0:0:0:0:
198,21,35707,1,12,0:2:0:0:
198,21,35861,6,0,B|275:27|249:67|351:70,1,140,6|0,3:2|3:2,0:0:0:0:
432,20,36323,2,0,P|419:67|408:162,1,140,8|2,0:2|3:2,0:0:0:0:
481,244,36784,1,0,3:2:0:0:
481,244,36938,1,8,0:2:0:0:
388,321,37092,6,0,P|339:298|229:330,1,140,6|0,3:2|3:2,0:0:0:0:
495,362,37553,2,0,P|502:312|504:221,1,140,8|10,0:2|0:2,0:0:0:0:
435,117,38015,1,0,3:2:0:0:
435,117,38169,1,8,0:2:0:0:
332,185,38323,6,0,P|268:206|172:201,2,140,6|0|0,3:2|3:2|3:2,0:0:0:0:
350,161,39015,1,0,3:2:0:0:
350,161,39092,1,14,0:2:0:0:
245,83,39246,2,0,L|229:8,1,70,0|8,3:2|0:2,0:0:0:0:
116,73,39553,6,0,P|99:123|58:212,1,140,6|0,3:2|3:2,0:0:0:0:
183,339,40015,2,0,P|178:284|148:249,1,70,12|2,0:2|3:2,0:0:0:0:
305,239,40323,2,0,P|265:200|220:192,1,70,12|2,0:2|3:2,0:0:0:0:
333,106,40630,1,12,0:2:0:0:
331,97,40707,1,8,0:2:0:0:
330,88,40784,1,8,0:2:0:0:
329,79,40861,1,8,0:2:0:0:
328,70,40938,6,0,P|388:67|444:120,2,121.800001022186,6|10|2,3:2|0:2|3:2,0:0:0:0:
238,26,41707,1,0,3:2:0:0:
238,26,41861,1,10,0:2:0:0:
157,95,42015,2,0,P|152:142|141:225,1,121.800001022186,2|0,3:3|3:2,0:0:0:0:
217,294,42476,1,10,0:2:0:0:
217,294,42630,1,0,3:2:0:0:
390,225,42938,1,0,3:2:0:0:
390,225,43092,1,10,0:2:0:0:
482,351,43399,6,0,P|446:368|363:358,2,121.800001022186,2|10|2,3:2|0:2|3:2,0:0:0:0:
424,268,44169,1,0,3:2:0:0:
424,268,44323,1,10,0:2:0:0:
329,361,44476,2,0,P|273:363|187:373,1,121.800001022186,2|0,3:3|3:2,0:0:0:0:
121,307,44938,1,8,0:2:0:0:
121,307,45092,2,0,P|96:265|89:203,1,91.3500007666397,0|8,3:2|0:2,0:0:0:0:
107,188,45399,2,0,L|103:111,1,60.9000005110931,0|10,3:2|0:2,0:0:0:0:
102,10,45707,1,8,0:2:0:0:
216,54,45861,6,0,P|279:72|348:40,2,121.800001022186,2|10|2,3:2|0:0|3:2,0:0:0:0:
120,125,46630,1,0,3:2:0:0:
120,125,46784,1,10,0:0:0:0:
29,60,46938,2,0,P|18:104|-3:192,1,121.800001022186,2|0,3:3|3:0,0:0:0:0:
70,255,47399,1,10,0:2:0:0:
70,255,47553,2,0,P|126:230|195:257,1,121.800001022186,0|0,3:2|3:2,0:0:0:0:
246,344,48015,1,10,0:0:0:0:
470,225,48323,6,0,P|486:164|457:92,2,121.800001022186,2|10|2,3:2|0:0|3:2,0:0:0:0:
387,296,49092,1,0,3:2:0:0:
387,296,49246,2,0,L|299:291,1,60.9000005110931,10|0,0:0|3:0,0:0:0:0:
221,229,49553,1,8,0:0:0:0:
139,312,49707,1,0,3:0:0:0:
139,312,49784,1,0,3:0:0:0:
139,312,49861,2,0,L|55:309,1,60.9000005110931,8|0,0:0|3:0,0:0:0:0:
13,230,50169,6,0,L|-32:250,3,30.4500002555466,2|2|2|2,3:2|3:2|3:2|3:2,0:0:0:0:
26,184,50476,2,0,P|50:132|74:114,1,70,2|0,3:2|0:0,0:0:0:0:
148,68,50784,6,0,P|190:91|278:62,1,132.999996448517,6|10,3:2|0:0,0:0:0:0:
359,116,51246,1,0,0:0:0:0:
455,63,51399,2,0,P|472:120|476:143,1,66.4999982242585,2|0,3:2|3:2,0:0:0:0:
411,219,51707,1,10,0:0:0:0:
411,219,51861,6,0,P|406:259|351:339,1,132.999996448517,2|0,3:3|3:2,0:0:0:0:
251,300,52323,1,10,0:2:0:0:
251,300,52476,2,0,P|181:291|170:291,1,66.4999982242585,0|2,3:2|0:2,0:0:0:0:
83,352,52784,1,0,3:2:0:0:
24,260,52938,2,0,P|14:202|24:175,1,66.4999982242585,10|0,0:2|0:2,0:0:0:0:
97,78,53246,6,0,B|130:93|138:117|138:117|121:204,1,132.999996448517,6|10,3:2|0:2,0:0:0:0:
189,277,53707,1,0,0:2:0:0:
282,208,53861,2,0,P|332:202|379:206,1,66.4999982242585,2|0,3:2|3:2,0:0:0:0:
441,247,54169,1,10,0:2:0:0:
441,247,54323,6,0,P|430:193|413:110,1,132.999996448517,2|0,3:3|3:2,0:0:0:0:
467,19,54784,1,8,0:2:0:0:
352,11,54938,2,0,P|310:11|244:36,1,99.7499973363877,0|8,3:2|0:2,0:0:0:0:
230,53,55246,2,0,L|232:139,1,66.4999982242585,0|10,3:2|0:2,0:0:0:0:
232,240,55553,1,8,0:2:0:0:
121,194,55707,6,0,P|75:187|7:250,1,132.999996448517,6|10,3:2|0:2,0:0:0:0:
107,309,56169,1,0,0:2:0:0:
209,239,56323,2,0,L|215:163,1,66.4999982242585,2|0,3:2|3:2,0:0:0:0:
297,104,56630,1,2,0:2:0:0:
382,196,56784,6,0,P|468:185|528:169,1,132.999996448517,8|0,0:2|3:2,0:0:0:0:
311,275,57246,2,0,P|296:337|294:361,1,66.4999982242585,10|0,0:2|0:2,0:0:0:0:
433,345,57553,1,0,3:2:0:0:
433,345,57707,2,0,P|427:312|417:280,1,66.4999982242585,8|0,0:2|0:2,0:0:0:0:
321,163,58015,6,0,P|286:193|178:187,1,132.999996448517,6|0,3:2|3:2,0:0:0:0:
109,116,58476,1,12,0:2:0:0:
109,116,58630,1,0,3:2:0:0:
30,195,58784,2,0,P|27:235|36:280,2,66.4999982242585,12|0|12,0:2|3:2|0:2,0:0:0:0:
130,319,59246,5,6,3:2:0:0:
283,169,59553,1,0,3:0:0:0:
419,330,59861,1,2,3:2:0:0:
479,257,60015,2,0,P|483:214|477:161,1,66.4999982242585,10|2,2:2|3:2,0:0:0:0:
434,100,60323,1,10,2:2:0:0:
308,196,60476,6,0,P|246:229|167:208,1,140,6|0,3:2|3:2,0:0:0:0:
105,125,60938,1,8,0:2:0:0:
317,24,61246,1,0,3:2:0:0:
317,24,61399,1,0,3:2:0:0:
317,24,61553,1,8,0:2:0:0:
398,91,61707,2,0,P|443:102|530:54,1,140,2|0,3:3|3:2,0:0:0:0:
306,132,62169,2,0,P|304:174|310:216,1,70,8|0,0:2|3:2,0:0:0:0:
394,285,62476,5,2,0:2:0:0:
394,285,62630,1,0,3:2:0:0:
394,285,62784,1,8,0:2:0:0:
494,200,62938,6,0,P|487:113|481:37,1,140,6|0,3:2|3:2,0:0:0:0:
386,15,63399,1,8,0:2:0:0:
207,161,63707,2,0,P|212:202|220:236,2,70,2|2|8,3:3|3:3|0:2,0:0:0:0:
134,51,64169,2,0,P|114:123|93:186,1,140,2|0,3:2|3:0,0:0:0:0:
46,265,64630,1,8,0:2:0:0:
46,265,64784,2,0,L|63:360,1,70,0|0,3:0|0:0,0:0:0:0:
184,337,65092,2,0,L|196:268,1,70,0|8,3:0|0:0,0:0:0:0:
300,373,65399,6,0,P|315:285|300:223,1,140,6|0,3:2|3:2,0:0:0:0:
219,165,65861,2,0,P|273:196|356:201,1,140,8|0,0:2|3:2,0:0:0:0:
450,142,66323,2,0,L|451:60,1,70,0|8,3:2|0:2,0:0:0:0:
355,10,66630,2,0,P|307:27|204:17,1,140,2|0,3:3|3:2,0:0:0:0:
129,74,67092,1,8,0:2:0:0:
129,74,67246,2,0,L|120:154,1,70,2|0,3:3|0:0,0:0:0:0:
206,224,67553,1,0,3:2:0:0:
206,224,67707,1,8,0:2:0:0:
120,296,67861,6,0,P|77:312|-18:275,1,140,6|0,3:2|3:2,0:0:0:0:
215,255,68323,2,0,P|232:300|237:331,1,70,12|0,0:2|3:2,0:0:0:0:
318,243,68630,2,0,P|325:209|339:177,1,70,12|0,0:2|3:2,0:0:0:0:
429,243,68938,6,0,B|442:290|442:290|441:327|441:327|461:398,1,140,12|2,0:2|3:2,0:0:0:0:
7,22,70323,6,0,P|63:19|115:117,1,161.000003070831,6|0,3:2|3:0,0:0:0:0:
52,182,70784,2,0,L|43:280,1,80.5000015354157,10|0,0:2|3:0,0:0:0:0:
134,325,71092,2,0,P|185:351|235:350,1,80.5000015354157,10|0,0:2|3:0,0:0:0:0:
308,294,71399,1,10,0:2:0:0:
308,294,71553,1,0,3:0:0:0:
418,353,71707,6,0,L|423:187,1,161.000003070831,10|10,0:2|0:0,0:0:0:0:
503,101,72169,2,0,P|497:37|477:-4,1,80.5000015354157,2|8,3:2|0:0,0:0:0:0:
381,8,72476,1,2,3:2:0:0:
381,8,72630,1,10,0:0:0:0:
302,91,72784,6,0,P|219:114|120:122,1,161.000003070831,6|0,3:2|3:0,0:0:0:0:
52,72,73246,2,0,P|30:133|22:163,1,80.5000015354157,10|0,0:0|3:0,0:0:0:0:
98,242,73553,2,0,P|118:282|149:316,1,80.5000015354157,10|0,0:0|3:0,0:0:0:0:
260,292,73861,2,0,P|316:296|357:286,1,80.5000015354157,10|0,0:0|3:0,0:0:0:0:
455,353,74169,6,0,P|428:275|419:188,1,161.000003070831,10|10,0:0|0:0,0:0:0:0:
474,82,74630,2,0,P|462:25|449:-11,1,80.5000015354157,2|8,3:2|0:0,0:0:0:0:
361,59,74938,1,2,3:2:0:0:
361,59,75092,1,10,0:0:0:0:
253,19,75246,6,0,P|238:75|226:194,1,161.000003070831,6|0,3:2|3:0,0:0:0:0:
311,257,75707,2,0,P|373:263|424:273,1,80.5000015354157,10|0,0:0|3:0,0:0:0:0:
232,336,76015,2,0,P|167:337|132:336,1,80.5000015354157,10|0,0:0|3:0,0:0:0:0:
47,264,76323,2,0,P|30:209|25:173,1,80.5000015354157,10|0,0:0|3:0,0:0:0:0:
100,82,76630,6,0,B|179:53|182:118|284:80,1,161.000003070831,10|10,0:0|0:0,0:0:0:0:
372,29,77092,1,0,3:0:0:0:
456,104,77246,2,0,P|472:154|474:203,1,80.5000015354157,10|0,0:0|3:2,0:0:0:0:
419,271,77553,1,10,0:0:0:0:
419,271,77707,6,0,B|369:275|335:251|335:251|294:250|236:281,1,161.000003070831,6|0,3:2|3:0,0:0:0:0:
174,339,78169,2,0,L|83:336,1,80.5000015354157,10|2,0:2|3:2,0:0:0:0:
33,248,78476,1,10,0:2:0:0:
95,159,78630,2,0,P|88:105|76:61,1,80.5000015354157,2|10,3:2|0:0,0:0:0:0:
157,245,78938,6,0,P|217:234|329:209,1,161.000003070831,6|0,3:2|3:0,0:0:0:0:
342,240,79323,1,0,3:0:0:0:
342,240,79399,1,8,0:0:0:0:
429,191,79553,2,0,P|441:124|446:97,1,80.5000015354157,0|8,3:0|0:0,0:0:0:0:
366,28,79861,1,8,0:0:0:0:
366,28,79938,1,8,0:0:0:0:
366,28,80015,1,8,0:0:0:0:
268,103,80169,6,0,P|207:129|117:111,1,161.000003070831,6|0,3:2|3:0,0:0:0:0:
68,221,80630,2,0,P|60:260|59:325,1,80.5000015354157,10|0,0:0|3:0,0:0:0:0:
170,360,80938,1,10,0:0:0:0:
268,288,81092,2,0,P|361:263|379:259,1,80.5000015354157,0|10,3:2|0:2,0:0:0:0:
184,223,81399,1,0,3:0:0:0:
184,223,81553,6,0,P|169:171|154:30,1,161.000003070831,10|10,0:0|0:0,0:0:0:0:
269,115,82015,2,0,P|309:118|349:110,1,80.5000015354157,2|8,3:2|0:0,0:0:0:0:
431,45,82323,1,2,3:2:0:0:
431,45,82476,1,10,0:0:0:0:
507,153,82630,6,0,P|514:224|509:314,1,161.000003070831,6|0,3:2|3:0,0:0:0:0:
397,372,83092,1,10,0:0:0:0:
300,309,83246,2,0,P|244:309|205:314,1,80.5000015354157,0|10,3:2|0:2,0:0:0:0:
108,361,83553,1,0,3:0:0:0:
35,273,83707,2,0,P|21:204|24:172,1,80.5000015354157,10|0,0:0|3:0,0:0:0:0:
100,98,84015,6,0,P|156:93|199:96,1,80.5000015354157,10|0,0:0|3:2,0:0:0:0:
272,161,84323,1,10,0:0:0:0:
272,161,84476,2,0,P|327:171|375:171,1,80.5000015354157,2|8,3:2|0:0,0:0:0:0:
461,116,84784,1,2,3:2:0:0:
355,67,84938,1,10,0:0:0:0:
347,188,85092,6,0,P|355:252|382:350,1,161.000003070831,6|0,3:2|3:0,0:0:0:0:
437,243,85553,1,10,0:0:0:0:
278,345,85707,2,0,P|216:345|176:344,1,80.5000015354157,0|10,3:0|0:0,0:0:0:0:
104,265,86015,1,0,3:0:0:0:
200,177,86169,2,0,P|220:230|221:260,1,80.5000015354157,10|0,0:0|3:0,0:0:0:0:
110,142,86476,5,10,0:0:0:0:
178,52,86630,1,0,3:0:0:0:
287,103,86784,2,0,L|389:92,1,80.5000015354157,10|0,0:0|3:0,0:0:0:0:
456,31,87092,2,0,L|491:131,2,80.5000015354157,10|0|10,0:2|3:2|0:0,0:0:0:0:
347,145,87553,6,0,P|339:201|311:319,1,161.000003070831,6|0,3:2|3:0,0:0:0:0:
205,342,88015,1,8,0:0:0:0:
116,278,88169,2,0,L|99:187,1,80.5000015354157,0|8,3:0|0:0,0:0:0:0:
179,106,88476,1,8,0:0:0:0:
179,106,88553,1,8,0:0:0:0:
179,106,88630,1,8,0:0:0:0:
289,162,88784,6,0,P|362:158|453:137,1,161.000003070831,6|8,3:2|0:0,0:0:0:0:
472,121,89169,1,8,0:0:0:0:
472,121,89246,1,8,0:0:0:0:
388,41,89399,2,0,L|370:137,1,80.5000015354157,0|2,3:0|3:2,0:0:0:0:
367,144,90015,6,0,P|297:151|235:181,1,140,6|0,3:2|3:0,0:0:0:0:
330,329,90476,2,0,P|268:299|198:293,1,140,8|2,0:0|3:2,0:0:0:0:
103,344,90938,1,0,3:0:0:0:
103,344,91092,1,8,0:0:0:0:
12,278,91246,6,0,P|7:218|13:110,1,140,6|0,3:2|3:0,0:0:0:0:
65,38,91707,1,8,0:0:0:0:
172,101,91861,1,8,0:0:0:0:
172,101,91938,1,8,0:0:0:0:
172,101,92015,2,0,L|263:96,2,70,2|0|8,3:2|3:0|0:2,0:0:0:0:
306,23,92476,6,0,P|337:77|360:154,1,140,6|0,3:2|3:0,0:0:0:0:
284,243,92938,2,0,P|259:302|318:378,1,140,8|2,0:0|3:2,0:0:0:0:
394,341,93399,1,0,3:2:0:0:
394,341,93553,1,8,0:0:0:0:
496,373,93707,6,0,P|507:332|520:230,1,140,6|0,3:2|3:0,0:0:0:0:
441,81,94169,2,0,P|426:134|439:174,1,70,12|0,0:2|3:0,0:0:0:0:
287,104,94476,2,0,P|310:154|346:176,1,70,14|8,3:2|3:2,0:0:0:0:
348,175,94707,1,8,3:2:0:0:
348,175,94784,1,8,3:2:0:0:
309,266,94938,6,0,P|244:241|196:192,1,140,6|0,3:2|3:2,0:0:0:0:
240,90,95399,2,0,P|296:57|381:105,1,140,8|2,0:0|3:2,0:0:0:0:
396,193,95861,1,0,3:0:0:0:
396,193,96015,1,8,0:0:0:0:
271,180,96169,6,0,P|201:177|131:178,1,140,6|0,3:2|3:2,0:0:0:0:
44,234,96630,1,12,0:2:0:0:
255,85,96938,1,14,0:2:0:0:
255,85,97092,1,0,3:0:0:0:
255,85,97246,1,12,0:2:0:0:
350,117,97399,6,0,P|367:190|388:275,2,140,6|0|0,3:2|3:0|3:2,0:0:0:0:
370,90,98092,1,0,3:2:0:0:
370,90,98169,1,14,3:2:0:0:
259,71,98323,2,0,P|247:121|248:162,1,70,0|8,3:0|0:0,0:0:0:0:
385,220,98630,6,0,P|312:231|270:297,1,140,6|0,3:2|3:0,0:0:0:0:
172,246,99092,2,0,L|165:316,1,70,8|0,0:0|3:0,0:0:0:0:
85,184,99399,1,8,0:0:0:0:
175,138,99553,1,0,3:0:0:0:
263,203,99707,6,0,B|324:153|416:188|416:188|376:209,1,181.999991668702,10|4,0:0|3:3,0:0:0:0:
192,259,100323,6,0,L|144:256,2,47.6000002905273,0|0|2,0:0|0:0|0:0,0:0:0:0:
248,324,101246,2,0,L|296:321,3,47.6000002905273,0|0|0|2,0:0|0:0|0:0|0:0,0:0:0:0:
381,276,102476,2,0,L|378:324,3,47.6000002905273,0|0|0|2,0:0|0:0|0:0|0:0,0:0:0:0:
321,213,103707,2,0,L|313:161,3,47.6000002905273,0|0|0|2,0:0|0:0|0:0|0:0,0:0:0:0:
381,46,104938,6,0,P|417:32|430:29,3,47.6000002905273,0|0|0|2,0:0|0:0|0:0|0:0,0:0:0:0:
289,60,106169,2,0,P|249:48|241:44,3,47.6000002905273,0|0|0|2,0:0|0:0|0:0|0:0,0:0:0:0:
160,100,107399,5,0,3:2:0:0:
298,146,109553,6,0,P|304:211|315:272,1,105,2|0,3:2|0:2,0:0:0:0:
364,316,109861,6,0,P|322:293|234:322,1,132.999996448517,6|8,3:2|0:0,0:0:0:0:
153,268,110323,1,0,3:0:0:0:
57,321,110476,2,0,P|40:264|36:241,1,66.4999982242585,2|0,3:2|0:0,0:0:0:0:
101,165,110784,1,10,0:0:0:0:
101,165,110938,6,0,P|106:125|161:45,1,132.999996448517,2|0,3:3|0:0,0:0:0:0:
261,84,111399,1,10,0:0:0:0:
261,84,111553,2,0,P|331:93|342:93,1,66.4999982242585,0|0,3:0|0:0,0:0:0:0:
429,32,111861,1,0,3:0:0:0:
488,124,112015,2,0,P|498:182|488:209,1,66.4999982242585,10|0,0:0|0:0,0:0:0:0:
389,301,112323,6,0,B|371:233|371:233|402:151,1,132.999996448517,2|10,3:3|0:2,0:0:0:0:
302,99,112784,1,8,0:0:0:0:
230,176,112938,2,0,P|180:182|133:178,1,66.4999982242585,2|0,3:2|0:0,0:0:0:0:
71,137,113246,1,10,0:0:0:0:
71,137,113399,6,0,P|82:191|99:274,1,132.999996448517,2|0,3:3|0:0,0:0:0:0:
45,365,113861,1,8,0:2:0:0:
160,373,114015,2,0,P|202:373|268:348,1,99.7499973363877,0|0,3:2|0:0,0:0:0:0:
282,331,114323,2,0,L|280:245,1,66.4999982242585,0|8,3:2|0:0,0:0:0:0:
280,144,114630,1,8,0:2:0:0:
391,190,114784,6,0,P|437:197|505:134,1,132.999996448517,6|8,3:2|0:0,0:0:0:0:
405,75,115246,1,0,3:0:0:0:
303,145,115399,2,0,L|297:221,1,66.4999982242585,2|0,3:2|0:0,0:0:0:0:
215,280,115707,1,10,0:0:0:0:
130,188,115861,6,0,P|44:199|-16:215,1,132.999996448517,8|0,0:0|0:0,0:0:0:0:
201,109,116323,2,0,P|216:47|218:23,1,66.4999982242585,10|0,0:0|0:0,0:0:0:0:
80,40,116630,1,0,3:0:0:0:
80,40,116784,2,0,P|86:73|96:105,1,66.4999982242585,8|0,0:0|0:0,0:0:0:0:
191,221,117092,6,0,P|226:191|334:197,1,132.999996448517,6|0,3:2|3:0,0:0:0:0:
403,268,117553,1,12,0:2:0:0:
403,268,117707,1,0,3:2:0:0:
482,189,117861,2,0,P|485:149|476:104,2,66.4999982242585,12|0|8,0:2|3:2|0:0,0:0:0:0:
382,65,118323,5,6,3:2:0:0:
229,215,118630,1,0,3:0:0:0:
93,54,118938,1,2,3:2:0:0:
33,127,119092,2,0,P|29:170|35:223,1,66.4999982242585,10|0,3:2|3:0,0:0:0:0:
47,220,119323,1,2,3:2:0:0:
47,220,119399,1,10,3:2:0:0:
153,158,119553,6,0,P|215:125|294:146,1,140,6|0,3:2|3:2,0:0:0:0:
370,206,120015,1,8,0:2:0:0:
195,360,120323,1,0,3:0:0:0:
195,360,120476,1,0,3:0:0:0:
195,360,120630,1,8,0:0:0:0:
114,293,120784,6,0,P|69:282|-18:330,1,140,2|0,3:3|3:0,0:0:0:0:
206,252,121246,2,0,P|208:210|202:168,1,70,8|0,0:2|3:2,0:0:0:0:
118,99,121553,1,2,0:2:0:0:
118,99,121707,1,0,3:2:0:0:
118,99,121861,1,8,0:2:0:0:
18,184,122015,6,0,P|25:271|31:347,1,140,6|0,3:2|3:0,0:0:0:0:
126,369,122476,1,8,0:0:0:0:
305,223,122784,2,0,P|300:182|292:148,2,70,2|2|8,3:3|3:3|0:0,0:0:0:0:
401,288,123246,5,2,3:3:0:0:
401,288,123399,2,0,P|410:239|420:201,1,70,0|2,0:0|3:3,0:0:0:0:
466,119,123707,1,8,0:0:0:0:
466,119,123861,1,2,3:3:0:0:
387,48,124015,2,0,P|330:59|290:65,2,70,0|0|8,0:0|3:3|0:0,0:0:0:0:
212,11,124476,6,0,P|197:99|212:161,1,140,6|0,3:2|3:0,0:0:0:0:
293,219,124938,2,0,P|239:188|156:183,1,140,8|0,0:0|3:0,0:0:0:0:
62,242,125399,2,0,L|61:324,1,70,0|8,3:0|0:0,0:0:0:0:
157,374,125707,2,0,P|205:357|308:367,1,140,2|0,3:3|3:0,0:0:0:0:
383,310,126169,1,8,0:0:0:0:
383,310,126323,2,0,L|392:230,1,70,2|0,3:3|0:0,0:0:0:0:
306,160,126630,1,0,3:0:0:0:
376,75,126784,6,0,P|419:69|455:60,1,70,8|2,0:0|3:2,0:0:0:0:
36,366,129399,6,0,P|96:346|49:376,1,167.999994873047,6|0,3:2|3:0,0:0:0:0:
185,325,129861,2,0,P|182:299|209:328,1,83.9999974365235,10|0,0:0|3:0,0:0:0:0:
312,219,130169,2,0,P|315:193|288:222,1,83.9999974365235,10|0,0:0|3:0,0:0:0:0:
155,187,130476,2,0,P|152:161|179:190,1,83.9999974365235,10|0,0:0|3:0,0:0:0:0:
47,268,130784,6,0,P|74:244|82:279,1,83.9999974365235,10|0,0:0|3:2,0:0:0:0:
26,142,131092,1,10,0:0:0:0:
26,142,131246,2,0,P|52:118|60:152,1,83.9999974365235,2|8,3:2|0:0,0:0:0:0:
150,67,131553,1,2,3:2:0:0:
150,67,131707,1,10,0:0:0:0:
150,67,131861,6,0,P|187:54|145:84,1,167.999994873047,6|0,3:2|3:0,0:0:0:0:
312,30,132323,2,0,P|330:62|326:34,1,83.9999974365235,10|0,0:0|3:0,0:0:0:0:
463,92,132630,2,0,P|426:91|452:102,1,83.9999974365235,10|0,0:0|3:0,0:0:0:0:
333,191,132938,2,0,P|351:159|329:176,1,83.9999974365235,10|0,0:0|3:0,0:0:0:0:
179,245,133246,6,0,P|159:273|194:277,1,83.9999974365235,10|0,0:2|3:0,0:0:0:0:
299,319,133553,1,10,0:0:0:0:
299,319,133707,2,0,P|319:347|284:350,1,83.9999974365235,2|8,3:2|0:0,0:0:0:0:
329,207,134015,1,2,3:2:0:0:
329,207,134169,1,10,0:0:0:0:
329,207,134323,6,0,P|375:225|329:185,1,167.999994873047,6|0,3:2|3:0,0:0:0:0:
228,98,134784,2,0,P|246:74|240:111,1,83.9999974365235,10|0,0:0|3:0,0:0:0:0:
100,126,135092,2,0,P|102:91|128:114,1,83.9999974365235,10|0,0:0|3:0,0:0:0:0:
37,233,135399,2,0,P|11:210|44:203,1,83.9999974365235,10|0,0:0|3:0,0:0:0:0:
185,310,135707,6,0,P|167:334|173:297,1,83.9999974365235,10|0,0:0|3:0,0:0:0:0:
313,282,136015,2,0,P|310:316|284:293,1,83.9999974365235,10|0,0:0|3:0,0:0:0:0:
376,175,136323,2,0,P|401:197|368:204,1,83.9999974365235,10|0,0:0|3:2,0:0:0:0:
280,121,136630,1,10,0:0:0:0:
280,121,136784,6,0,P|265:85|274:134,1,167.999994873047,6|0,3:2|3:0,0:0:0:0:
419,131,137246,1,10,0:2:0:0:
419,131,137399,2,0,P|475:100|411:90,1,167.999994873047,2|2,3:2|3:2,0:0:0:0:
344,222,137861,1,10,0:2:0:0:
344,222,138015,6,0,P|342:286|382:236,1,167.999994873047,6|0,3:2|3:0,0:0:0:0:
406,210,138399,1,0,3:2:0:0:
406,210,138476,1,8,3:2:0:0:
495,302,138630,2,0,P|507:333|486:319,1,83.9999974365235,0|8,3:0|0:0,0:0:0:0:
397,363,138938,1,8,0:0:0:0:
397,363,139015,1,8,0:0:0:0:
397,363,139092,1,8,0:0:0:0:
292,310,139246,6,0,P|241:288|289:326,1,167.999994873047,6|0,3:2|3:0,0:0:0:0:
331,188,139707,2,0,P|307:170|329:195,1,83.9999974365235,10|0,0:0|3:0,0:0:0:0:
181,159,140015,2,0,P|208:147|175:153,1,83.9999974365235,10|0,0:0|3:0,0:0:0:0:
281,43,140323,2,0,P|277:72|288:41,1,83.9999974365235,10|0,0:0|3:0,0:0:0:0:
111,25,140630,6,0,P|114:54|103:23,1,83.9999974365235,10|0,0:0|3:2,0:0:0:0:
2,154,140938,1,10,0:0:0:0:
2,154,141092,2,0,P|23:128|25:161,1,83.9999974365235,2|8,3:2|0:0,0:0:0:0:
100,244,141399,1,2,3:2:0:0:
100,244,141553,1,10,0:2:0:0:
224,202,141707,6,0,P|215:152|209:211,1,167.999994873047,6|0,3:2|3:0,0:0:0:0:
301,292,142169,2,0,P|321:264|297:285,1,83.9999974365235,10|0,0:0|3:0,0:0:0:0:
351,172,142476,2,0,P|331:144|355:165,1,83.9999974365235,10|0,0:0|3:0,0:0:0:0:
422,247,142784,2,0,P|442:219|418:240,1,83.9999974365235,10|0,0:0|3:0,0:0:0:0:
360,341,143092,6,0,P|310:354|360:319,1,167.999994873047,10|10,0:0|0:0,0:0:0:0:
173,329,143553,2,0,P|181:304|180:333,1,83.9999974365235,2|8,3:2|0:0,0:0:0:0:
77,272,143861,1,2,3:2:0:0:
77,272,144015,1,10,0:0:0:0:
77,272,144169,6,0,P|50:210|22:271,1,167.999994873047,6|0,3:2|3:0,0:0:0:0:
161,146,144630,2,0,P|140:114|155:150,1,83.9999974365235,10|0,0:0|3:0,0:0:0:0:
272,214,144938,2,0,P|250:241|241:208,1,83.9999974365235,10|0,0:0|3:0,0:0:0:0:
347,132,145246,1,10,0:0:0:0:
347,132,145399,6,0,P|363:75|331:124,1,167.999994873047,0|0,3:0|3:0,0:0:0:0:
403,255,145861,2,0,P|403:224|411:251,1,83.9999974365235,10|0,0:0|3:0,0:0:0:0:
368,355,146169,1,10,0:0:0:0:
231,306,146323,2,0,P|253:285|242:313,1,83.9999974365235,0|10,3:2|0:0,0:0:0:0:
91,270,146630,6,0,P|108:267|83:268,1,167.999994873047,6|0,3:2|3:0,0:0:0:0:
228,190,147092,1,12,0:0:0:0:
228,190,147246,2,0,P|206:169|217:197,1,83.9999974365235,0|8,3:2|0:0,0:0:0:0:
324,203,147553,1,8,0:0:0:0:
324,203,147630,1,8,0:0:0:0:
324,203,147707,1,8,0:0:0:0:
395,121,147861,6,0,P|381:81|416:124,1,167.999994873047,6|8,3:2|0:0,0:0:0:0:
421,121,148246,1,8,0:0:0:0:
421,121,148323,1,8,0:0:0:0:
320,238,148476,2,0,P|335:217|334:229,2,83.9999974365235,0|10|2,3:2|0:0|0:0,0:0:0:0:
336,300,148938,2,0,P|321:279|324:294,1,70,2|0,0:0|3:0,0:0:0:0:
72,160,168784,6,0,P|130:162|28:292,1,367.500014019013,6|2,3:2|0:0,0:0:0:0:
98,240,170015,2,0,B|193:223|468:229|89:299|467:280,1,367.500014019013,2|2,3:2|0:0,0:0:0:0:
512,192,171245,2,0,P|519:153|325:182,1,367.500014019013,2|2,3:2|0:0,0:0:0:0:
397,219,172476,1,2,3:2:0:0:
397,220,173707,6,0,B|350:273|350:273|269:236|269:236|268:250|268:250|262:237|262:237|185:207|185:207|152:243|152:243|143:246|143:246|113:283,1,367.500014019013,6|2,3:2|0:0,0:0:0:0:
4,223,174938,2,0,P|14:158|97:282,1,367.500014019013,2|2,3:2|0:0,0:0:0:0:
83,202,176168,2,0,B|137:184|169:148|169:148|232:273|232:273|286:236|368:262,1,367.500014019013,2|2,3:2|0:0,0:0:0:0:
430,323,177399,1,2,3:2:0:0:
437,329,178630,6,0,B|450:312|466:250|420:218|420:218|334:170|329:62|415:20,1,367.500014019013,6|2,3:2|0:0,0:0:0:0:
456,96,179861,2,0,B|345:144|251:67|251:67|262:148|220:150|220:150|228:161|228:161|219:191|220:219,1,367.500014019013,2|2,3:2|0:0,0:0:0:0:
294,244,181092,2,0,B|249:227|249:227|192:273|192:273|77:289|100:171|100:171|114:215|156:234,1,367.500014019013,2|2,3:2|0:0,0:0:0:0:
185,147,182322,1,2,3:2:0:0:
84,90,183553,6,0,B|178:102|180:177|183:230|89:275|89:275|103:200|79:157,1,367.500014019013,6|2,3:2|0:0,0:0:0:0:
222,305,184784,2,0,B|259:249|265:162|265:162|286:236|304:270|327:301|327:301|292:279|264:275,1,367.500014019013,2|2,3:2|0:0,0:0:0:0:
434,272,186015,2,0,B|484:293|464:344|407:337|407:337|427:267|413:143|413:143|416:182|391:217,1,367.500014019013,2|2,3:2|0:0,0:0:0:0:
323,151,187245,1,2,3:2:0:0:
187,176,188476,6,0,P|125:188|86:184,1,90.9999958343508,6|0,3:2|0:0,0:0:0:0:
242,96,188782,1,0,3:0:0:0:
242,96,188936,2,0,P|274:153|276:185,1,90.9999958343508,8|0,0:0|3:0,0:0:0:0:
221,271,189244,1,10,0:0:0:0:
221,271,189398,2,0,L|125:288,1,90.9999958343508,0|8,3:0|0:0,0:0:0:0:
302,345,189705,6,0,P|358:355|425:256,1,181.999991668702,6|0,3:2|3:0,0:0:0:0:
355,190,190167,1,8,0:0:0:0:
355,190,190321,1,0,3:2:0:0:
438,126,190475,2,0,L|438:35,1,90.9999958343508,10|0,0:0|3:2,0:0:0:0:
345,1,190782,1,8,0:0:0:0:
269,82,190936,6,0,P|217:86|178:82,1,90.9999958343508,6|0,3:2|0:0,0:0:0:0:
98,21,191244,1,0,3:0:0:0:
16,95,191398,2,0,P|6:158|16:209,1,90.9999958343508,8|0,0:0|3:0,0:0:0:0:
102,248,191705,1,10,0:0:0:0:
206,216,191859,2,0,L|186:105,2,90.9999958343508,0|8|6,3:0|0:0|3:2,0:0:0:0:
317,265,192321,6,0,P|336:208|322:149,1,90.9999958343508,8|0,0:0|3:0,0:0:0:0:
288,65,192629,1,8,0:0:0:0:
397,92,192782,2,0,P|441:81|486:73,1,90.9999958343508,0|10,3:0|0:0,0:0:0:0:
475,186,193090,1,0,3:0:0:0:
475,186,193244,1,8,0:0:0:0:
383,259,193398,6,0,L|419:342,2,90.9999958343508,6|0|0,3:2|0:0|3:0,0:0:0:0:
302,182,193859,1,8,0:0:0:0:
222,268,194013,2,0,P|163:275|124:263,1,90.9999958343508,0|10,3:0|0:0,0:0:0:0:
62,180,194321,1,0,3:0:0:0:
169,108,194475,2,0,L|168:0,1,90.9999958343508,8|6,0:0|3:2,0:0:0:0:
281,50,194782,6,0,L|281:141,1,90.9999958343508,8|0,0:0|3:0,0:0:0:0:
371,224,195090,1,8,0:0:0:0:
371,224,195244,1,0,3:0:0:0:
466,172,195398,2,0,P|490:114|477:72,1,90.9999958343508,10|0,0:0|3:2,0:0:0:0:
405,15,195705,1,8,0:0:0:0:
325,90,195859,6,0,P|260:98|142:92,1,181.999991668702,6|0,3:2|3:0,0:0:0:0:
66,24,196321,1,8,0:0:0:0:
4,112,196475,2,0,P|-2:166|7:213,1,90.9999958343508,0|10,3:0|0:0,0:0:0:0:
93,291,196782,2,0,P|139:278|198:273,2,90.9999958343508,0|8|6,3:0|0:0|3:2,0:0:0:0:
279,339,197244,6,0,L|390:314,1,90.9999958343508,8|0,0:0|3:0,0:0:0:0:
398,331,197475,1,0,3:0:0:0:
398,331,197552,2,0,P|416:271|414:222,1,90.9999958343508,8|0,0:0|3:0,0:0:0:0:
332,163,197859,2,0,P|314:103|316:54,1,90.9999958343508,8|8,0:0|0:0,0:0:0:0:
421,4,198167,6,0,P|458:15|473:23,1,45.4999979171754,8|0,0:0|0:0,0:0:0:0:
412,97,198321,1,6,3:2:0:0:
447,40,207859,6,0,P|397:65|391:145,1,136.499993751526,2|0,0:0|0:0,0:0:0:0:
466,165,208167,6,0,P|401:154|274:174,1,167.999994873047,6|0,3:2|3:0,0:0:0:0:
245,248,208629,2,0,P|187:187|175:182,1,83.9999974365235,10|0,0:0|3:0,0:0:0:0:
92,337,208936,2,0,P|114:301|148:276,1,83.9999974365235,10|0,0:0|3:0,0:0:0:0:
333,279,209244,2,0,P|307:312|272:335,1,83.9999974365235,10|0,0:0|3:0,0:0:0:0:
399,217,209552,6,0,P|422:275|414:323,1,83.9999974365235,10|0,0:0|3:2,0:0:0:0:
251,241,209859,1,10,0:0:0:0:
251,241,210013,2,0,P|228:183|236:135,1,83.9999974365235,2|8,3:2|0:0,0:0:0:0:
290,79,210321,1,2,3:2:0:0:
290,79,210475,1,10,0:0:0:0:
365,161,210629,6,0,B|411:176|411:176|468:108|412:30,1,167.999994873047,6|0,3:2|3:0,0:0:0:0:
338,11,211090,2,0,P|277:19|249:40,1,83.9999974365235,10|0,0:0|3:0,0:0:0:0:
133,44,211398,2,0,P|129:101|146:132,1,83.9999974365235,10|0,0:0|3:0,0:0:0:0:
104,240,211705,2,0,P|176:261|214:243,1,83.9999974365235,10|0,0:0|3:0,0:0:0:0:
384,281,212013,6,0,P|344:236|299:311,1,167.999994873047,10|10,0:0|0:0,0:0:0:0:
470,345,212475,2,0,P|486:286|495:261,1,83.9999974365235,2|8,3:2|0:0,0:0:0:0:
427,174,212782,1,2,3:2:0:0:
427,174,212936,1,10,0:0:0:0:
482,85,213090,6,0,P|445:142|348:135,1,167.999994873047,6|0,3:2|3:0,0:0:0:0:
264,178,213552,2,0,P|210:183|159:196,1,83.9999974365235,10|0,0:0|3:0,0:0:0:0:
119,117,213859,2,0,P|61:110|23:99,1,83.9999974365235,10|0,0:0|3:0,0:0:0:0:
197,54,214167,2,0,P|209:109|221:162,1,83.9999974365235,10|0,0:0|3:0,0:0:0:0:
77,278,214475,6,0,P|138:222|203:264,3,167.999994873047,10|10|10|10,0:0|0:0|0:0|0:0,0:0:0:0:
286,221,215552,2,0,P|297:305|368:335,1,167.999994873047,6|0,3:2|3:0,0:0:0:0:
365,249,216013,2,0,L|451:191,1,83.9999974365235,10|2,0:2|3:2,0:0:0:0:
428,101,216321,2,0,L|342:43,1,83.9999974365235,10|2,0:2|3:2,0:0:0:0:
348,154,216629,1,10,0:2:0:0:
214,72,216782,6,0,B|238:120|238:120|198:254,1,167.999994873047,6|0,3:2|3:0,0:0:0:0:
193,265,217167,1,0,3:0:0:0:
193,265,217244,1,8,0:0:0:0:
102,310,217398,2,0,P|43:310|-11:321,1,83.9999974365235,0|8,3:0|0:0,0:0:0:0:
238,353,217705,5,10,3:3:0:0:
238,353,217859,1,10,3:3:0:0:
317,272,218013,6,0,P|384:239|467:256,2,140,6|0|0,3:2|3:0|3:0,0:0:0:0:
312,296,218705,1,0,3:0:0:0:
312,296,218782,1,14,3:2:0:0:
32,91,219398,5,6,3:2:0:0:
123,131,219552,2,0,B|211:136|168:190|247:208,1,140,0|0,3:0|3:0,0:0:0:0:
323,169,220013,1,12,0:0:0:0:
61,333,220321,1,10,0:0:0:0:
131,250,220475,6,0,P|158:295|161:383,2,140,6|0|0,3:2|3:0|3:0,0:0:0:0:
100,231,221167,1,0,3:0:0:0:
100,231,221244,1,14,3:2:0:0:
456,161,221859,5,6,3:2:0:0:
475,75,222013,2,0,P|434:62|382:143,1,140,0|0,3:0|3:0,0:0:0:0:
277,43,222475,2,0,P|281:113|286:191,1,140,12|10,0:0|0:0,0:0:0:0:
209,265,222936,6,0,P|147:252|44:243,1,140,6|0,3:2|3:0,0:0:0:0:
303,119,223398,2,0,P|365:132|468:141,1,140,10|2,0:0|3:2,0:0:0:0:
382,48,223859,1,0,3:0:0:0:
275,110,224013,2,0,P|272:181|272:182,1,70,10|0,0:0|0:0,0:0:0:0:
183,233,224321,6,0,P|183:198|181:164,1,70,2|0,3:2|3:0,0:0:0:0:
109,39,224629,2,0,P|107:74|107:109,1,70,14|0,0:0|3:0,0:0:0:0:
198,75,224936,1,2,3:2:0:0:
301,112,225090,2,0,P|363:98|396:86,1,70,12|2,0:0|3:2,0:0:0:0:
464,114,225398,6,0,B|427:80|427:80|357:155|405:253,1,210,14|12,0:2|0:0,0:0:0:0:
466,302,226013,1,0,3:2:0:0:
476,309,226090,1,0,3:2:0:0:
487,317,226167,2,0,L|397:338,2,70,12|0|12,0:0|3:0|0:0,0:0:0:0:
318,298,226629,6,0,P|274:340|188:308,1,140,6|0,3:2|3:0,0:0:0:0:
179,298,227013,1,0,3:2:0:0:
179,298,227090,1,0,3:2:0:0:
247,173,227244,6,0,L|247:208,1,35,0|8,3:2|2:2,0:0:0:0:
164,110,227475,1,10,2:2:0:0:
164,110,227552,2,0,L|112:117,1,35,2|2,3:2|3:2,0:0:0:0:
55,167,227705,1,2,2:0:0:0:
82,263,227859,1,6,3:2:0:0:
381,299,228167,5,0,3:0:0:0:
465,234,228321,2,0,L|470:141,1,83.9999974365235,8|0,0:0|3:0,0:0:0:0:
401,69,228629,1,10,0:0:0:0:
401,69,228782,1,0,3:0:0:0:
401,69,228936,1,8,0:0:0:0:
312,129,229090,6,0,P|234:145|139:109,1,167.999994873047,6|0,3:2|3:0,0:0:0:0:
227,59,229552,1,12,0:0:0:0:
65,224,229859,2,0,L|114:241,3,41.9999987182618,10|8|8|8,0:0|0:0|0:0|0:0,0:0:0:0:
149,209,230167,1,8,2:2:0:0:
102,115,230321,1,6,3:2:0:0:
328,289,230629,5,0,3:0:0:0:
406,217,230782,2,0,P|407:148|302:88,1,167.999994873047,8|10,0:0|0:0,0:0:0:0:
249,160,231244,1,0,3:0:0:0:
139,130,231398,1,8,2:2:0:0:
167,28,231552,1,14,3:2:0:0:
0,243,231859,5,0,3:0:0:0:
102,297,232013,2,0,L|116:389,1,83.9999974365235,12|0,0:0|0:0,0:0:0:0:
243,278,232321,2,0,L|242:222,3,41.9999987182618,10|8|8|8,0:0|0:0|0:0|0:0,0:0:0:0:
285,208,232629,1,8,2:2:0:0:
379,255,232783,1,6,3:2:0:0:
455,63,233090,5,0,3:0:0:0:
370,8,233244,2,0,P|322:15|289:47,1,83.9999974365235,8|0,0:0|3:0,0:0:0:0:
191,47,233552,2,0,P|220:92|223:129,1,83.9999974365235,10|0,0:0|3:0,0:0:0:0:
149,191,233859,1,8,0:0:0:0:
73,126,234013,6,0,P|57:185|24:303,1,167.999994873047,6|0,3:2|3:0,0:0:0:0:
113,356,234475,2,0,P|187:364|216:343,1,83.9999974365235,12|0,0:0|0:0,0:0:0:0:
295,297,234782,2,0,L|285:222,3,41.9999987182618,10|8|8|8,0:0|0:0|0:0|0:0,0:0:0:0:
251,228,235090,1,8,2:2:0:0:
166,273,235244,1,6,3:2:0:0:
500,86,235552,5,0,3:0:0:0:
420,34,235705,2,0,P|351:45|330:150,1,167.999994873047,12|2,0:0|3:2,0:0:0:0:
404,175,236167,1,0,3:0:0:0:
271,211,236321,1,8,2:2:0:0:
224,117,236475,1,6,3:2:0:0:
330,357,236782,1,8,2:2:0:0:
377,263,236936,1,6,3:2:0:0:
123,301,237244,6,0,L|35:290,1,83.9999974365235,10|0,0:0|3:0,0:0:0:0:
19,268,237475,1,0,3:0:0:0:
19,268,237552,1,8,0:0:0:0:
121,196,237705,5,6,3:2:0:0:
256,192,237782,12,0,240398,3:2:0:0:
