osu file format v14

[General]
AudioFilename: audio.mp3
AudioLeadIn: 0
PreviewTime: 1169
Countdown: 0
SampleSet: Soft
StackLeniency: 0.7
Mode: 0
LetterboxInBreaks: 0
WidescreenStoryboard: 0

[Editor]
DistanceSpacing: 0.8
BeatDivisor: 4
GridSize: 32
TimelineZoom: 2.799999

[Metadata]
Title:Sweet Sweet Cendrillon Drug
TitleUnicode:Sweet Sweet Cendrillon Drug
Artist:MuryokuP
ArtistUnicode:無力P
Creator:Mordred
Version:Despair
Source:
Tags:VOCALOID Megurine Luka Leda uz uzP kz Remix Ao Rock nao tomori naotoshi stjpa trynna
BeatmapID:1836680
BeatmapSetID:878167

[Difficulty]
HPDrainRate:7
CircleSize:4
OverallDifficulty:9.4
ApproachRate:9.6
SliderMultiplier:1.8
SliderTickRate:1

[Events]
//Background and Video events
0,0,"needabetterbgtbh.png",0,0
//Break Periods
2,100215,106890
2,149292,168275
2,198521,207350
//Storyboard Layer 0 (Background)
//Storyboard Layer 1 (Fail)
//Storyboard Layer 2 (Pass)
//Storyboard Layer 3 (Foreground)
//Storyboard Sound Samples

[TimingPoints]
323,307.692307692308,4,2,1,70,1,0
18630,-100,4,2,1,20,0,0
19861,-100,4,2,1,50,0,0
20784,-100,4,2,1,70,0,0
21092,-76.9230769230769,4,2,1,80,0,0
40938,-111.111111111111,4,2,1,60,0,0
50207,-111.111111111111,4,2,1,5,0,0
50246,-111.111111111111,4,2,1,70,0,0
50284,-111.111111111111,4,2,1,5,0,0
50323,-111.111111111111,4,2,1,70,0,0
50361,-111.111111111111,4,2,1,5,0,0
50399,-111.111111111111,4,2,1,70,0,0
50438,-111.111111111111,4,2,1,5,0,0
50476,-111.111111111111,4,2,1,70,0,0
50784,-100,4,2,1,70,0,0
70323,-71.4285714285714,4,2,1,80,0,1
89553,-125,4,2,1,80,0,1
89592,-125,4,2,1,5,0,1
89630,-111.111111111111,4,2,1,80,0,1
89669,-111.111111111111,4,2,1,5,0,1
89707,-100,4,2,1,80,0,1
89746,-100,4,2,1,5,0,1
89784,-90.9090909090909,4,2,1,80,0,1
89823,-90.9090909090909,4,2,1,5,0,1
89861,-83.3333333333333,4,2,1,80,0,1
89899,-83.3333333333333,4,2,1,5,0,1
89938,-76.9230769230769,4,2,1,80,0,1
89976,-76.9230769230769,4,2,1,5,0,1
90015,-76.9230769230769,4,2,1,80,0,0
107399,-1000,4,2,1,40,0,0
109861,-100,4,2,1,70,0,0
128169,-100,4,2,1,40,0,0
129092,-100,4,2,1,70,0,0
129399,-66.6666666666667,4,2,1,80,0,1
148669,-66.6666666666667,4,2,1,30,0,1
148707,-66.6666666666667,4,2,1,35,0,1
148746,-66.6666666666667,4,2,1,40,0,1
148784,-66.6666666666667,4,2,1,45,0,1
148823,-66.6666666666667,4,2,1,50,0,1
148861,-66.6666666666667,4,2,1,55,0,1
148899,-66.6666666666667,4,2,1,60,0,1
148938,-66.6666666666667,4,2,1,65,0,1
148976,-66.6666666666667,4,2,1,70,0,1
149015,-66.6666666666667,4,2,1,75,0,1
149092,307.692307692308,4,2,1,80,1,0
168784,-666.666666666667,4,2,1,60,0,0
188476,-66.6666666666667,4,2,1,80,0,1
188629,307.692307692308,4,2,1,80,1,1
188629,-66.6666666666667,4,2,1,80,0,1
198321,-100,4,2,1,80,0,0
207859,-100,4,2,1,60,0,0
208167,-66.6666666666667,4,2,1,80,0,1
217705,-66.6666666666667,4,2,2,80,0,1
218013,-166.666666666667,4,2,1,80,0,0
218782,-166.666666666667,4,2,1,80,0,1
218859,-166.666666666667,4,2,1,80,0,0
220475,-166.666666666667,4,2,1,80,0,1
220552,-166.666666666667,4,2,1,80,0,0
221859,-166.666666666667,4,2,1,80,0,1
221936,-166.666666666667,4,2,1,80,0,0
222936,-66.6666666666667,4,2,1,80,0,1
227398,-111.111111111111,4,2,1,80,0,1
227437,-111.111111111111,4,2,1,5,0,1
227475,-99.9999999999999,4,2,1,80,0,1
227514,-99.9999999999999,4,2,1,5,0,1
227552,-90.9090909090909,4,2,1,80,0,1
227591,-90.9090909090909,4,2,1,5,0,1
227629,-83.3333333333333,4,2,1,80,0,1
227668,-83.3333333333333,4,2,1,5,0,1
227706,-76.9230769230769,4,2,1,80,0,1
227744,-76.9230769230769,4,2,1,5,0,1
227783,-71.4285714285714,4,2,1,80,0,1
227821,-71.4285714285714,4,2,1,5,0,0
227859,-66.6666666666667,4,2,1,80,0,1
237705,-100,4,2,1,80,0,0
240398,-100,4,2,1,30,0,0

[Colours]
Combo1 : 255,128,0
Combo2 : 255,128,128
Combo3 : 255,128,64
Combo4 : 166,83,83

[HitObjects]
256,192,18630,12,0,19861,3:2:0:0:
25,150,20784,5,0,0:2:0:0:
25,150,20861,1,0,0:2:0:0:
25,150,20938,1,0,0:2:0:0:
25,150,21015,1,0,0:2:0:0:
25,150,21092,6,0,B|50:103|50:103|141:79|229:129,1,233.999989288331,6|0,3:2|3:2,0:2:0:0:
112,333,21553,2,0,P|106:263|104:193,1,116.999994644165,8|0,0:2|0:2,0:2:0:0:
199,24,21861,1,2,3:2:0:0:
262,235,22015,1,0,3:2:0:0:
384,0,22169,1,8,0:2:0:0:
499,249,22323,6,0,B|436:221|436:221|260:260,1,233.999989288331,6|0,3:2|3:2,0:2:0:0:
96,384,22784,1,8,0:2:0:0:
54,112,22938,1,8,0:2:0:0:
54,112,23015,1,8,0:2:0:0:
54,112,23092,1,2,3:2:0:0:
208,336,23246,1,0,3:2:0:0:
0,224,23399,1,8,0:2:0:0:
165,8,23553,6,0,B|244:2|244:2|289:42|289:42|401:31,1,233.999989288331,6|0,3:2|3:2,0:2:0:0:
512,224,24015,2,0,P|429:212|375:209,1,116.999994644165,8|0,0:2|0:2,0:2:0:0:
192,288,24323,1,2,3:2:0:0:
390,317,24476,1,0,3:2:0:0:
224,128,24630,1,8,0:2:0:0:
64,384,24784,6,0,L|82:136,1,233.999989288331,6|0,3:2|3:2,0:2:0:0:
288,0,25246,1,12,0:2:0:0:
24,69,25399,1,0,3:2:0:0:
302,130,25553,1,14,0:2:0:0:
5,201,25707,1,0,3:2:0:0:
316,260,25861,1,12,0:2:0:0:
144,0,26015,6,0,L|160:233,1,233.999989288331,6|0,3:2|3:2,0:2:0:0:
305,376,26476,2,0,P|309:318|316:260,1,116.999994644165,8|0,0:2|0:2,0:2:0:0:
411,93,26784,1,2,3:2:0:0:
480,288,26938,1,0,3:2:0:0:
256,160,27092,1,8,0:2:0:0:
489,46,27246,6,0,B|420:10|420:10|247:35,1,233.999989288331,6|0,3:2|3:2,0:2:0:0:
31,3,27707,2,0,P|41:66|48:142,1,116.999994644165,8|0,0:2|0:2,0:2:0:0:
0,352,28015,1,10,0:2:0:0:
256,160,28169,1,0,3:2:0:0:
0,352,28323,1,8,0:2:0:0:
256,160,28476,6,0,B|305:157|334:181|334:181|356:267|297:335,1,233.999989288331,6|0,3:2|3:2,0:2:0:0:
82,384,28938,2,0,P|88:325|97:268,1,116.999994644165,8|0,0:2|0:2,0:2:0:0:
160,64,29246,1,2,3:2:0:0:
217,290,29399,1,0,3:2:0:0:
350,82,29553,1,8,0:2:0:0:
431,359,29707,6,0,B|480:309|480:309|459:140,1,233.999989288331,6|0,3:2|3:2,0:2:0:0:
350,82,30092,1,0,3:2:0:0:
309,105,30169,1,0,3:2:0:0:
265,87,30246,1,0,3:2:0:0:
220,101,30323,1,0,3:2:0:0:
177,82,30399,1,0,3:2:0:0:
134,102,30476,5,2,3:2:0:0:
78,151,30553,5,2,3:2:0:0:
64,225,30630,5,2,3:2:0:0:
98,291,30707,5,2,3:2:0:0:
165,323,30784,5,2,3:2:0:0:
238,308,30861,5,2,3:2:0:0:
287,251,30938,6,0,B|201:207|201:207|34:229,1,233.999989288331,6|0,3:2|3:2,0:2:0:0:
300,384,31399,2,0,P|363:377|461:364,1,116.999994644165,8|0,0:2|0:2,0:2:0:0:
512,192,31707,1,2,3:2:0:0:
337,108,31861,1,0,3:2:0:0:
488,295,32015,1,8,0:2:0:0:
381,23,32169,6,0,L|403:266,1,233.999989288331,6|0,3:2|3:2,0:2:0:0:
288,384,32630,1,8,0:2:0:0:
51,337,32784,1,8,0:2:0:0:
51,337,32861,1,8,0:2:0:0:
51,337,32938,1,2,3:2:0:0:
256,128,33092,1,0,3:2:0:0:
167,365,33246,1,8,0:2:0:0:
32,96,33399,6,0,B|114:118|114:118|135:168|135:168|228:204,1,233.999989288331,6|0,3:2|3:2,0:2:0:0:
452,89,33861,2,0,P|382:93|314:106,1,116.999994644165,8|0,0:2|0:2,0:2:0:0:
241,290,34169,1,2,3:2:0:0:
480,256,34323,1,0,3:2:0:0:
256,128,34476,1,8,0:2:0:0:
384,384,34630,6,0,L|407:133,1,233.999989288331,6|0,3:2|3:2,0:2:0:0:
208,0,35092,1,12,0:2:0:0:
0,273,35246,1,0,3:2:0:0:
330,174,35399,1,14,0:2:0:0:
4,62,35553,1,0,3:2:0:0:
202,345,35707,1,12,0:2:0:0:
208,0,35861,6,0,B|287:-10|287:-10|454:23,1,233.999989288331,6|0,3:2|3:2,0:2:0:0:
512,256,36323,2,0,P|452:247|373:244,1,116.999994644165,8|0,0:2|0:2,0:2:0:0:
202,345,36630,1,2,3:2:0:0:
398,332,36784,1,0,3:2:0:0:
117,267,36938,1,8,0:2:0:0:
326,53,37092,6,0,L|309:299,1,233.999989288331,6|0,3:2|3:2,0:2:0:0:
128,384,37553,2,0,P|124:326|117:268,1,116.999994644165,8|0,0:2|0:2,0:2:0:0:
32,64,37861,1,10,0:2:0:0:
0,373,38015,1,0,3:2:0:0:
32,64,38169,1,8,0:2:0:0:
0,373,38323,6,0,B|67:352|67:352|128:378|128:378|245:367,1,233.999989288331,6|0,3:2|3:2,0:2:0:0:
225,368,38938,1,0,3:2:0:0:
225,368,39015,1,0,3:2:0:0:
225,368,39092,1,14,0:2:0:0:
480,224,39246,1,0,3:2:0:0:
160,128,39399,1,8,0:2:0:0:
379,353,39553,6,0,B|409:294|409:294|378:92,1,233.999989288331,6|0,3:2|3:2,0:2:0:0:
131,9,40015,1,12,0:2:0:0:
430,37,40169,1,2,3:2:0:0:
84,100,40323,1,12,0:2:0:0:
383,128,40476,1,2,3:2:0:0:
37,191,40630,1,12,0:2:0:0:
34,226,40707,1,8,0:2:0:0:
31,261,40784,1,8,0:2:0:0:
28,296,40861,1,8,0:2:0:0:
25,331,40938,6,0,P|78:349|117:355,1,80.9999975280763,6|0,3:2|0:2,0:2:0:0:
202,222,41246,2,0,P|162:230|124:244,1,80.9999975280763,10|0,0:2|0:2,0:2:0:0:
223,330,41553,1,2,3:2:0:0:
223,330,41707,1,0,3:2:0:0:
333,301,41861,1,10,0:2:0:0:
429,369,42015,6,0,L|439:202,1,161.999995056153,2|0,3:3|3:2,0:2:0:0:
372,105,42476,1,10,0:2:0:0:
372,105,42630,1,0,3:2:0:0:
257,196,42784,2,0,L|343:201,1,80.9999975280763,2|0,0:2|3:2,0:2:0:0:
254,98,43092,2,0,L|168:103,1,80.9999975280763,10|0,0:2|0:2,0:2:0:0:
97,204,43399,6,0,P|86:263|80:324,1,121.499996292114,2|0,3:2|0:2,0:2:0:0:
79,324,43707,2,0,P|154:327|183:326,1,80.9999975280763,10|0,0:2|0:2,0:2:0:0:
255,254,44015,1,2,3:2:0:0:
255,254,44169,1,0,3:2:0:0:
165,141,44323,1,10,0:2:0:0:
231,17,44476,6,0,L|405:13,1,161.999995056153,2|0,3:3|3:2,0:2:0:0:
493,80,44938,1,8,0:2:0:0:
381,153,45092,1,0,3:2:0:0:
381,153,45169,1,8,0:2:0:0:
487,220,45323,1,8,0:2:0:0:
487,220,45399,1,0,3:2:0:0:
375,278,45553,1,10,0:2:0:0:
482,346,45707,1,8,0:2:0:0:
273,343,45861,6,0,P|221:346|144:355,1,121.499996292114,2|0,3:2|0:0,0:0:0:0:
152,353,46169,2,0,L|43:348,1,80.9999975280763,10|0,0:0|0:0,0:0:0:0:
0,256,46476,1,2,3:2:0:0:
0,256,46630,1,0,3:2:0:0:
119,146,46784,1,10,0:0:0:0:
29,20,46938,6,0,P|34:110|41:187,1,161.999995056153,2|0,3:3|3:0,0:0:0:0:
192,256,47399,1,10,0:2:0:0:
192,256,47553,2,0,L|367:262,1,161.999995056153,0|0,3:2|3:2,0:2:0:0:
461,371,48015,2,0,P|466:317|473:278,1,80.9999975280763,10|0,0:0|0:0,0:0:0:0:
512,148,48323,6,0,P|513:97|509:24,1,121.499996292114,2|0,3:2|0:0,0:0:0:0:
509,26,48630,2,0,P|470:22|428:19,1,80.9999975280763,10|0,0:0|0:0,0:0:0:0:
300,103,48938,1,2,3:2:0:0:
300,103,49092,1,0,3:2:0:0:
350,184,49246,1,10,0:0:0:0:
345,18,49399,1,0,3:0:0:0:
204,106,49553,6,0,L|200:155,1,40.4999987640381,8|0,0:0|0:0,0:0:0:0:
252,240,49707,1,0,3:0:0:0:
252,240,49784,1,0,3:0:0:0:
252,240,49861,2,0,L|259:323,1,80.9999975280763,8|0,0:0|3:0,0:0:0:0:
78,367,50092,1,8,0:0:0:0:
61,365,50169,6,0,L|51:394,1,20.2499993820191,2|0,3:2|0:2,0:2:0:0:
44,350,50246,6,0,L|24:375,1,20.2499993820191,2|0,3:2|0:2,0:2:0:0:
33,330,50323,6,0,L|6:347,1,20.2499993820191,2|0,3:2|0:2,0:2:0:0:
30,307,50399,6,0,L|0:314,1,20.2499993820191,2|0,3:2|0:2,0:2:0:0:
36,287,50476,6,0,L|5:283,7,20.2499993820191,2|0|0|0|0|0|0|0,3:2|0:0|0:0|0:0|0:0|0:0|0:0|0:0,0:0:0:0:
70,275,50784,6,0,P|72:213|82:122,1,135,6|0,3:2|0:0,0:0:0:0:
80,140,51092,2,0,P|128:138|184:131,1,90,10|0,0:0|0:0,0:0:0:0:
255,26,51399,1,2,3:2:0:0:
255,26,51553,1,0,3:2:0:0:
420,73,51707,1,10,0:0:0:0:
291,190,51861,6,0,P|282:252|273:376,1,180,2|0,3:3|3:0,0:0:0:0:
448,384,52323,1,10,0:2:0:0:
448,384,52476,1,0,3:2:0:0:
500,264,52630,2,0,P|502:199|500:158,1,90,2|0,0:2|3:2,0:2:0:0:
384,32,52938,2,0,L|284:29,1,90,10|0,0:2|0:2,0:2:0:0:
23,81,53246,6,0,B|68:69|68:69|168:90,1,135,6|0,3:2|0:2,0:2:0:0:
154,87,53553,2,0,L|158:184,1,90,10|0,0:2|0:2,0:2:0:0:
115,300,53861,1,2,3:2:0:0:
115,300,54015,1,0,3:2:0:0:
279,374,54169,1,10,0:2:0:0:
414,254,54323,6,0,P|362:256|205:271,1,180,2|0,3:3|3:2,0:2:0:0:
66,377,54784,1,8,0:2:0:0:
17,229,54938,1,0,3:2:0:0:
12,187,55015,1,8,0:2:0:0:
148,268,55169,1,8,0:2:0:0:
143,310,55246,1,0,3:2:0:0:
12,187,55399,1,10,0:2:0:0:
150,109,55553,1,8,0:2:0:0:
279,335,55707,6,0,B|323:352|323:352|440:341,1,135,6|0,3:2|0:2,0:2:0:0:
410,343,56015,2,0,L|414:229,1,90,10|0,0:2|0:2,0:2:0:0:
480,96,56323,1,2,3:2:0:0:
480,96,56476,1,0,3:2:0:0:
512,272,56630,1,2,0:2:0:0:
374,58,56784,6,0,L|178:53,1,180,8|0,0:2|3:2,0:2:0:0:
48,156,57246,2,0,P|39:203|30:278,1,90,10|0,0:2|0:2,0:2:0:0:
160,352,57553,1,0,3:2:0:0:
305,162,57707,2,0,P|349:153|393:147,1,90,8|0,0:2|0:2,0:2:0:0:
482,375,58015,6,0,L|487:174,1,180,6|0,3:2|3:2,0:2:0:0:
299,19,58476,5,12,0:2:0:0:
362,330,58630,1,0,3:2:0:0:
424,43,58784,1,12,0:2:0:0:
361,354,58938,1,0,3:2:0:0:
305,49,59092,1,12,0:2:0:0:
147,351,59246,6,0,B|117:361|98:367|98:367|26:342|38:242,1,180,6|0,3:2|3:0,0:2:0:0:
59,76,59707,1,2,3:2:0:0:
76,61,59784,1,2,3:2:0:0:
101,52,59861,1,2,3:2:0:0:
132,54,59938,1,2,3:2:0:0:
163,71,60015,1,10,3:2:0:0:
182,106,60092,1,2,3:2:0:0:
176,150,60169,1,2,3:2:0:0:
180,199,60246,1,2,3:2:0:0:
217,237,60323,1,10,3:2:0:0:
274,243,60399,1,2,3:2:0:0:
320,201,60476,6,0,P|253:189|106:179,1,180,6|0,3:2|3:2,0:2:0:0:
0,288,60938,2,0,P|33:282|107:277,1,90,8|0,0:2|0:2,0:2:0:0:
240,360,61246,1,0,3:2:0:0:
240,360,61399,1,0,3:2:0:0:
354,305,61553,1,8,0:2:0:0:
481,380,61707,6,0,P|483:311|489:166,1,180,2|0,3:3|3:2,0:2:0:0:
512,14,62169,1,8,0:2:0:0:
439,113,62323,1,0,3:2:0:0:
276,50,62476,1,2,0:2:0:0:
389,0,62630,1,0,3:2:0:0:
366,212,62784,1,8,0:2:0:0:
276,50,62938,6,0,P|222:52|80:68,1,180,6|0,3:2|3:2,0:2:0:0:
0,241,63399,2,0,P|27:240|98:232,1,90,8|0,0:2|0:2,0:2:0:0:
256,160,63707,1,2,3:3:0:0:
256,160,63861,1,2,3:3:0:0:
53,142,64015,1,8,0:2:0:0:
164,0,64169,6,0,L|155:200,1,180,2|2,3:3|3:3,0:2:0:0:
68,335,64630,1,8,0:2:0:0:
68,335,64784,2,0,P|155:339|247:348,1,180,2|0,3:3|3:2,0:2:0:0:
416,288,65246,1,8,0:2:0:0:
192,192,65399,6,0,B|163:150|163:150|187:-12,1,180,6|0,3:2|3:2,0:2:0:0:
365,119,65861,2,0,L|262:124,1,90,8|0,0:2|0:2,0:2:0:0:
396,0,66169,1,0,3:2:0:0:
396,0,66323,1,0,3:2:0:0:
498,115,66476,1,8,0:2:0:0:
380,208,66630,6,0,P|367:263|346:388,1,180,2|0,3:3|3:2,0:2:0:0:
492,224,67092,1,8,0:2:0:0:
259,326,67246,2,0,L|72:316,1,180,2|0,3:3|3:2,0:2:0:0:
0,160,67707,1,8,0:2:0:0:
199,2,67861,6,0,B|239:38|239:38|217:187,1,180,6|0,3:2|3:2,0:2:0:0:
79,316,68323,5,12,0:2:0:0:
448,224,68476,1,0,3:2:0:0:
77,188,68630,5,12,0:2:0:0:
436,350,68784,1,0,3:2:0:0:
272,32,68938,5,12,0:2:0:0:
240,384,69092,1,2,3:2:0:0:
0,160,70323,6,0,B|66:121|66:121|259:161,1,251.999992309571,6|0,3:2|3:0,0:0:0:0:
388,331,70784,5,10,0:2:0:0:
442,44,70938,1,0,3:0:0:0:
277,309,71092,5,10,0:2:0:0:
223,22,71246,1,0,3:0:0:0:
58,287,71399,5,10,0:2:0:0:
112,0,71553,1,0,3:0:0:0:
39,335,71707,6,0,P|27:264|24:205,1,125.999996154785,10|0,0:2|3:0,0:0:0:0:
208,384,72015,1,10,0:0:0:0:
480,320,72169,2,0,P|476:257|465:195,1,125.999996154785,2|8,3:2|0:0,0:0:0:0:
343,0,72476,1,2,3:2:0:0:
306,282,72630,1,10,0:0:0:0:
512,35,72784,6,0,B|426:47|426:47|387:92|387:92|223:110,1,251.999992309571,6|0,3:2|3:0,0:0:0:0:
45,42,73246,5,10,0:0:0:0:
343,0,73399,1,0,3:0:0:0:
34,143,73553,5,10,0:0:0:0:
332,185,73707,1,0,3:0:0:0:
23,328,73861,5,10,0:0:0:0:
321,286,74015,1,0,3:0:0:0:
194,22,74169,6,0,P|184:92|179:167,1,125.999996154785,10|0,0:0|3:0,0:0:0:0:
227,345,74476,1,10,0:0:0:0:
457,199,74630,2,0,P|394:190|332:185,1,125.999996154785,2|8,3:2|0:0,0:0:0:0:
131,271,74938,1,2,3:2:0:0:
404,328,75092,1,10,0:0:0:0:
95,353,75246,6,0,B|48:298|48:298|66:104,1,251.999992309571,6|0,3:2|3:0,0:0:0:0:
224,0,75707,5,10,0:0:0:0:
131,271,75861,1,0,3:0:0:0:
311,20,76015,5,10,0:0:0:0:
151,257,76169,1,0,3:0:0:0:
389,61,76323,5,10,0:0:0:0:
173,249,76476,1,0,3:0:0:0:
453,121,76630,5,10,0:0:0:0:
196,247,76784,1,0,3:0:0:0:
499,196,76938,5,10,0:0:0:0:
219,252,77092,1,0,3:0:0:0:
512,283,77246,6,0,P|446:296|381:303,1,125.999996154785,10|0,0:0|3:0,0:0:0:0:
256,128,77553,1,10,0:0:0:0:
16,265,77707,6,0,B|109:285|109:285|143:331|143:331|262:352,1,251.999992309571,6|0,3:2|3:0,0:0:0:0:
508,164,78169,5,10,0:2:0:0:
195,261,78323,1,2,3:2:0:0:
512,283,78476,1,10,0:2:0:0:
192,134,78630,1,2,3:2:0:0:
423,368,78784,1,10,0:0:0:0:
335,66,78938,6,0,L|319:319,1,251.999992309571,6|0,3:2|3:0,0:0:0:0:
299,350,79323,1,0,3:0:0:0:
279,382,79399,1,8,0:0:0:0:
61,280,79553,1,0,3:0:0:0:
199,53,79707,5,8,0:0:0:0:
201,97,79784,1,8,0:0:0:0:
204,141,79861,1,8,0:0:0:0:
207,185,79938,1,8,0:0:0:0:
210,229,80015,1,8,0:0:0:0:
13,28,80169,6,0,B|86:18|86:18|148:49|148:49|273:37,1,251.999992309571,6|0,3:2|3:0,0:0:0:0:
470,38,80630,5,10,0:0:0:0:
437,310,80784,1,0,3:0:0:0:
330,3,80938,5,10,0:0:0:0:
363,275,81092,1,0,3:0:0:0:
256,38,81246,5,10,0:0:0:0:
223,310,81399,1,0,3:0:0:0:
116,3,81553,6,0,P|25:9|-10:20,1,125.999996154785,10|0,0:0|3:0,0:0:0:0:
0,224,81861,1,10,0:0:0:0:
223,310,82015,2,0,P|210:219|198:152,1,125.999996154785,2|8,3:2|0:0,0:0:0:0:
384,0,82323,1,2,3:2:0:0:
344,280,82476,1,10,0:0:0:0:
499,89,82630,6,0,L|211:131,1,251.999992309571,6|0,3:2|3:0,0:0:0:0:
40,236,83092,5,10,0:0:0:0:
344,280,83246,1,0,3:0:0:0:
133,47,83399,5,10,0:0:0:0:
89,351,83553,1,0,3:0:0:0:
322,141,83707,5,10,0:0:0:0:
18,96,83861,1,0,3:0:0:0:
229,330,84015,6,0,P|296:348|354:358,1,125.999996154785,10|0,0:0|3:0,0:0:0:0:
512,224,84323,1,10,0:0:0:0:
349,18,84476,2,0,P|333:79|322:141,1,125.999996154785,2|8,3:2|0:0,0:0:0:0:
438,319,84784,1,2,3:2:0:0:
496,112,84938,1,10,0:0:0:0:
252,22,85092,6,0,B|199:67|199:67|237:273,1,251.999992309571,6|0,3:2|3:0,0:0:0:0:
438,319,85553,5,10,0:0:0:0:
148,265,85707,1,0,3:0:0:0:
441,237,85861,5,10,0:0:0:0:
130,342,86015,1,0,3:0:0:0:
452,321,86169,5,10,0:0:0:0:
133,262,86323,1,0,3:0:0:0:
456,231,86476,5,10,0:0:0:0:
114,347,86630,1,0,3:0:0:0:
469,324,86784,5,10,0:0:0:0:
118,259,86938,1,0,3:0:0:0:
472,225,87092,6,0,P|480:157|483:96,1,125.999996154785,10|0,0:2|3:0,0:0:0:0:
320,0,87399,1,10,0:0:0:0:
251,297,87553,6,0,B|176:278|176:278|110:309|110:309|-10:282,1,251.999992309571,6|0,3:2|3:0,0:0:0:0:
0,32,88015,1,8,0:0:0:0:
231,151,88169,1,0,3:0:0:0:
0,129,88323,1,8,0:0:0:0:
42,118,88399,1,8,0:0:0:0:
85,108,88476,1,8,0:0:0:0:
128,97,88553,1,8,0:0:0:0:
171,87,88630,1,8,0:0:0:0:
251,297,88784,6,0,B|327:284|327:284|390:321|390:321|512:304,1,251.999992309571,6|8,3:2|0:0,0:0:0:0:
499,270,89169,1,8,0:0:0:0:
507,233,89246,1,8,0:0:0:0:
311,368,89399,1,0,3:0:0:0:
57,343,89553,6,0,L|28:360,1,18,2|0,3:2|0:2,0:2:0:0:
36,319,89630,6,0,L|3:328,1,20.2499993820191,2|0,3:2|0:2,0:2:0:0:
22,291,89707,6,0,L|-10:291,1,22.5,2|0,3:2|0:2,0:2:0:0:
16,260,89784,6,0,L|-22:254,1,24.7500007553101,2|0,3:2|0:2,0:2:0:0:
18,229,89861,6,0,L|-12:213,1,26.9999991760254,2|0,3:2|0:2,0:2:0:0:
28,199,89938,6,0,L|0:179,1,29.2499986610413,2|0,3:2|0:2,0:2:0:0:
52,178,90015,6,0,B|122:168|122:168|179:202|179:202|292:184,1,233.999989288331,6|0,3:2|3:0,0:0:0:0:
512,64,90476,2,0,P|453:56|360:50,1,116.999994644165,8|0,0:0|0:0,0:0:0:0:
198,122,90784,1,2,3:2:0:0:
446,184,90938,1,0,3:0:0:0:
158,280,91092,1,8,0:0:0:0:
466,384,91246,6,0,L|471:119,1,233.999989288331,6|0,3:2|3:0,0:0:0:0:
288,0,91707,1,8,0:0:0:0:
340,277,91861,1,8,0:0:0:0:
343,294,91938,1,8,0:0:0:0:
346,311,92015,1,2,3:2:0:0:
444,42,92169,1,0,3:0:0:0:
163,92,92323,1,8,0:2:0:0:
441,179,92476,6,0,B|361:163|361:163|303:196|303:196|170:185,1,233.999989288331,6|0,3:2|3:0,0:0:0:0:
50,366,92938,2,0,P|55:306|65:241,1,116.999994644165,8|0,0:0|0:0,0:0:0:0:
184,37,93246,1,2,3:2:0:0:
223,319,93399,1,0,3:2:0:0:
49,73,93553,1,8,0:0:0:0:
50,366,93707,6,0,L|288:358,1,233.999989288331,6|0,3:2|3:0,0:0:0:0:
512,160,94169,2,0,L|392:155,1,116.999994644165,12|0,0:2|3:0,0:0:0:0:
203,262,94476,2,0,P|164:265|134:259,1,58.4999973220826,10|8,3:2|3:2,0:2:0:0:
0,128,94630,2,0,P|16:92|37:69,1,58.4999973220826,8|8,3:2|3:2,0:2:0:0:
217,19,94784,2,0,P|239:51|248:80,1,58.4999973220826,8|8,3:2|3:2,0:2:0:0:
345,320,94938,6,0,B|394:323|423:299|423:299|445:213|386:145,1,233.999989288331,6|0,3:2|3:2,0:2:0:0:
127,151,95399,2,0,P|184:161|242:169,1,116.999994644165,8|0,0:0|0:0,0:0:0:0:
500,121,95707,1,2,3:2:0:0:
245,69,95861,1,0,3:0:0:0:
448,256,96015,1,8,0:0:0:0:
353,0,96169,6,0,L|326:233,1,233.999989288331,6|0,3:2|3:0,0:0:0:0:
75,348,96630,1,12,0:2:0:0:
388,318,96784,1,0,3:0:0:0:
13,262,96938,1,14,0:2:0:0:
326,232,97092,1,0,3:0:0:0:
24,157,97246,1,12,0:2:0:0:
224,383,97399,6,0,P|231:270|243:125,1,233.999989288331,6|0,3:2|3:0,0:0:0:0:
240,149,98015,1,0,3:2:0:0:
240,149,98092,1,0,3:2:0:0:
240,149,98169,1,14,0:2:0:0:
403,304,98323,1,0,3:0:0:0:
416,64,98476,1,8,0:0:0:0:
260,325,98630,6,0,B|202:352|202:352|27:313,1,233.999989288331,6|0,3:2|3:0,0:0:0:0:
21,13,99092,5,8,0:0:0:0:
182,270,99246,1,0,3:0:0:0:
320,0,99399,5,8,0:0:0:0:
481,257,99553,1,0,3:0:0:0:
157,131,99707,5,10,0:0:0:0:
215,127,99784,1,8,0:0:0:0:
273,124,99861,1,8,0:0:0:0:
332,121,99938,1,8,0:0:0:0:
390,118,100015,1,4,3:3:0:0:
15,44,107399,6,0,L|6:134,1,90,0|0,3:2|0:0,0:0:0:0:
7,134,109246,5,2,3:2:0:0:
40,123,109323,1,2,3:2:0:0:
74,126,109399,1,2,3:2:0:0:
105,142,109476,1,2,3:2:0:0:
128,168,109553,1,2,3:2:0:0:
155,198,109630,1,2,3:2:0:0:
193,217,109707,1,2,3:2:0:0:
235,219,109784,1,2,3:2:0:0:
279,209,109861,6,0,P|337:211|420:224,1,135,6|0,3:2|0:0,0:0:0:0:
413,222,110169,2,0,L|419:333,1,90,10|0,0:2|0:0,0:0:0:0:
288,384,110476,1,2,3:2:0:0:
288,384,110630,1,0,3:2:0:0:
160,288,110784,1,10,0:0:0:0:
32,384,110938,6,0,L|49:186,1,180,2|0,3:3|3:0,0:0:0:0:
3,58,111399,2,0,P|47:66|97:68,1,90,10|0,0:0|3:0,0:0:0:0:
224,0,111707,1,2,0:0:0:0:
224,0,111861,1,0,3:0:0:0:
335,109,112015,2,0,P|343:153|345:203,1,90,10|0,0:0|0:0,0:0:0:0:
190,328,112323,6,0,L|347:339,1,135,2|0,3:2|0:0,0:0:0:0:
324,337,112630,2,0,L|433:329,1,90,10|0,0:2|0:0,0:0:0:0:
512,224,112938,1,2,3:2:0:0:
512,224,113092,1,0,3:2:0:0:
344,162,113246,1,10,0:0:0:0:
438,14,113399,6,0,L|427:223,1,180,2|0,3:3|3:0,0:0:0:0:
512,300,113861,1,8,0:2:0:0:
364,251,114015,1,0,3:2:0:0:
322,246,114092,1,8,0:2:0:0:
403,382,114246,1,8,0:2:0:0:
445,377,114323,1,0,3:2:0:0:
322,246,114476,1,10,0:2:0:0:
244,384,114630,1,8,0:2:0:0:
50,289,114784,6,0,P|45:238|59:141,1,135,6|0,3:2|0:0,0:0:0:0:
54,155,115092,2,0,L|163:149,1,90,10|0,0:0|0:0,0:0:0:0:
322,246,115399,1,2,3:2:0:0:
322,246,115553,1,0,3:2:0:0:
208,64,115707,1,2,0:0:0:0:
172,321,115861,6,0,L|369:336,1,180,8|0,0:0|3:0,0:0:0:0:
506,239,116323,2,0,L|513:140,1,90,10|0,0:0|0:0,0:0:0:0:
416,0,116630,1,0,3:0:0:0:
256,192,116784,2,0,L|166:198,1,90,8|0,0:0|0:0,0:0:0:0:
0,32,117092,6,0,B|47:18|47:18|195:39,1,180,6|0,3:2|3:0,0:0:0:0:
425,65,117553,5,12,0:2:0:0:
115,128,117707,1,0,3:2:0:0:
439,196,117861,1,12,0:2:0:0:
89,127,118015,1,0,3:2:0:0:
458,58,118169,1,12,0:2:0:0:
240,368,118323,6,0,B|269:379|289:384|289:384|361:359|349:259,1,180,6|0,3:2|3:0,0:2:0:0:
333,39,118784,1,2,3:2:0:0:
310,18,118861,1,2,3:2:0:0:
276,6,118938,1,2,3:2:0:0:
235,9,119015,1,2,3:2:0:0:
195,31,119092,1,10,3:2:0:0:
169,78,119169,1,2,3:2:0:0:
178,136,119246,1,2,3:2:0:0:
172,201,119323,1,2,3:2:0:0:
124,251,119399,1,10,3:2:0:0:
48,258,119476,1,2,3:2:0:0:
0,192,119553,6,0,P|58:181|188:172,1,180,6|0,3:2|3:2,0:2:0:0:
335,298,120015,2,0,P|290:294|245:286,1,90,8|0,0:2|0:2,0:2:0:0:
96,352,120323,1,0,3:0:0:0:
96,352,120476,1,0,3:0:0:0:
0,224,120630,1,8,0:0:0:0:
130,44,120784,6,0,L|137:237,1,180,2|0,3:3|3:0,0:0:0:0:
239,360,121246,1,8,0:2:0:0:
360,384,121399,1,0,3:2:0:0:
401,175,121553,1,2,0:2:0:0:
320,267,121707,1,0,3:2:0:0:
477,344,121861,1,8,0:2:0:0:
482,83,122015,6,0,B|430:63|430:63|292:80,1,180,6|0,3:2|3:0,0:0:0:0:
80,16,122476,2,0,P|135:21|196:30,1,90,8|0,0:0|0:0,0:0:0:0:
224,192,122784,1,2,3:3:0:0:
224,192,122938,1,2,3:3:0:0:
43,115,123092,1,8,0:0:0:0:
112,337,123246,6,0,L|129:158,1,180,2|2,3:3|3:3,0:0:0:0:
246,15,123707,1,8,0:0:0:0:
246,15,123861,2,0,L|425:31,1,180,2|0,3:3|3:3,0:0:0:0:
505,222,124323,1,8,0:0:0:0:
257,115,124476,6,0,B|228:159|228:159|256:310,1,180,6|0,3:2|3:0,0:0:0:0:
416,384,124938,2,0,P|421:318|423:280,1,90,8|0,0:0|0:0,0:0:0:0:
384,96,125246,1,0,3:0:0:0:
384,96,125399,1,0,3:0:0:0:
331,316,125553,1,8,0:0:0:0:
512,208,125707,6,0,L|322:196,1,180,2|0,3:3|3:0,0:0:0:0:
224,32,126169,1,8,0:0:0:0:
33,168,126323,2,0,L|223:156,1,180,2|0,3:3|3:0,0:0:0:0:
416,0,126784,1,8,0:0:0:0:
480,288,126938,5,2,3:2:0:0:
256,192,127015,12,2,128169,0:0:0:0:
32,291,129092,5,0,0:0:0:0:
32,291,129169,1,0,0:0:0:0:
32,291,129246,1,0,0:0:0:0:
32,291,129323,1,0,0:0:0:0:
32,291,129399,6,0,B|106:273|106:273|181:322|181:322|298:309,1,270.000010299683,6|0,3:2|3:0,0:0:0:0:
496,48,129861,5,10,0:0:0:0:
452,365,130015,1,0,3:0:0:0:
321,12,130169,5,10,0:0:0:0:
365,329,130323,1,0,3:0:0:0:
191,12,130476,5,10,0:0:0:0:
147,329,130630,1,0,3:0:0:0:
16,48,130784,6,0,P|2:128|-2:188,1,135.000005149842,10|0,0:0|3:2,0:0:0:0:
147,329,131092,1,10,0:0:0:0:
247,105,131246,2,0,P|167:90|107:86,1,135.000005149842,2|8,3:2|0:0,0:0:0:0:
0,288,131553,1,2,3:2:0:0:
288,192,131707,1,10,0:0:0:0:
21,384,131861,6,0,L|42:65,1,270.000010299683,6|0,3:2|3:0,0:0:0:0:
224,0,132323,5,10,0:0:0:0:
512,224,132476,1,0,3:0:0:0:
241,0,132630,5,10,0:0:0:0:
460,291,132784,1,0,3:0:0:0:
256,5,132938,5,10,0:0:0:0:
392,343,133092,1,0,3:0:0:0:
269,13,133246,6,0,P|293:91|312:179,1,135.000005149842,10|0,0:2|3:0,0:0:0:0:
224,320,133553,1,10,0:0:0:0:
50,113,133707,2,0,P|131:117|220:129,1,135.000005149842,2|8,3:2|0:0,0:0:0:0:
358,309,134015,1,2,3:2:0:0:
448,64,134169,1,10,0:0:0:0:
512,366,134323,6,0,B|425:355|425:355|376:388|376:388|213:363,1,270.000010299683,6|0,3:2|3:0,0:0:0:0:
39,250,134784,5,10,0:0:0:0:
358,309,134938,1,0,3:0:0:0:
35,340,135092,5,10,0:0:0:0:
377,224,135246,1,0,3:0:0:0:
23,247,135399,5,10,0:0:0:0:
374,312,135553,1,0,3:0:0:0:
19,346,135707,5,10,0:0:0:0:
395,219,135861,1,0,3:0:0:0:
4,244,136015,5,10,0:0:0:0:
391,316,136169,1,0,3:0:0:0:
3,352,136323,6,0,P|76:357|143:354,1,135.000005149842,10|0,0:0|3:2,0:0:0:0:
374,312,136630,1,10,0:0:0:0:
260,76,136784,6,0,B|226:140|226:140|256:350,1,270.000010299683,6|0,3:2|3:0,0:0:0:0:
460,384,137246,5,10,0:2:0:0:
428,64,137399,1,2,3:2:0:0:
486,360,137553,5,10,0:2:0:0:
454,40,137707,1,2,3:2:0:0:
512,336,137861,5,10,0:2:0:0:
480,16,138015,6,0,B|387:36|387:36|353:82|353:82|234:103,1,270.000010299683,6|0,3:2|3:0,0:0:0:0:
200,84,138399,1,0,3:2:0:0:
163,66,138476,1,8,3:2:0:0:
434,103,138630,1,0,3:0:0:0:
339,303,138784,5,8,0:0:0:0:
285,305,138861,1,8,0:0:0:0:
233,308,138938,1,8,0:0:0:0:
179,311,139015,1,8,0:0:0:0:
125,313,139092,1,8,0:0:0:0:
0,96,139246,6,0,B|93:116|93:116|127:162|127:162|246:183,1,270.000010299683,6|0,3:2|3:0,0:0:0:0:
504,365,139707,5,10,0:0:0:0:
338,44,139861,1,0,3:0:0:0:
393,384,140015,5,10,0:0:0:0:
315,30,140169,1,0,3:0:0:0:
280,373,140323,5,10,0:0:0:0:
297,11,140476,1,0,3:0:0:0:
173,333,140630,6,0,P|72:325|23:318,1,135.000005149842,10|0,0:0|3:2,0:0:0:0:
32,64,140938,1,10,0:0:0:0:
224,256,141092,2,0,P|325:248|374:241,1,135.000005149842,2|8,3:2|0:0,0:0:0:0:
480,32,141399,1,2,3:2:0:0:
256,160,141553,1,10,0:2:0:0:
462,384,141707,6,0,L|475:111,1,270.000010299683,6|0,3:2|3:0,0:0:0:0:
235,0,142169,5,10,0:0:0:0:
325,339,142323,1,0,3:0:0:0:
368,17,142476,5,10,0:0:0:0:
191,321,142630,1,0,3:0:0:0:
449,124,142784,5,10,0:0:0:0:
110,214,142938,1,0,3:0:0:0:
431,257,143092,6,0,P|450:332|457:388,1,135.000005149842,10|0,0:0|3:2,0:0:0:0:
191,321,143399,1,10,0:0:0:0:
316,150,143553,2,0,P|382:132|449:124,1,135.000005149842,2|8,3:2|0:0,0:0:0:0:
349,341,143861,1,2,3:2:0:0:
325,29,144015,1,10,0:0:0:0:
510,256,144169,6,0,B|422:277|422:277|354:249|354:249|248:275,1,270.000010299683,6|0,3:2|3:0,0:0:0:0:
30,52,144630,5,10,0:0:0:0:
61,354,144784,1,0,3:0:0:0:
186,28,144938,5,10,0:0:0:0:
154,333,145092,1,0,3:0:0:0:
22,37,145246,5,10,0:0:0:0:
56,370,145399,1,0,3:0:0:0:
192,14,145553,5,10,0:0:0:0:
158,347,145707,1,0,3:0:0:0:
14,22,145861,5,10,0:0:0:0:
52,383,146015,1,0,3:0:0:0:
198,0,146169,6,0,P|275:-4|355:-6,1,135.000005149842,10|0,0:0|3:2,0:0:0:0:
475,126,146476,1,10,0:0:0:0:
286,349,146630,6,0,B|213:303|213:303|247:80,1,270.000010299683,6|0,3:2|3:0,0:0:0:0:
448,0,147092,1,12,0:0:0:0:
136,64,147246,1,0,3:2:0:0:
475,126,147399,5,8,0:0:0:0:
482,181,147476,1,8,0:0:0:0:
491,238,147553,1,8,0:0:0:0:
500,295,147630,1,8,0:0:0:0:
508,350,147707,1,8,0:0:0:0:
105,210,147861,6,0,B|151:137|151:137|332:164,1,270.000010299683,6|8,3:2|0:0,0:0:0:0:
373,204,148246,1,8,0:0:0:0:
414,244,148323,1,8,0:0:0:0:
256,0,148476,1,0,3:2:0:0:
119,322,148630,6,0,L|68:339,10,33.7500012874604,10|2|2|2|2|2|2|2|2|2|2,0:0|0:0|0:0|0:0|0:0|0:0|0:0|0:0|0:0|0:0|0:0,0:0:0:0:
352,384,149092,5,0,3:0:0:0:
0,64,168784,6,0,L|97:70,1,94.4999971160889,6|2,3:2|0:0,0:0:0:0:
128,256,170015,6,0,L|222:250,1,94.4999971160889,2|2,3:2|0:0,0:0:0:0:
320,64,171245,6,0,L|415:59,1,94.4999971160889,2|2,3:2|0:0,0:0:0:0:
448,256,172476,6,0,L|491:258,2,40.4999987640381,2|0|0,3:2|3:0|3:0,0:0:0:0:
122,322,173707,6,0,P|128:293|169:243,1,94.4999971160889,6|2,3:2|0:0,0:0:0:0:
210,10,174938,6,0,P|232:30|255:91,1,94.4999971160889,2|2,3:2|0:0,0:0:0:0:
435,243,176168,6,0,P|407:252|343:241,1,94.4999971160889,2|2,3:2|0:0,0:0:0:0:
153,283,177399,6,0,L|122:308,2,40.4999987640381,2|0|0,3:2|3:0|3:0,0:0:0:0:
50,110,178630,6,0,L|82:17,1,94.4999971160889,6|2,3:2|0:0,0:0:0:0:
92,241,179861,6,0,L|0:260,1,94.4999971160889,2|2,3:2|0:0,0:0:0:0:
185,140,181092,6,0,L|249:214,1,94.4999971160889,2|2,3:2|0:0,0:0:0:0:
0,260,182322,6,0,L|-5:301,2,40.4999987640381,2|0|0,3:2|3:0|3:0,0:0:0:0:
224,352,183553,6,0,P|253:353|312:325,1,94.4999971160889,6|2,3:2|0:0,0:0:0:0:
262,104,184784,6,0,P|245:129|240:193,1,94.4999971160889,2|2,3:2|0:0,0:0:0:0:
457,260,186015,6,0,P|443:232|390:196,1,94.4999971160889,2|2,3:2|0:0,0:0:0:0:
224,352,187245,5,2,3:2:0:0:
38,85,188168,5,0,0:0:0:0:
31,86,188245,1,0,0:0:0:0:
24,87,188322,1,0,0:0:0:0:
17,88,188399,1,0,0:0:0:0:
10,89,188476,6,0,B|91:75|91:75|153:120|153:120|274:107,1,270.000010299683,6|0,3:2|3:0,0:0:0:0:
472,20,188936,5,8,0:0:0:0:
423,359,189090,1,0,3:0:0:0:
256,0,189244,5,10,0:0:0:0:
256,384,189398,1,0,3:0:0:0:
40,20,189552,5,8,0:0:0:0:
33,67,189629,1,8,0:0:0:0:
26,116,189705,1,6,3:2:0:0:
448,192,189859,5,8,0:0:0:0:
28,243,190013,1,0,3:0:0:0:
384,0,190167,5,8,0:0:0:0:
26,116,190321,1,0,3:2:0:0:
448,192,190475,5,10,0:0:0:0:
28,243,190629,1,0,3:2:0:0:
384,384,190782,5,8,0:0:0:0:
26,116,190936,6,0,B|107:95|107:95|316:135,1,270.000010299683,6|0,3:2|3:0,0:0:0:0:
471,331,191398,5,8,0:0:0:0:
352,0,191552,1,0,3:0:0:0:
288,352,191705,5,10,0:0:0:0:
481,7,191859,1,0,3:0:0:0:
489,376,192013,5,8,0:0:0:0:
471,331,192090,1,8,0:0:0:0:
453,286,192167,1,6,3:2:0:0:
352,0,192321,5,8,0:0:0:0:
288,352,192475,1,0,3:0:0:0:
474,80,192629,5,8,0:0:0:0:
111,173,192782,1,0,3:0:0:0:
512,227,192936,5,10,0:0:0:0:
89,179,193090,1,0,3:0:0:0:
501,74,193244,5,8,0:0:0:0:
272,381,193398,6,0,L|296:75,1,270.000010299683,6|0,3:2|3:0,0:0:0:0:
64,0,193859,5,8,0:0:0:0:
96,352,194013,1,0,3:0:0:0:
256,0,194167,5,10,0:0:0:0:
272,381,194321,1,0,3:0:0:0:
448,0,194475,5,8,0:0:0:0:
455,47,194552,1,8,0:0:0:0:
462,96,194628,1,6,3:2:0:0:
378,357,194782,5,8,0:0:0:0:
256,0,194936,1,0,3:0:0:0:
0,128,195090,5,8,0:0:0:0:
416,192,195244,1,0,3:0:0:0:
0,224,195398,5,10,0:0:0:0:
462,96,195552,1,0,3:2:0:0:
19,321,195705,5,8,0:0:0:0:
318,52,195859,6,0,L|342:351,1,270.000010299683,6|0,3:2|3:0,0:0:0:0:
96,384,196321,5,8,0:0:0:0:
128,32,196475,1,0,3:0:0:0:
256,384,196629,5,10,0:0:0:0:
288,0,196782,1,0,3:0:0:0:
416,384,196936,5,8,0:0:0:0:
512,96,197090,6,0,B|437:40|437:40|247:95,1,270.000010299683,6|0,3:2|3:0,0:0:0:0:
267,89,197475,1,0,3:0:0:0:
267,89,197552,5,8,0:0:0:0:
425,302,197705,1,0,3:0:0:0:
70,351,197859,5,8,0:0:0:0:
76,278,197936,1,8,0:0:0:0:
82,207,198013,1,8,0:0:0:0:
89,136,198090,1,8,0:0:0:0:
96,64,198167,1,8,0:0:0:0:
256,384,198321,5,6,3:2:0:0:
478,169,207859,5,2,0:0:0:0:
230,213,208013,1,2,0:0:0:0:
478,169,208167,6,0,B|389:164|389:164|335:217|335:217|206:213,1,270.000010299683,6|0,3:2|3:0,0:0:0:0:
32,32,208629,5,10,0:0:0:0:
96,384,208782,1,0,3:0:0:0:
176,0,208936,5,10,0:0:0:0:
209,356,209090,1,0,3:0:0:0:
336,0,209244,5,10,0:0:0:0:
303,356,209398,1,0,3:0:0:0:
480,32,209552,6,0,P|495:114|503:182,1,135.000005149842,10|0,0:0|3:2,0:0:0:0:
416,384,209859,1,10,0:0:0:0:
352,96,210013,2,0,P|285:87|217:82,1,135.000005149842,2|8,3:2|0:0,0:0:0:0:
53,295,210321,1,2,3:2:0:0:
320,192,210475,1,10,0:0:0:0:
49,37,210629,6,0,B|15:97|15:97|52:294,1,270.000010299683,6|0,3:2|3:0,0:0:0:0:
286,384,211090,5,10,0:0:0:0:
355,1,211244,1,0,3:0:0:0:
430,352,211398,5,10,0:0:0:0:
209,30,211552,1,0,3:0:0:0:
512,227,211705,5,10,0:0:0:0:
127,157,211859,1,0,3:0:0:0:
481,80,212013,6,0,P|403:70|330:64,1,135.000005149842,10|0,0:0|3:2,0:0:0:0:
127,157,212321,1,10,0:0:0:0:
338,351,212475,2,0,P|348:273|354:200,1,135.000005149842,2|8,3:2|0:0,0:0:0:0:
143,0,212782,1,2,3:2:0:0:
105,324,212936,1,10,0:0:0:0:
143,0,213090,6,0,B|238:7|238:7|278:61|278:61|394:70,1,270.000010299683,6|0,3:2|3:0,0:0:0:0:
444,325,213552,5,10,0:0:0:0:
66,152,213705,1,0,3:0:0:0:
450,166,213859,5,10,0:0:0:0:
61,312,214013,1,0,3:0:0:0:
463,333,214167,5,10,0:0:0:0:
46,143,214321,1,0,3:0:0:0:
469,158,214475,5,10,0:0:0:0:
40,318,214629,1,0,3:0:0:0:
482,342,214782,5,10,0:0:0:0:
28,135,214936,1,0,3:0:0:0:
488,151,215090,6,0,P|480:65|474:-1,1,135.000005149842,10|0,0:0|3:2,0:0:0:0:
192,96,215398,1,10,0:0:0:0:
318,383,215552,6,0,L|339:104,1,270.000010299683,6|0,3:2|3:0,0:0:0:0:
93,310,216013,5,10,0:2:0:0:
456,192,216167,1,2,3:2:0:0:
93,73,216321,1,10,0:2:0:0:
318,383,216475,1,2,3:2:0:0:
318,0,216629,1,10,0:2:0:0:
12,206,216782,6,0,B|92:184|92:184|158:224|158:224|277:200,1,270.000010299683,6|0,3:2|3:0,0:0:0:0:
284,165,217167,1,0,3:0:0:0:
303,129,217244,1,8,0:0:0:0:
448,384,217398,1,0,3:0:0:0:
480,32,217552,1,8,0:0:0:0:
333,331,217705,2,0,L|237:322,1,67.5000025749208,10|8,3:3|3:3,0:0:0:0:
0,192,217859,2,8,L|96:183,1,67.5000025749208,10|8,3:3|3:3,0:0:0:0:
472,150,218013,5,6,3:2:0:0:
224,0,218321,1,0,3:0:0:0:
114,275,218629,1,0,3:0:0:0:
114,275,218705,1,0,3:0:0:0:
114,275,218782,2,0,P|36:275|-18:273,1,107.999996704102,14|2,3:2|0:0,0:0:0:0:
194,368,219398,5,6,3:2:0:0:
194,368,219552,2,0,L|310:369,1,107.999996704102,0|0,3:0|3:0,0:0:0:0:
512,192,220013,1,12,0:0:0:0:
318,36,220167,1,2,3:2:0:0:
423,357,220321,1,10,0:0:0:0:
318,36,220475,6,0,B|311:90|311:90|320:154,1,107.999996704102,6|0,3:2|3:0,0:0:0:0:
430,364,221090,1,0,3:0:0:0:
430,364,221167,1,0,3:0:0:0:
430,364,221244,2,0,P|432:310|436:246,1,107.999996704102,14|2,3:2|0:0,0:0:0:0:
495,69,221859,5,6,3:2:0:0:
495,69,222013,2,0,L|372:66,1,107.999996704102,0|0,3:0|3:0,0:0:0:0:
160,160,222475,1,12,0:0:0:0:
306,351,222629,1,10,0:0:0:0:
267,33,222782,1,10,0:0:0:0:
306,351,222936,6,0,B|219:335|219:335|145:374|145:374|22:344,1,270.000010299683,6|0,3:2|3:0,0:0:0:0:
0,128,223398,2,0,P|73:115|140:113,1,135.000005149842,10|0,0:0|0:0,0:0:0:0:
512,256,223705,2,0,P|439:269|372:271,1,135.000005149842,2|0,3:2|3:0,0:0:0:0:
162,384,224013,2,0,P|149:311|147:244,1,135.000005149842,10|0,0:0|0:0,0:0:0:0:
350,0,224321,2,0,P|363:73|364:140,1,135.000005149842,2|0,3:2|3:0,0:0:0:0:
162,384,224629,5,14,0:0:0:0:
235,108,224782,1,0,3:0:0:0:
325,353,224936,1,2,3:2:0:0:
72,139,225090,1,12,0:0:0:0:
162,384,225244,1,2,3:2:0:0:
267,2,225398,6,0,B|332:-6|332:-6|406:29|425:173,1,270.000010299683,14|0,0:2|3:0,0:0:0:0:
256,384,225859,1,12,0:0:0:0:
317,85,226013,1,0,3:2:0:0:
317,85,226090,1,0,3:2:0:0:
317,85,226167,1,12,0:0:0:0:
111,336,226321,1,0,3:0:0:0:
465,352,226475,1,12,0:0:0:0:
111,336,226629,6,0,B|123:52,1,270.000010299683,6|0,3:2|3:0,0:0:0:0:
73,50,227013,1,0,3:2:0:0:
37,85,227090,1,0,3:2:0:0:
36,133,227167,1,0,3:2:0:0:
22,178,227244,1,0,3:2:0:0:
41,221,227321,1,0,3:2:0:0:
36,263,227398,6,0,L|35:289,1,20.2499993820191,2|0,3:2|0:2,0:2:0:0:
113,266,227475,6,0,L|112:292,1,22.5,2|0,3:2|0:2,0:2:0:0:
189,269,227552,6,0,L|188:295,1,24.7500007553101,2|0,3:2|0:2,0:2:0:0:
265,272,227629,6,0,L|264:298,1,26.9999991760254,2|0,3:2|0:2,0:2:0:0:
341,275,227705,6,0,L|340:301,1,26.9999991760254,2|0,3:2|0:2,0:2:0:0:
417,278,227782,6,0,L|416:306,1,29.2499986610413,2|0,3:2|0:2,0:2:0:0:
493,281,227859,6,0,B|516:208|516:208|486:12,1,270.000010299683,6|0,3:2|3:0,0:0:0:0:
208,0,228321,1,8,0:0:0:0:
320,384,228475,1,0,3:0:0:0:
402,47,228629,1,10,0:0:0:0:
69,144,228782,1,0,3:0:0:0:
458,239,228936,1,8,0:0:0:0:
125,336,229090,6,0,B|225:324|225:324|282:355|282:355|412:340,1,270.000010299683,6|0,3:2|3:0,0:0:0:0:
512,96,229552,2,0,P|447:83|367:75,1,135.000005149842,12|0,0:0|0:0,0:0:0:0:
79,0,229859,1,10,0:0:0:0:
74,74,229936,1,8,0:0:0:0:
69,148,230013,1,8,0:0:0:0:
64,222,230090,1,8,0:0:0:0:
59,296,230167,1,8,0:0:0:0:
288,384,230321,6,0,L|267:108,1,270.000010299683,6|0,3:2|3:0,0:0:0:0:
79,0,230782,1,8,0:0:0:0:
478,64,230936,1,0,3:0:0:0:
65,19,231090,1,10,0:0:0:0:
495,50,231244,1,0,3:0:0:0:
51,38,231398,1,8,0:0:0:0:
512,36,231552,6,0,B|534:121|534:121|509:321,1,270.000010299683,6|0,3:2|3:0,0:0:0:0:
256,384,232013,2,0,P|260:307|269:226,1,135.000005149842,12|0,0:0|0:0,0:0:0:0:
416,32,232321,1,10,0:0:0:0:
342,27,232398,1,8,0:0:0:0:
268,22,232475,1,8,0:0:0:0:
194,17,232552,1,8,0:0:0:0:
120,12,232629,1,8,0:0:0:0:
5,309,232782,6,0,B|105:324|105:324|152:368|152:368|256:384,1,270.000010299683,6|0,3:2|3:0,0:0:0:0:
507,163,233244,1,8,0:0:0:0:
108,206,233398,1,0,3:0:0:0:
388,0,233552,1,10,0:0:0:0:
426,345,233705,1,0,3:0:0:0:
190,22,233859,1,8,0:0:0:0:
228,367,234013,6,0,L|248:82,1,270.000010299683,6|0,3:2|3:0,0:0:0:0:
480,0,234475,2,0,P|492:95|497:147,1,135.000005149842,12|0,0:0|0:0,0:0:0:0:
376,357,234782,1,10,0:0:0:0:
302,362,234859,1,8,0:0:0:0:
228,367,234936,1,8,0:0:0:0:
154,372,235013,1,8,0:0:0:0:
80,377,235090,1,8,0:0:0:0:
1,119,235244,6,0,B|63:64|63:64|247:97,1,270.000010299683,6|0,3:2|3:0,0:0:0:0:
448,320,235705,1,12,0:0:0:0:
448,320,236013,1,2,3:2:0:0:
192,224,236167,1,0,3:0:0:0:
480,64,236321,1,12,0:0:0:0:
113,1,236475,6,0,L|97:291,1,270.000010299683,6|0,3:2|3:0,0:0:0:0:
320,384,236936,2,0,L|312:249,1,135.000005149842,12|0,0:2|0:0,0:0:0:0:
256,32,237244,1,10,0:0:0:0:
512,224,237398,1,0,3:0:0:0:
512,224,237475,1,0,3:0:0:0:
512,224,237552,1,8,0:0:0:0:
128,352,237705,5,6,3:2:0:0:
256,192,237782,12,0,240398,3:2:0:0:
