osu file format v14

[General]
AudioFilename: audio.mp3
AudioLeadIn: 0
PreviewTime: 69938
Countdown: 0
SampleSet: Soft
StackLeniency: 0.5
Mode: 0
LetterboxInBreaks: 0
WidescreenStoryboard: 1

[Editor]
DistanceSpacing: 0.7
BeatDivisor: 4
GridSize: 4
TimelineZoom: 2.999997

[Metadata]
Title:Sweet Sweet Cendrillon Drug
TitleUnicode:Sweet Sweet Cendrillon Drug
Artist:MuryokuP
ArtistUnicode:MuryokuP
Creator:Coodywoo
Version:Cinderella Edit
Source:
Tags:vocaloid megurine luka cendrillon
BeatmapID:1989427
BeatmapSetID:927858

[Difficulty]
HPDrainRate:5
CircleSize:3.5
OverallDifficulty:8
ApproachRate:9.5
SliderMultiplier:2
SliderTickRate:0.5

[Events]
//Background and Video events
0,0,"BG.jpg",0,0
//Break Periods
2,90291,99182
2,107291,108682
2,149291,153489
2,198521,202720
//Storyboard Layer 0 (Background)
//Storyboard Layer 1 (Fail)
//Storyboard Layer 2 (Pass)
//Storyboard Layer 3 (Foreground)
//Storyboard Sound Samples

[TimingPoints]
323,307.692307692308,4,2,2,50,1,0
1246,-200,4,2,2,50,0,0
4938,-200,4,2,2,50,0,0
9861,-200,4,2,2,50,0,0
10784,-100,4,2,2,50,0,0
11399,-133.333333333333,4,2,2,50,0,0
18630,-200,4,2,2,50,0,0
18784,307.692307692308,4,2,2,50,1,0
19630,-200,4,2,2,50,0,0
19784,-200,4,2,2,5,0,0
19860,-200,4,2,2,55,0,0
20861,-100,4,2,2,50,0,0
20861,-66.6666666666667,4,2,2,50,0,0
21091,-66.6666666666667,4,2,2,50,0,0
24014,-76.9230769230769,4,2,2,50,0,0
24784,-66.6666666666667,4,2,2,50,0,0
26014,-76.9230769230769,4,2,2,50,0,0
29707,-66.6666666666667,4,2,2,50,0,0
30014,-100,4,2,2,50,0,0
49399,-133.333333333333,4,2,2,50,0,0
50784,-111.111111111111,4,2,2,50,0,0
55707,-100,4,2,2,50,0,0
56630,-133.333333333333,4,2,2,50,0,0
57245,-200,4,2,2,50,0,0
58014,-133.333333333333,4,2,2,50,0,0
58015,-100,4,2,2,50,0,0
60476,-166.666666666667,4,2,2,50,0,0
62168,-166.666666666667,4,2,2,5,0,0
62399,-166.666666666667,4,2,2,50,0,0
62784,-100,4,2,2,50,0,0
67553,-166.666666666667,4,2,2,5,0,0
67860,-200,4,2,2,50,0,0
68937,-200,4,2,2,5,0,0
69091,-400,4,2,2,50,0,0
69860,-400,4,2,2,5,0,0
69937,-400,4,2,2,50,0,0
70322,-100,4,3,2,58,0,1
87553,-166.666666666667,4,3,2,58,0,1
90169,-100,4,2,2,50,0,0
102168,-133.333333333333,4,2,2,50,0,0
104937,-100,4,2,2,50,0,0
109168,-133.333333333333,4,2,2,50,0,0
111707,-100,4,2,2,50,0,0
119553,-133.333333333333,4,2,2,50,0,0
122014,-133.333333333333,4,2,2,50,0,0
126784,-200,4,2,2,50,0,0
128168,-333.333333333333,4,2,2,50,0,0
129091,-100,4,2,2,50,0,1
129707,-66.6666666666667,4,2,2,50,0,1
146630,-80,4,2,2,50,0,0
154014,-200,4,2,2,50,0,0
156630,-200,4,2,2,5,0,0
156937,-133.333333333333,4,2,2,50,0,0
158937,-133.333333333333,4,2,2,5,0,0
159091,-133.333333333333,4,2,2,50,0,0
161553,-133.333333333333,4,2,2,5,0,0
161707,-133.333333333333,4,2,2,50,0,0
162476,-133.333333333333,4,2,2,5,0,0
162630,-200,4,2,2,50,0,0
163860,-200,4,2,2,5,0,0
164014,-200,4,2,2,50,0,0
168784,307.692307692308,4,2,1,50,1,0
177399,-133.333333333333,4,2,1,50,0,0
178014,-100,4,2,1,50,0,0
184784,-200,4,2,1,50,0,0
187245,-1000,4,2,1,50,0,0
188476,-66.6666666666667,4,2,1,50,0,0
188630,307.692307692308,4,2,1,75,1,0
190168,-50,4,2,1,75,0,0
195399,-66.6666666666667,4,2,1,75,0,0
198168,-100,4,2,1,75,0,0
208168,-66.6666666666667,4,3,1,75,0,1
210322,-50,4,3,1,75,0,1
212014,-66.6666666666667,4,3,1,75,0,1
218014,-100,4,2,1,75,0,0
237706,-333.333333333333,4,2,1,75,0,0
249553,-333.333333333333,4,2,1,5,0,0

[Colours]
Combo1 : 0,128,128
Combo2 : 255,128,128
Combo3 : 217,217,217
Combo4 : 0,0,79

[HitObjects]
132,88,1246,6,0,P|106:127|116:187,2,100
222,161,2169,1,0,0:0:0:0:
262,46,2476,2,0,P|311:72|335:126,1,100
331,221,3092,1,0,0:0:0:0:
225,278,3707,1,0,0:0:0:0:
95,109,4015,6,0,P|55:176|52:210,1,100
165,191,4630,1,0,0:0:0:0:
101,283,4938,2,0,B|243:342|244:222|392:281,1,300
165,191,6169,1,0,0:0:0:0:
266,43,6476,5,0,0:0:0:0:
234,171,6784,1,0,0:0:0:0:
361,201,7092,1,0,0:0:0:0:
394,58,7399,2,0,B|450:62|479:111,1,100
299,198,8015,2,0,P|240:195|206:162,1,100
313,307,8630,6,0,P|143:273|125:243,1,200
92,161,9553,1,0,0:0:0:0:
92,39,9861,2,2,B|194:55|207:152|207:152|252:95|332:94|332:94,1,300
456,22,11092,1,0,0:0:0:0:
455,31,11399,6,0,L|454:207,1,150.000005722046
447,306,12015,1,0,0:0:0:0:
337,327,12323,2,0,B|314:267|314:267|314:238|314:238|276:164|276:164,1,150.000005722046
180,157,12938,1,0,0:0:0:0:
173,287,13553,6,0,P|145:221|203:144,1,150.000005722046
311,85,14169,2,0,L|156:168,1,150.000005722046
118,98,14784,2,0,P|93:174|149:233,1,150.000005722046
233,303,15399,1,0,0:0:0:0:
357,321,15707,1,0,0:0:0:0:
440,231,16015,6,0,P|464:123|444:57,1,150.000005722046
345,41,16630,1,0,0:0:0:0:
237,44,16938,2,0,B|225:104|155:87|130:183,1,150.000005722046
84,257,17861,5,0,0:0:0:0:
104,179,18630,6,0,B|141:168|167:210|167:210|192:124|192:124|263:163|340:142|385:87,1,375
408,8,19861,2,0,P|439:157|310:128,1,325
70,43,21091,6,0,B|128:197|178:30|268:245,1,300.000011444092
383,75,21553,2,0,L|359:231,1,150.000005722046
346,317,21861,1,0,0:0:0:0:
346,317,22015,1,0,0:0:0:0:
260,85,22169,1,0,0:0:0:0:
484,98,22322,6,0,B|419:109|419:109|355:100|355:100|347:120|333:197|187:180,1,300.000011444092
148,96,22784,1,0,0:0:0:0:
125,237,22938,2,0,L|72:165,2,75.0000028610231
223,182,23246,1,0,0:0:0:0:
142,102,23399,1,0,0:0:0:0:
217,52,23553,6,0,P|139:8|90:164,1,300.000011444092
296,176,24015,2,0,L|167:230,1,129.999994049073
119,316,24322,2,0,L|243:354,1,129.999994049073
244,108,24630,1,0,0:0:0:0:
175,51,24784,2,0,P|178:175|330:137,1,300.000011444092
402,46,25246,5,0,0:0:0:0:
174,256,25399,1,0,0:0:0:0:
363,40,25553,1,0,0:0:0:0:
210,280,25707,1,0,0:0:0:0:
323,27,25861,1,0,0:0:0:0:
241,290,26014,6,0,B|235:226|235:226|319:164|336:49,1,259.999988098145
206,34,26476,2,0,P|156:115|86:157,1,129.999994049073
315,287,26784,1,0,0:0:0:0:
178,232,26937,1,0,0:0:0:0:
148,90,27091,1,0,0:0:0:0:
93,153,27245,6,0,P|48:92|171:5,1,259.999988098145
294,44,27707,2,0,B|372:113|369:111,1,100
418,217,28014,1,0,0:0:0:0:
274,282,28168,1,0,0:0:0:0:
187,167,28322,1,0,0:0:0:0:
331,74,28476,6,0,B|370:25|370:25|374:89|420:226,1,259.999988098145
236,227,28937,2,0,L|199:86,1,129.999994049073
150,248,29245,1,0,0:0:0:0:
132,172,29399,1,0,0:0:0:0:
116,98,29553,1,0,0:0:0:0:
236,227,29707,2,0,L|187:61,1,150.000005722046
123,29,30014,5,0,0:0:0:0:
78,30,30090,1,0,0:0:0:0:
40,51,30167,1,0,0:0:0:0:
15,87,30244,1,0,0:0:0:0:
9,131,30321,1,0,0:0:0:0:
24,172,30398,1,0,0:0:0:0:
56,202,30475,1,0,0:0:0:0:
99,215,30552,1,0,0:0:0:0:
142,206,30629,1,0,0:0:0:0:
177,179,30707,2,0,L|202:155,4,25
391,105,30937,6,0,B|337:85|337:85|286:27|203:47,1,200
112,165,31399,2,0,B|199:212,1,100
159,35,31707,1,0,0:0:0:0:
112,165,31861,1,0,0:0:0:0:
262,124,32014,1,0,0:0:0:0:
320,195,32168,6,0,P|311:39|268:35,1,200
208,92,32630,1,0,0:0:0:0:
94,134,32784,2,0,L|128:184,2,50
189,274,33091,1,0,0:0:0:0:
93,132,33245,1,0,0:0:0:0:
3,106,33399,6,0,P|121:40|186:99,1,200
250,166,33860,2,0,P|203:173|128:191,1,100
151,308,34168,5,0,0:0:0:0:
276,300,34322,1,0,0:0:0:0:
336,191,34476,1,0,0:0:0:0:
456,245,34630,2,0,P|454:126|384:81,1,200
313,68,35091,5,0,0:0:0:0:
129,268,35245,1,0,0:0:0:0:
284,58,35399,1,0,0:0:0:0:
155,286,35553,1,0,0:0:0:0:
232,54,35707,1,0,0:0:0:0:
203,291,35860,6,0,B|242:184|167:193|188:74,1,200
180,15,36322,1,0,0:0:0:0:
108,229,36630,1,0,0:0:0:0:
223,306,36784,1,0,0:0:0:0:
310,197,36937,1,0,0:0:0:0:
133,104,37091,6,0,B|239:162|232:74|325:97,1,200
423,174,37553,2,0,L|322:238,1,100
218,90,37860,1,0,0:0:0:0:
147,254,38013,1,0,0:0:0:0:
339,228,38167,1,0,0:0:0:0:
293,292,38322,2,0,P|358:153|366:156,1,200
180,313,38937,5,0,0:0:0:0:
176,306,39013,1,0,0:0:0:0:
171,300,39091,2,0,L|112:211,1,100
56,135,39399,1,0,0:0:0:0:
134,99,39553,6,0,L|252:270,1,200
385,96,40014,5,0,0:0:0:0:
323,238,40168,1,0,0:0:0:0:
241,93,40322,1,0,0:0:0:0:
181,241,40476,1,0,0:0:0:0:
247,17,40630,5,0,0:0:0:0:
246,25,40707,1,0,0:0:0:0:
246,34,40784,1,0,0:0:0:0:
245,41,40860,1,0,0:0:0:0:
244,51,40937,2,0,L|168:144,1,100
78,256,41245,5,0,0:0:0:0:
73,253,41399,2,0,P|45:207|70:164,1,100
170,202,41707,1,0,0:0:0:0:
177,97,41860,1,0,0:0:0:0:
276,81,42014,6,0,P|236:194|167:201,1,200
201,312,42476,1,0,0:0:0:0:
323,272,42630,2,0,L|373:174,2,100
411,100,43091,1,0,0:0:0:0:
233,263,43399,5,0,0:0:0:0:
234,257,43553,1,0,0:0:0:0:
308,75,43707,2,0,L|265:177,2,100
145,240,44168,1,0,0:0:0:0:
221,53,44322,1,0,0:0:0:0:
61,188,44476,1,0,0:0:0:0:
80,86,44784,5,0,0:0:0:0:
179,52,44937,2,0,L|237:177,1,100
294,208,45245,2,0,L|350:188,2,50
254,33,45553,1,0,0:0:0:0:
373,92,45707,1,0,0:0:0:0:
379,98,45784,1,0,0:0:0:0:
385,104,45861,1,0,0:0:0:0:
223,154,46014,5,0,0:0:0:0:
95,91,46168,2,0,L|100:223,1,100
223,154,46476,1,0,0:0:0:0:
166,255,46630,1,0,0:0:0:0:
194,57,46784,2,0,P|254:61|297:91,1,100
319,180,47245,6,0,P|258:170|220:131,1,100
260,261,47553,1,0,0:0:0:0:
364,295,47707,2,0,P|340:337|287:355,1,100
163,215,48014,2,0,P|151:271|179:320,1,100
260,261,48322,2,0,B|436:158|436:158,2,200
322,347,49091,1,0,0:0:0:0:
212,172,49245,1,0,0:0:0:0:
162,66,49399,2,0,P|95:77|152:244,1,300.000011444092
258,34,50168,5,0,0:0:0:0:
266,53,50244,1,0,0:0:0:0:
275,72,50321,1,0,0:0:0:0:
284,92,50398,1,0,0:0:0:0:
293,111,50475,1,0,0:0:0:0:
302,131,50552,1,0,0:0:0:0:
311,150,50629,1,0,0:0:0:0:
320,170,50706,1,0,0:0:0:0:
326,188,50784,6,0,P|272:235|157:288,2,179.999994506836
109,188,51553,1,0,0:0:0:0:
186,56,51707,2,0,B|303:75,1,89.9999972534181
263,252,52014,1,0,0:0:0:0:
269,249,52168,1,0,0:0:0:0:
341,188,52322,2,0,P|399:87|399:87,1,100
277,282,52630,1,0,0:0:0:0:
277,282,52784,1,0,0:0:0:0:
184,181,52937,2,0,P|126:80|126:80,1,100
57,111,53245,6,0,P|109:17|175:22,2,179.999994506836
161,115,54014,1,0,0:0:0:0:
351,76,54168,1,0,0:0:0:0:
301,252,54322,1,0,0:0:0:0:
119,295,54630,5,0,0:0:0:0:
161,115,54784,1,0,0:0:0:0:
301,252,54938,1,0,0:0:0:0:
190,231,55091,2,0,L|207:190,2,44.999998626709
258,62,55399,1,0,0:0:0:0:
106,222,55553,5,0,0:0:0:0:
107,230,55630,1,0,0:0:0:0:
109,239,55707,2,0,P|245:278|249:270,2,200
301,177,56476,1,0,0:0:0:0:
235,56,56630,1,0,0:0:0:0:
178,195,56784,2,0,L|239:48,1,150
308,73,57245,2,0,B|363:266|363:266,1,200
438,250,58014,6,0,P|357:346|333:338,1,150.000005722046
223,127,58476,1,0,0:0:0:0:
363,267,58630,1,0,0:0:0:0:
193,86,58784,1,0,0:0:0:0:
363,267,58937,1,0,0:0:0:0:
151,52,59091,1,0,0:0:0:0:
261,220,59245,2,0,P|142:37|142:37,1,200
125,31,59707,5,0,0:0:0:0:
83,42,59783,1,0,0:0:0:0:
46,65,59860,1,0,0:0:0:0:
18,99,59937,1,0,0:0:0:0:
2,139,60014,1,0,0:0:0:0:
0,183,60091,1,0,0:0:0:0:
11,225,60168,1,0,0:0:0:0:
34,262,60245,1,0,0:0:0:0:
68,289,60322,1,0,0:0:0:0:
109,305,60399,1,0,0:0:0:0:
139,309,60476,6,0,B|194:270|194:270|335:253|404:142|454:118|454:118|388:142|297:42|157:104,1,659.999979858399
101,128,62476,1,0,0:0:0:0:
159,253,62784,6,0,L|260:194,1,100
370,252,63245,1,0,0:0:0:0:
347,117,63399,1,0,0:0:0:0:
245,202,63553,1,0,0:0:0:0:
106,264,63707,5,0,0:0:0:0:
108,255,63860,1,0,0:0:0:0:
130,38,64014,2,0,L|116:144,1,89.9999972534181
257,62,64322,6,0,P|336:53|336:81,1,100
388,130,64630,6,0,P|370:207|344:198,1,100
303,260,64937,6,0,P|257:273|228:236,1,100
188,111,65245,1,0,0:0:0:0:
83,28,65399,6,0,P|34:100|68:220,1,200
274,80,65860,1,0,0:0:0:0:
126,147,66014,1,0,0:0:0:0:
261,225,66168,1,0,0:0:0:0:
174,55,66322,1,0,0:0:0:0:
331,107,66476,1,0,0:0:0:0:
199,198,66630,6,0,P|134:231|153:286,1,100
244,317,66937,1,0,0:0:0:0:
188,101,67091,1,0,0:0:0:0:
368,200,67245,2,0,L|384:95,2,100
264,124,67707,1,0,0:0:0:0:
204,19,67860,2,0,P|68:61|176:176,1,350
157,92,69091,2,0,P|218:106|277:144,1,125
246,321,70014,5,0,3:3:0:0:
200,156,70168,1,0,3:3:0:0:
366,150,70322,2,0,B|260:103|340:41|228:19,1,200,0|0,3:3|3:3,3:3:0:0:
123,51,70784,5,0,0:0:0:0:
313,268,70937,1,0,0:0:0:0:
66,170,71091,1,0,0:0:0:0:
334,154,71245,1,0,0:0:0:0:
123,51,71399,5,0,0:0:0:0:
138,277,71553,1,0,0:0:0:0:
279,62,71707,1,0,0:0:0:0:
359,268,71860,1,0,0:0:0:0:
265,137,72014,2,0,P|353:41|297:-14,1,200
106,202,72476,5,0,0:0:0:0:
279,62,72630,1,0,0:0:0:0:
311,279,72784,2,0,B|366:230|366:230|372:185|372:185|418:126|475:125,1,200
196,85,73245,5,0,0:0:0:0:
226,298,73399,1,0,0:0:0:0:
319,161,73553,1,0,0:0:0:0:
90,216,73707,1,0,0:0:0:0:
290,76,73860,1,0,0:0:0:0:
129,311,74014,1,0,0:0:0:0:
388,59,74168,6,0,L|250:82,1,100
213,200,74476,1,0,0:0:0:0:
12,63,74630,2,0,L|134:115,1,100
91,283,74937,5,0,0:0:0:0:
301,254,75091,1,0,0:0:0:0:
330,49,75245,2,0,B|274:45|241:62|241:62|217:8|131:16,1,200
466,143,75707,6,0,P|416:219|409:218,1,100
310,182,76015,2,0,P|262:190|230:155,1,100
121,136,76322,2,0,P|45:86|46:78,1,100
123,89,76630,6,0,L|69:220,1,100
389,89,76937,2,0,L|443:220,1,100
83,182,77245,2,0,L|127:72,1,100
253,40,77553,1,0,0:0:0:0:
389,89,77707,2,0,P|413:191|350:300,1,200
175,65,78168,5,0,0:0:0:0:
82,261,78322,1,0,0:0:0:0:
290,150,78476,1,0,0:0:0:0:
59,169,78630,1,0,0:0:0:0:
252,62,78784,1,0,0:0:0:0:
251,285,78937,6,0,P|190:285|139:261,1,100
112,72,79245,2,0,L|125:131,2,50
216,178,79553,1,0,0:0:0:0:
249,40,79707,5,0,0:0:0:0:
277,50,79783,1,0,0:0:0:0:
305,61,79860,1,0,0:0:0:0:
333,71,79937,1,0,0:0:0:0:
361,82,80014,1,0,0:0:0:0:
389,92,80091,1,0,0:0:0:0:
426,106,80168,2,0,B|437:180|437:180|373:302,1,200
259,60,80630,5,0,0:0:0:0:
168,242,80784,1,0,0:0:0:0:
259,60,80937,1,0,0:0:0:0:
327,248,81091,1,0,0:0:0:0:
140,113,81245,5,0,0:0:0:0:
396,202,81399,1,0,0:0:0:0:
389,86,81553,1,0,0:0:0:0:
168,242,81707,1,0,0:0:0:0:
259,60,81860,5,0,0:0:0:0:
297,278,82014,1,0,0:0:0:0:
356,46,82322,5,0,0:0:0:0:
162,122,82476,1,0,0:0:0:0:
438,64,82630,6,0,B|352:137|418:152|335:248,1,200
247,29,83091,5,0,0:0:0:0:
308,150,83245,1,0,0:0:0:0:
188,211,83399,1,0,0:0:0:0:
126,91,83553,1,0,0:0:0:0:
247,29,83707,5,0,0:0:0:0:
188,211,83861,1,0,0:0:0:0:
358,268,84014,1,0,0:0:0:0:
417,86,84168,1,0,0:0:0:0:
473,17,84322,2,0,P|417:-1|366:13,1,100
95,149,84784,5,0,0:0:0:0:
281,246,84937,1,0,0:0:0:0:
255,62,85091,2,0,B|190:174|325:160|271:277,1,200
68,82,85553,5,0,0:0:0:0:
64,257,85707,1,0,0:0:0:0:
179,29,85860,5,0,0:0:0:0:
175,204,86014,1,0,0:0:0:0:
290,117,86168,5,0,0:0:0:0:
286,292,86322,1,0,0:0:0:0:
410,39,86476,5,0,0:0:0:0:
406,214,86630,1,0,0:0:0:0:
410,39,86784,2,0,B|408:163,1,100
400,217,87091,2,0,B|322:235|322:235|282:290|183:247,1,200
267,332,87553,2,0,P|121:292|306:238,1,479.999985351563
256,192,88937,12,0,90091,0:0:0:0:
51,49,99707,5,0,0:0:0:0:
55,55,99784,1,0,0:0:0:0:
58,61,99860,1,0,0:0:0:0:
61,66,99937,1,0,0:0:0:0:
63,70,100014,1,0,0:0:0:0:
85,158,100322,5,0,0:0:0:0:
120,251,100630,1,0,0:0:0:0:
221,281,100937,5,0,0:0:0:0:
332,288,101245,1,0,0:0:0:0:
404,195,101553,1,0,0:0:0:0:
378,84,101860,1,0,0:0:0:0:
269,70,102168,6,0,L|120:58,2,150.000005722046
58,186,103091,1,0,0:0:0:0:
133,298,103399,1,0,0:0:0:0:
273,312,103707,1,0,0:0:0:0:
403,221,104014,1,0,0:0:0:0:
375,73,104322,1,0,0:0:0:0:
231,65,104630,1,0,0:0:0:0:
321,101,104937,6,0,P|303:127|131:70,2,200
231,65,105860,1,0,0:0:0:0:
152,33,106168,1,0,0:0:0:0:
154,123,106476,1,0,0:0:0:0:
66,126,106784,1,0,0:0:0:0:
55,42,107091,1,0,0:0:0:0:
55,39,109207,6,0,P|45:28|50:15,1,18.7500007152558
91,38,109245,6,0,P|81:27|86:14,1,18.7500007152558
129,49,109322,6,0,P|124:39|125:25,1,18.7500007152558
164,68,109399,6,0,P|160:58|160:45,1,18.7500007152558
197,92,109476,6,0,L|192:70,1,18.7500007152558
230,114,109553,6,0,P|229:101|226:90,1,18.7500007152558
266,133,109630,6,0,P|267:121|261:108,1,18.7500007152558
303,145,109707,6,0,P|307:134|299:121,1,18.7500007152558
342,153,109784,6,0,P|347:141|340:129,1,18.7500007152558
372,160,109860,6,0,P|377:148|370:136,1,18.7500007152558
385,283,110014,2,0,L|286:244,1,75.0000028610231
96,177,110322,2,0,L|183:225,2,75.0000028610231
228,177,110784,2,0,P|245:221|225:266,1,75.0000028610231
49,315,111245,5,0,0:0:0:0:
82,168,111399,1,0,0:0:0:0:
173,325,111553,1,0,0:0:0:0:
196,167,111707,2,0,P|206:200|287:254,1,100
345,150,112014,2,0,B|384:273|384:273,1,100
437,337,112322,6,0,B|334:328,2,100
247,326,112784,1,0,0:0:0:0:
163,164,112937,1,0,0:0:0:0:
59,311,113091,1,0,0:0:0:0:
74,173,113245,2,0,P|96:228|166:255,1,100
246,329,113707,5,0,0:0:0:0:
74,175,113860,1,0,0:0:0:0:
232,325,114014,1,0,0:0:0:0:
399,222,114168,2,0,L|425:156,2,50
254,125,114476,1,0,0:0:0:0:
246,329,114630,1,0,0:0:0:0:
107,128,114784,6,0,B|213:161|168:209|281:238,2,200
69,197,115553,1,0,0:0:0:0:
94,48,115707,1,0,0:0:0:0:
69,197,115860,2,0,P|30:103|97:48,1,200
103,125,116322,2,0,B|161:92|207:113|235:150|233:201|314:246|414:239|472:180,1,400
448,103,117091,2,0,P|354:141|274:81,1,200
367,47,117553,5,0,0:0:0:0:
371,314,117707,1,0,0:0:0:0:
394,51,117860,1,0,0:0:0:0:
335,316,118014,1,0,0:0:0:0:
421,55,118168,1,0,0:0:0:0:
304,322,118322,2,0,B|275:262|275:262|128:222,1,200
163,155,118707,5,0,0:0:0:0:
176,107,118783,1,0,0:0:0:0:
161,60,118860,1,0,0:0:0:0:
123,29,118937,1,0,0:0:0:0:
74,23,119014,1,0,0:0:0:0:
30,45,119091,1,0,0:0:0:0:
7,88,119168,1,0,0:0:0:0:
1,129,119245,5,0,0:0:0:0:
64,143,119321,1,0,0:0:0:0:
127,126,119398,1,0,0:0:0:0:
177,85,119475,1,0,0:0:0:0:
231,52,119553,2,0,B|323:-15|415:84|446:193|550:117|550:117|525:48|461:32|461:32|406:31|400:95|335:127|381:288|381:288|341:218|270:221|270:221,1,900.000034332277
251,139,121553,5,0,0:0:0:0:
281,92,122014,2,0,B|190:109|137:47|137:47|39:24|-22:72|-22:72|-13:108|-18:135|-18:135|-24:159|-35:200|-22:237|14:271|75:272|114:222|114:222|190:189|258:174|258:174|155:171|128:148|100:118|100:118|61:118|61:118|50:185,1,1050.00004005432
390,31,124476,2,0,B|402:166|501:301|501:301|415:272|295:318|241:311|241:311|284:293|367:227|367:227|346:176|323:99|323:99|315:200|256:212,1,975.0000371933
242,98,126937,2,0,P|163:191|296:339,1,350
294,261,128168,2,0,P|240:232|273:167,1,134.999995880127
113,292,129091,5,0,0:0:0:0:
194,130,129245,1,0,0:0:0:0:
349,235,129399,2,0,P|385:155|319:33,1,200
248,50,129860,5,0,0:0:0:0:
398,185,130014,1,0,0:0:0:0:
199,262,130168,1,0,0:0:0:0:
282,159,130322,1,0,0:0:0:0:
152,130,130476,5,0,0:0:0:0:
358,65,130630,1,0,0:0:0:0:
329,284,130784,1,0,0:0:0:0:
282,159,130937,1,0,0:0:0:0:
199,262,131091,2,0,P|300:299|352:230,1,150.000005722046
142,290,131553,5,0,0:0:0:0:
448,185,131707,1,0,0:0:0:0:
125,122,131861,2,0,B|41:143|72:48|126:40|164:58|172:106|166:192|327:175,1,300.000011444092
416,158,132322,5,0,0:0:0:0:
128,206,132476,1,0,0:0:0:0:
260,155,132630,5,0,0:0:0:0:
335,364,132784,1,0,0:0:0:0:
132,351,132937,1,0,0:0:0:0:
260,155,133091,1,0,0:0:0:0:
187,209,133245,2,0,P|300:239|287:70,1,300.000011444092
325,93,133707,2,0,P|250:77|283:15,1,150.000005722046
77,61,134014,5,0,0:0:0:0:
342,48,134168,1,0,0:0:0:0:
421,213,134322,2,0,B|357:180|357:180|266:230|266:230|223:186|122:189|122:189|125:189,1,300.000011444092
77,61,134784,5,0,0:0:0:0:
217,127,134937,1,0,0:0:0:0:
435,61,135091,5,0,0:0:0:0:
295,127,135244,1,0,0:0:0:0:
77,61,135399,6,0,L|250:140,1,150.000005722046
435,61,135706,2,0,L|258:141,1,150.000005722046
255,121,136014,2,0,L|258:280,1,150.000005722046
89,69,136322,1,0,0:0:0:0:
255,121,136630,5,0,0:0:0:0:
388,273,136784,2,0,P|222:310|73:210,1,300.000011444092
213,31,137245,5,0,0:0:0:0:
245,192,137399,1,0,0:0:0:0:
394,89,137553,1,0,0:0:0:0:
245,192,137707,1,0,0:0:0:0:
81,136,137860,1,0,0:0:0:0:
349,88,138014,2,0,L|188:126,1,150.000005722046
135,259,138322,5,0,0:0:0:0:
141,264,138399,1,0,0:0:0:0:
145,268,138476,1,0,0:0:0:0:
287,272,138630,1,0,0:0:0:0:
430,247,138784,5,0,0:0:0:0:
422,203,138860,1,0,0:0:0:0:
414,159,138937,1,0,0:0:0:0:
405,115,139014,1,0,0:0:0:0:
397,71,139091,1,0,0:0:0:0:
389,27,139168,1,0,0:0:0:0:
352,3,139245,2,0,P|268:73|74:105,1,300.000011444092
139,15,139707,5,0,0:0:0:0:
389,206,139860,1,0,0:0:0:0:
427,29,140014,1,0,0:0:0:0:
114,170,140167,1,0,0:0:0:0:
58,255,140322,2,0,P|183:239|204:166,1,150.000005722046
432,289,140630,2,0,P|311:264|290:191,1,150.000005722046
110,186,140937,5,0,0:0:0:0:
381,216,141091,1,0,0:0:0:0:
177,45,141399,5,0,0:0:0:0:
252,313,141553,1,0,0:0:0:0:
348,58,141707,2,0,B|311:122|311:122|304:188|304:188|228:216|199:306,1,300.000011444092
143,53,142168,5,0,0:0:0:0:
43,290,142322,1,0,0:0:0:0:
206,19,142476,5,0,0:0:0:0:
21,198,142630,1,0,0:0:0:0:
277,14,142784,5,0,0:0:0:0:
37,106,142938,1,0,0:0:0:0:
356,19,143091,2,0,P|419:117|297:219,1,300.000011444092
328,117,143553,1,0,0:0:0:0:
268,309,143860,5,0,0:0:0:0:
66,160,144014,1,0,0:0:0:0:
278,11,144168,2,2,B|177:140|363:137|266:313,1,300.000011444092
112,86,144630,5,0,0:0:0:0:
314,75,144784,1,0,0:0:0:0:
334,255,144937,1,0,0:0:0:0:
129,270,145091,1,0,0:0:0:0:
343,77,145245,5,0,0:0:0:0:
102,249,145399,1,0,0:0:0:0:
122,47,145552,1,0,0:0:0:0:
327,276,145706,1,0,0:0:0:0:
161,26,145860,6,0,L|272:174,1,150.000005722046
378,136,146168,2,0,P|314:176|435:277,1,300.000011444092
385,216,146630,2,0,B|304:213|255:156|255:156|188:145|173:187|92:170|-70:31|34:-5|140:-49|213:-12|264:93|129:152|64:149|9:124|9:124|-34:142|-71:180|-32:260,1,875
256,192,147860,12,0,149091,0:0:0:0:
114,132,154014,6,0,B|161:111|187:64|187:64|202:177|127:242|127:242|213:252|256:320|256:320|321:355|374:317|374:317|376:256|342:224|342:224|252:195|252:195|295:185|327:140|327:140,1,850
358,95,156937,6,0,P|34:138|367:144,1,975.0000371933
462,51,159091,6,0,B|325:139|61:153|61:153|326:155|486:262|486:262|285:377|141:332,1,1200.00004577637
48,317,161707,2,0,B|83:228|83:228|34:148|87:85|87:85|167:91|241:51,1,375.000014305115
295,52,162630,2,0,P|381:175|233:358,1,400
157,317,164014,6,0,B|152:266|152:266|123:166|227:95|227:95|150:85|81:38|81:38|29:73|-43:70|-43:70|-3:145|-15:235|-15:235|31:239|46:268,1,775
256,192,166476,12,0,168630,0:0:0:0:
9,186,168784,6,0,P|391:295|489:181,1,600
498,102,169860,1,0,0:0:0:0:
466,28,170014,6,0,B|441:43|372:41|372:41|433:89|418:165|363:215|299:213|224:185|230:109|230:109|176:151|72:122,1,600
316,106,171091,1,0,0:0:0:0:
207,28,171245,6,0,B|168:57|87:47|87:47|62:84|29:113|29:113|53:152|61:200|61:200|115:192|182:208|182:208|266:158|365:156|365:156,1,600
128,124,172322,1,0,0:0:0:0:
115,198,172476,2,0,B|166:213|215:191|232:136|234:85|204:29|132:10|84:18|28:68|19:125|52:162|51:264|51:264|95:264|148:284,1,600
296,44,173707,6,0,P|414:110|410:200,1,200
399,255,174168,1,0,0:0:0:0:
396,264,174322,1,0,0:0:0:0:
137,246,174784,5,0,0:0:0:0:
46,252,174937,2,0,P|98:167|215:206,1,200
267,236,175399,1,0,0:0:0:0:
272,240,175553,1,0,0:0:0:0:
368,102,176014,5,0,0:0:0:0:
433,33,176168,2,0,P|342:14|276:102,1,200
221,171,176630,1,0,0:0:0:0:
215,180,176784,1,0,0:0:0:0:
103,266,177245,5,0,0:0:0:0:
197,262,177399,2,0,B|322:193|272:150|417:59,1,300.000011444092
123,163,178630,6,0,L|93:60,2,100
151,246,179091,1,0,0:0:0:0:
216,308,179245,1,0,0:0:0:0:
255,90,179553,6,0,L|255:191,1,100
389,163,179860,6,0,L|419:60,2,100
361,246,180321,1,0,0:0:0:0:
296,308,180476,2,0,L|235:190,1,100
204,308,180784,2,0,L|265:190,1,100
72,47,181091,6,0,P|114:87|190:88,1,100
264,98,181399,1,0,0:0:0:0:
356,55,181553,1,0,0:0:0:0:
414,136,181707,1,0,0:0:0:0:
404,232,181860,2,0,L|294:179,1,100
252,129,182168,5,0,0:0:0:0:
157,172,182322,2,0,L|243:222,1,100
21,100,182630,2,0,L|84:201,2,100
112,69,183091,1,0,0:0:0:0:
197,171,183245,1,0,0:0:0:0:
285,72,183399,1,0,0:0:0:0:
480,75,183553,6,0,B|422:85|385:140|385:140|321:148|321:148|217:287|95:174|95:174|117:250|33:332,1,600
57,61,184630,5,0,0:0:0:0:
166,84,184784,2,0,B|264:90|328:36|328:36|378:107|427:138,1,300
394,200,185860,5,0,0:0:0:0:
327,158,186014,2,0,P|162:93|174:74,1,300
244,132,187091,5,0,0:0:0:0:
325,77,187245,2,0,L|374:25,1,70
83,196,188476,2,0,P|123:69|316:91,1,300.000011444092
79,65,188937,5,0,0:0:0:0:
188,278,189091,1,0,0:0:0:0:
312,66,189245,1,0,0:0:0:0:
438,283,189399,1,0,0:0:0:0:
182,203,189553,5,0,0:0:0:0:
388,61,189707,1,0,0:0:0:0:
172,25,189860,1,0,0:0:0:0:
362,215,190014,1,0,0:0:0:0:
96,62,190168,6,0,L|49:261,1,200
416,62,190476,2,0,L|463:261,1,200
255,58,190783,5,0,0:0:0:0:
102,106,190937,2,0,P|209:184|419:50,1,400
106,47,191399,5,0,0:0:0:0:
142,272,191553,1,0,0:0:0:0:
117,46,191706,1,0,0:0:0:0:
323,244,191860,1,0,0:0:0:0:
122,40,192014,1,0,0:0:0:0:
379,61,192168,1,0,0:0:0:0:
127,167,192322,5,0,0:0:0:0:
292,334,192476,1,0,0:0:0:0:
258,38,192630,1,0,0:0:0:0:
156,265,192783,1,0,0:0:0:0:
371,75,192937,5,0,0:0:0:0:
145,292,193091,1,0,0:0:0:0:
149,80,193245,5,0,0:0:0:0:
331,292,193399,2,0,B|187:260|254:191|130:153|130:153|46:117|10:56,1,400
130,46,193860,5,0,0:0:0:0:
298,191,194014,1,0,0:0:0:0:
139,38,194168,1,0,0:0:0:0:
292,202,194322,1,0,0:0:0:0:
153,27,194476,1,0,0:0:0:0:
65,98,194630,6,0,B|267:229|475:94,1,400
93,222,195091,1,0,0:0:0:0:
314,328,195245,1,0,0:0:0:0:
334,122,195399,2,0,B|279:72|279:72|195:55|195:55,2,150.000005722046
323,174,195860,5,0,0:0:0:0:
296,217,195936,1,0,0:0:0:0:
249,238,196013,1,0,0:0:0:0:
199,227,196090,1,0,0:0:0:0:
165,189,196167,1,0,0:0:0:0:
158,138,196244,1,0,0:0:0:0:
184,93,196321,1,0,0:0:0:0:
228,52,196399,5,0,0:0:0:0:
245,107,196475,1,0,0:0:0:0:
229,163,196552,1,0,0:0:0:0:
183,198,196629,1,0,0:0:0:0:
125,200,196706,1,0,0:0:0:0:
76,168,196783,1,0,0:0:0:0:
55,113,196860,1,0,0:0:0:0:
67,51,196937,5,0,0:0:0:0:
122,90,197013,1,0,0:0:0:0:
155,149,197090,1,0,0:0:0:0:
124,213,197167,1,0,0:0:0:0:
158,269,197245,5,0,0:0:0:0:
202,313,197321,1,0,0:0:0:0:
265,336,197398,1,0,0:0:0:0:
331,322,197475,1,0,0:0:0:0:
390,294,197552,1,0,0:0:0:0:
437,240,197629,1,0,0:0:0:0:
455,163,197706,5,0,0:0:0:0:
465,81,197782,1,0,0:0:0:0:
413,18,197859,1,0,0:0:0:0:
331,11,197936,1,0,0:0:0:0:
270,65,198013,1,0,0:0:0:0:
268,148,198090,1,0,0:0:0:0:
325,204,198168,2,0,P|349:217|403:207,2,50
256,192,203245,12,0,207091,0:0:0:0:
76,305,207860,5,0,0:0:0:0:
436,135,208014,1,0,0:0:0:0:
85,18,208168,2,0,P|49:117|117:36,1,300.000011444092
379,51,208630,5,0,0:0:0:0:
399,338,208783,1,0,0:0:0:0:
103,223,208937,1,0,0:0:0:0:
291,186,209091,1,0,0:0:0:0:
95,40,209245,5,0,0:0:0:0:
279,192,209399,1,0,0:0:0:0:
464,38,209553,1,0,0:0:0:0:
299,192,209706,1,0,0:0:0:0:
79,190,209860,5,0,0:0:0:0:
456,189,210014,1,0,0:0:0:0:
178,162,210322,6,0,B|328:145|253:210|450:209,1,200
78,55,210630,2,0,P|74:227|314:347,1,400
437,82,211091,5,0,0:0:0:0:
109,193,211245,1,0,0:0:0:0:
54,82,211399,5,0,0:0:0:0:
363,197,211553,1,0,0:0:0:0:
442,67,211706,5,0,0:0:0:0:
115,178,211860,1,0,0:0:0:0:
458,82,212014,2,0,P|398:116|292:123,1,150.000005722046
161,52,212322,2,0,L|206:257,1,150.000005722046
370,49,212783,5,0,0:0:0:0:
156,123,212936,1,0,0:0:0:0:
83,344,213091,2,0,B|336:156|336:156,1,300.000011444092
231,70,213553,5,0,0:0:0:0:
199,295,213706,1,0,0:0:0:0:
0,229,213860,1,0,0:0:0:0:
233,352,214014,1,0,0:0:0:0:
239,75,214168,5,0,0:0:0:0:
271,300,214321,1,0,0:0:0:0:
470,234,214475,1,0,0:0:0:0:
237,357,214629,1,0,0:0:0:0:
383,110,214783,6,0,L|472:248,1,150.000005722046
95,103,215091,2,0,L|6:241,1,150.000005722046
226,164,215399,1,0,0:0:0:0:
97,277,215553,2,0,B|230:222|253:358|388:337,1,300.000011444092
126,38,216014,5,0,0:0:0:0:
465,180,216168,1,0,0:0:0:0:
97,277,216322,1,0,0:0:0:0:
357,1,216476,1,0,0:0:0:0:
360,348,216630,1,0,0:0:0:0:
126,38,216783,2,0,P|153:106|269:152,1,150.000005722046
254,48,217091,5,0,0:0:0:0:
261,58,217168,1,0,0:0:0:0:
268,66,217245,1,0,0:0:0:0:
334,297,217399,1,0,0:0:0:0:
450,62,217553,5,0,0:0:0:0:
459,122,217629,1,0,0:0:0:0:
438,179,217706,1,0,0:0:0:0:
392,219,217783,1,0,0:0:0:0:
332,232,217860,1,0,0:0:0:0:
274,213,217937,1,0,0:0:0:0:
231,168,218014,2,0,B|166:109|166:109|142:0|142:0,1,200
35,33,218476,5,0,0:0:0:0:
30,165,218630,1,0,0:0:0:0:
34,178,218706,1,0,0:0:0:0:
38,190,218783,2,0,P|66:229|138:253,1,100
111,251,219091,2,0,P|165:253|211:314,1,100
198,281,219399,2,0,P|235:220|296:191,1,100
256,57,219706,5,0,0:0:0:0:
112,290,219860,1,0,0:0:0:0:
270,63,220014,1,0,0:0:0:0:
400,290,220168,1,0,0:0:0:0:
244,62,220322,1,0,0:0:0:0:
61,77,220476,6,0,B|133:77|133:77|157:140|252:201,1,200
332,213,220937,1,0,0:0:0:0:
366,33,221091,1,0,0:0:0:0:
374,43,221168,1,0,0:0:0:0:
379,55,221245,2,0,L|428:158,1,100
461,246,221553,2,0,L|356:324,1,100
78,104,221860,5,0,0:0:0:0:
185,197,222014,1,0,0:0:0:0:
172,60,222168,1,0,0:0:0:0:
268,146,222322,1,0,0:0:0:0:
379,54,222630,5,0,0:0:0:0:
404,137,222784,2,0,B|451:178|451:178|457:248,1,100
267,236,223245,1,0,0:0:0:0:
126,153,223399,6,0,B|166:119|152:64|152:64,1,100
125,153,223707,6,0,B|177:143|193:88|193:88,1,100
126,153,224014,6,0,B|175:170|216:131|216:131,1,100
126,153,224322,6,0,B|160:193|215:179|215:179,1,100
126,153,224630,6,0,B|135:204|190:220|190:220,1,100
328,79,224937,6,0,P|412:158|412:158,2,100
256,192,225399,12,0,226630,0:0:0:0:
41,129,226937,6,0,L|78:96,2,50
180,46,227244,5,0,0:0:0:0:
211,52,227321,1,0,0:0:0:0:
239,67,227398,1,0,0:0:0:0:
261,88,227475,1,0,0:0:0:0:
276,116,227552,1,0,0:0:0:0:
282,146,227629,1,0,0:0:0:0:
280,177,227706,1,0,0:0:0:0:
268,206,227783,1,0,0:0:0:0:
265,231,227860,2,0,P|268:245|426:238,1,200
268,45,228322,5,0,0:0:0:0:
428,104,228476,1,0,0:0:0:0:
371,12,228630,1,0,0:0:0:0:
266,143,228783,1,0,0:0:0:0:
370,185,228937,1,0,0:0:0:0:
343,100,229091,6,0,P|452:181|403:241,1,200
227,163,229553,1,0,0:0:0:0:
80,62,229861,5,0,0:0:0:0:
96,108,229937,1,0,0:0:0:0:
112,154,230014,1,0,0:0:0:0:
128,200,230091,1,0,0:0:0:0:
144,246,230168,1,0,0:0:0:0:
208,71,230322,6,0,P|254:180|341:149,1,200
353,33,230783,2,0,L|270:113,1,100
453,181,231091,2,0,L|332:178,2,100
341,295,231553,1,0,0:0:0:0:
172,293,231860,5,0,0:0:0:0:
89,104,232014,1,0,0:0:0:0:
263,136,232322,2,0,L|301:97,4,50
410,34,232783,6,0,B|357:133|436:126|406:234,1,200
243,45,233245,5,0,0:0:0:0:
83,104,233399,1,0,0:0:0:0:
140,12,233553,1,0,0:0:0:0:
245,143,233706,1,0,0:0:0:0:
141,185,233860,1,0,0:0:0:0:
243,45,234014,6,0,P|313:72|308:185,1,200
418,42,234476,1,0,0:0:0:0:
439,324,234783,5,0,0:0:0:0:
443,274,234859,1,0,0:0:0:0:
433,225,234936,1,0,0:0:0:0:
411,180,235013,1,0,0:0:0:0:
378,143,235090,1,0,0:0:0:0:
265,189,235245,6,0,P|274:253|208:197,1,200
215,88,235706,1,0,0:0:0:0:
77,202,236014,5,0,0:0:0:0:
250,286,236168,1,0,0:0:0:0:
215,88,236322,2,0,L|83:30,1,100
250,286,236783,1,0,0:0:0:0:
383,133,236936,1,0,0:0:0:0:
256,39,237245,5,0,0:0:0:0:
201,182,237399,1,0,0:0:0:0:
257,206,237476,1,0,0:0:0:0:
313,181,237553,1,0,0:0:0:0:
317,0,237706,6,0,B|263:31|289:106|289:106|274:183|243:84|199:115|155:68|133:108|78:101|16:115|-9:204|-1:200|-4:216|-4:216|0:271|30:315|30:315|123:419|229:286|239:192|306:255|186:168|146:155|80:222|80:222|88:282|202:398|290:297|290:297|348:355|418:312|418:312|395:262|395:262|348:258|305:216|315:162|368:132|425:133|443:208|443:208|453:236|481:242|481:242|528:230|528:230|523:89|421:60|378:80|358:66|358:66|419:-2|517:23,1,2309.9999295044
