osu file format v14

[General]
AudioFilename: audio.mp3
AudioLeadIn: 0
PreviewTime: 446
Countdown: 1
SampleSet: Soft
StackLeniency: 0.7
Mode: 1
LetterboxInBreaks: 0
WidescreenStoryboard: 1

[Editor]
Bookmarks: 32832,53287
DistanceSpacing: 0.8
BeatDivisor: 4
GridSize: 16
TimelineZoom: 2.599999

[Metadata]
Title:ReplicA
TitleUnicode:ReplicA
Artist:MuryokuP
ArtistUnicode:MuryokuP
Creator:-_-Nico-_-
Version:_~Inner Oni~_
Source:
Tags:ReplicA
BeatmapID:1391751
BeatmapSetID:656735

[Difficulty]
HPDrainRate:4
CircleSize:2
OverallDifficulty:5.5
ApproachRate:2
SliderMultiplier:2.23999996185303
SliderTickRate:1

[Events]
//Background and Video events
0,0,"435445.jpg",0,0
//Break Periods
//Storyboard Layer 0 (Background)
//Storyboard Layer 1 (Fail)
//Storyboard Layer 2 (Pass)
//Storyboard Layer 3 (Foreground)
//Storyboard Sound Samples

[TimingPoints]
105,340.908852459016,4,2,0,100,1,0
105,-133.333333333333,4,2,0,100,0,0
10844,-117.647058823529,4,2,0,100,0,0
32832,-133.333333333333,4,2,0,100,0,0
53287,-117.647058823529,4,2,0,100,0,0
53798,-111.111111111111,4,2,0,100,0,0
54650,-105.263157894737,4,2,0,100,0,1
70332,-111.111111111111,4,2,0,100,0,1
76469,-117.647058823529,4,2,0,100,0,0

[HitObjects]
256,192,105,5,2,0:0:0:0:
256,192,275,1,0,0:0:0:0:
256,192,446,1,2,0:0:0:0:
256,192,616,1,0,0:0:0:0:
256,192,787,1,0,0:0:0:0:
256,192,957,1,0,0:0:0:0:
256,192,1128,1,2,0:0:0:0:
256,192,1298,1,0,0:0:0:0:
256,192,1469,1,2,0:0:0:0:
256,192,1809,1,2,0:0:0:0:
256,192,2150,1,0,0:0:0:0:
256,192,2491,1,2,0:0:0:0:
256,192,2577,1,0,0:0:0:0:
256,192,2662,1,0,0:0:0:0:
256,192,2747,1,0,0:0:0:0:
256,192,2832,5,2,0:0:0:0:
256,192,3003,1,0,0:0:0:0:
256,192,3173,1,2,0:0:0:0:
256,192,3344,1,2,0:0:0:0:
256,192,3514,1,0,0:0:0:0:
256,192,3684,1,2,0:0:0:0:
256,192,3855,1,0,0:0:0:0:
256,192,4025,1,0,0:0:0:0:
256,192,4196,1,2,0:0:0:0:
256,192,4537,1,0,0:0:0:0:
256,192,4878,1,0,0:0:0:0:
240,192,5048,1,0,0:0:0:0:
256,192,5219,1,2,0:0:0:0:
256,192,5559,5,2,0:0:0:0:
256,192,5900,1,2,0:0:0:0:
256,192,6071,1,0,0:0:0:0:
256,192,6241,1,0,0:0:0:0:
256,192,6412,1,2,0:0:0:0:
256,192,6582,1,0,0:0:0:0:
256,192,6753,1,2,0:0:0:0:
256,192,6923,1,0,0:0:0:0:
256,192,7264,1,0,0:0:0:0:
256,192,7434,1,2,0:0:0:0:
256,192,7605,1,0,0:0:0:0:
256,192,7775,1,2,0:0:0:0:
256,192,7946,1,2,0:0:0:0:
256,192,8031,1,0,0:0:0:0:
256,192,8116,1,0,0:0:0:0:
256,192,8202,1,0,0:0:0:0:
256,192,8287,5,2,0:0:0:0:
256,192,8628,1,0,0:0:0:0:
256,192,8798,1,2,0:0:0:0:
256,192,8969,1,0,0:0:0:0:
256,192,9139,1,0,0:0:0:0:
256,192,9309,1,2,0:0:0:0:
256,192,9395,1,0,0:0:0:0:
256,192,9480,1,0,0:0:0:0:
256,192,9565,1,0,0:0:0:0:
272,192,9650,1,2,0:0:0:0:
256,192,9821,1,0,0:0:0:0:
256,192,9991,1,2,0:0:0:0:
256,192,10162,1,0,0:0:0:0:
256,192,10247,1,0,0:0:0:0:
256,192,10332,1,0,0:0:0:0:
256,192,10417,1,0,0:0:0:0:
256,192,10503,1,0,0:0:0:0:
256,192,10588,1,0,0:0:0:0:
256,192,10673,1,8,0:0:0:0:
256,192,10844,1,8,0:0:0:0:
256,192,11014,5,0,0:0:0:0:
256,192,11099,1,0,0:0:0:0:
256,192,11184,1,8,0:0:0:0:
256,192,11270,1,8,0:0:0:0:
256,192,11355,1,0,0:0:0:0:
256,192,11440,1,2,0:0:0:0:
256,192,11525,1,2,0:0:0:0:
256,192,11696,1,8,0:0:0:0:
256,192,11866,1,8,0:0:0:0:
256,192,11952,1,0,0:0:0:0:
256,192,12037,1,0,0:0:0:0:
256,192,12122,1,8,0:0:0:0:
256,192,12207,1,2,0:0:0:0:
256,192,12292,1,0,0:0:0:0:
256,192,12378,1,0,0:0:0:0:
256,192,12548,1,8,0:0:0:0:
256,192,12719,1,8,0:0:0:0:
256,192,12889,1,0,0:0:0:0:
256,192,12974,1,0,0:0:0:0:
256,192,13059,1,0,0:0:0:0:
256,192,13145,1,8,0:0:0:0:
256,192,13230,1,0,0:0:0:0:
256,192,13315,1,0,0:0:0:0:
256,192,13400,1,0,0:0:0:0:
256,192,13571,1,0,0:0:0:0:
256,192,13741,5,0,0:0:0:0:
256,192,13827,1,0,0:0:0:0:
256,192,13912,1,8,0:0:0:0:
256,192,13997,1,8,0:0:0:0:
256,192,14082,1,0,0:0:0:0:
256,192,14167,1,0,0:0:0:0:
256,192,14253,1,0,0:0:0:0:
256,192,14423,1,8,0:0:0:0:
256,192,14594,1,8,0:0:0:0:
256,192,14679,1,0,0:0:0:0:
256,192,14764,1,0,0:0:0:0:
256,192,14849,1,0,0:0:0:0:
256,192,14934,1,2,0:0:0:0:
256,192,15020,1,2,0:0:0:0:
256,192,15105,1,2,0:0:0:0:
256,192,15446,1,8,0:0:0:0:
256,192,15616,1,0,0:0:0:0:
256,192,15702,1,0,0:0:0:0:
256,192,15787,1,2,0:0:0:0:
256,192,15872,1,2,0:0:0:0:
256,192,15957,1,0,0:0:0:0:
256,192,16042,1,0,0:0:0:0:
256,192,16128,1,8,0:0:0:0:
256,192,16213,1,8,0:0:0:0:
256,192,16298,1,0,0:0:0:0:
256,192,16469,5,0,0:0:0:0:
256,192,16554,1,0,0:0:0:0:
256,192,16639,1,8,0:0:0:0:
256,192,16724,1,0,0:0:0:0:
256,192,16809,1,8,0:0:0:0:
256,192,16895,1,0,0:0:0:0:
256,192,16980,1,0,0:0:0:0:
256,192,17150,1,8,0:0:0:0:
256,192,17236,1,8,0:0:0:0:
256,192,17321,1,0,0:0:0:0:
256,192,17406,1,0,0:0:0:0:
256,192,17491,1,0,0:0:0:0:
256,192,17662,1,0,0:0:0:0:
256,192,17747,1,0,0:0:0:0:
256,192,17832,1,2,0:0:0:0:
256,192,18003,1,8,0:0:0:0:
256,192,18173,1,8,0:0:0:0:
256,192,18258,1,8,0:0:0:0:
256,192,18344,1,0,0:0:0:0:
256,192,18429,1,0,0:0:0:0:
256,192,18514,1,8,0:0:0:0:
256,192,18770,1,0,0:0:0:0:
256,192,19025,1,0,0:0:0:0:
256,192,19196,1,0,0:0:0:0:
256,192,19281,1,0,0:0:0:0:
256,192,19366,1,8,0:0:0:0:
256,192,19452,1,8,0:0:0:0:
256,192,19537,1,0,0:0:0:0:
256,192,19622,1,0,0:0:0:0:
256,192,19707,1,8,0:0:0:0:
256,192,19878,1,8,0:0:0:0:
256,192,19963,1,0,0:0:0:0:
256,192,20048,1,8,0:0:0:0:
256,192,20133,1,0,0:0:0:0:
256,192,20218,1,0,0:0:0:0:
256,192,20389,1,0,0:0:0:0:
256,192,20474,1,8,0:0:0:0:
256,192,20559,1,0,0:0:0:0:
256,192,20730,1,0,0:0:0:0:
256,192,20815,1,0,0:0:0:0:
256,192,20900,1,0,0:0:0:0:
256,192,20986,1,0,0:0:0:0:
256,192,21071,1,2,0:0:0:0:
256,192,21156,1,2,0:0:0:0:
256,192,21241,1,0,0:0:0:0:
256,192,21497,1,0,0:0:0:0:
256,192,21753,1,0,0:0:0:0:
256,192,21923,5,0,0:0:0:0:
256,192,22008,1,8,0:0:0:0:
256,192,22094,1,0,0:0:0:0:
256,192,22179,1,0,0:0:0:0:
256,192,22264,1,0,0:0:0:0:
256,192,22349,1,2,0:0:0:0:
256,192,22434,1,0,0:0:0:0:
256,192,22605,1,8,0:0:0:0:
256,192,22775,1,0,0:0:0:0:
256,192,22861,1,0,0:0:0:0:
256,192,22946,1,0,0:0:0:0:
256,192,23031,1,8,0:0:0:0:
256,192,23116,1,0,0:0:0:0:
256,192,23202,1,0,0:0:0:0:
256,192,23287,1,8,0:0:0:0:
256,192,23457,1,8,0:0:0:0:
256,192,23542,1,8,0:0:0:0:
256,192,23628,1,0,0:0:0:0:
256,192,23713,1,8,0:0:0:0:
256,192,23798,1,0,0:0:0:0:
256,192,23883,1,0,0:0:0:0:
256,192,23969,1,8,0:0:0:0:
256,192,24224,1,0,0:0:0:0:
256,192,24480,1,0,0:0:0:0:
256,192,24650,5,0,0:0:0:0:
256,192,24736,1,0,0:0:0:0:
256,192,24821,1,0,0:0:0:0:
256,192,24906,1,8,0:0:0:0:
256,192,24991,1,0,0:0:0:0:
256,192,25076,1,2,0:0:0:0:
256,192,25162,1,0,0:0:0:0:
256,192,25332,1,8,0:0:0:0:
256,192,25417,1,0,0:0:0:0:
256,192,25503,1,0,0:0:0:0:
256,192,25588,1,8,0:0:0:0:
256,192,25673,1,0,0:0:0:0:
256,192,25844,1,0,0:0:0:0:
256,192,25929,1,0,0:0:0:0:
256,192,26014,1,8,0:0:0:0:
256,192,26355,1,8,0:0:0:0:
256,192,26525,1,0,0:0:0:0:
256,192,26611,1,0,0:0:0:0:
256,192,26696,1,2,0:0:0:0:
256,192,26781,1,0,0:0:0:0:
256,192,26866,1,8,0:0:0:0:
256,192,26951,1,0,0:0:0:0:
256,192,27207,1,0,0:0:0:0:
256,192,27378,1,0,0:0:0:0:
256,192,27463,1,8,0:0:0:0:
256,192,27548,1,0,0:0:0:0:
256,192,27633,1,0,0:0:0:0:
256,192,27719,1,2,0:0:0:0:
256,192,27804,1,0,0:0:0:0:
256,192,27889,1,2,0:0:0:0:
256,192,28059,1,8,0:0:0:0:
256,192,28145,1,8,0:0:0:0:
256,192,28230,1,0,0:0:0:0:
256,192,28315,1,0,0:0:0:0:
256,192,28400,1,8,0:0:0:0:
256,192,28486,1,8,0:0:0:0:
256,192,28571,1,0,0:0:0:0:
256,192,28656,1,0,0:0:0:0:
256,192,28741,1,8,0:0:0:0:
256,192,28912,1,0,0:0:0:0:
256,192,28997,1,0,0:0:0:0:
256,192,29082,1,8,0:0:0:0:
256,192,29167,1,0,0:0:0:0:
256,192,29253,1,0,0:0:0:0:
256,192,29338,1,0,0:0:0:0:
256,192,29423,1,8,0:0:0:0:
256,192,29679,1,0,0:0:0:0:
256,192,29934,1,0,0:0:0:0:
256,192,30105,1,8,0:0:0:0:
256,192,30190,1,0,0:0:0:0:
256,192,30275,1,0,0:0:0:0:
256,192,30361,1,8,0:0:0:0:
256,192,30446,1,0,0:0:0:0:
256,192,30531,1,0,0:0:0:0:
256,192,30616,1,0,0:0:0:0:
256,192,30787,1,8,0:0:0:0:
256,192,30957,1,0,0:0:0:0:
256,192,31042,1,0,0:0:0:0:
256,192,31128,1,8,0:0:0:0:
256,192,31213,1,0,0:0:0:0:
256,192,31298,1,0,0:0:0:0:
256,192,31383,1,0,0:0:0:0:
256,192,31469,1,8,0:0:0:0:
256,192,31639,1,8,0:0:0:0:
256,192,31980,1,0,0:0:0:0:
256,192,32065,1,0,0:0:0:0:
256,192,32150,1,8,0:0:0:0:
256,192,32406,1,0,0:0:0:0:
256,192,32662,1,0,0:0:0:0:
256,192,32832,5,4,0:0:0:0:
256,192,33003,1,8,0:0:0:0:
256,192,33173,1,0,0:0:0:0:
256,192,33258,1,8,0:0:0:0:
256,192,33344,1,8,0:0:0:0:
256,192,33514,1,0,0:0:0:0:
256,192,33684,1,8,0:0:0:0:
256,192,33855,1,8,0:0:0:0:
256,192,34025,1,0,0:0:0:0:
256,192,34196,1,0,0:0:0:0:
256,192,34366,1,8,0:0:0:0:
256,192,34537,1,8,0:0:0:0:
256,192,34707,1,0,0:0:0:0:
256,192,34792,1,0,0:0:0:0:
256,192,34878,1,0,0:0:0:0:
256,192,35048,1,0,0:0:0:0:
256,192,35219,1,8,0:0:0:0:
256,192,35389,1,8,0:0:0:0:
256,192,35559,1,0,0:0:0:0:
256,192,35730,1,0,0:0:0:0:
256,192,35900,1,8,0:0:0:0:
256,192,36071,1,0,0:0:0:0:
256,192,36241,1,0,0:0:0:0:
256,192,36582,1,8,0:0:0:0:
256,192,36753,1,8,0:0:0:0:
256,192,36923,1,0,0:0:0:0:
256,192,37008,1,2,0:0:0:0:
256,192,37094,1,0,0:0:0:0:
256,192,37179,1,2,0:0:0:0:
256,192,37264,1,0,0:0:0:0:
256,192,37605,1,0,0:0:0:0:
256,192,37690,1,0,0:0:0:0:
256,192,37775,1,0,0:0:0:0:
256,192,37861,1,0,0:0:0:0:
256,192,37946,1,2,0:0:0:0:
256,192,38116,1,0,0:0:0:0:
256,192,38287,5,6,0:0:0:0:
256,192,38457,1,8,0:0:0:0:
256,192,38628,1,0,0:0:0:0:
256,192,38798,1,0,0:0:0:0:
256,192,38969,1,0,0:0:0:0:
256,192,39139,1,8,0:0:0:0:
256,192,39309,1,8,0:0:0:0:
256,192,39480,1,0,0:0:0:0:
256,192,39650,1,0,0:0:0:0:
256,192,39821,1,8,0:0:0:0:
256,192,39991,1,8,0:0:0:0:
256,192,40332,1,8,0:0:0:0:
256,192,40417,1,0,0:0:0:0:
256,192,40503,1,0,0:0:0:0:
256,192,40588,1,0,0:0:0:0:
256,192,40673,1,8,0:0:0:0:
256,192,40844,1,0,0:0:0:0:
256,192,41014,1,4,0:0:0:0:
256,192,41184,1,8,0:0:0:0:
256,192,41355,1,0,0:0:0:0:
256,192,41525,1,0,0:0:0:0:
256,192,41611,1,0,0:0:0:0:
256,192,41696,1,2,0:0:0:0:
256,192,41866,1,8,0:0:0:0:
256,192,42037,1,0,0:0:0:0:
256,192,42207,1,8,0:0:0:0:
256,192,42378,1,0,0:0:0:0:
256,192,42548,1,8,0:0:0:0:
256,192,42719,1,0,0:0:0:0:
256,192,42889,1,8,0:0:0:0:
256,192,43059,1,8,0:0:0:0:
256,192,43230,1,8,0:0:0:0:
256,192,43400,1,0,0:0:0:0:
256,192,43571,1,8,0:0:0:0:
256,192,43741,5,0,0:0:0:0:
256,192,44082,1,0,0:0:0:0:
256,192,44253,1,0,0:0:0:0:
256,192,44423,1,8,0:0:0:0:
256,192,44594,1,8,0:0:0:0:
256,192,44764,1,0,0:0:0:0:
256,192,44934,1,8,0:0:0:0:
256,192,45105,1,0,0:0:0:0:
256,192,45275,1,8,0:0:0:0:
256,192,45446,1,8,0:0:0:0:
256,192,45787,1,0,0:0:0:0:
256,192,45872,1,0,0:0:0:0:
256,192,45957,1,0,0:0:0:0:
256,192,46042,1,0,0:0:0:0:
256,192,46128,1,2,0:0:0:0:
256,192,46298,1,8,0:0:0:0:
256,192,46469,5,4,0:0:0:0:
256,192,46639,1,8,0:0:0:0:
256,192,46809,1,0,0:0:0:0:
256,192,46980,1,8,0:0:0:0:
256,192,47150,1,0,0:0:0:0:
256,192,47321,1,8,0:0:0:0:
256,192,47491,1,8,0:0:0:0:
256,192,47832,1,0,0:0:0:0:
256,192,47917,1,0,0:0:0:0:
256,192,48003,1,8,0:0:0:0:
256,192,48088,1,0,0:0:0:0:
256,192,48173,1,8,0:0:0:0:
256,192,48344,1,0,0:0:0:0:
256,192,48514,1,0,0:0:0:0:
256,192,48684,1,8,0:0:0:0:
256,192,48855,1,8,0:0:0:0:
256,192,49025,1,8,0:0:0:0:
256,192,49196,5,4,0:0:0:0:
256,192,49537,1,0,0:0:0:0:
256,192,49707,1,8,0:0:0:0:
256,192,50048,1,8,0:0:0:0:
256,192,50389,1,8,0:0:0:0:
256,192,50559,1,0,0:0:0:0:
256,192,50730,1,8,0:0:0:0:
256,192,50900,1,0,0:0:0:0:
256,192,51071,1,0,0:0:0:0:
256,192,51241,1,8,0:0:0:0:
256,192,51582,1,0,0:0:0:0:
256,192,51753,1,8,0:0:0:0:
256,192,51923,1,0,0:0:0:0:
256,192,52605,1,0,0:0:0:0:
256,192,53287,1,0,0:0:0:0:
256,192,53457,1,2,0:0:0:0:
256,192,53798,1,2,0:0:0:0:
256,192,53969,1,2,0:0:0:0:
256,192,54054,1,0,0:0:0:0:
256,192,54139,1,2,0:0:0:0:
256,192,54224,1,0,0:0:0:0:
256,192,54309,1,0,0:0:0:0:
256,192,54650,5,0,0:0:0:0:
256,192,54736,1,0,0:0:0:0:
256,192,54821,1,0,0:0:0:0:
256,192,54906,1,8,0:0:0:0:
256,192,54991,1,8,0:0:0:0:
256,192,55076,1,2,0:0:0:0:
256,192,55162,1,0,0:0:0:0:
256,192,55247,1,0,0:0:0:0:
256,192,55332,1,0,0:0:0:0:
256,192,55417,1,2,0:0:0:0:
256,192,55503,1,0,0:0:0:0:
256,192,55588,1,0,0:0:0:0:
256,192,55673,1,2,0:0:0:0:
256,192,55758,1,8,0:0:0:0:
256,192,55844,1,0,0:0:0:0:
256,192,55929,1,0,0:0:0:0:
256,192,56014,1,2,0:0:0:0:
256,192,56099,1,2,0:0:0:0:
256,192,56184,1,0,0:0:0:0:
256,192,56270,1,0,0:0:0:0:
256,192,56355,1,8,0:0:0:0:
256,192,56440,1,8,0:0:0:0:
256,192,56525,1,0,0:0:0:0:
256,192,56611,1,0,0:0:0:0:
256,192,56696,1,8,0:0:0:0:
256,192,56781,1,0,0:0:0:0:
256,192,56866,1,0,0:0:0:0:
256,192,56951,1,8,0:0:0:0:
256,192,57037,1,8,0:0:0:0:
256,192,57122,1,0,0:0:0:0:
256,192,57207,1,8,0:0:0:0:
256,192,57378,1,0,0:0:0:0:
256,192,57463,1,8,0:0:0:0:
256,192,57548,1,2,0:0:0:0:
256,192,57633,1,8,0:0:0:0:
256,192,57719,1,8,0:0:0:0:
256,192,57804,1,0,0:0:0:0:
256,192,57889,1,0,0:0:0:0:
256,192,57974,1,0,0:0:0:0:
256,192,58059,1,2,0:0:0:0:
256,192,58145,1,0,0:0:0:0:
256,192,58230,1,2,0:0:0:0:
256,192,58315,1,0,0:0:0:0:
256,192,58400,1,8,0:0:0:0:
256,192,58486,1,8,0:0:0:0:
256,192,58571,1,0,0:0:0:0:
256,192,58656,1,0,0:0:0:0:
256,192,58741,1,0,0:0:0:0:
256,192,58826,1,2,0:0:0:0:
256,192,58912,1,0,0:0:0:0:
256,192,58997,1,0,0:0:0:0:
256,192,59082,1,8,0:0:0:0:
256,192,59167,1,8,0:0:0:0:
256,192,59253,1,0,0:0:0:0:
256,192,59338,1,0,0:0:0:0:
256,192,59423,1,8,0:0:0:0:
256,192,59508,1,8,0:0:0:0:
256,192,59594,1,0,0:0:0:0:
256,192,59679,1,0,0:0:0:0:
256,192,59764,1,8,0:0:0:0:
256,192,59849,1,0,0:0:0:0:
256,192,59934,1,8,0:0:0:0:
256,192,60105,1,0,0:0:0:0:
256,192,60190,1,0,0:0:0:0:
256,192,60275,1,2,0:0:0:0:
256,192,60361,1,8,0:0:0:0:
256,192,60446,1,8,0:0:0:0:
256,192,60531,1,0,0:0:0:0:
256,192,60616,1,0,0:0:0:0:
256,192,60701,1,0,0:0:0:0:
256,192,60787,1,8,0:0:0:0:
256,192,60872,1,2,0:0:0:0:
256,192,60957,1,0,0:0:0:0:
256,192,61042,1,0,0:0:0:0:
256,192,61128,1,2,0:0:0:0:
256,192,61213,1,8,0:0:0:0:
256,192,61298,1,0,0:0:0:0:
256,192,61469,1,2,0:0:0:0:
256,192,61554,1,8,0:0:0:0:
256,192,61639,1,0,0:0:0:0:
256,192,61724,1,0,0:0:0:0:
256,192,61809,1,8,0:0:0:0:
256,192,61895,1,8,0:0:0:0:
256,192,61980,1,0,0:0:0:0:
256,192,62065,1,0,0:0:0:0:
256,192,62150,1,8,0:0:0:0:
256,192,62236,1,0,0:0:0:0:
256,192,62321,1,8,0:0:0:0:
256,192,62406,1,0,0:0:0:0:
256,192,62491,1,0,0:0:0:0:
256,192,62576,1,0,0:0:0:0:
256,192,62662,1,8,0:0:0:0:
256,192,62832,1,2,0:0:0:0:
256,192,62917,1,0,0:0:0:0:
256,192,63003,1,2,0:0:0:0:
256,192,63088,1,0,0:0:0:0:
256,192,63173,1,8,0:0:0:0:
256,192,63258,1,8,0:0:0:0:
256,192,63344,1,0,0:0:0:0:
256,192,63429,1,0,0:0:0:0:
256,192,63514,1,8,0:0:0:0:
256,192,63599,1,8,0:0:0:0:
256,192,63684,1,0,0:0:0:0:
256,192,63770,1,8,0:0:0:0:
256,192,63855,1,8,0:0:0:0:
256,192,63940,1,8,0:0:0:0:
256,192,64025,1,0,0:0:0:0:
256,192,64111,1,0,0:0:0:0:
256,192,64196,1,0,0:0:0:0:
256,192,64281,1,8,0:0:0:0:
256,192,64366,1,2,0:0:0:0:
256,192,64451,1,2,0:0:0:0:
256,192,64537,1,0,0:0:0:0:
256,192,64707,1,0,0:0:0:0:
256,192,64792,1,0,0:0:0:0:
256,192,64878,1,8,0:0:0:0:
256,192,64963,1,8,0:0:0:0:
256,192,65048,1,0,0:0:0:0:
256,192,65133,1,0,0:0:0:0:
256,192,65219,1,0,0:0:0:0:
256,192,65304,1,0,0:0:0:0:
256,192,65389,1,2,0:0:0:0:
256,192,65559,5,2,0:0:0:0:
256,192,65645,1,0,0:0:0:0:
256,192,65730,1,0,0:0:0:0:
256,192,65815,1,2,0:0:0:0:
256,192,65900,1,0,0:0:0:0:
256,192,65986,1,0,0:0:0:0:
256,192,66071,1,2,0:0:0:0:
256,192,66156,1,8,0:0:0:0:
256,192,66241,1,8,0:0:0:0:
256,192,66326,1,0,0:0:0:0:
256,192,66412,1,8,0:0:0:0:
256,192,66497,1,8,0:0:0:0:
256,192,66582,1,2,0:0:0:0:
256,192,66667,1,0,0:0:0:0:
256,192,66753,1,0,0:0:0:0:
256,192,66838,1,0,0:0:0:0:
256,192,66923,1,0,0:0:0:0:
256,192,67008,1,0,0:0:0:0:
256,192,67094,1,0,0:0:0:0:
256,192,67179,1,8,0:0:0:0:
256,192,67264,1,8,0:0:0:0:
256,192,67349,1,8,0:0:0:0:
256,192,67434,1,0,0:0:0:0:
256,192,67520,1,0,0:0:0:0:
256,192,67605,1,8,0:0:0:0:
256,192,67690,1,0,0:0:0:0:
256,192,67775,1,8,0:0:0:0:
256,192,67861,1,8,0:0:0:0:
256,192,67946,1,0,0:0:0:0:
256,192,68031,1,0,0:0:0:0:
256,192,68116,1,8,0:0:0:0:
256,192,68201,1,8,0:0:0:0:
256,192,68287,1,0,0:0:0:0:
256,192,68372,1,8,0:0:0:0:
256,192,68457,1,0,0:0:0:0:
256,192,68542,1,0,0:0:0:0:
256,192,68628,1,8,0:0:0:0:
256,192,68713,1,0,0:0:0:0:
256,192,68798,1,0,0:0:0:0:
256,192,68883,1,8,0:0:0:0:
256,192,68969,1,8,0:0:0:0:
256,192,69054,1,0,0:0:0:0:
256,192,69139,1,8,0:0:0:0:
256,192,69224,1,0,0:0:0:0:
256,192,69309,1,0,0:0:0:0:
256,192,69395,1,8,0:0:0:0:
256,192,69480,1,0,0:0:0:0:
256,192,69565,1,2,0:0:0:0:
256,192,69650,1,0,0:0:0:0:
256,192,69736,1,8,0:0:0:0:
256,192,69821,1,0,0:0:0:0:
256,192,69906,1,0,0:0:0:0:
256,192,69991,1,8,0:0:0:0:
256,192,70076,1,8,0:0:0:0:
256,192,70332,5,0,0:0:0:0:
256,192,70503,1,0,0:0:0:0:
256,192,70673,1,0,0:0:0:0:
256,192,70844,1,8,0:0:0:0:
256,192,70929,1,8,0:0:0:0:
256,192,71014,1,0,0:0:0:0:
256,192,71099,1,0,0:0:0:0:
256,192,71184,1,8,0:0:0:0:
256,192,71270,1,8,0:0:0:0:
256,192,71355,1,0,0:0:0:0:
256,192,71440,1,0,0:0:0:0:
256,192,71525,1,2,0:0:0:0:
256,192,71611,1,8,0:0:0:0:
256,192,71696,1,0,0:0:0:0:
256,192,71781,1,0,0:0:0:0:
256,192,71866,1,2,0:0:0:0:
256,192,71951,1,2,0:0:0:0:
240,208,72037,1,0,0:0:0:0:
256,192,72122,1,0,0:0:0:0:
256,192,72207,1,2,0:0:0:0:
256,192,72378,5,0,0:0:0:0:
256,192,72463,1,8,0:0:0:0:
256,192,72548,1,8,0:0:0:0:
256,192,72633,1,0,0:0:0:0:
256,192,72719,1,0,0:0:0:0:
256,192,72804,1,8,0:0:0:0:
256,192,72889,1,0,0:0:0:0:
256,192,72974,1,0,0:0:0:0:
256,192,73059,1,8,0:0:0:0:
256,192,73145,1,0,0:0:0:0:
256,192,73230,1,8,0:0:0:0:
256,192,73400,5,0,0:0:0:0:
256,192,73571,1,8,0:0:0:0:
256,192,73741,5,0,0:0:0:0:
256,192,73826,1,0,0:0:0:0:
256,192,73912,1,2,0:0:0:0:
256,192,73997,1,2,0:0:0:0:
256,192,74082,1,8,0:0:0:0:
256,192,74167,1,8,0:0:0:0:
256,192,74253,1,0,0:0:0:0:
256,192,74338,1,0,0:0:0:0:
256,192,74423,1,0,0:0:0:0:
256,192,74508,1,0,0:0:0:0:
256,192,74594,1,8,0:0:0:0:
256,192,74679,1,8,0:0:0:0:
256,192,74764,1,8,0:0:0:0:
256,192,74849,1,0,0:0:0:0:
256,192,74934,1,0,0:0:0:0:
256,192,75020,1,0,0:0:0:0:
256,192,75105,1,2,0:0:0:0:
256,192,75190,1,8,0:0:0:0:
256,192,75275,1,0,0:0:0:0:
256,192,75361,1,0,0:0:0:0:
256,192,75446,1,8,0:0:0:0:
256,192,75531,1,8,0:0:0:0:
256,192,75616,1,0,0:0:0:0:
256,192,75701,1,0,0:0:0:0:
256,192,75787,1,8,0:0:0:0:
256,192,75872,1,0,0:0:0:0:
256,192,75957,1,8,0:0:0:0:
256,192,76042,1,0,0:0:0:0:
256,192,76128,1,8,0:0:0:0:
256,192,76213,1,8,0:0:0:0:
256,192,76298,1,0,0:0:0:0:
256,192,76383,1,0,0:0:0:0:
256,192,76469,5,2,0:0:0:0:
256,192,76639,12,8,78514,0:0:0:0:
