osu file format v14

[General]
AudioFilename: audio.mp3
AudioLeadIn: 0
PreviewTime: 69993
Countdown: 0
SampleSet: Normal
StackLeniency: 0.7
Mode: 1
LetterboxInBreaks: 0
WidescreenStoryboard: 0

[Editor]
Bookmarks: 42493,92493
DistanceSpacing: 0.8
BeatDivisor: 4
GridSize: 32
TimelineZoom: 2

[Metadata]
Title:Overture
TitleUnicode:Overture
Artist:MuryokuP
ArtistUnicode:無力P
Creator:HEAVENLY MOON
Version:Oni
Source:osu!
Tags:your pianist fa ginjani capu breakcore featured artist mappers' guild mpg electronic instrumental artcore powerless sounds
BeatmapID:2797303
BeatmapSetID:1351158

[Difficulty]
HPDrainRate:5.5
CircleSize:5
OverallDifficulty:5.5
ApproachRate:5
SliderMultiplier:1.4
SliderTickRate:1

[Events]
//Background and Video events
0,0,"axll.jpg",0,-60
//Break Periods
//Storyboard Layer 0 (Background)
//Storyboard Layer 1 (Fail)
//Storyboard Layer 2 (Pass)
//Storyboard Layer 3 (Foreground)
//Storyboard Layer 4 (Overlay)
//Storyboard Sound Samples

[TimingPoints]
11243,312.5,4,1,0,30,1,0
36243,-100,4,1,0,5,0,0
36789,-100,4,1,0,15,0,0
37493,-100,4,1,0,25,0,0
38430,-100,4,1,0,45,0,0
39680,-100,4,1,0,55,0,0
40618,-100,4,1,0,70,0,0
41243,-100,4,1,0,5,0,0
42414,-100,4,1,0,90,0,0

[HitObjects]
262,193,11243,5,8,0:0:0:0:
256,192,11399,12,0,13118,0:0:0:0:
247,194,13664,5,0,0:0:0:0:
247,194,13743,1,8,0:0:0:0:
254,190,16243,1,8,0:0:0:0:
254,190,16555,1,0,0:0:0:0:
254,190,16868,1,8,0:0:0:0:
254,190,17180,1,0,0:0:0:0:
254,190,17493,1,8,0:0:0:0:
254,190,17805,1,8,0:0:0:0:
254,190,18118,1,0,0:0:0:0:
254,190,18430,1,8,0:0:0:0:
260,194,21243,1,8,0:0:0:0:
260,194,21555,1,0,0:0:0:0:
260,194,21868,1,0,0:0:0:0:
260,196,22180,1,0,0:0:0:0:
260,196,22493,1,8,0:0:0:0:
260,196,22805,1,0,0:0:0:0:
260,196,23118,1,8,0:0:0:0:
260,196,23430,1,8,0:0:0:0:
260,196,26164,1,0,0:0:0:0:
260,196,26243,1,8,0:0:0:0:
267,199,26555,1,0,0:0:0:0:
267,199,26868,1,8,0:0:0:0:
267,199,27180,1,0,0:0:0:0:
267,199,27493,1,8,0:0:0:0:
267,199,27805,1,8,0:0:0:0:
267,199,28118,1,0,0:0:0:0:
267,199,28430,1,0,0:0:0:0:
269,201,28743,1,8,0:0:0:0:
268,201,29680,1,8,0:0:0:0:
265,204,30618,1,0,0:0:0:0:
265,204,31164,1,0,0:0:0:0:
254,190,31243,1,8,0:0:0:0:
254,190,31555,1,0,0:0:0:0:
254,190,31868,1,8,0:0:0:0:
254,190,32180,1,0,0:0:0:0:
254,190,32493,1,8,0:0:0:0:
254,190,32805,1,8,0:0:0:0:
254,190,33118,1,0,0:0:0:0:
254,190,33430,1,8,0:0:0:0:
256,192,34993,12,0,36243,0:0:0:0:
256,192,36868,12,0,41243,0:0:0:0:
256,198,42493,5,12,0:0:0:0:
256,198,42649,1,0,0:0:0:0:
256,198,42805,1,8,0:0:0:0:
256,198,42883,1,8,0:0:0:0:
256,198,42961,1,0,0:0:0:0:
256,198,43118,1,8,0:0:0:0:
256,192,43430,1,8,0:0:0:0:
256,192,43586,1,0,0:0:0:0:
256,192,43743,1,8,0:0:0:0:
256,192,43821,1,0,0:0:0:0:
256,192,43899,1,0,0:0:0:0:
256,192,44055,1,8,0:0:0:0:
256,192,44211,1,0,0:0:0:0:
256,192,44368,1,8,0:0:0:0:
256,192,44446,1,0,0:0:0:0:
256,192,44524,1,8,0:0:0:0:
256,192,44680,1,0,0:0:0:0:
256,192,44993,1,12,0:0:0:0:
256,192,45149,1,0,0:0:0:0:
256,192,45305,1,8,0:0:0:0:
256,192,45383,1,8,0:0:0:0:
256,192,45461,1,0,0:0:0:0:
256,192,45618,1,8,0:0:0:0:
256,192,45930,1,0,0:0:0:0:
256,192,46086,1,8,0:0:0:0:
256,192,46243,1,0,0:0:0:0:
256,192,46399,1,0,0:0:0:0:
256,192,46555,1,8,0:0:0:0:
256,192,46633,1,8,0:0:0:0:
256,192,46711,1,0,0:0:0:0:
256,192,46789,1,0,0:0:0:0:
256,192,46868,1,8,0:0:0:0:
256,192,47024,1,8,0:0:0:0:
256,192,47180,1,0,0:0:0:0:
256,192,47493,1,12,0:0:0:0:
256,192,47649,1,8,0:0:0:0:
256,192,47805,1,0,0:0:0:0:
256,192,47883,1,8,0:0:0:0:
256,192,47961,1,0,0:0:0:0:
256,192,48118,1,8,0:0:0:0:
256,192,48430,1,8,0:0:0:0:
256,224,48586,1,0,0:0:0:0:
256,192,48743,1,8,0:0:0:0:
256,192,48821,1,8,0:0:0:0:
256,192,48899,1,0,0:0:0:0:
256,224,49055,1,8,0:0:0:0:
256,224,49211,1,0,0:0:0:0:
256,224,49368,1,8,0:0:0:0:
256,224,49446,1,0,0:0:0:0:
256,224,49524,1,8,0:0:0:0:
256,224,49680,1,0,0:0:0:0:
256,224,49993,1,12,0:0:0:0:
256,192,50149,1,0,0:0:0:0:
256,192,50305,1,8,0:0:0:0:
256,192,50383,1,0,0:0:0:0:
256,192,50461,1,0,0:0:0:0:
256,192,50618,1,8,0:0:0:0:
256,192,50930,1,8,0:0:0:0:
256,192,51086,1,0,0:0:0:0:
256,192,51243,1,8,0:0:0:0:
256,192,51321,1,0,0:0:0:0:
256,192,51399,1,8,0:0:0:0:
256,192,51477,1,8,0:0:0:0:
256,192,51555,1,0,0:0:0:0:
256,192,51711,1,0,0:0:0:0:
256,192,51868,1,8,0:0:0:0:
256,192,51946,1,0,0:0:0:0:
256,192,52024,1,8,0:0:0:0:
256,192,52180,1,0,0:0:0:0:
256,192,52493,1,12,0:0:0:0:
256,192,52649,1,0,0:0:0:0:
256,192,52805,1,0,0:0:0:0:
256,192,52883,1,8,0:0:0:0:
256,192,52961,1,0,0:0:0:0:
256,192,53118,1,8,0:0:0:0:
256,192,53430,1,0,0:0:0:0:
256,192,53586,1,8,0:0:0:0:
256,192,53743,1,0,0:0:0:0:
256,192,53821,1,0,0:0:0:0:
256,192,53899,1,8,0:0:0:0:
256,192,54055,1,8,0:0:0:0:
256,192,54211,1,0,0:0:0:0:
256,192,54368,1,8,0:0:0:0:
256,192,54446,1,8,0:0:0:0:
256,192,54524,1,0,0:0:0:0:
256,192,54680,1,8,0:0:0:0:
256,192,54993,1,12,0:0:0:0:
256,192,55149,1,0,0:0:0:0:
256,192,55305,1,8,0:0:0:0:
256,192,55383,1,0,0:0:0:0:
256,192,55461,1,8,0:0:0:0:
256,192,55618,1,8,0:0:0:0:
256,192,55930,1,0,0:0:0:0:
256,192,56086,1,8,0:0:0:0:
256,192,56243,1,0,0:0:0:0:
256,192,56321,1,8,0:0:0:0:
256,192,56399,1,0,0:0:0:0:
256,192,56477,1,0,0:0:0:0:
256,192,56555,1,8,0:0:0:0:
256,192,56711,1,0,0:0:0:0:
256,192,56868,1,0,0:0:0:0:
256,192,56946,1,8,0:0:0:0:
256,192,57024,1,8,0:0:0:0:
256,192,57180,1,0,0:0:0:0:
256,192,57493,1,12,0:0:0:0:
256,192,57649,1,0,0:0:0:0:
256,192,57805,1,8,0:0:0:0:
256,192,57883,1,0,0:0:0:0:
256,192,57961,1,0,0:0:0:0:
256,192,58118,1,8,0:0:0:0:
256,192,58430,1,0,0:0:0:0:
256,192,58586,1,8,0:0:0:0:
256,192,58743,1,0,0:0:0:0:
256,192,58821,1,8,0:0:0:0:
256,192,58899,1,0,0:0:0:0:
256,192,59055,1,8,0:0:0:0:
256,192,59211,1,0,0:0:0:0:
256,192,59368,1,8,0:0:0:0:
256,192,59446,1,0,0:0:0:0:
256,192,59524,1,8,0:0:0:0:
256,192,59680,1,0,0:0:0:0:
256,192,59993,1,12,0:0:0:0:
256,192,60149,1,0,0:0:0:0:
256,192,60305,1,8,0:0:0:0:
256,192,60383,1,0,0:0:0:0:
256,192,60461,1,0,0:0:0:0:
256,192,60618,1,8,0:0:0:0:
256,192,60930,1,8,0:0:0:0:
256,192,61086,1,0,0:0:0:0:
256,192,61243,1,8,0:0:0:0:
256,192,61321,1,0,0:0:0:0:
256,192,61399,1,0,0:0:0:0:
256,192,61477,1,0,0:0:0:0:
256,192,61555,1,8,0:0:0:0:
256,192,61711,1,0,0:0:0:0:
256,192,61868,1,0,0:0:0:0:
256,192,61946,1,8,0:0:0:0:
256,192,62024,1,8,0:0:0:0:
256,192,62180,1,0,0:0:0:0:
256,198,62493,1,12,0:0:0:0:
256,198,62649,1,0,0:0:0:0:
256,198,62805,1,8,0:0:0:0:
256,198,62883,1,8,0:0:0:0:
256,198,62961,1,0,0:0:0:0:
256,198,63118,1,8,0:0:0:0:
256,192,63274,1,0,0:0:0:0:
256,192,63430,1,8,0:0:0:0:
256,192,63586,1,0,0:0:0:0:
256,192,63743,1,8,0:0:0:0:
256,192,63821,1,0,0:0:0:0:
256,192,63899,1,0,0:0:0:0:
256,192,64055,1,8,0:0:0:0:
256,192,64211,1,0,0:0:0:0:
256,192,64368,1,8,0:0:0:0:
256,192,64446,1,0,0:0:0:0:
256,192,64524,1,8,0:0:0:0:
256,192,64602,1,0,0:0:0:0:
256,192,64680,1,0,0:0:0:0:
256,192,64993,1,12,0:0:0:0:
256,192,65149,1,0,0:0:0:0:
256,192,65305,1,8,0:0:0:0:
256,192,65383,1,8,0:0:0:0:
256,192,65461,1,0,0:0:0:0:
256,192,65618,1,8,0:0:0:0:
256,192,65930,1,8,0:0:0:0:
256,192,66086,1,0,0:0:0:0:
256,192,66243,1,8,0:0:0:0:
256,192,66399,1,0,0:0:0:0:
256,192,66477,1,0,0:0:0:0:
256,192,66555,1,8,0:0:0:0:
256,192,66711,1,0,0:0:0:0:
256,192,66868,1,8,0:0:0:0:
256,192,66946,1,8,0:0:0:0:
256,192,67024,1,0,0:0:0:0:
256,192,67102,1,0,0:0:0:0:
256,192,67180,1,8,0:0:0:0:
256,192,67493,1,12,0:0:0:0:
256,192,67649,1,0,0:0:0:0:
256,192,67805,1,8,0:0:0:0:
256,192,67883,1,8,0:0:0:0:
256,192,67961,1,0,0:0:0:0:
256,192,68118,1,8,0:0:0:0:
256,192,68274,1,0,0:0:0:0:
256,192,68430,1,8,0:0:0:0:
256,224,68586,1,0,0:0:0:0:
256,192,68743,1,0,0:0:0:0:
256,192,68821,1,0,0:0:0:0:
256,192,68899,1,8,0:0:0:0:
256,224,69055,1,8,0:0:0:0:
256,224,69211,1,0,0:0:0:0:
256,224,69368,1,8,0:0:0:0:
256,224,69446,1,0,0:0:0:0:
256,224,69524,1,8,0:0:0:0:
256,192,69602,1,0,0:0:0:0:
256,224,69680,1,0,0:0:0:0:
256,224,69993,1,12,0:0:0:0:
256,192,70149,1,0,0:0:0:0:
256,192,70305,1,8,0:0:0:0:
256,192,70383,1,8,0:0:0:0:
256,192,70461,1,0,0:0:0:0:
256,192,70618,1,8,0:0:0:0:
256,192,70930,1,8,0:0:0:0:
256,192,71086,1,8,0:0:0:0:
256,192,71243,1,0,0:0:0:0:
256,192,71321,1,0,0:0:0:0:
256,192,71399,1,8,0:0:0:0:
256,192,71477,1,0,0:0:0:0:
256,192,71555,1,8,0:0:0:0:
256,192,71711,1,0,0:0:0:0:
256,192,71868,1,8,0:0:0:0:
256,192,71946,1,0,0:0:0:0:
256,192,72024,1,8,0:0:0:0:
256,192,72180,1,0,0:0:0:0:
256,192,72493,1,12,0:0:0:0:
256,192,72649,1,0,0:0:0:0:
256,192,72805,1,0,0:0:0:0:
256,192,72883,1,8,0:0:0:0:
256,192,72961,1,0,0:0:0:0:
256,192,73118,1,8,0:0:0:0:
256,192,73274,1,0,0:0:0:0:
256,192,73430,1,8,0:0:0:0:
256,192,73586,1,8,0:0:0:0:
256,192,73743,1,0,0:0:0:0:
256,192,73821,1,0,0:0:0:0:
256,192,73899,1,8,0:0:0:0:
256,192,74055,1,0,0:0:0:0:
256,192,74211,1,0,0:0:0:0:
256,192,74368,1,8,0:0:0:0:
256,192,74446,1,8,0:0:0:0:
256,192,74524,1,0,0:0:0:0:
256,192,74602,1,0,0:0:0:0:
256,192,74680,1,8,0:0:0:0:
256,192,74993,1,12,0:0:0:0:
256,192,75149,1,0,0:0:0:0:
256,192,75305,1,0,0:0:0:0:
256,192,75383,1,0,0:0:0:0:
256,192,75461,1,8,0:0:0:0:
256,192,75618,1,8,0:0:0:0:
256,192,75930,1,0,0:0:0:0:
256,192,76086,1,8,0:0:0:0:
256,192,76243,1,0,0:0:0:0:
256,192,76321,1,8,0:0:0:0:
256,192,76399,1,0,0:0:0:0:
256,192,76477,1,0,0:0:0:0:
256,192,76555,1,8,0:0:0:0:
256,192,76711,1,0,0:0:0:0:
256,192,76868,1,0,0:0:0:0:
256,192,76946,1,8,0:0:0:0:
256,192,77024,1,8,0:0:0:0:
256,192,77180,1,0,0:0:0:0:
256,192,77493,1,12,0:0:0:0:
256,192,77649,1,0,0:0:0:0:
256,192,77805,1,8,0:0:0:0:
256,192,77883,1,0,0:0:0:0:
256,192,77961,1,8,0:0:0:0:
256,192,78118,1,8,0:0:0:0:
256,192,78274,1,0,0:0:0:0:
256,192,78430,1,0,0:0:0:0:
256,192,78586,1,8,0:0:0:0:
256,192,78743,1,0,0:0:0:0:
256,192,78821,1,8,0:0:0:0:
256,192,78899,1,0,0:0:0:0:
256,192,79055,1,8,0:0:0:0:
256,192,79211,1,0,0:0:0:0:
256,192,79368,1,8,0:0:0:0:
256,192,79446,1,8,0:0:0:0:
256,192,79524,1,0,0:0:0:0:
256,192,79602,1,0,0:0:0:0:
256,192,79680,1,8,0:0:0:0:
256,192,79993,1,12,0:0:0:0:
256,192,80149,1,0,0:0:0:0:
256,192,80305,1,8,0:0:0:0:
256,192,80383,1,0,0:0:0:0:
256,192,80461,1,0,0:0:0:0:
256,192,80618,1,8,0:0:0:0:
256,192,80930,1,0,0:0:0:0:
256,192,81086,1,0,0:0:0:0:
256,192,81243,1,8,0:0:0:0:
256,192,81321,1,8,0:0:0:0:
256,192,81399,1,0,0:0:0:0:
256,192,81477,1,0,0:0:0:0:
256,192,81555,1,8,0:0:0:0:
256,192,81711,1,0,0:0:0:0:
256,192,81868,1,0,0:0:0:0:
256,192,81946,1,8,0:0:0:0:
256,192,82024,1,8,0:0:0:0:
256,192,82180,1,0,0:0:0:0:
256,224,82493,1,12,0:0:0:0:
261,204,82701,1,0,0:0:0:0:
258,201,82805,1,8,0:0:0:0:
258,201,82909,1,0,0:0:0:0:
258,201,83013,1,0,0:0:0:0:
258,201,83118,1,8,0:0:0:0:
262,206,83430,1,8,0:0:0:0:
262,206,83534,1,0,0:0:0:0:
256,192,83638,1,0,0:0:0:0:
256,192,83743,1,8,0:0:0:0:
256,192,83899,1,0,0:0:0:0:
256,192,84055,1,8,0:0:0:0:
256,192,84211,1,0,0:0:0:0:
256,192,84368,1,8,0:0:0:0:
256,192,84472,1,0,0:0:0:0:
256,192,84576,1,8,0:0:0:0:
256,192,84680,1,0,0:0:0:0:
256,192,84993,1,12,0:0:0:0:
256,192,85149,1,0,0:0:0:0:
256,192,85305,1,0,0:0:0:0:
256,192,85383,1,8,0:0:0:0:
256,192,85461,1,0,0:0:0:0:
256,192,85618,1,8,0:0:0:0:
256,192,85930,1,0,0:0:0:0:
256,192,86086,1,8,0:0:0:0:
256,192,86243,1,0,0:0:0:0:
256,192,86321,1,0,0:0:0:0:
256,192,86399,1,8,0:0:0:0:
256,192,86555,1,8,0:0:0:0:
256,192,86711,1,0,0:0:0:0:
256,192,86868,1,0,0:0:0:0:
256,192,86946,1,0,0:0:0:0:
256,192,87024,1,8,0:0:0:0:
256,192,87180,1,8,0:0:0:0:
256,192,87493,1,12,0:0:0:0:
256,192,87701,1,0,0:0:0:0:
256,192,87805,1,0,0:0:0:0:
256,192,87909,1,8,0:0:0:0:
256,192,88013,1,0,0:0:0:0:
256,192,88118,1,8,0:0:0:0:
247,194,88326,1,0,0:0:0:0:
256,192,88430,1,8,0:0:0:0:
251,188,88534,1,0,0:0:0:0:
256,192,88638,1,0,0:0:0:0:
256,192,88743,1,8,0:0:0:0:
256,192,88899,1,0,0:0:0:0:
256,192,89055,1,8,0:0:0:0:
256,192,89159,1,0,0:0:0:0:
256,192,89263,1,0,0:0:0:0:
256,192,89368,1,8,0:0:0:0:
256,192,89524,1,8,0:0:0:0:
256,192,89680,1,0,0:0:0:0:
256,192,89993,1,12,0:0:0:0:
256,192,90201,1,8,0:0:0:0:
256,192,90305,1,0,0:0:0:0:
256,192,90409,1,0,0:0:0:0:
256,192,90513,1,0,0:0:0:0:
256,192,90618,1,8,0:0:0:0:
256,192,90774,1,0,0:0:0:0:
256,192,90852,1,0,0:0:0:0:
256,192,90930,1,8,0:0:0:0:
256,192,91086,1,0,0:0:0:0:
256,192,91243,1,8,0:0:0:0:
256,192,91555,1,8,0:0:0:0:
256,192,91711,1,0,0:0:0:0:
256,192,91868,1,8,0:0:0:0:
256,192,91972,1,0,0:0:0:0:
256,192,92076,1,0,0:0:0:0:
256,192,92180,1,8,0:0:0:0:
256,192,92336,1,0,0:0:0:0:
