osu file format v14

[General]
AudioFilename: audio.mp3
AudioLeadIn: 0
PreviewTime: 69993
Countdown: 0
SampleSet: Normal
StackLeniency: 0.7
Mode: 1
LetterboxInBreaks: 0
WidescreenStoryboard: 1

[Editor]
Bookmarks: 42493,47493,52493,57493,62493,67493,72493,77493,82493,87493,92493
DistanceSpacing: 0.8
BeatDivisor: 4
GridSize: 32
TimelineZoom: 2

[Metadata]
Title:Overture
TitleUnicode:Overture
Artist:MuryokuP
ArtistUnicode:無力P
Creator:HEAVENLY MOON
Version:Futsuu
Source:osu!
Tags:your pianist fa ginjani capu breakcore featured artist mappers' guild mpg electronic instrumental artcore powerless sounds
BeatmapID:2814962
BeatmapSetID:1351158

[Difficulty]
HPDrainRate:7
CircleSize:5
OverallDifficulty:4
ApproachRate:5
SliderMultiplier:1.4
SliderTickRate:1

[Events]
//Background and Video events
0,0,"axll.jpg",0,-60
//Break Periods
//Storyboard Layer 0 (Background)
//Storyboard Layer 1 (Fail)
//Storyboard Layer 2 (Pass)
//Storyboard Layer 3 (Foreground)
//Storyboard Layer 4 (Overlay)
//Storyboard Sound Samples

[TimingPoints]
11243,312.5,4,1,0,30,1,0
36243,-100,4,1,0,5,0,0
36789,-100,4,1,0,15,0,0
37493,-100,4,1,0,25,0,0
38430,-100,4,1,0,45,0,0
39680,-100,4,1,0,55,0,0
40618,-100,4,1,0,70,0,0
41243,-100,4,1,0,5,0,0
42414,-100,4,1,0,90,0,0

[HitObjects]
256,192,11243,5,8,0:0:0:0:
256,192,11399,12,0,13118,0:0:0:0:
256,192,13743,5,8,0:0:0:0:
256,192,16243,1,8,0:0:0:0:
256,192,16555,1,8,0:0:0:0:
256,192,16868,1,0,0:0:0:0:
256,192,17180,1,0,0:0:0:0:
256,192,17493,1,8,0:0:0:0:
256,192,18118,1,0,0:0:0:0:
256,192,18430,1,8,0:0:0:0:
256,192,21243,1,8,0:0:0:0:
256,192,21555,1,0,0:0:0:0:
256,192,21868,1,0,0:0:0:0:
256,192,22180,1,0,0:0:0:0:
256,192,22493,1,8,0:0:0:0:
256,192,23118,1,0,0:0:0:0:
256,192,23430,1,8,0:0:0:0:
256,192,26243,1,0,0:0:0:0:
256,192,26555,1,0,0:0:0:0:
256,192,26868,1,8,0:0:0:0:
256,192,27180,1,0,0:0:0:0:
256,192,27493,1,8,0:0:0:0:
256,192,28118,1,8,0:0:0:0:
256,192,28430,1,0,0:0:0:0:
256,192,28743,1,8,0:0:0:0:
256,192,29680,1,8,0:0:0:0:
256,192,30618,1,0,0:0:0:0:
256,192,31243,1,8,0:0:0:0:
256,192,31555,1,0,0:0:0:0:
256,192,31868,1,8,0:0:0:0:
256,192,32180,1,0,0:0:0:0:
256,192,32493,1,8,0:0:0:0:
256,192,33118,1,0,0:0:0:0:
256,192,33430,1,8,0:0:0:0:
256,192,34993,12,0,36243,0:0:0:0:
256,192,36868,12,0,41243,0:0:0:0:
256,192,42493,5,12,0:0:0:0:
256,192,43118,1,8,0:0:0:0:
256,192,43430,1,0,0:0:0:0:
256,192,43586,1,8,0:0:0:0:
256,192,43743,1,0,0:0:0:0:
256,192,44055,1,0,0:0:0:0:
256,192,44368,1,8,0:0:0:0:
256,192,44680,1,8,0:0:0:0:
256,192,44993,1,12,0:0:0:0:
256,192,45305,1,0,0:0:0:0:
256,192,45461,1,8,0:0:0:0:
256,192,45618,1,0,0:0:0:0:
256,192,45930,1,8,0:0:0:0:
256,192,46086,1,8,0:0:0:0:
256,192,46243,1,0,0:0:0:0:
256,192,46555,1,0,0:0:0:0:
256,192,46868,1,8,0:0:0:0:
256,192,47180,1,0,0:0:0:0:
256,192,47493,1,12,0:0:0:0:
256,192,48118,1,8,0:0:0:0:
256,192,48430,1,0,0:0:0:0:
256,192,48586,1,0,0:0:0:0:
256,192,48743,1,8,0:0:0:0:
256,192,49055,1,0,0:0:0:0:
256,192,49368,1,8,0:0:0:0:
256,192,49680,1,0,0:0:0:0:
256,192,49993,1,12,0:0:0:0:
256,192,50305,1,8,0:0:0:0:
256,192,50461,1,8,0:0:0:0:
256,192,50618,1,0,0:0:0:0:
256,192,50930,1,8,0:0:0:0:
256,192,51243,1,0,0:0:0:0:
256,192,51555,1,0,0:0:0:0:
256,192,51868,1,8,0:0:0:0:
256,192,52024,1,0,0:0:0:0:
256,192,52180,1,0,0:0:0:0:
256,192,52493,5,12,0:0:0:0:
256,192,53118,1,8,0:0:0:0:
256,192,53430,1,0,0:0:0:0:
256,192,53586,1,8,0:0:0:0:
256,192,53743,1,0,0:0:0:0:
256,192,54055,1,0,0:0:0:0:
256,192,54368,1,8,0:0:0:0:
256,192,54524,1,0,0:0:0:0:
256,192,54680,1,8,0:0:0:0:
256,192,54993,1,12,0:0:0:0:
256,192,55305,1,0,0:0:0:0:
256,192,55618,1,8,0:0:0:0:
256,192,55930,1,8,0:0:0:0:
256,192,56086,1,0,0:0:0:0:
256,192,56243,1,0,0:0:0:0:
256,192,56555,1,0,0:0:0:0:
256,192,56868,1,8,0:0:0:0:
256,192,57180,1,0,0:0:0:0:
256,192,57493,1,12,0:0:0:0:
256,192,58118,1,8,0:0:0:0:
256,192,58430,1,0,0:0:0:0:
256,192,58586,1,8,0:0:0:0:
256,192,58743,1,8,0:0:0:0:
256,192,59055,1,0,0:0:0:0:
256,192,59368,1,8,0:0:0:0:
256,192,59680,1,0,0:0:0:0:
256,192,59993,1,12,0:0:0:0:
256,192,60305,1,8,0:0:0:0:
256,192,60461,1,0,0:0:0:0:
256,192,60618,1,0,0:0:0:0:
256,192,60930,1,8,0:0:0:0:
256,192,61243,1,0,0:0:0:0:
256,192,61555,1,0,0:0:0:0:
256,192,61868,1,8,0:0:0:0:
256,192,62024,1,0,0:0:0:0:
256,192,62180,1,0,0:0:0:0:
256,192,62493,5,12,0:0:0:0:
256,192,63118,1,8,0:0:0:0:
256,192,63430,1,0,0:0:0:0:
256,192,63586,1,0,0:0:0:0:
256,192,63743,1,8,0:0:0:0:
256,192,63899,1,0,0:0:0:0:
256,192,64055,1,8,0:0:0:0:
256,192,64368,1,8,0:0:0:0:
256,192,64680,1,0,0:0:0:0:
256,192,64993,1,12,0:0:0:0:
256,192,65305,1,0,0:0:0:0:
256,192,65618,1,8,0:0:0:0:
256,192,65930,1,8,0:0:0:0:
256,192,66086,1,0,0:0:0:0:
256,192,66243,1,8,0:0:0:0:
256,192,66555,1,0,0:0:0:0:
256,192,66868,1,8,0:0:0:0:
256,192,67024,1,0,0:0:0:0:
256,192,67180,1,0,0:0:0:0:
256,192,67493,1,12,0:0:0:0:
256,192,68118,1,8,0:0:0:0:
256,192,68430,1,0,0:0:0:0:
256,192,68586,1,8,0:0:0:0:
256,192,68743,1,0,0:0:0:0:
256,192,68899,1,8,0:0:0:0:
256,192,69055,1,0,0:0:0:0:
256,192,69368,1,8,0:0:0:0:
256,192,69680,1,0,0:0:0:0:
256,192,69993,1,12,0:0:0:0:
256,192,70305,1,0,0:0:0:0:
256,192,70618,1,8,0:0:0:0:
256,192,70930,1,0,0:0:0:0:
256,192,71086,1,0,0:0:0:0:
256,192,71243,1,8,0:0:0:0:
256,192,71555,1,0,0:0:0:0:
256,192,71868,1,8,0:0:0:0:
256,192,72024,1,0,0:0:0:0:
256,192,72180,1,0,0:0:0:0:
256,192,72493,1,12,0:0:0:0:
256,192,73118,1,8,0:0:0:0:
256,192,73430,1,0,0:0:0:0:
256,192,73586,1,0,0:0:0:0:
256,192,73743,1,8,0:0:0:0:
256,192,73899,1,0,0:0:0:0:
256,192,74055,1,0,0:0:0:0:
256,192,74368,1,8,0:0:0:0:
256,192,74680,1,0,0:0:0:0:
256,192,74993,1,12,0:0:0:0:
256,192,75305,1,8,0:0:0:0:
256,192,75618,1,0,0:0:0:0:
256,192,75930,1,8,0:0:0:0:
256,192,76086,1,0,0:0:0:0:
256,192,76243,1,8,0:0:0:0:
256,192,76555,1,0,0:0:0:0:
256,192,76868,1,0,0:0:0:0:
256,192,77024,1,0,0:0:0:0:
256,192,77180,1,8,0:0:0:0:
256,192,77493,1,12,0:0:0:0:
256,192,78118,1,8,0:0:0:0:
256,192,78430,1,0,0:0:0:0:
256,192,78586,1,0,0:0:0:0:
256,192,78743,1,8,0:0:0:0:
256,192,78899,1,8,0:0:0:0:
256,192,79055,1,0,0:0:0:0:
256,192,79368,1,8,0:0:0:0:
256,192,79680,1,0,0:0:0:0:
256,192,79993,1,12,0:0:0:0:
256,192,80305,1,8,0:0:0:0:
256,192,80618,1,0,0:0:0:0:
256,192,80930,1,8,0:0:0:0:
256,192,81086,1,0,0:0:0:0:
256,192,81243,1,8,0:0:0:0:
256,192,81555,1,0,0:0:0:0:
256,192,81868,1,8,0:0:0:0:
256,192,82024,1,0,0:0:0:0:
256,192,82180,1,0,0:0:0:0:
256,192,82493,1,12,0:0:0:0:
256,192,83118,1,8,0:0:0:0:
256,192,83430,1,0,0:0:0:0:
256,192,83586,1,8,0:0:0:0:
256,192,83743,1,0,0:0:0:0:
256,192,83899,1,8,0:0:0:0:
256,192,84055,1,0,0:0:0:0:
256,192,84368,1,8,0:0:0:0:
256,192,84680,1,0,0:0:0:0:
256,192,84993,1,12,0:0:0:0:
256,192,85305,1,0,0:0:0:0:
256,192,85618,1,8,0:0:0:0:
256,192,85930,1,0,0:0:0:0:
256,192,86086,1,0,0:0:0:0:
256,192,86243,1,8,0:0:0:0:
256,192,86555,1,0,0:0:0:0:
256,192,86868,1,8,0:0:0:0:
256,192,87024,1,0,0:0:0:0:
256,192,87180,1,8,0:0:0:0:
256,192,87493,1,12,0:0:0:0:
256,192,88118,1,8,0:0:0:0:
256,192,88430,1,0,0:0:0:0:
256,192,88586,1,0,0:0:0:0:
256,192,88743,1,8,0:0:0:0:
256,192,88899,1,0,0:0:0:0:
256,192,89055,1,0,0:0:0:0:
256,192,89368,1,8,0:0:0:0:
256,192,89680,1,0,0:0:0:0:
256,192,89993,1,12,0:0:0:0:
256,192,90305,1,8,0:0:0:0:
256,192,90618,1,0,0:0:0:0:
256,192,90930,1,8,0:0:0:0:
256,192,91086,1,0,0:0:0:0:
256,192,91243,1,8,0:0:0:0:
256,192,91555,1,0,0:0:0:0:
256,192,91711,1,0,0:0:0:0:
256,192,91868,1,8,0:0:0:0:
256,192,92180,1,0,0:0:0:0:
