osu file format v14

[General]
AudioFilename: audio.mp3
AudioLeadIn: 0
PreviewTime: 69993
Countdown: 0
SampleSet: Normal
StackLeniency: 0.7
Mode: 1
LetterboxInBreaks: 0
WidescreenStoryboard: 1

[Editor]
Bookmarks: 42493,92493
DistanceSpacing: 0.8
BeatDivisor: 8
GridSize: 32
TimelineZoom: 2.5

[Metadata]
Title:Overture
TitleUnicode:Overture
Artist:MuryokuP
ArtistUnicode:無力P
Creator:HEAVENLY MOON
Version:Capu's Inner Oni
Source:osu!
Tags:your pianist fa ginjani capu breakcore featured artist mappers' guild mpg electronic instrumental artcore powerless sounds
BeatmapID:2892205
BeatmapSetID:1351158

[Difficulty]
HPDrainRate:6
CircleSize:2
OverallDifficulty:6.5
ApproachRate:10
SliderMultiplier:1.4
SliderTickRate:1

[Events]
//Background and Video events
0,0,"axll.jpg",0,-60
//Break Periods
//Storyboard Layer 0 (Background)
//Storyboard Layer 1 (Fail)
//Storyboard Layer 2 (Pass)
//Storyboard Layer 3 (Foreground)
//Storyboard Layer 4 (Overlay)
//Storyboard Sound Samples

[TimingPoints]
11243,312.5,4,1,0,30,1,0
11243,-142.857142857143,4,1,0,30,0,0
13664,-138.888888888889,4,1,0,30,0,0
13703,-135.135135135135,4,1,0,30,0,0
13743,-131.578947368421,4,1,0,30,0,0
13821,-142.857142857143,4,1,0,30,0,0
26164,-138.888888888889,4,1,0,30,0,0
26203,-135.135135135135,4,1,0,30,0,0
26243,-131.578947368421,4,1,0,30,0,0
26321,-142.857142857143,4,1,0,30,0,0
31164,-138.888888888889,4,1,0,30,0,0
31203,-135.135135135135,4,1,0,30,0,0
31243,-131.578947368421,4,1,0,30,0,0
31321,-142.857142857143,4,1,0,30,0,0
36243,-142.857142857143,4,1,0,5,0,0
37493,-142.857142857143,4,1,0,10,0,0
37805,-142.857142857143,4,1,0,15,0,0
38118,-142.857142857143,4,1,0,20,0,0
38430,-142.857142857143,4,1,0,25,0,0
38743,-142.857142857143,4,1,0,30,0,0
39055,-142.857142857143,4,1,0,35,0,0
39368,-142.857142857143,4,1,0,40,0,0
39993,-142.857142857143,4,1,0,45,0,0
40618,-142.857142857143,4,1,0,50,0,0
41243,-142.857142857143,4,1,0,5,0,0
42414,-100,4,1,0,90,0,0

[HitObjects]
262,193,11243,5,8,0:0:0:0:
256,192,11399,12,0,13118,0:0:0:0:
256,192,13664,5,8,0:0:0:0:
247,194,13743,1,8,0:0:0:0:
254,190,16243,1,8,0:0:0:0:
254,190,16555,1,0,0:0:0:0:
254,190,16868,1,8,0:0:0:0:
254,190,17180,1,0,0:0:0:0:
254,190,17493,1,8,0:0:0:0:
254,190,17805,1,8,0:0:0:0:
254,190,18118,1,0,0:0:0:0:
254,190,18430,1,8,0:0:0:0:
260,194,21243,1,8,0:0:0:0:
260,194,21555,1,0,0:0:0:0:
260,194,21868,1,0,0:0:0:0:
260,196,22180,1,0,0:0:0:0:
260,196,22493,1,8,0:0:0:0:
260,196,22805,1,0,0:0:0:0:
260,196,23118,1,8,0:0:0:0:
260,196,23430,1,8,0:0:0:0:
260,196,26164,1,8,0:0:0:0:
256,192,26243,1,8,0:0:0:0:
267,199,26555,1,0,0:0:0:0:
267,199,26868,1,8,0:0:0:0:
267,199,27180,1,0,0:0:0:0:
267,199,27493,1,8,0:0:0:0:
267,199,27805,1,8,0:0:0:0:
267,199,28118,1,0,0:0:0:0:
267,199,28430,1,0,0:0:0:0:
269,201,28743,1,8,0:0:0:0:
268,201,29680,1,8,0:0:0:0:
265,204,30618,1,0,0:0:0:0:
265,204,31164,1,8,0:0:0:0:
288,192,31243,1,8,0:0:0:0:
254,190,31555,1,0,0:0:0:0:
254,190,31868,1,8,0:0:0:0:
254,190,32180,1,0,0:0:0:0:
254,190,32493,1,8,0:0:0:0:
254,190,32805,1,8,0:0:0:0:
254,190,33118,1,0,0:0:0:0:
254,190,33430,1,8,0:0:0:0:
256,192,34993,12,0,36243,0:0:0:0:
256,192,36868,12,0,41243,0:0:0:0:
256,192,42493,5,12,0:0:0:0:
256,192,42649,1,0,0:0:0:0:
256,192,42805,1,8,0:0:0:0:
256,192,42883,1,8,0:0:0:0:
256,192,42961,1,0,0:0:0:0:
256,192,43118,1,8,0:0:0:0:
256,192,43274,1,0,0:0:0:0:
256,192,43352,1,0,0:0:0:0:
256,192,43430,1,8,0:0:0:0:
256,192,43508,1,0,0:0:0:0:
256,192,43586,1,8,0:0:0:0:
256,192,43743,1,0,0:0:0:0:
256,192,43899,1,8,0:0:0:0:
256,192,44055,1,0,0:0:0:0:
256,192,44133,1,8,0:0:0:0:
256,192,44211,1,0,0:0:0:0:
256,192,44368,1,8,0:0:0:0:
256,192,44524,1,0,0:0:0:0:
256,192,44602,1,0,0:0:0:0:
256,192,44680,1,8,0:0:0:0:
256,192,44993,1,12,0:0:0:0:
256,192,45149,1,0,0:0:0:0:
256,192,45227,1,0,0:0:0:0:
256,192,45305,1,8,0:0:0:0:
256,192,45383,1,8,0:0:0:0:
256,192,45461,1,0,0:0:0:0:
256,192,45618,1,8,0:0:0:0:
256,192,45696,1,0,0:0:0:0:
256,192,45774,1,8,0:0:0:0:
256,192,45852,1,8,0:0:0:0:
256,192,45930,1,0,0:0:0:0:
256,192,46086,1,8,0:0:0:0:
256,192,46243,1,0,0:0:0:0:
256,192,46399,1,8,0:0:0:0:
256,192,46477,1,8,0:0:0:0:
256,192,46555,1,0,0:0:0:0:
256,192,46711,1,8,0:0:0:0:
256,192,46789,1,0,0:0:0:0:
256,192,46868,1,8,0:0:0:0:
256,192,47024,1,0,0:0:0:0:
256,192,47102,1,0,0:0:0:0:
256,192,47180,1,8,0:0:0:0:
256,192,47493,1,12,0:0:0:0:
256,192,47649,1,0,0:0:0:0:
256,192,47727,1,8,0:0:0:0:
256,192,47805,1,0,0:0:0:0:
256,192,47961,1,8,0:0:0:0:
256,192,48118,1,8,0:0:0:0:
256,192,48196,1,8,0:0:0:0:
256,192,48274,1,0,0:0:0:0:
256,192,48430,1,0,0:0:0:0:
256,192,48508,1,8,0:0:0:0:
256,192,48586,1,0,0:0:0:0:
256,192,48743,1,8,0:0:0:0:
256,192,48899,1,0,0:0:0:0:
256,192,49055,1,8,0:0:0:0:
256,192,49133,1,8,0:0:0:0:
256,192,49211,1,0,0:0:0:0:
256,192,49289,1,0,0:0:0:0:
256,192,49368,1,8,0:0:0:0:
256,192,49524,1,0,0:0:0:0:
256,192,49602,1,0,0:0:0:0:
256,192,49680,1,8,0:0:0:0:
256,192,49993,1,12,0:0:0:0:
256,192,50149,1,0,0:0:0:0:
256,192,50227,1,0,0:0:0:0:
256,192,50305,1,8,0:0:0:0:
256,192,50461,1,0,0:0:0:0:
256,192,50618,1,8,0:0:0:0:
256,192,50696,1,0,0:0:0:0:
256,192,50774,1,8,0:0:0:0:
256,192,50852,1,8,0:0:0:0:
256,192,50930,1,0,0:0:0:0:
256,192,51086,1,0,0:0:0:0:
256,192,51243,1,8,0:0:0:0:
256,192,51399,1,0,0:0:0:0:
256,192,51555,1,8,0:0:0:0:
256,192,51711,1,0,0:0:0:0:
256,192,51789,1,0,0:0:0:0:
256,192,51868,1,8,0:0:0:0:
256,192,51946,1,0,0:0:0:0:
256,192,52024,1,8,0:0:0:0:
256,192,52180,1,8,0:0:0:0:
256,192,52493,1,12,0:0:0:0:
256,192,52649,1,0,0:0:0:0:
256,192,52727,1,0,0:0:0:0:
256,192,52805,1,8,0:0:0:0:
256,192,52883,1,0,0:0:0:0:
256,192,52961,1,8,0:0:0:0:
256,192,53118,1,0,0:0:0:0:
256,192,53196,1,0,0:0:0:0:
256,192,53274,1,8,0:0:0:0:
256,192,53430,1,8,0:0:0:0:
256,192,53586,1,0,0:0:0:0:
256,192,53743,1,8,0:0:0:0:
256,192,53821,1,0,0:0:0:0:
256,192,53899,1,0,0:0:0:0:
256,192,54055,1,8,0:0:0:0:
256,192,54133,1,8,0:0:0:0:
256,192,54211,1,0,0:0:0:0:
256,192,54368,1,8,0:0:0:0:
256,192,54446,1,0,0:0:0:0:
256,192,54524,1,8,0:0:0:0:
256,192,54602,1,8,0:0:0:0:
256,192,54680,1,0,0:0:0:0:
256,192,54836,1,0,0:0:0:0:
256,192,54993,1,12,0:0:0:0:
256,192,55149,1,0,0:0:0:0:
256,192,55227,1,0,0:0:0:0:
256,192,55305,1,8,0:0:0:0:
256,192,55383,1,8,0:0:0:0:
256,192,55461,1,0,0:0:0:0:
256,192,55618,1,8,0:0:0:0:
256,192,55696,1,0,0:0:0:0:
256,192,55774,1,8,0:0:0:0:
256,192,55930,1,0,0:0:0:0:
256,192,56086,1,8,0:0:0:0:
256,192,56243,1,0,0:0:0:0:
256,192,56321,1,0,0:0:0:0:
256,192,56399,1,8,0:0:0:0:
256,192,56555,1,0,0:0:0:0:
256,192,56711,1,0,0:0:0:0:
256,192,56868,1,8,0:0:0:0:
256,192,56946,1,8,0:0:0:0:
256,192,57024,1,0,0:0:0:0:
256,192,57102,1,0,0:0:0:0:
256,192,57180,1,8,0:0:0:0:
256,192,57336,1,0,0:0:0:0:
256,192,57493,1,12,0:0:0:0:
256,192,57649,1,0,0:0:0:0:
256,192,57727,1,8,0:0:0:0:
256,192,57805,1,0,0:0:0:0:
256,192,57883,1,0,0:0:0:0:
256,192,57961,1,8,0:0:0:0:
256,192,58118,1,8,0:0:0:0:
256,192,58196,1,0,0:0:0:0:
256,192,58274,1,8,0:0:0:0:
256,192,58430,1,0,0:0:0:0:
256,192,58586,1,8,0:0:0:0:
256,192,58664,1,8,0:0:0:0:
256,192,58743,1,0,0:0:0:0:
256,192,58899,1,8,0:0:0:0:
256,192,59055,1,0,0:0:0:0:
256,192,59133,1,0,0:0:0:0:
256,192,59211,1,8,0:0:0:0:
256,192,59289,1,8,0:0:0:0:
256,192,59368,1,0,0:0:0:0:
256,192,59524,1,8,0:0:0:0:
256,192,59680,1,0,0:0:0:0:
256,192,59758,1,0,0:0:0:0:
256,192,59836,1,8,0:0:0:0:
256,192,59993,1,12,0:0:0:0:
256,192,60149,1,0,0:0:0:0:
256,192,60227,1,8,0:0:0:0:
256,192,60305,1,8,0:0:0:0:
256,192,60383,1,8,0:0:0:0:
256,192,60461,1,0,0:0:0:0:
256,192,60618,1,8,0:0:0:0:
256,192,60696,1,0,0:0:0:0:
256,192,60774,1,8,0:0:0:0:
256,192,60852,1,8,0:0:0:0:
256,192,60930,1,0,0:0:0:0:
256,192,61086,1,8,0:0:0:0:
256,192,61243,1,0,0:0:0:0:
256,192,61321,1,8,0:0:0:0:
256,192,61399,1,0,0:0:0:0:
256,192,61555,1,8,0:0:0:0:
256,192,61711,1,0,0:0:0:0:
256,192,61789,1,0,0:0:0:0:
256,192,61868,1,8,0:0:0:0:
256,192,62024,1,8,0:0:0:0:
256,192,62102,1,0,0:0:0:0:
256,192,62180,1,8,0:0:0:0:
256,192,62336,1,0,0:0:0:0:
256,192,62493,1,12,0:0:0:0:
256,192,62805,1,0,0:0:0:0:
256,192,62961,1,0,0:0:0:0:
256,192,63118,1,8,0:0:0:0:
256,192,63196,1,8,0:0:0:0:
256,192,63274,1,0,0:0:0:0:
256,192,63352,1,0,0:0:0:0:
256,192,63430,1,8,0:0:0:0:
256,192,63586,1,0,0:0:0:0:
256,192,63664,1,8,0:0:0:0:
256,192,63821,1,8,0:0:0:0:
256,192,63899,1,0,0:0:0:0:
256,192,63977,1,0,0:0:0:0:
256,192,64055,1,8,0:0:0:0:
256,192,64211,1,0,0:0:0:0:
256,192,64368,1,8,0:0:0:0:
256,192,64446,1,0,0:0:0:0:
256,192,64524,1,8,0:0:0:0:
256,192,64602,1,8,0:0:0:0:
256,192,64680,1,0,0:0:0:0:
256,192,64836,1,0,0:0:0:0:
256,192,64914,1,0,0:0:0:0:
256,192,64993,1,12,0:0:0:0:
256,192,65149,1,8,0:0:0:0:
256,192,65227,1,8,0:0:0:0:
256,192,65305,1,8,0:0:0:0:
256,192,65461,1,0,0:0:0:0:
256,192,65539,1,0,0:0:0:0:
256,192,65618,1,8,0:0:0:0:
256,192,65774,1,0,0:0:0:0:
256,192,65852,1,0,0:0:0:0:
256,192,65930,1,8,0:0:0:0:
256,192,66008,1,8,0:0:0:0:
256,192,66086,1,0,0:0:0:0:
256,192,66243,1,8,0:0:0:0:
256,192,66321,1,0,0:0:0:0:
256,192,66399,1,0,0:0:0:0:
256,192,66477,1,0,0:0:0:0:
256,192,66555,1,8,0:0:0:0:
256,192,66711,1,0,0:0:0:0:
256,192,66868,1,8,0:0:0:0:
256,192,66946,1,8,0:0:0:0:
256,192,67024,1,0,0:0:0:0:
256,192,67180,1,8,0:0:0:0:
256,192,67493,1,12,0:0:0:0:
256,192,67649,1,0,0:0:0:0:
256,192,67727,1,8,0:0:0:0:
256,192,67805,1,0,0:0:0:0:
256,192,67883,1,0,0:0:0:0:
256,192,67961,1,8,0:0:0:0:
256,192,68118,1,8,0:0:0:0:
256,192,68196,1,0,0:0:0:0:
256,192,68274,1,8,0:0:0:0:
256,192,68352,1,8,0:0:0:0:
256,192,68430,1,0,0:0:0:0:
256,192,68586,1,8,0:0:0:0:
256,192,68743,1,8,0:0:0:0:
256,192,68821,1,8,0:0:0:0:
256,192,68899,1,0,0:0:0:0:
256,192,69055,1,8,0:0:0:0:
256,192,69211,1,0,0:0:0:0:
256,192,69289,1,0,0:0:0:0:
256,192,69368,1,8,0:0:0:0:
256,192,69524,1,8,0:0:0:0:
256,192,69680,1,0,0:0:0:0:
256,192,69993,1,12,0:0:0:0:
256,192,70149,1,0,0:0:0:0:
256,192,70227,1,0,0:0:0:0:
256,192,70305,1,8,0:0:0:0:
256,192,70461,1,0,0:0:0:0:
256,192,70539,1,8,0:0:0:0:
256,192,70618,1,8,0:0:0:0:
256,192,70774,1,8,0:0:0:0:
256,192,70852,1,8,0:0:0:0:
256,192,70930,1,0,0:0:0:0:
256,192,71086,1,8,0:0:0:0:
256,192,71164,1,0,0:0:0:0:
256,192,71321,1,0,0:0:0:0:
256,192,71399,1,8,0:0:0:0:
256,192,71555,1,0,0:0:0:0:
256,192,71633,1,8,0:0:0:0:
256,192,71711,1,0,0:0:0:0:
256,192,71789,1,0,0:0:0:0:
256,192,71868,1,8,0:0:0:0:
256,192,72024,1,0,0:0:0:0:
256,192,72102,1,8,0:0:0:0:
256,192,72180,1,8,0:0:0:0:
256,192,72258,1,0,0:0:0:0:
256,192,72336,1,0,0:0:0:0:
256,192,72493,1,12,0:0:0:0:
256,192,72805,1,8,0:0:0:0:
256,192,72961,1,0,0:0:0:0:
256,192,73118,1,8,0:0:0:0:
256,192,73196,1,0,0:0:0:0:
256,192,73274,1,0,0:0:0:0:
256,192,73352,1,8,0:0:0:0:
256,192,73430,1,0,0:0:0:0:
256,192,73586,1,8,0:0:0:0:
256,192,73743,1,0,0:0:0:0:
256,192,73899,1,8,0:0:0:0:
256,192,73977,1,8,0:0:0:0:
256,192,74055,1,0,0:0:0:0:
256,192,74211,1,0,0:0:0:0:
256,192,74289,1,0,0:0:0:0:
256,192,74368,1,8,0:0:0:0:
256,192,74524,1,0,0:0:0:0:
256,192,74680,1,8,0:0:0:0:
256,192,74758,1,0,0:0:0:0:
256,192,74836,1,0,0:0:0:0:
256,192,74993,1,12,0:0:0:0:
256,192,75149,1,0,0:0:0:0:
256,192,75227,1,0,0:0:0:0:
256,192,75305,1,8,0:0:0:0:
256,192,75461,1,8,0:0:0:0:
256,192,75618,1,0,0:0:0:0:
256,192,75696,1,8,0:0:0:0:
256,192,75774,1,8,0:0:0:0:
256,192,75852,1,8,0:0:0:0:
256,192,75930,1,0,0:0:0:0:
256,192,76086,1,8,0:0:0:0:
256,192,76164,1,0,0:0:0:0:
256,192,76243,1,8,0:0:0:0:
256,192,76399,1,8,0:0:0:0:
256,192,76477,1,8,0:0:0:0:
256,192,76555,1,0,0:0:0:0:
256,192,76711,1,8,0:0:0:0:
256,192,76789,1,0,0:0:0:0:
256,192,76868,1,8,0:0:0:0:
256,192,76946,1,8,0:0:0:0:
256,192,77024,1,0,0:0:0:0:
256,192,77180,1,8,0:0:0:0:
256,192,77258,1,0,0:0:0:0:
256,192,77336,1,0,0:0:0:0:
256,192,77493,1,12,0:0:0:0:
256,192,77649,1,0,0:0:0:0:
256,192,77805,1,8,0:0:0:0:
256,192,77961,1,8,0:0:0:0:
256,192,78039,1,0,0:0:0:0:
256,192,78118,1,8,0:0:0:0:
256,192,78196,1,8,0:0:0:0:
256,192,78274,1,0,0:0:0:0:
256,192,78430,1,0,0:0:0:0:
256,192,78586,1,8,0:0:0:0:
256,192,78664,1,8,0:0:0:0:
256,192,78743,1,0,0:0:0:0:
256,192,78821,1,0,0:0:0:0:
256,192,78899,1,8,0:0:0:0:
256,192,79055,1,0,0:0:0:0:
256,192,79133,1,0,0:0:0:0:
256,192,79211,1,8,0:0:0:0:
256,192,79289,1,0,0:0:0:0:
256,192,79368,1,8,0:0:0:0:
256,192,79524,1,0,0:0:0:0:
256,192,79602,1,0,0:0:0:0:
256,192,79680,1,8,0:0:0:0:
256,192,79836,1,0,0:0:0:0:
256,192,79993,1,12,0:0:0:0:
256,192,80149,1,0,0:0:0:0:
256,192,80227,1,8,0:0:0:0:
256,192,80305,1,0,0:0:0:0:
256,192,80461,1,8,0:0:0:0:
256,192,80539,1,0,0:0:0:0:
256,192,80618,1,8,0:0:0:0:
256,192,80696,1,8,0:0:0:0:
256,192,80774,1,0,0:0:0:0:
256,192,80930,1,8,0:0:0:0:
256,192,81086,1,0,0:0:0:0:
256,192,81164,1,0,0:0:0:0:
256,192,81243,1,8,0:0:0:0:
256,192,81321,1,8,0:0:0:0:
256,192,81399,1,0,0:0:0:0:
256,192,81555,1,8,0:0:0:0:
256,192,81711,1,0,0:0:0:0:
256,192,81789,1,0,0:0:0:0:
256,192,81868,1,8,0:0:0:0:
256,192,82024,1,0,0:0:0:0:
256,192,82102,1,0,0:0:0:0:
256,192,82180,1,8,0:0:0:0:
256,192,82284,1,8,0:0:0:0:
256,192,82388,1,0,0:0:0:0:
256,192,82440,1,0,0:0:0:0:
256,192,82493,1,8,0:0:0:0:
256,192,82597,1,0,0:0:0:0:
256,192,82701,1,0,0:0:0:0:
256,192,82805,1,8,0:0:0:0:
256,192,82909,1,0,0:0:0:0:
256,192,83013,1,0,0:0:0:0:
256,192,83118,1,8,0:0:0:0:
256,192,83222,1,8,0:0:0:0:
256,192,83326,1,0,0:0:0:0:
256,192,83430,1,8,0:0:0:0:
256,192,83534,1,0,0:0:0:0:
256,192,83586,1,0,0:0:0:0:
256,192,83638,1,0,0:0:0:0:
256,192,83743,1,8,0:0:0:0:
256,192,83847,1,0,0:0:0:0:
256,192,83951,1,0,0:0:0:0:
256,192,84055,1,8,0:0:0:0:
256,192,84133,1,0,0:0:0:0:
256,192,84211,1,8,0:0:0:0:
256,192,84289,1,0,0:0:0:0:
256,192,84368,1,8,0:0:0:0:
256,192,84472,1,0,0:0:0:0:
256,192,84576,1,8,0:0:0:0:
256,192,84680,1,0,0:0:0:0:
256,192,84784,1,8,0:0:0:0:
256,192,84836,1,8,0:0:0:0:
256,192,84888,1,0,0:0:0:0:
256,192,84993,1,8,0:0:0:0:
256,192,85149,1,0,0:0:0:0:
256,192,85305,1,8,0:0:0:0:
256,192,85461,1,0,0:0:0:0:
256,192,85539,1,0,0:0:0:0:
256,192,85618,1,8,0:0:0:0:
256,192,85826,1,8,0:0:0:0:
256,192,86034,1,8,0:0:0:0:
256,192,86243,1,0,0:0:0:0:
256,192,86399,1,8,0:0:0:0:
256,192,86477,1,8,0:0:0:0:
256,192,86555,1,0,0:0:0:0:
256,192,86789,1,0,0:0:0:0:
256,192,86868,1,8,0:0:0:0:
256,192,86946,1,8,0:0:0:0:
256,192,87024,1,0,0:0:0:0:
256,192,87180,1,8,0:0:0:0:
256,192,87284,1,0,0:0:0:0:
256,192,87388,1,0,0:0:0:0:
256,192,87493,1,12,0:0:0:0:
256,192,87805,1,8,0:0:0:0:
256,192,87909,1,0,0:0:0:0:
256,192,88013,1,0,0:0:0:0:
256,192,88118,1,0,0:0:0:0:
256,192,88222,1,8,0:0:0:0:
256,192,88326,1,8,0:0:0:0:
256,192,88430,1,0,0:0:0:0:
256,192,88534,1,8,0:0:0:0:
256,192,88638,1,8,0:0:0:0:
256,192,88743,1,8,0:0:0:0:
256,192,88847,1,0,0:0:0:0:
256,192,88951,1,0,0:0:0:0:
256,192,89055,1,8,0:0:0:0:
256,192,89159,1,8,0:0:0:0:
256,192,89263,1,8,0:0:0:0:
256,192,89368,1,0,0:0:0:0:
256,192,89472,1,8,0:0:0:0:
256,192,89576,1,8,0:0:0:0:
256,192,89680,1,0,0:0:0:0:
256,192,89784,1,0,0:0:0:0:
256,192,89888,1,0,0:0:0:0:
256,192,89993,1,8,0:0:0:0:
256,192,90071,1,0,0:0:0:0:
256,192,90149,1,0,0:0:0:0:
256,192,90227,1,0,0:0:0:0:
256,192,90305,1,8,0:0:0:0:
256,192,90409,1,0,0:0:0:0:
256,192,90513,1,0,0:0:0:0:
256,192,90618,1,8,0:0:0:0:
256,192,90774,1,8,0:0:0:0:
256,192,90852,1,0,0:0:0:0:
256,192,90930,1,8,0:0:0:0:
256,192,91008,1,8,0:0:0:0:
256,192,91086,1,0,0:0:0:0:
256,192,91164,1,0,0:0:0:0:
256,192,91243,1,8,0:0:0:0:
224,192,91399,1,0,0:0:0:0:
224,192,91477,1,0,0:0:0:0:
224,192,91555,1,8,0:0:0:0:
224,192,91633,1,0,0:0:0:0:
256,192,91711,1,8,0:0:0:0:
256,192,91789,1,0,0:0:0:0:
256,192,91868,1,8,0:0:0:0:
256,192,91972,1,8,0:0:0:0:
256,192,92076,1,0,0:0:0:0:
256,192,92180,1,8,0:0:0:0:
256,192,92284,1,8,0:0:0:0:
256,192,92388,1,8,0:0:0:0:
