osu file format v14

[General]
AudioFilename: audio.mp3
AudioLeadIn: 3000
PreviewTime: 82509
Countdown: 0
SampleSet: Soft
StackLeniency: 0.7
Mode: 3
LetterboxInBreaks: 0
SpecialStyle: 1
WidescreenStoryboard: 1

[Editor]
DistanceSpacing: 1.2
BeatDivisor: 16
GridSize: 32
TimelineZoom: 2.4

[Metadata]
Title:Frozen World
TitleUnicode:Frozen World
Artist:MuryokuP
ArtistUnicode:無力P
Creator:pwhk
Version:Hyper
Source:
Tags:Resonance featured artist fa Instrumental Electronic Artcore Powerless the voc@loid m@ster vocaloid master 18
BeatmapID:1467150
BeatmapSetID:693381

[Difficulty]
HPDrainRate:7.5
CircleSize:8
OverallDifficulty:8
ApproachRate:5
SliderMultiplier:1.4
SliderTickRate:1

[Events]
//Background and Video events
0,0,"jeremy-gallman-29163.jpg",0,0
//Break Periods
//Storyboard Layer 0 (Background)
//Storyboard Layer 1 (Fail)
//Storyboard Layer 2 (Pass)
//Storyboard Layer 3 (Foreground)
//Storyboard Layer 4 (Overlay)
//Storyboard Sound Samples

[TimingPoints]
224,428.571428571429,4,2,1,12,1,0
224,-125,4,2,1,12,0,0
13938,-119.047619047619,4,2,1,18,0,0
15652,-113.636363636364,4,2,1,24,0,0
17366,-108.695652173913,4,2,1,42,0,0
19081,-104.166666666667,4,2,1,36,0,0
20795,-100,4,2,1,42,0,0
82509,-100,4,2,1,42,0,1
106081,-100,4,2,1,42,0,0
120224,-104.166666666667,4,2,1,36,0,0
120652,-108.695652173913,4,2,1,42,0,0
121081,-113.636363636364,4,2,1,24,0,0
121509,-119.047619047619,4,2,1,18,0,0
121938,-125,4,2,1,12,0,0
145938,-119.047619047619,4,2,1,18,0,0
146366,-113.636363636364,4,2,1,24,0,0
146795,-108.695652173913,4,2,1,42,0,0
147224,-104.166666666667,4,2,1,36,0,0
147652,-100,4,2,1,42,0,0
169938,-100,4,2,1,36,0,0
170366,-100,4,2,1,42,0,0
170795,-100,4,2,1,24,0,0
171224,-100,4,2,1,18,0,0
171652,-100,4,2,1,42,0,0
185366,-100,4,2,1,42,0,1
208938,-100,4,2,1,42,0,0
209366,-100,4,2,1,42,0,1
232938,-100,4,2,1,42,0,0
288224,-100,4,2,1,36,0,0
289081,-100,4,2,1,42,0,0
289938,-100,4,2,1,24,0,0
290795,-100,4,2,1,18,0,0
291652,-100,4,2,1,12,0,0

[HitObjects]
288,192,224,1,0,0:0:0:0:
224,192,652,1,0,0:0:0:0:
352,192,1081,1,0,0:0:0:0:
480,192,1509,1,0,0:0:0:0:
160,192,1938,1,0,0:0:0:0:
288,192,2366,1,0,0:0:0:0:
416,192,2795,1,0,0:0:0:0:
96,192,3224,1,0,0:0:0:0:
288,192,3652,1,0,0:0:0:0:
224,192,4081,1,0,0:0:0:0:
352,192,4509,1,0,0:0:0:0:
480,192,4938,1,0,0:0:0:0:
160,192,5366,1,0,0:0:0:0:
288,192,5795,1,0,0:0:0:0:
416,192,6224,1,0,0:0:0:0:
96,192,6652,1,0,0:0:0:0:
352,192,7081,1,0,0:0:0:0:
160,192,7509,1,0,0:0:0:0:
288,192,7938,1,0,0:0:0:0:
480,192,8366,1,0,0:0:0:0:
160,192,8795,1,0,0:0:0:0:
288,192,9224,1,0,0:0:0:0:
32,192,9652,1,0,0:0:0:0:
416,192,9652,1,0,0:0:0:0:
96,192,10081,1,0,0:0:0:0:
352,192,10509,1,0,0:0:0:0:
160,192,10938,1,0,0:0:0:0:
288,192,11366,1,0,0:0:0:0:
480,192,11795,1,0,0:0:0:0:
160,192,12224,1,0,0:0:0:0:
288,192,12652,1,0,0:0:0:0:
416,192,13081,1,0,0:0:0:0:
96,192,13509,1,0,0:0:0:0:
32,192,13724,1,0,0:0:0:0:
32,192,13938,1,4,0:0:0:0:
160,192,13938,1,2,0:0:0:0:
416,192,13938,1,0,0:0:0:0:
96,192,14366,1,0,0:0:0:0:
288,192,14795,1,8,0:0:0:0:
480,192,14795,1,0,0:0:0:0:
416,192,15224,1,0,0:0:0:0:
160,192,15652,1,0,0:0:0:0:
224,192,15652,1,0,0:0:0:0:
288,192,16081,1,0,0:0:0:0:
352,192,16509,1,8,0:0:0:0:
480,192,16509,1,0,0:0:0:0:
96,192,16938,1,0,0:0:0:0:
288,192,17366,1,0,0:0:0:0:
416,192,17366,1,0,0:0:0:0:
160,192,17795,1,0,0:0:0:0:
352,192,18224,1,8,0:0:0:0:
480,192,18224,1,0,0:0:0:0:
416,192,18652,1,0,0:0:0:0:
160,192,19081,1,0,0:0:0:0:
288,192,19081,1,0,0:0:0:0:
224,192,19509,1,0,0:0:0:0:
352,192,19938,1,8,0:0:0:0:
480,192,19938,1,0,0:0:0:0:
32,192,20366,1,0,0:0:0:0:
480,192,20366,128,0,20795:0:0:0:0:
32,192,20795,1,2,0:0:0:0:
96,192,20795,1,0,0:0:0:0:
224,192,20938,1,0,0:0:0:0:
352,192,21009,1,0,0:0:0:0:
160,192,21224,1,0,0:0:0:0:
288,192,21331,1,0,0:0:0:0:
416,192,21438,1,0,0:0:0:0:
288,192,21545,1,0,0:0:0:0:
160,192,21652,1,0,0:0:0:0:
288,192,21795,1,0,0:0:0:0:
416,192,21866,1,0,0:0:0:0:
288,192,22081,1,0,0:0:0:0:
352,192,22295,1,0,0:0:0:0:
224,192,22438,1,0,0:0:0:0:
96,192,22509,1,0,0:0:0:0:
224,192,22652,1,0,0:0:0:0:
416,192,22724,1,0,0:0:0:0:
352,192,22938,128,0,23045:0:0:0:0:
96,192,23152,128,0,23366:0:0:0:0:
352,192,23366,1,0,0:0:0:0:
160,192,23509,1,0,0:0:0:0:
288,192,23581,1,0,0:0:0:0:
96,192,23795,128,0,24009:0:0:0:0:
352,192,24009,1,0,0:0:0:0:
416,192,24152,1,0,0:0:0:0:
96,192,24224,1,0,0:0:0:0:
224,192,24331,1,0,0:0:0:0:
96,192,24438,1,0,0:0:0:0:
224,192,24545,1,0,0:0:0:0:
352,192,24652,1,0,0:0:0:0:
288,192,24759,1,0,0:0:0:0:
160,192,24866,1,0,0:0:0:0:
288,192,25009,1,0,0:0:0:0:
416,192,25081,1,0,0:0:0:0:
288,192,25224,1,0,0:0:0:0:
480,192,25295,1,0,0:0:0:0:
416,192,25349,1,0,0:0:0:0:
352,192,25402,1,0,0:0:0:0:
224,192,25509,1,0,0:0:0:0:
352,192,25724,1,0,0:0:0:0:
224,192,25866,1,0,0:0:0:0:
96,192,25938,1,0,0:0:0:0:
224,192,26081,1,0,0:0:0:0:
416,192,26152,1,0,0:0:0:0:
160,192,26366,128,0,26474:0:0:0:0:
224,192,26581,128,0,26795:0:0:0:0:
480,192,26795,1,0,0:0:0:0:
288,192,26938,1,0,0:0:0:0:
416,192,27009,1,0,0:0:0:0:
32,192,27224,1,0,0:0:0:0:
224,192,27224,128,0,27438:0:0:0:0:
480,192,27438,1,0,0:0:0:0:
32,192,27652,1,2,0:0:0:0:
160,192,27652,1,0,0:0:0:0:
288,192,27795,1,0,0:0:0:0:
416,192,27866,1,0,0:0:0:0:
352,192,28081,1,0,0:0:0:0:
288,192,28188,1,0,0:0:0:0:
224,192,28295,1,0,0:0:0:0:
160,192,28402,1,0,0:0:0:0:
224,192,28509,1,0,0:0:0:0:
288,192,28652,1,0,0:0:0:0:
352,192,28724,1,0,0:0:0:0:
224,192,28938,1,0,0:0:0:0:
416,192,29152,1,0,0:0:0:0:
288,192,29295,1,0,0:0:0:0:
96,192,29366,1,0,0:0:0:0:
288,192,29509,1,0,0:0:0:0:
416,192,29581,1,0,0:0:0:0:
352,192,29795,128,0,29902:0:0:0:0:
96,192,30009,128,0,30224:0:0:0:0:
352,192,30224,1,0,0:0:0:0:
416,192,30366,1,0,0:0:0:0:
480,192,30438,1,0,0:0:0:0:
96,192,30652,128,0,30866:0:0:0:0:
352,192,30866,1,0,0:0:0:0:
416,192,31009,1,0,0:0:0:0:
224,192,31081,1,0,0:0:0:0:
96,192,31188,1,0,0:0:0:0:
224,192,31295,1,0,0:0:0:0:
96,192,31402,1,0,0:0:0:0:
160,192,31509,1,0,0:0:0:0:
288,192,31616,1,0,0:0:0:0:
416,192,31724,1,0,0:0:0:0:
288,192,31831,1,0,0:0:0:0:
224,192,31938,1,0,0:0:0:0:
288,192,32045,1,0,0:0:0:0:
480,192,32152,1,0,0:0:0:0:
416,192,32206,1,0,0:0:0:0:
352,192,32259,1,0,0:0:0:0:
224,192,32366,1,0,0:0:0:0:
480,192,32581,1,0,0:0:0:0:
288,192,32724,1,0,0:0:0:0:
96,192,32795,1,0,0:0:0:0:
224,192,32938,1,0,0:0:0:0:
288,192,33009,1,0,0:0:0:0:
224,192,33224,128,0,33331:0:0:0:0:
480,192,33438,128,0,33652:0:0:0:0:
160,192,33652,1,0,0:0:0:0:
224,192,33795,1,0,0:0:0:0:
288,192,33866,1,0,0:0:0:0:
480,192,34081,128,0,34295:0:0:0:0:
160,192,34295,1,0,0:0:0:0:
224,192,34438,1,0,0:0:0:0:
32,192,34509,128,0,41366:0:0:0:0:
96,192,34509,1,0,0:0:0:0:
416,192,34724,1,0,0:0:0:0:
288,192,34938,1,0,0:0:0:0:
416,192,35045,1,0,0:0:0:0:
288,192,35259,1,0,0:0:0:0:
288,192,35474,1,0,0:0:0:0:
160,192,35581,1,0,0:0:0:0:
288,192,35795,1,0,0:0:0:0:
416,192,36009,1,0,0:0:0:0:
288,192,36116,1,0,0:0:0:0:
416,192,36438,1,0,0:0:0:0:
288,192,36652,1,0,0:0:0:0:
416,192,36759,1,0,0:0:0:0:
288,192,36974,1,0,0:0:0:0:
288,192,37188,1,0,0:0:0:0:
160,192,37295,1,0,0:0:0:0:
288,192,37509,1,0,0:0:0:0:
416,192,37724,1,0,0:0:0:0:
288,192,37831,1,0,0:0:0:0:
416,192,38152,1,0,0:0:0:0:
288,192,38366,1,0,0:0:0:0:
416,192,38474,1,0,0:0:0:0:
288,192,38688,1,0,0:0:0:0:
288,192,38902,1,0,0:0:0:0:
160,192,39009,1,0,0:0:0:0:
288,192,39224,1,0,0:0:0:0:
416,192,39438,1,0,0:0:0:0:
288,192,39545,1,0,0:0:0:0:
416,192,39866,1,0,0:0:0:0:
288,192,40081,1,0,0:0:0:0:
416,192,40188,1,0,0:0:0:0:
288,192,40402,1,0,0:0:0:0:
288,192,40616,1,0,0:0:0:0:
160,192,40724,1,0,0:0:0:0:
288,192,40938,1,0,0:0:0:0:
416,192,41152,1,0,0:0:0:0:
288,192,41259,1,0,0:0:0:0:
96,192,41366,1,2,0:0:0:0:
224,192,41366,1,4,0:0:0:0:
480,192,41366,1,0,0:0:0:0:
416,192,41581,1,0,0:0:0:0:
96,192,41795,1,2,0:0:0:0:
288,192,41795,1,8,0:0:0:0:
416,192,41902,1,0,0:0:0:0:
224,192,42116,1,0,0:0:0:0:
96,192,42224,1,2,0:0:0:0:
224,192,42331,1,0,0:0:0:0:
160,192,42438,1,0,0:0:0:0:
96,192,42652,1,2,0:0:0:0:
224,192,42652,1,8,0:0:0:0:
352,192,42866,1,0,0:0:0:0:
224,192,42974,1,0,0:0:0:0:
96,192,43081,1,2,0:0:0:0:
416,192,43295,1,0,0:0:0:0:
96,192,43509,1,2,0:0:0:0:
288,192,43509,1,8,0:0:0:0:
416,192,43616,1,0,0:0:0:0:
224,192,43831,1,0,0:0:0:0:
96,192,43938,1,2,0:0:0:0:
224,192,44045,1,0,0:0:0:0:
160,192,44152,1,0,0:0:0:0:
96,192,44366,1,2,0:0:0:0:
224,192,44366,1,8,0:0:0:0:
352,192,44581,1,0,0:0:0:0:
224,192,44688,1,0,0:0:0:0:
96,192,44795,1,2,0:0:0:0:
480,192,45009,1,0,0:0:0:0:
96,192,45224,1,2,0:0:0:0:
352,192,45224,1,8,0:0:0:0:
480,192,45331,1,0,0:0:0:0:
288,192,45545,1,0,0:0:0:0:
96,192,45652,1,2,0:0:0:0:
288,192,45759,1,0,0:0:0:0:
160,192,45866,1,0,0:0:0:0:
96,192,46081,1,2,0:0:0:0:
288,192,46081,1,8,0:0:0:0:
416,192,46295,1,0,0:0:0:0:
288,192,46402,1,0,0:0:0:0:
96,192,46509,1,2,0:0:0:0:
480,192,46724,1,0,0:0:0:0:
96,192,46938,1,2,0:0:0:0:
352,192,46938,1,8,0:0:0:0:
480,192,47045,1,0,0:0:0:0:
288,192,47259,1,0,0:0:0:0:
96,192,47366,1,2,0:0:0:0:
32,192,47474,1,4,0:0:0:0:
288,192,47474,1,0,0:0:0:0:
160,192,47581,1,2,0:0:0:0:
32,192,47795,1,6,0:0:0:0:
288,192,47795,1,8,0:0:0:0:
32,192,48009,1,4,0:0:0:0:
416,192,48009,1,2,0:0:0:0:
288,192,48116,1,0,0:0:0:0:
32,192,48224,1,4,0:0:0:0:
96,192,48224,1,2,0:0:0:0:
288,192,48331,1,0,0:0:0:0:
416,192,48438,1,0,0:0:0:0:
160,192,48545,1,0,0:0:0:0:
352,192,48652,1,0,0:0:0:0:
416,192,48759,1,0,0:0:0:0:
96,192,48866,1,0,0:0:0:0:
352,192,48974,1,0,0:0:0:0:
160,192,49081,1,0,0:0:0:0:
352,192,49188,1,0,0:0:0:0:
288,192,49295,1,0,0:0:0:0:
96,192,49402,1,0,0:0:0:0:
352,192,49509,1,0,0:0:0:0:
160,192,49616,1,0,0:0:0:0:
416,192,49724,1,0,0:0:0:0:
352,192,49831,1,0,0:0:0:0:
96,192,49938,1,0,0:0:0:0:
160,192,50045,1,0,0:0:0:0:
352,192,50152,1,0,0:0:0:0:
96,192,50259,1,0,0:0:0:0:
288,192,50366,1,0,0:0:0:0:
352,192,50474,1,0,0:0:0:0:
160,192,50581,1,0,0:0:0:0:
288,192,50688,1,0,0:0:0:0:
96,192,50795,1,0,0:0:0:0:
288,192,50902,1,0,0:0:0:0:
224,192,51009,1,0,0:0:0:0:
96,192,51116,1,0,0:0:0:0:
288,192,51224,1,0,0:0:0:0:
160,192,51331,1,0,0:0:0:0:
352,192,51438,1,0,0:0:0:0:
288,192,51545,1,0,0:0:0:0:
96,192,51652,1,0,0:0:0:0:
160,192,51759,1,0,0:0:0:0:
416,192,51866,1,0,0:0:0:0:
96,192,51974,1,0,0:0:0:0:
352,192,52081,1,0,0:0:0:0:
416,192,52188,1,0,0:0:0:0:
160,192,52295,1,0,0:0:0:0:
352,192,52402,1,0,0:0:0:0:
96,192,52509,1,0,0:0:0:0:
352,192,52616,1,0,0:0:0:0:
288,192,52724,1,0,0:0:0:0:
96,192,52831,1,0,0:0:0:0:
32,192,52938,1,6,0:0:0:0:
352,192,52938,1,0,0:0:0:0:
160,192,53045,1,0,0:0:0:0:
32,192,53152,1,4,0:0:0:0:
416,192,53152,1,0,0:0:0:0:
352,192,53259,1,0,0:0:0:0:
32,192,53366,1,4,0:0:0:0:
480,192,53366,1,2,0:0:0:0:
416,192,53474,1,2,0:0:0:0:
352,192,53581,1,0,0:0:0:0:
288,192,53688,1,2,0:0:0:0:
224,192,53795,1,0,0:0:0:0:
160,192,53902,1,2,0:0:0:0:
32,192,54009,1,0,0:0:0:0:
96,192,54009,1,2,0:0:0:0:
288,192,54116,1,2,0:0:0:0:
224,192,54224,1,2,0:0:0:0:
96,192,54438,1,2,0:0:0:0:
352,192,54652,1,2,0:0:0:0:
416,192,54866,1,2,0:0:0:0:
160,192,54974,1,2,0:0:0:0:
32,192,55081,1,4,0:0:0:0:
480,192,55081,1,0,0:0:0:0:
288,192,55188,1,0,0:0:0:0:
416,192,55295,1,0,0:0:0:0:
160,192,55402,1,0,0:0:0:0:
224,192,55509,1,0,0:0:0:0:
416,192,55616,1,0,0:0:0:0:
96,192,55724,1,0,0:0:0:0:
288,192,55831,1,0,0:0:0:0:
160,192,55938,1,0,0:0:0:0:
288,192,56045,1,0,0:0:0:0:
224,192,56152,1,0,0:0:0:0:
96,192,56259,1,0,0:0:0:0:
288,192,56366,1,0,0:0:0:0:
160,192,56474,1,0,0:0:0:0:
416,192,56581,1,0,0:0:0:0:
288,192,56688,1,0,0:0:0:0:
96,192,56795,1,0,0:0:0:0:
224,192,56902,1,0,0:0:0:0:
416,192,57009,1,0,0:0:0:0:
160,192,57116,1,0,0:0:0:0:
224,192,57224,1,0,0:0:0:0:
416,192,57331,1,0,0:0:0:0:
96,192,57438,1,0,0:0:0:0:
288,192,57545,1,0,0:0:0:0:
160,192,57652,1,0,0:0:0:0:
288,192,57759,1,0,0:0:0:0:
224,192,57866,1,0,0:0:0:0:
96,192,57974,1,0,0:0:0:0:
288,192,58081,1,0,0:0:0:0:
160,192,58188,1,0,0:0:0:0:
416,192,58295,1,0,0:0:0:0:
288,192,58402,1,0,0:0:0:0:
224,192,58509,1,0,0:0:0:0:
96,192,58616,1,0,0:0:0:0:
480,192,58724,1,0,0:0:0:0:
224,192,58831,1,0,0:0:0:0:
288,192,58938,1,0,0:0:0:0:
480,192,59045,1,0,0:0:0:0:
96,192,59152,1,0,0:0:0:0:
352,192,59259,1,0,0:0:0:0:
160,192,59366,1,0,0:0:0:0:
352,192,59474,1,0,0:0:0:0:
224,192,59581,1,0,0:0:0:0:
96,192,59688,1,0,0:0:0:0:
352,192,59795,1,0,0:0:0:0:
160,192,59902,1,0,0:0:0:0:
480,192,60009,1,0,0:0:0:0:
352,192,60116,1,0,0:0:0:0:
96,192,60224,1,0,0:0:0:0:
224,192,60331,1,0,0:0:0:0:
480,192,60438,1,0,0:0:0:0:
160,192,60545,1,0,0:0:0:0:
288,192,60652,1,0,0:0:0:0:
480,192,60759,1,0,0:0:0:0:
96,192,60866,1,0,0:0:0:0:
352,192,60974,1,0,0:0:0:0:
160,192,61081,1,0,0:0:0:0:
32,192,61188,1,4,0:0:0:0:
352,192,61188,1,0,0:0:0:0:
224,192,61295,1,0,0:0:0:0:
96,192,61402,1,0,0:0:0:0:
32,192,61509,1,4,0:0:0:0:
352,192,61509,1,0,0:0:0:0:
160,192,61616,1,0,0:0:0:0:
32,192,61724,1,4,0:0:0:0:
480,192,61724,1,0,0:0:0:0:
352,192,61831,1,0,0:0:0:0:
32,192,61938,1,4,0:0:0:0:
96,192,61938,1,0,0:0:0:0:
416,192,62045,1,0,0:0:0:0:
288,192,62152,1,0,0:0:0:0:
352,192,62259,1,0,0:0:0:0:
160,192,62366,1,0,0:0:0:0:
288,192,62474,1,0,0:0:0:0:
416,192,62581,1,0,0:0:0:0:
224,192,62688,1,0,0:0:0:0:
480,192,62795,1,0,0:0:0:0:
224,192,62902,1,0,0:0:0:0:
96,192,63009,1,0,0:0:0:0:
416,192,63116,1,0,0:0:0:0:
224,192,63224,1,0,0:0:0:0:
480,192,63331,1,0,0:0:0:0:
352,192,63438,1,0,0:0:0:0:
224,192,63545,1,0,0:0:0:0:
416,192,63652,1,0,0:0:0:0:
480,192,63759,1,0,0:0:0:0:
288,192,63866,1,0,0:0:0:0:
416,192,63974,1,0,0:0:0:0:
160,192,64081,1,0,0:0:0:0:
288,192,64188,1,0,0:0:0:0:
480,192,64295,1,0,0:0:0:0:
224,192,64402,1,0,0:0:0:0:
352,192,64509,1,0,0:0:0:0:
224,192,64616,1,0,0:0:0:0:
96,192,64724,1,0,0:0:0:0:
480,192,64724,1,0,0:0:0:0:
416,192,64831,1,0,0:0:0:0:
224,192,64938,1,0,0:0:0:0:
480,192,65045,1,0,0:0:0:0:
352,192,65152,1,0,0:0:0:0:
224,192,65259,1,0,0:0:0:0:
32,192,65366,1,4,0:0:0:0:
480,192,65366,1,2,0:0:0:0:
32,192,65581,1,4,0:0:0:0:
480,192,65581,1,2,0:0:0:0:
96,192,65795,1,0,0:0:0:0:
224,192,65902,1,0,0:0:0:0:
32,192,66009,1,4,0:0:0:0:
96,192,66009,1,2,0:0:0:0:
480,192,66009,1,0,0:0:0:0:
32,192,66224,1,4,0:0:0:0:
480,192,66224,1,2,0:0:0:0:
32,192,66438,1,4,0:0:0:0:
480,192,66438,1,2,0:0:0:0:
352,192,66652,1,2,0:0:0:0:
224,192,66759,1,0,0:0:0:0:
32,192,66866,1,4,0:0:0:0:
352,192,66866,1,2,0:0:0:0:
224,192,66974,1,0,0:0:0:0:
32,192,67081,1,4,0:0:0:0:
480,192,67081,1,2,0:0:0:0:
416,192,67188,1,2,0:0:0:0:
352,192,67295,1,2,0:0:0:0:
288,192,67402,1,2,0:0:0:0:
32,192,67509,1,8,0:0:0:0:
224,192,67509,1,2,0:0:0:0:
160,192,67616,1,2,0:0:0:0:
32,192,67724,1,0,0:0:0:0:
96,192,67724,1,2,0:0:0:0:
224,192,67831,1,2,0:0:0:0:
96,192,67938,1,2,0:0:0:0:
32,192,68045,1,0,0:0:0:0:
224,192,68045,1,2,0:0:0:0:
160,192,68152,1,2,0:0:0:0:
288,192,68259,1,2,0:0:0:0:
32,192,68366,1,0,0:0:0:0:
224,192,68366,1,2,0:0:0:0:
352,192,68474,1,2,0:0:0:0:
32,192,68581,1,0,0:0:0:0:
288,192,68581,1,2,0:0:0:0:
416,192,68688,1,2,0:0:0:0:
32,192,68795,1,4,0:0:0:0:
96,192,68795,1,2,0:0:0:0:
288,192,68795,1,0,0:0:0:0:
480,192,68795,1,0,0:0:0:0:
224,192,69009,1,0,0:0:0:0:
352,192,69009,1,0,0:0:0:0:
224,192,69224,1,0,0:0:0:0:
352,192,69224,1,0,0:0:0:0:
160,192,69331,1,0,0:0:0:0:
288,192,69331,1,0,0:0:0:0:
224,192,69545,1,0,0:0:0:0:
352,192,69545,1,0,0:0:0:0:
288,192,69759,1,0,0:0:0:0:
96,192,69866,1,0,0:0:0:0:
352,192,69974,1,0,0:0:0:0:
224,192,70081,1,0,0:0:0:0:
480,192,70107,1,0,0:0:0:0:
416,192,70188,1,0,0:0:0:0:
352,192,70295,1,0,0:0:0:0:
288,192,70402,1,0,0:0:0:0:
224,192,70509,1,0,0:0:0:0:
352,192,70616,1,0,0:0:0:0:
288,192,70724,1,0,0:0:0:0:
224,192,70831,1,0,0:0:0:0:
160,192,70938,1,0,0:0:0:0:
224,192,71045,1,0,0:0:0:0:
160,192,71152,1,0,0:0:0:0:
224,192,71259,1,0,0:0:0:0:
160,192,71474,1,0,0:0:0:0:
288,192,71474,1,0,0:0:0:0:
224,192,71688,1,0,0:0:0:0:
352,192,71688,1,0,0:0:0:0:
288,192,71902,1,0,0:0:0:0:
352,192,72009,1,0,0:0:0:0:
480,192,72036,1,0,0:0:0:0:
416,192,72116,1,0,0:0:0:0:
352,192,72224,1,0,0:0:0:0:
288,192,72331,1,0,0:0:0:0:
224,192,72438,1,0,0:0:0:0:
160,192,72545,1,0,0:0:0:0:
224,192,72759,1,0,0:0:0:0:
352,192,72759,1,0,0:0:0:0:
160,192,72974,1,0,0:0:0:0:
352,192,73081,1,0,0:0:0:0:
480,192,73081,1,0,0:0:0:0:
288,192,73188,1,0,0:0:0:0:
96,192,73295,1,0,0:0:0:0:
160,192,73375,1,0,0:0:0:0:
224,192,73429,1,0,0:0:0:0:
352,192,73509,1,0,0:0:0:0:
288,192,73616,1,0,0:0:0:0:
224,192,73724,1,0,0:0:0:0:
96,192,73938,1,0,0:0:0:0:
160,192,74045,1,0,0:0:0:0:
224,192,74152,1,0,0:0:0:0:
288,192,74366,1,0,0:0:0:0:
416,192,74474,1,0,0:0:0:0:
352,192,74581,1,0,0:0:0:0:
480,192,74688,1,0,0:0:0:0:
32,192,74902,1,4,0:0:0:0:
416,192,74902,1,0,0:0:0:0:
288,192,75009,1,0,0:0:0:0:
352,192,75116,1,0,0:0:0:0:
32,192,75224,1,6,0:0:0:0:
224,192,75224,1,0,0:0:0:0:
288,192,75331,1,0,0:0:0:0:
32,192,75438,1,4,0:0:0:0:
160,192,75438,1,0,0:0:0:0:
288,192,75545,1,0,0:0:0:0:
32,192,75652,1,4,0:0:0:0:
96,192,75652,1,2,0:0:0:0:
224,192,75759,1,0,0:0:0:0:
160,192,75866,1,0,0:0:0:0:
224,192,75974,1,0,0:0:0:0:
288,192,76081,1,0,0:0:0:0:
160,192,76188,1,0,0:0:0:0:
224,192,76402,1,0,0:0:0:0:
352,192,76402,1,0,0:0:0:0:
288,192,76616,1,0,0:0:0:0:
416,192,76616,1,0,0:0:0:0:
160,192,76831,1,0,0:0:0:0:
288,192,76831,1,0,0:0:0:0:
480,192,77045,1,0,0:0:0:0:
352,192,77152,1,0,0:0:0:0:
480,192,77259,1,0,0:0:0:0:
288,192,77447,1,0,0:0:0:0:
480,192,77474,1,0,0:0:0:0:
416,192,77581,1,0,0:0:0:0:
352,192,77688,1,0,0:0:0:0:
288,192,77795,1,0,0:0:0:0:
224,192,77902,1,0,0:0:0:0:
160,192,78009,1,0,0:0:0:0:
352,192,78116,1,0,0:0:0:0:
160,192,78331,1,0,0:0:0:0:
288,192,78331,1,0,0:0:0:0:
288,192,78545,1,0,0:0:0:0:
416,192,78545,1,0,0:0:0:0:
96,192,78759,1,0,0:0:0:0:
224,192,78759,1,0,0:0:0:0:
352,192,78866,1,0,0:0:0:0:
416,192,78974,1,0,0:0:0:0:
32,192,79081,1,4,0:0:0:0:
160,192,79081,1,0,0:0:0:0:
352,192,79188,1,0,0:0:0:0:
224,192,79295,1,0,0:0:0:0:
352,192,79402,1,0,0:0:0:0:
288,192,79509,1,0,0:0:0:0:
224,192,79616,1,0,0:0:0:0:
160,192,79724,1,0,0:0:0:0:
96,192,79831,1,0,0:0:0:0:
480,192,79938,1,0,0:0:0:0:
160,192,80045,1,0,0:0:0:0:
288,192,80152,1,0,0:0:0:0:
416,192,80259,1,0,0:0:0:0:
352,192,80366,1,0,0:0:0:0:
224,192,80474,1,0,0:0:0:0:
352,192,80581,1,0,0:0:0:0:
416,192,80688,1,0,0:0:0:0:
480,192,80795,1,0,0:0:0:0:
416,192,80866,1,0,0:0:0:0:
352,192,80938,1,0,0:0:0:0:
288,192,81009,1,0,0:0:0:0:
224,192,81081,1,0,0:0:0:0:
160,192,81152,1,0,0:0:0:0:
480,192,81224,1,0,0:0:0:0:
416,192,81295,1,0,0:0:0:0:
352,192,81366,1,0,0:0:0:0:
288,192,81438,1,0,0:0:0:0:
224,192,81509,1,0,0:0:0:0:
160,192,81581,1,0,0:0:0:0:
32,192,81652,1,4,0:0:0:0:
96,192,81652,1,2,0:0:0:0:
288,192,81652,1,0,0:0:0:0:
160,192,81866,1,0,0:0:0:0:
32,192,81974,1,4,0:0:0:0:
224,192,81974,1,2,0:0:0:0:
352,192,81974,1,0,0:0:0:0:
288,192,82188,1,0,0:0:0:0:
32,192,82295,1,4,0:0:0:0:
352,192,82295,1,2,0:0:0:0:
480,192,82295,1,0,0:0:0:0:
32,192,82509,1,4,0:0:0:0:
96,192,82509,1,2,0:0:0:0:
224,192,82509,1,0,0:0:0:0:
288,192,82724,1,0,0:0:0:0:
416,192,82724,1,0,0:0:0:0:
224,192,82938,1,0,0:0:0:0:
288,192,83045,1,0,0:0:0:0:
416,192,83045,1,0,0:0:0:0:
352,192,83259,1,0,0:0:0:0:
480,192,83286,1,0,0:0:0:0:
288,192,83581,1,0,0:0:0:0:
416,192,83581,1,0,0:0:0:0:
224,192,83795,1,0,0:0:0:0:
352,192,83902,1,0,0:0:0:0:
288,192,84116,1,0,0:0:0:0:
416,192,84116,1,0,0:0:0:0:
352,192,84438,1,0,0:0:0:0:
160,192,84545,1,0,0:0:0:0:
96,192,84759,1,0,0:0:0:0:
224,192,84759,1,0,0:0:0:0:
160,192,85081,1,0,0:0:0:0:
288,192,85081,1,0,0:0:0:0:
224,192,85295,1,0,0:0:0:0:
416,192,85402,1,0,0:0:0:0:
160,192,85616,1,0,0:0:0:0:
288,192,85616,1,0,0:0:0:0:
32,192,85938,1,4,0:0:0:0:
96,192,85938,1,0,0:0:0:0:
352,192,85938,1,0,0:0:0:0:
480,192,86152,1,0,0:0:0:0:
288,192,86366,1,0,0:0:0:0:
352,192,86474,1,0,0:0:0:0:
416,192,86581,1,0,0:0:0:0:
288,192,86688,1,0,0:0:0:0:
224,192,86795,1,0,0:0:0:0:
288,192,86902,1,0,0:0:0:0:
352,192,87009,1,0,0:0:0:0:
224,192,87116,1,0,0:0:0:0:
160,192,87224,1,0,0:0:0:0:
288,192,87438,1,0,0:0:0:0:
160,192,87545,1,0,0:0:0:0:
96,192,87652,1,0,0:0:0:0:
224,192,87759,1,0,0:0:0:0:
352,192,87866,1,0,0:0:0:0:
160,192,87974,1,0,0:0:0:0:
288,192,88081,1,0,0:0:0:0:
416,192,88188,1,0,0:0:0:0:
352,192,88295,1,0,0:0:0:0:
224,192,88402,1,0,0:0:0:0:
480,192,88509,1,0,0:0:0:0:
416,192,88581,1,0,0:0:0:0:
352,192,88652,1,0,0:0:0:0:
288,192,88724,1,0,0:0:0:0:
224,192,88795,1,0,0:0:0:0:
160,192,88866,1,0,0:0:0:0:
288,192,88938,1,0,0:0:0:0:
224,192,89045,1,0,0:0:0:0:
96,192,89152,1,0,0:0:0:0:
160,192,89259,1,0,0:0:0:0:
32,192,89366,1,6,0:0:0:0:
288,192,89581,1,0,0:0:0:0:
416,192,89581,1,0,0:0:0:0:
224,192,89795,1,0,0:0:0:0:
288,192,89902,1,0,0:0:0:0:
416,192,89902,1,0,0:0:0:0:
352,192,90116,1,0,0:0:0:0:
480,192,90143,1,0,0:0:0:0:
288,192,90438,1,0,0:0:0:0:
416,192,90438,1,0,0:0:0:0:
224,192,90652,1,0,0:0:0:0:
416,192,90759,1,0,0:0:0:0:
352,192,90974,1,0,0:0:0:0:
480,192,90974,1,0,0:0:0:0:
288,192,91188,1,0,0:0:0:0:
416,192,91188,1,0,0:0:0:0:
96,192,91509,1,0,0:0:0:0:
224,192,91616,1,0,0:0:0:0:
160,192,91724,1,0,0:0:0:0:
288,192,91831,1,0,0:0:0:0:
480,192,92045,1,0,0:0:0:0:
416,192,92152,1,0,0:0:0:0:
352,192,92259,1,0,0:0:0:0:
288,192,92366,1,0,0:0:0:0:
224,192,92474,1,0,0:0:0:0:
160,192,92581,1,0,0:0:0:0:
96,192,92688,1,0,0:0:0:0:
32,192,92795,1,6,0:0:0:0:
288,192,92902,1,0,0:0:0:0:
416,192,92902,1,0,0:0:0:0:
96,192,93009,1,0,0:0:0:0:
224,192,93009,1,0,0:0:0:0:
288,192,93116,1,0,0:0:0:0:
416,192,93116,1,0,0:0:0:0:
160,192,93331,1,0,0:0:0:0:
288,192,93331,1,0,0:0:0:0:
224,192,93545,1,0,0:0:0:0:
352,192,93545,1,0,0:0:0:0:
224,192,93866,1,0,0:0:0:0:
352,192,93866,1,0,0:0:0:0:
288,192,94188,1,0,0:0:0:0:
416,192,94188,1,0,0:0:0:0:
352,192,94402,1,0,0:0:0:0:
480,192,94402,1,0,0:0:0:0:
32,192,94509,1,6,0:0:0:0:
32,192,94724,1,6,0:0:0:0:
352,192,94938,1,0,0:0:0:0:
224,192,95045,1,2,0:0:0:0:
224,192,95259,1,2,0:0:0:0:
416,192,95366,1,2,0:0:0:0:
160,192,95474,1,2,0:0:0:0:
416,192,95581,1,2,0:0:0:0:
160,192,95688,1,2,0:0:0:0:
480,192,95795,1,2,0:0:0:0:
96,192,95902,1,2,0:0:0:0:
480,192,96009,1,2,0:0:0:0:
96,192,96116,1,2,0:0:0:0:
32,192,96224,1,6,0:0:0:0:
224,192,96438,1,0,0:0:0:0:
352,192,96438,1,0,0:0:0:0:
160,192,96652,1,0,0:0:0:0:
224,192,96759,1,0,0:0:0:0:
352,192,96759,1,0,0:0:0:0:
288,192,96974,1,0,0:0:0:0:
416,192,97000,1,0,0:0:0:0:
224,192,97295,1,0,0:0:0:0:
352,192,97295,1,0,0:0:0:0:
160,192,97509,1,0,0:0:0:0:
288,192,97616,1,0,0:0:0:0:
160,192,97831,1,0,0:0:0:0:
288,192,97831,1,0,0:0:0:0:
352,192,98152,1,0,0:0:0:0:
160,192,98259,1,0,0:0:0:0:
96,192,98474,1,0,0:0:0:0:
224,192,98474,1,0,0:0:0:0:
160,192,98795,1,0,0:0:0:0:
288,192,98795,1,0,0:0:0:0:
224,192,99009,1,0,0:0:0:0:
480,192,99116,1,0,0:0:0:0:
224,192,99331,1,0,0:0:0:0:
352,192,99331,1,0,0:0:0:0:
32,192,99652,1,4,0:0:0:0:
416,192,99652,1,2,0:0:0:0:
32,192,99866,1,4,0:0:0:0:
416,192,99866,1,2,0:0:0:0:
288,192,100081,1,2,0:0:0:0:
32,192,100188,1,4,0:0:0:0:
416,192,100188,1,2,0:0:0:0:
224,192,100402,1,2,0:0:0:0:
32,192,100509,1,4,0:0:0:0:
352,192,100509,1,2,0:0:0:0:
32,192,100831,1,4,0:0:0:0:
352,192,100831,1,2,0:0:0:0:
32,192,101045,1,4,0:0:0:0:
352,192,101045,1,2,0:0:0:0:
32,192,101366,1,2,0:0:0:0:
288,192,101366,1,4,0:0:0:0:
32,192,101581,1,2,0:0:0:0:
288,192,101581,1,4,0:0:0:0:
32,192,101795,1,2,0:0:0:0:
288,192,101795,1,4,0:0:0:0:
160,192,102009,1,2,0:0:0:0:
416,192,102116,1,2,0:0:0:0:
32,192,102224,1,2,0:0:0:0:
224,192,102224,1,4,0:0:0:0:
32,192,102545,1,2,0:0:0:0:
224,192,102545,1,4,0:0:0:0:
32,192,102866,1,2,0:0:0:0:
224,192,102866,1,4,0:0:0:0:
32,192,103081,1,4,0:0:0:0:
96,192,103081,1,2,0:0:0:0:
288,192,103081,1,0,0:0:0:0:
416,192,103107,1,0,0:0:0:0:
352,192,103724,1,0,0:0:0:0:
480,192,103759,1,0,0:0:0:0:
352,192,104366,1,0,0:0:0:0:
480,192,104393,1,0,0:0:0:0:
96,192,104581,1,2,0:0:0:0:
32,192,104795,1,4,0:0:0:0:
96,192,104795,1,2,0:0:0:0:
416,192,104795,1,0,0:0:0:0:
96,192,105009,1,2,0:0:0:0:
224,192,105116,1,0,0:0:0:0:
352,192,105143,1,0,0:0:0:0:
96,192,105224,1,2,0:0:0:0:
96,192,105438,1,2,0:0:0:0:
160,192,105438,1,0,0:0:0:0:
288,192,105465,1,0,0:0:0:0:
96,192,105652,1,2,0:0:0:0:
96,192,105866,1,2,0:0:0:0:
160,192,105866,1,0,0:0:0:0:
480,192,105974,1,0,0:0:0:0:
96,192,106081,1,2,0:0:0:0:
416,192,106081,1,0,0:0:0:0:
352,192,106188,1,0,0:0:0:0:
96,192,106295,1,2,0:0:0:0:
288,192,106295,1,0,0:0:0:0:
224,192,106402,1,0,0:0:0:0:
32,192,106509,1,4,0:0:0:0:
96,192,106509,1,2,0:0:0:0:
160,192,106509,128,0,107366:0:0:0:0:
288,192,107366,1,8,0:0:0:0:
96,192,107474,1,0,0:0:0:0:
288,192,107581,1,0,0:0:0:0:
96,192,107688,1,0,0:0:0:0:
288,192,107795,1,0,0:0:0:0:
96,192,107902,1,0,0:0:0:0:
288,192,108009,1,0,0:0:0:0:
96,192,108116,1,0,0:0:0:0:
224,192,108224,1,2,0:0:0:0:
416,192,108224,128,0,109081:0:0:0:0:
224,192,108545,1,2,0:0:0:0:
224,192,108866,1,2,0:0:0:0:
288,192,109081,1,8,0:0:0:0:
480,192,109188,1,0,0:0:0:0:
288,192,109295,1,0,0:0:0:0:
480,192,109402,1,0,0:0:0:0:
288,192,109509,1,0,0:0:0:0:
480,192,109616,1,0,0:0:0:0:
288,192,109724,1,0,0:0:0:0:
480,192,109831,1,0,0:0:0:0:
160,192,109938,128,2,110366:0:0:0:0:
352,192,110366,1,2,0:0:0:0:
224,192,110500,1,0,0:0:0:0:
352,192,110634,1,0,0:0:0:0:
288,192,110795,1,8,0:0:0:0:
224,192,110902,1,0,0:0:0:0:
160,192,111009,1,0,0:0:0:0:
352,192,111224,1,0,0:0:0:0:
416,192,111438,1,0,0:0:0:0:
288,192,111545,1,0,0:0:0:0:
96,192,111652,1,2,0:0:0:0:
160,192,111759,1,2,0:0:0:0:
32,192,111866,1,4,0:0:0:0:
224,192,111866,1,8,0:0:0:0:
480,192,111866,1,2,0:0:0:0:
96,192,112081,1,2,0:0:0:0:
352,192,112081,1,0,0:0:0:0:
160,192,112188,1,2,0:0:0:0:
416,192,112188,1,0,0:0:0:0:
32,192,112295,1,4,0:0:0:0:
224,192,112295,1,8,0:0:0:0:
480,192,112295,1,2,0:0:0:0:
288,192,112509,128,2,112938:0:0:0:0:
32,192,112938,1,8,0:0:0:0:
96,192,112938,1,4,0:0:0:0:
480,192,112938,1,2,0:0:0:0:
160,192,113152,1,0,0:0:0:0:
416,192,113259,1,0,0:0:0:0:
288,192,113366,128,2,114224:0:0:0:0:
352,192,114224,1,8,0:0:0:0:
224,192,114357,1,0,0:0:0:0:
352,192,114491,1,0,0:0:0:0:
224,192,114625,1,0,0:0:0:0:
352,192,114759,1,0,0:0:0:0:
224,192,114893,1,0,0:0:0:0:
352,192,115027,1,0,0:0:0:0:
416,192,115081,1,0,0:0:0:0:
288,192,115188,1,0,0:0:0:0:
416,192,115295,1,0,0:0:0:0:
288,192,115402,1,0,0:0:0:0:
160,192,115509,1,2,0:0:0:0:
288,192,115616,1,0,0:0:0:0:
160,192,115724,1,0,0:0:0:0:
288,192,115831,1,0,0:0:0:0:
352,192,115938,128,8,116366:0:0:0:0:
416,192,116366,1,0,0:0:0:0:
160,192,116581,1,0,0:0:0:0:
480,192,116688,1,0,0:0:0:0:
32,192,116795,1,2,0:0:0:0:
96,192,116795,128,0,117652:0:0:0:0:
352,192,116795,1,0,0:0:0:0:
352,192,117116,1,2,0:0:0:0:
352,192,117438,1,2,0:0:0:0:
288,192,117652,1,8,0:0:0:0:
160,192,117786,1,0,0:0:0:0:
288,192,117920,1,0,0:0:0:0:
352,192,118081,1,0,0:0:0:0:
224,192,118188,1,0,0:0:0:0:
352,192,118295,1,0,0:0:0:0:
224,192,118402,1,0,0:0:0:0:
288,192,118509,1,2,0:0:0:0:
32,192,118724,1,4,0:0:0:0:
96,192,118724,1,8,0:0:0:0:
480,192,118724,1,2,0:0:0:0:
224,192,118938,1,2,0:0:0:0:
352,192,118938,1,0,0:0:0:0:
160,192,119045,1,2,0:0:0:0:
416,192,119045,1,0,0:0:0:0:
32,192,119152,1,4,0:0:0:0:
96,192,119152,1,8,0:0:0:0:
480,192,119152,1,2,0:0:0:0:
160,192,119366,1,0,0:0:0:0:
416,192,119366,1,0,0:0:0:0:
224,192,119474,1,0,0:0:0:0:
352,192,119474,1,0,0:0:0:0:
160,192,119581,1,2,0:0:0:0:
416,192,119581,1,0,0:0:0:0:
224,192,119688,1,0,0:0:0:0:
352,192,119688,1,0,0:0:0:0:
160,192,119795,1,2,0:0:0:0:
416,192,119795,1,0,0:0:0:0:
96,192,120009,1,2,0:0:0:0:
480,192,120009,1,0,0:0:0:0:
32,192,120224,1,4,0:0:0:0:
224,192,120224,1,0,0:0:0:0:
96,192,120652,1,0,0:0:0:0:
352,192,120866,1,0,0:0:0:0:
288,192,121081,1,0,0:0:0:0:
480,192,121509,1,0,0:0:0:0:
352,192,121724,1,0,0:0:0:0:
160,192,121938,1,0,0:0:0:0:
288,192,122366,1,0,0:0:0:0:
480,192,122795,1,0,0:0:0:0:
96,192,123224,1,0,0:0:0:0:
32,192,123438,1,0,0:0:0:0:
352,192,123652,1,0,0:0:0:0:
160,192,124081,1,0,0:0:0:0:
160,192,124295,1,0,0:0:0:0:
224,192,124509,1,0,0:0:0:0:
480,192,124938,1,0,0:0:0:0:
288,192,125366,1,0,0:0:0:0:
352,192,125795,1,0,0:0:0:0:
416,192,126224,1,0,0:0:0:0:
96,192,126652,1,0,0:0:0:0:
352,192,127081,1,0,0:0:0:0:
32,192,127509,1,0,0:0:0:0:
224,192,127509,1,0,0:0:0:0:
416,192,127724,1,0,0:0:0:0:
288,192,127938,1,0,0:0:0:0:
480,192,128366,1,0,0:0:0:0:
352,192,128581,1,0,0:0:0:0:
96,192,128795,1,0,0:0:0:0:
288,192,129116,1,0,0:0:0:0:
160,192,129224,1,0,0:0:0:0:
416,192,129652,1,0,0:0:0:0:
96,192,130081,1,0,0:0:0:0:
480,192,130509,1,0,0:0:0:0:
160,192,130938,1,0,0:0:0:0:
352,192,131366,1,0,0:0:0:0:
32,192,131581,1,0,0:0:0:0:
480,192,131795,1,0,0:0:0:0:
224,192,132224,1,0,0:0:0:0:
288,192,132652,1,0,0:0:0:0:
352,192,133081,1,0,0:0:0:0:
416,192,133509,1,0,0:0:0:0:
32,192,133938,1,2,0:0:0:0:
96,192,133938,1,0,0:0:0:0:
480,192,133938,1,0,0:0:0:0:
160,192,134366,1,0,0:0:0:0:
288,192,134795,1,0,0:0:0:0:
480,192,135224,1,0,0:0:0:0:
224,192,135652,1,0,0:0:0:0:
352,192,135652,1,0,0:0:0:0:
288,192,136081,1,0,0:0:0:0:
416,192,136509,1,0,0:0:0:0:
96,192,136938,1,0,0:0:0:0:
160,192,137366,1,0,0:0:0:0:
480,192,137366,1,0,0:0:0:0:
224,192,137795,1,0,0:0:0:0:
352,192,138224,1,0,0:0:0:0:
480,192,138652,1,0,0:0:0:0:
96,192,139081,1,0,0:0:0:0:
224,192,139081,1,0,0:0:0:0:
288,192,139509,1,0,0:0:0:0:
416,192,139938,1,0,0:0:0:0:
160,192,140366,1,0,0:0:0:0:
96,192,140795,1,0,0:0:0:0:
352,192,140795,1,0,0:0:0:0:
224,192,141224,1,0,0:0:0:0:
288,192,141652,1,0,0:0:0:0:
480,192,142081,1,0,0:0:0:0:
160,192,142295,1,0,0:0:0:0:
96,192,142509,1,0,0:0:0:0:
224,192,142509,1,0,0:0:0:0:
288,192,142938,1,0,0:0:0:0:
416,192,143366,1,0,0:0:0:0:
160,192,143795,1,0,0:0:0:0:
96,192,144224,1,0,0:0:0:0:
480,192,144224,1,0,0:0:0:0:
160,192,144652,1,0,0:0:0:0:
288,192,145081,1,0,0:0:0:0:
480,192,145509,1,0,0:0:0:0:
96,192,145938,1,0,0:0:0:0:
224,192,145938,1,0,0:0:0:0:
352,192,146366,1,0,0:0:0:0:
416,192,146795,1,0,0:0:0:0:
160,192,147224,1,0,0:0:0:0:
96,192,147652,1,0,0:0:0:0:
224,192,147795,1,0,0:0:0:0:
416,192,147866,1,0,0:0:0:0:
352,192,148081,1,0,0:0:0:0:
224,192,148188,1,0,0:0:0:0:
160,192,148295,1,0,0:0:0:0:
224,192,148402,1,0,0:0:0:0:
352,192,148509,1,0,0:0:0:0:
288,192,148652,1,0,0:0:0:0:
480,192,148724,1,0,0:0:0:0:
160,192,148938,1,0,0:0:0:0:
416,192,149152,1,0,0:0:0:0:
288,192,149295,1,0,0:0:0:0:
96,192,149366,1,0,0:0:0:0:
288,192,149509,1,0,0:0:0:0:
352,192,149581,1,0,0:0:0:0:
288,192,149795,128,0,149902:0:0:0:0:
96,192,150009,128,0,150224:0:0:0:0:
352,192,150224,1,0,0:0:0:0:
224,192,150366,1,0,0:0:0:0:
416,192,150438,1,0,0:0:0:0:
96,192,150652,128,0,150866:0:0:0:0:
352,192,150866,1,0,0:0:0:0:
288,192,151009,1,0,0:0:0:0:
224,192,151081,1,0,0:0:0:0:
96,192,151188,1,0,0:0:0:0:
224,192,151295,1,0,0:0:0:0:
96,192,151402,1,0,0:0:0:0:
288,192,151509,1,0,0:0:0:0:
160,192,151616,1,0,0:0:0:0:
288,192,151724,1,0,0:0:0:0:
224,192,151866,1,0,0:0:0:0:
352,192,151938,1,0,0:0:0:0:
288,192,152081,1,0,0:0:0:0:
480,192,152152,1,0,0:0:0:0:
416,192,152206,1,0,0:0:0:0:
352,192,152259,1,0,0:0:0:0:
224,192,152366,1,0,0:0:0:0:
480,192,152581,1,0,0:0:0:0:
352,192,152724,1,0,0:0:0:0:
224,192,152795,1,0,0:0:0:0:
352,192,152938,1,0,0:0:0:0:
416,192,153009,1,0,0:0:0:0:
160,192,153224,128,0,153331:0:0:0:0:
224,192,153438,128,0,153652:0:0:0:0:
480,192,153652,1,0,0:0:0:0:
288,192,153795,1,0,0:0:0:0:
480,192,153866,1,0,0:0:0:0:
224,192,154081,128,0,154295:0:0:0:0:
480,192,154295,1,0,0:0:0:0:
352,192,154438,1,0,0:0:0:0:
224,192,154509,1,0,0:0:0:0:
352,192,154652,1,0,0:0:0:0:
416,192,154724,1,0,0:0:0:0:
96,192,154938,1,0,0:0:0:0:
160,192,155045,1,0,0:0:0:0:
288,192,155152,1,0,0:0:0:0:
352,192,155259,1,0,0:0:0:0:
480,192,155366,1,0,0:0:0:0:
352,192,155509,1,0,0:0:0:0:
224,192,155581,1,0,0:0:0:0:
160,192,155795,1,0,0:0:0:0:
288,192,156009,1,0,0:0:0:0:
224,192,156152,1,0,0:0:0:0:
96,192,156224,1,0,0:0:0:0:
224,192,156366,1,0,0:0:0:0:
416,192,156438,1,0,0:0:0:0:
352,192,156652,128,0,156759:0:0:0:0:
96,192,156866,128,0,157081:0:0:0:0:
480,192,157081,1,0,0:0:0:0:
352,192,157224,1,0,0:0:0:0:
416,192,157295,1,0,0:0:0:0:
96,192,157509,128,0,157724:0:0:0:0:
480,192,157724,1,0,0:0:0:0:
416,192,157866,1,0,0:0:0:0:
96,192,157938,1,2,0:0:0:0:
352,192,158152,1,0,0:0:0:0:
96,192,158366,1,2,0:0:0:0:
288,192,158366,1,0,0:0:0:0:
352,192,158474,1,0,0:0:0:0:
288,192,158688,1,0,0:0:0:0:
96,192,158795,1,2,0:0:0:0:
288,192,158902,1,0,0:0:0:0:
224,192,159009,1,0,0:0:0:0:
96,192,159224,1,2,0:0:0:0:
288,192,159224,1,0,0:0:0:0:
352,192,159438,1,0,0:0:0:0:
288,192,159545,1,0,0:0:0:0:
160,192,159652,1,2,0:0:0:0:
416,192,159866,1,0,0:0:0:0:
160,192,160081,1,2,0:0:0:0:
352,192,160081,1,0,0:0:0:0:
416,192,160188,1,0,0:0:0:0:
352,192,160402,1,0,0:0:0:0:
160,192,160509,1,2,0:0:0:0:
352,192,160616,1,0,0:0:0:0:
288,192,160724,1,0,0:0:0:0:
160,192,160938,1,2,0:0:0:0:
352,192,160938,1,0,0:0:0:0:
416,192,161152,1,0,0:0:0:0:
352,192,161259,1,0,0:0:0:0:
224,192,161366,1,2,0:0:0:0:
480,192,161581,1,0,0:0:0:0:
224,192,161795,1,2,0:0:0:0:
416,192,161795,1,0,0:0:0:0:
480,192,161902,1,0,0:0:0:0:
416,192,162116,1,0,0:0:0:0:
224,192,162224,1,2,0:0:0:0:
416,192,162331,1,0,0:0:0:0:
352,192,162438,1,0,0:0:0:0:
224,192,162652,1,2,0:0:0:0:
416,192,162652,1,0,0:0:0:0:
480,192,162866,1,0,0:0:0:0:
416,192,162974,1,0,0:0:0:0:
288,192,163081,1,2,0:0:0:0:
224,192,163295,1,0,0:0:0:0:
160,192,163509,1,2,0:0:0:0:
288,192,163509,1,0,0:0:0:0:
224,192,163616,1,0,0:0:0:0:
160,192,163831,1,0,0:0:0:0:
288,192,163938,1,2,0:0:0:0:
160,192,164045,1,0,0:0:0:0:
96,192,164152,1,0,0:0:0:0:
160,192,164366,1,2,0:0:0:0:
288,192,164366,1,0,0:0:0:0:
224,192,164581,1,0,0:0:0:0:
160,192,164688,1,0,0:0:0:0:
352,192,164795,1,2,0:0:0:0:
288,192,165009,1,0,0:0:0:0:
224,192,165224,1,2,0:0:0:0:
352,192,165224,1,0,0:0:0:0:
288,192,165331,1,0,0:0:0:0:
224,192,165545,1,0,0:0:0:0:
352,192,165652,1,2,0:0:0:0:
224,192,165759,1,0,0:0:0:0:
160,192,165866,1,0,0:0:0:0:
224,192,166081,1,2,0:0:0:0:
352,192,166081,1,0,0:0:0:0:
288,192,166295,1,0,0:0:0:0:
224,192,166402,1,0,0:0:0:0:
416,192,166509,1,2,0:0:0:0:
352,192,166724,1,0,0:0:0:0:
288,192,166938,1,2,0:0:0:0:
416,192,166938,1,0,0:0:0:0:
352,192,167045,1,0,0:0:0:0:
288,192,167259,1,0,0:0:0:0:
416,192,167366,1,2,0:0:0:0:
288,192,167474,1,0,0:0:0:0:
224,192,167581,1,0,0:0:0:0:
288,192,167795,1,2,0:0:0:0:
416,192,167795,1,0,0:0:0:0:
352,192,168009,1,0,0:0:0:0:
288,192,168116,1,0,0:0:0:0:
480,192,168224,1,2,0:0:0:0:
288,192,168438,1,0,0:0:0:0:
480,192,168438,1,2,0:0:0:0:
160,192,168652,1,0,0:0:0:0:
480,192,168652,1,2,0:0:0:0:
288,192,168759,1,0,0:0:0:0:
480,192,168866,1,2,0:0:0:0:
224,192,168974,1,0,0:0:0:0:
480,192,169081,1,2,0:0:0:0:
224,192,169188,1,0,0:0:0:0:
160,192,169295,1,0,0:0:0:0:
480,192,169295,1,2,0:0:0:0:
224,192,169509,1,0,0:0:0:0:
480,192,169509,1,2,0:0:0:0:
288,192,169724,1,0,0:0:0:0:
480,192,169724,1,2,0:0:0:0:
224,192,169831,1,0,0:0:0:0:
480,192,169938,1,2,0:0:0:0:
352,192,170045,1,2,0:0:0:0:
480,192,170152,1,2,0:0:0:0:
352,192,170259,1,2,0:0:0:0:
416,192,170366,1,2,0:0:0:0:
288,192,170474,1,2,0:0:0:0:
416,192,170581,1,2,0:0:0:0:
288,192,170688,1,2,0:0:0:0:
352,192,170795,1,2,0:0:0:0:
224,192,170902,1,2,0:0:0:0:
352,192,171009,1,2,0:0:0:0:
224,192,171116,1,2,0:0:0:0:
288,192,171224,1,2,0:0:0:0:
160,192,171331,1,2,0:0:0:0:
288,192,171438,1,2,0:0:0:0:
160,192,171545,1,2,0:0:0:0:
32,192,171652,1,4,0:0:0:0:
96,192,171652,1,2,0:0:0:0:
224,192,171652,1,0,0:0:0:0:
480,192,171652,1,0,0:0:0:0:
288,192,171866,1,0,0:0:0:0:
416,192,171866,1,0,0:0:0:0:
96,192,172081,1,2,0:0:0:0:
288,192,172081,1,8,0:0:0:0:
416,192,172081,1,0,0:0:0:0:
224,192,172188,1,0,0:0:0:0:
288,192,172402,1,0,0:0:0:0:
416,192,172402,1,0,0:0:0:0:
96,192,172509,1,2,0:0:0:0:
224,192,172616,1,0,0:0:0:0:
160,192,172724,1,0,0:0:0:0:
288,192,172831,1,0,0:0:0:0:
96,192,172938,1,8,0:0:0:0:
224,192,172938,1,2,0:0:0:0:
480,192,172965,1,0,0:0:0:0:
416,192,173045,1,0,0:0:0:0:
352,192,173152,1,0,0:0:0:0:
288,192,173259,1,0,0:0:0:0:
96,192,173366,1,2,0:0:0:0:
352,192,173474,1,0,0:0:0:0:
288,192,173581,1,0,0:0:0:0:
224,192,173688,1,0,0:0:0:0:
96,192,173795,1,2,0:0:0:0:
160,192,173795,1,8,0:0:0:0:
224,192,173902,1,0,0:0:0:0:
160,192,174009,1,0,0:0:0:0:
224,192,174116,1,0,0:0:0:0:
96,192,174224,1,2,0:0:0:0:
160,192,174331,1,0,0:0:0:0:
288,192,174331,1,0,0:0:0:0:
224,192,174545,1,0,0:0:0:0:
352,192,174545,1,0,0:0:0:0:
96,192,174652,1,10,0:0:0:0:
288,192,174759,1,0,0:0:0:0:
416,192,174759,1,0,0:0:0:0:
352,192,174866,1,0,0:0:0:0:
480,192,174893,1,0,0:0:0:0:
416,192,174974,1,0,0:0:0:0:
96,192,175081,1,2,0:0:0:0:
352,192,175081,1,0,0:0:0:0:
288,192,175188,1,0,0:0:0:0:
224,192,175295,1,0,0:0:0:0:
160,192,175402,1,0,0:0:0:0:
288,192,175402,1,0,0:0:0:0:
96,192,175509,1,10,0:0:0:0:
224,192,175616,1,0,0:0:0:0:
352,192,175616,1,0,0:0:0:0:
288,192,175831,1,0,0:0:0:0:
96,192,175938,1,2,0:0:0:0:
352,192,175938,1,0,0:0:0:0:
480,192,175938,1,0,0:0:0:0:
416,192,176045,1,0,0:0:0:0:
352,192,176152,1,0,0:0:0:0:
160,192,176232,1,0,0:0:0:0:
224,192,176286,1,0,0:0:0:0:
96,192,176366,1,2,0:0:0:0:
288,192,176366,1,8,0:0:0:0:
224,192,176474,1,0,0:0:0:0:
224,192,176688,1,0,0:0:0:0:
96,192,176795,1,2,0:0:0:0:
288,192,176795,1,0,0:0:0:0:
352,192,176902,1,0,0:0:0:0:
416,192,177009,1,0,0:0:0:0:
96,192,177224,1,2,0:0:0:0:
352,192,177224,1,8,0:0:0:0:
416,192,177331,1,0,0:0:0:0:
352,192,177545,1,0,0:0:0:0:
480,192,177545,1,0,0:0:0:0:
96,192,177652,1,2,0:0:0:0:
32,192,177759,1,4,0:0:0:0:
288,192,177759,1,0,0:0:0:0:
416,192,177759,1,0,0:0:0:0:
96,192,177866,1,2,0:0:0:0:
224,192,177974,1,0,0:0:0:0:
352,192,177974,1,0,0:0:0:0:
32,192,178081,1,6,0:0:0:0:
96,192,178081,1,8,0:0:0:0:
160,192,178188,1,0,0:0:0:0:
288,192,178188,1,0,0:0:0:0:
32,192,178295,1,4,0:0:0:0:
96,192,178295,1,2,0:0:0:0:
160,192,178402,1,0,0:0:0:0:
288,192,178402,1,0,0:0:0:0:
32,192,178509,1,4,0:0:0:0:
96,192,178509,1,2,0:0:0:0:
288,192,178616,1,0,0:0:0:0:
160,192,178724,1,0,0:0:0:0:
288,192,178831,1,0,0:0:0:0:
96,192,178938,1,2,0:0:0:0:
352,192,178938,1,8,0:0:0:0:
224,192,179045,1,0,0:0:0:0:
288,192,179259,1,0,0:0:0:0:
416,192,179259,1,0,0:0:0:0:
96,192,179366,1,2,0:0:0:0:
352,192,179474,1,0,0:0:0:0:
480,192,179474,1,0,0:0:0:0:
288,192,179688,1,0,0:0:0:0:
416,192,179688,1,0,0:0:0:0:
96,192,179795,1,10,0:0:0:0:
352,192,179902,1,0,0:0:0:0:
480,192,180009,1,0,0:0:0:0:
352,192,180116,1,0,0:0:0:0:
96,192,180224,1,2,0:0:0:0:
224,192,180304,1,0,0:0:0:0:
480,192,180331,1,0,0:0:0:0:
416,192,180438,1,0,0:0:0:0:
352,192,180545,1,0,0:0:0:0:
96,192,180652,1,2,0:0:0:0:
288,192,180652,1,8,0:0:0:0:
224,192,180759,1,0,0:0:0:0:
160,192,180866,1,0,0:0:0:0:
224,192,180974,1,0,0:0:0:0:
96,192,181081,1,2,0:0:0:0:
224,192,181188,1,0,0:0:0:0:
352,192,181188,1,0,0:0:0:0:
352,192,181402,1,0,0:0:0:0:
480,192,181402,1,0,0:0:0:0:
96,192,181509,1,10,0:0:0:0:
160,192,181616,1,0,0:0:0:0:
288,192,181616,1,0,0:0:0:0:
288,192,181831,1,0,0:0:0:0:
416,192,181831,1,0,0:0:0:0:
32,192,181938,1,4,0:0:0:0:
96,192,181938,1,2,0:0:0:0:
352,192,182045,1,0,0:0:0:0:
224,192,182152,1,0,0:0:0:0:
352,192,182259,1,0,0:0:0:0:
96,192,182366,1,2,0:0:0:0:
480,192,182366,1,8,0:0:0:0:
416,192,182474,1,0,0:0:0:0:
352,192,182581,1,0,0:0:0:0:
288,192,182688,1,0,0:0:0:0:
96,192,182795,1,2,0:0:0:0:
160,192,182902,1,0,0:0:0:0:
96,192,183009,1,2,0:0:0:0:
352,192,183009,1,0,0:0:0:0:
288,192,183116,1,0,0:0:0:0:
96,192,183224,1,2,0:0:0:0:
224,192,183224,1,8,0:0:0:0:
288,192,183331,1,0,0:0:0:0:
96,192,183438,1,2,0:0:0:0:
224,192,183438,1,0,0:0:0:0:
288,192,183545,1,0,0:0:0:0:
96,192,183652,1,2,0:0:0:0:
480,192,183652,1,0,0:0:0:0:
416,192,183724,1,0,0:0:0:0:
352,192,183795,1,0,0:0:0:0:
288,192,183866,1,0,0:0:0:0:
224,192,183938,1,0,0:0:0:0:
160,192,184009,1,0,0:0:0:0:
480,192,184081,1,0,0:0:0:0:
416,192,184152,1,0,0:0:0:0:
352,192,184224,1,0,0:0:0:0:
288,192,184295,1,0,0:0:0:0:
224,192,184366,1,0,0:0:0:0:
160,192,184438,1,0,0:0:0:0:
32,192,184509,1,4,0:0:0:0:
96,192,184509,1,2,0:0:0:0:
288,192,184509,1,0,0:0:0:0:
160,192,184724,1,0,0:0:0:0:
32,192,184831,1,4,0:0:0:0:
224,192,184831,1,2,0:0:0:0:
352,192,184831,1,0,0:0:0:0:
224,192,185045,1,0,0:0:0:0:
32,192,185152,1,4,0:0:0:0:
288,192,185152,1,2,0:0:0:0:
416,192,185152,1,0,0:0:0:0:
32,192,185366,1,4,0:0:0:0:
96,192,185366,1,2,0:0:0:0:
352,192,185366,1,0,0:0:0:0:
288,192,185581,1,0,0:0:0:0:
416,192,185581,1,0,0:0:0:0:
96,192,185795,1,2,0:0:0:0:
224,192,185795,1,8,0:0:0:0:
288,192,185902,1,0,0:0:0:0:
416,192,185902,1,0,0:0:0:0:
352,192,186116,1,0,0:0:0:0:
480,192,186143,1,0,0:0:0:0:
96,192,186224,1,2,0:0:0:0:
288,192,186438,1,0,0:0:0:0:
416,192,186438,1,0,0:0:0:0:
96,192,186652,1,2,0:0:0:0:
224,192,186652,1,8,0:0:0:0:
352,192,186759,1,0,0:0:0:0:
288,192,186974,1,0,0:0:0:0:
416,192,186974,1,0,0:0:0:0:
96,192,187081,1,2,0:0:0:0:
160,192,187295,1,0,0:0:0:0:
224,192,187402,1,0,0:0:0:0:
96,192,187509,1,10,0:0:0:0:
160,192,187616,1,0,0:0:0:0:
288,192,187616,1,0,0:0:0:0:
96,192,187938,1,2,0:0:0:0:
224,192,187938,1,0,0:0:0:0:
352,192,187938,1,0,0:0:0:0:
288,192,188152,1,0,0:0:0:0:
480,192,188259,1,0,0:0:0:0:
96,192,188366,1,10,0:0:0:0:
160,192,188474,1,0,0:0:0:0:
288,192,188474,1,0,0:0:0:0:
32,192,188795,1,4,0:0:0:0:
96,192,188795,1,2,0:0:0:0:
352,192,188795,1,0,0:0:0:0:
480,192,189009,1,0,0:0:0:0:
416,192,189116,1,0,0:0:0:0:
96,192,189224,1,2,0:0:0:0:
288,192,189224,1,8,0:0:0:0:
352,192,189331,1,0,0:0:0:0:
416,192,189438,1,0,0:0:0:0:
352,192,189545,1,0,0:0:0:0:
96,192,189652,1,2,0:0:0:0:
224,192,189652,1,0,0:0:0:0:
288,192,189759,1,0,0:0:0:0:
352,192,189866,1,0,0:0:0:0:
288,192,189974,1,0,0:0:0:0:
96,192,190081,1,8,0:0:0:0:
160,192,190081,1,2,0:0:0:0:
288,192,190295,1,0,0:0:0:0:
224,192,190402,1,0,0:0:0:0:
96,192,190509,1,2,0:0:0:0:
160,192,190509,1,0,0:0:0:0:
224,192,190616,1,0,0:0:0:0:
288,192,190724,1,0,0:0:0:0:
224,192,190831,1,0,0:0:0:0:
96,192,190938,1,2,0:0:0:0:
352,192,190938,1,8,0:0:0:0:
416,192,191045,1,0,0:0:0:0:
288,192,191152,1,0,0:0:0:0:
160,192,191259,1,0,0:0:0:0:
96,192,191366,1,2,0:0:0:0:
480,192,191366,1,0,0:0:0:0:
416,192,191438,1,0,0:0:0:0:
352,192,191509,1,0,0:0:0:0:
288,192,191581,1,2,0:0:0:0:
224,192,191652,1,0,0:0:0:0:
160,192,191724,1,0,0:0:0:0:
96,192,191795,1,2,0:0:0:0:
480,192,191795,1,8,0:0:0:0:
416,192,191902,1,0,0:0:0:0:
96,192,192009,1,2,0:0:0:0:
352,192,192009,1,0,0:0:0:0:
160,192,192116,1,2,0:0:0:0:
288,192,192116,1,0,0:0:0:0:
32,192,192224,1,4,0:0:0:0:
96,192,192224,1,2,0:0:0:0:
288,192,192438,1,0,0:0:0:0:
416,192,192438,1,0,0:0:0:0:
96,192,192652,1,2,0:0:0:0:
224,192,192652,1,8,0:0:0:0:
288,192,192759,1,0,0:0:0:0:
416,192,192759,1,0,0:0:0:0:
352,192,192974,1,0,0:0:0:0:
480,192,193000,1,0,0:0:0:0:
96,192,193081,1,2,0:0:0:0:
288,192,193295,1,0,0:0:0:0:
416,192,193295,1,0,0:0:0:0:
96,192,193509,1,2,0:0:0:0:
224,192,193509,1,8,0:0:0:0:
416,192,193616,1,0,0:0:0:0:
352,192,193831,1,0,0:0:0:0:
480,192,193831,1,0,0:0:0:0:
96,192,193938,1,2,0:0:0:0:
288,192,194045,1,0,0:0:0:0:
416,192,194045,1,0,0:0:0:0:
96,192,194366,1,2,0:0:0:0:
288,192,194366,1,8,0:0:0:0:
416,192,194474,1,0,0:0:0:0:
352,192,194581,1,0,0:0:0:0:
480,192,194688,1,0,0:0:0:0:
96,192,194795,1,2,0:0:0:0:
416,192,194902,1,0,0:0:0:0:
352,192,195009,1,0,0:0:0:0:
288,192,195116,1,0,0:0:0:0:
96,192,195224,1,2,0:0:0:0:
224,192,195224,1,8,0:0:0:0:
288,192,195331,1,0,0:0:0:0:
352,192,195438,1,0,0:0:0:0:
416,192,195545,1,0,0:0:0:0:
32,192,195652,1,4,0:0:0:0:
96,192,195652,1,2,0:0:0:0:
224,192,195759,1,0,0:0:0:0:
352,192,195759,1,0,0:0:0:0:
160,192,195866,1,0,0:0:0:0:
288,192,195866,1,0,0:0:0:0:
224,192,195974,1,0,0:0:0:0:
352,192,195974,1,0,0:0:0:0:
96,192,196081,1,10,0:0:0:0:
288,192,196188,1,0,0:0:0:0:
416,192,196188,1,0,0:0:0:0:
352,192,196402,1,0,0:0:0:0:
480,192,196402,1,0,0:0:0:0:
96,192,196509,1,2,0:0:0:0:
352,192,196724,1,0,0:0:0:0:
480,192,196724,1,0,0:0:0:0:
96,192,196938,1,10,0:0:0:0:
224,192,197045,1,0,0:0:0:0:
480,192,197045,1,0,0:0:0:0:
288,192,197259,1,0,0:0:0:0:
480,192,197259,1,0,0:0:0:0:
32,192,197366,1,4,0:0:0:0:
96,192,197366,1,2,0:0:0:0:
416,192,197366,1,0,0:0:0:0:
352,192,197438,1,0,0:0:0:0:
288,192,197509,1,0,0:0:0:0:
224,192,197581,1,6,0:0:0:0:
160,192,197652,1,0,0:0:0:0:
96,192,197724,1,0,0:0:0:0:
352,192,197795,1,0,0:0:0:0:
288,192,197902,1,2,0:0:0:0:
480,192,197902,1,0,0:0:0:0:
224,192,198009,1,0,0:0:0:0:
160,192,198116,1,2,0:0:0:0:
352,192,198224,1,2,0:0:0:0:
480,192,198224,1,0,0:0:0:0:
224,192,198331,1,2,0:0:0:0:
352,192,198438,1,2,0:0:0:0:
480,192,198438,1,0,0:0:0:0:
224,192,198545,1,2,0:0:0:0:
352,192,198652,1,2,0:0:0:0:
480,192,198652,1,0,0:0:0:0:
224,192,198759,1,2,0:0:0:0:
352,192,198866,1,2,0:0:0:0:
480,192,198866,1,0,0:0:0:0:
224,192,198974,1,2,0:0:0:0:
32,192,199081,1,4,0:0:0:0:
480,192,199081,1,2,0:0:0:0:
160,192,199295,1,0,0:0:0:0:
288,192,199295,1,0,0:0:0:0:
96,192,199509,1,2,0:0:0:0:
480,192,199509,1,8,0:0:0:0:
160,192,199616,1,0,0:0:0:0:
288,192,199616,1,0,0:0:0:0:
224,192,199831,1,0,0:0:0:0:
352,192,199857,1,0,0:0:0:0:
480,192,199938,1,2,0:0:0:0:
160,192,200152,1,0,0:0:0:0:
288,192,200152,1,0,0:0:0:0:
96,192,200366,1,2,0:0:0:0:
480,192,200366,1,8,0:0:0:0:
288,192,200474,1,0,0:0:0:0:
96,192,200688,1,0,0:0:0:0:
224,192,200688,1,0,0:0:0:0:
480,192,200795,1,2,0:0:0:0:
352,192,201009,1,0,0:0:0:0:
160,192,201116,1,0,0:0:0:0:
480,192,201224,1,10,0:0:0:0:
96,192,201331,1,0,0:0:0:0:
224,192,201331,1,0,0:0:0:0:
160,192,201652,1,2,0:0:0:0:
288,192,201652,1,0,0:0:0:0:
480,192,201652,1,0,0:0:0:0:
224,192,201866,1,0,0:0:0:0:
352,192,201974,1,0,0:0:0:0:
480,192,202081,1,10,0:0:0:0:
160,192,202188,1,0,0:0:0:0:
288,192,202188,1,0,0:0:0:0:
32,192,202509,1,4,0:0:0:0:
160,192,202509,1,0,0:0:0:0:
32,192,202724,1,4,0:0:0:0:
224,192,202724,1,0,0:0:0:0:
352,192,202831,1,0,0:0:0:0:
480,192,202938,1,0,0:0:0:0:
32,192,203045,1,4,0:0:0:0:
416,192,203045,1,0,0:0:0:0:
352,192,203152,1,0,0:0:0:0:
288,192,203259,1,0,0:0:0:0:
32,192,203366,1,4,0:0:0:0:
224,192,203366,1,0,0:0:0:0:
160,192,203474,1,0,0:0:0:0:
288,192,203581,1,0,0:0:0:0:
32,192,203688,1,4,0:0:0:0:
224,192,203688,1,0,0:0:0:0:
352,192,203795,1,0,0:0:0:0:
32,192,203902,1,4,0:0:0:0:
160,192,203902,1,0,0:0:0:0:
288,192,204009,1,0,0:0:0:0:
224,192,204116,1,0,0:0:0:0:
32,192,204224,1,4,0:0:0:0:
416,192,204331,1,0,0:0:0:0:
32,192,204438,1,4,0:0:0:0:
224,192,204438,1,0,0:0:0:0:
416,192,204545,1,0,0:0:0:0:
32,192,204652,1,4,0:0:0:0:
288,192,204652,1,0,0:0:0:0:
416,192,204759,1,0,0:0:0:0:
480,192,204866,1,0,0:0:0:0:
416,192,204974,1,0,0:0:0:0:
32,192,205081,1,4,0:0:0:0:
160,192,205081,1,2,0:0:0:0:
288,192,205081,1,0,0:0:0:0:
32,192,205402,1,4,0:0:0:0:
224,192,205402,1,2,0:0:0:0:
352,192,205429,1,0,0:0:0:0:
32,192,205724,1,4,0:0:0:0:
288,192,205724,1,2,0:0:0:0:
416,192,205750,1,0,0:0:0:0:
32,192,205938,1,2,0:0:0:0:
352,192,205938,1,4,0:0:0:0:
480,192,205965,1,0,0:0:0:0:
32,192,206152,1,6,0:0:0:0:
224,192,206366,1,0,0:0:0:0:
352,192,206474,1,0,0:0:0:0:
160,192,206581,1,0,0:0:0:0:
224,192,206581,1,0,0:0:0:0:
480,192,206616,1,0,0:0:0:0:
352,192,206688,1,0,0:0:0:0:
32,192,206795,1,6,0:0:0:0:
32,192,207009,1,6,0:0:0:0:
160,192,207224,1,4,0:0:0:0:
352,192,207224,1,0,0:0:0:0:
480,192,207250,1,0,0:0:0:0:
224,192,207331,1,0,0:0:0:0:
352,192,207438,1,0,0:0:0:0:
32,192,207652,1,4,0:0:0:0:
160,192,207652,1,2,0:0:0:0:
480,192,207652,1,0,0:0:0:0:
224,192,207759,1,6,0:0:0:0:
96,192,207866,1,0,0:0:0:0:
224,192,207974,1,2,0:0:0:0:
416,192,207974,1,0,0:0:0:0:
288,192,208000,1,0,0:0:0:0:
96,192,208081,1,0,0:0:0:0:
224,192,208188,1,2,0:0:0:0:
96,192,208295,1,0,0:0:0:0:
352,192,208295,1,0,0:0:0:0:
288,192,208322,1,0,0:0:0:0:
224,192,208402,1,2,0:0:0:0:
160,192,208509,1,0,0:0:0:0:
288,192,208616,1,2,0:0:0:0:
352,192,208724,1,0,0:0:0:0:
416,192,208831,1,2,0:0:0:0:
480,192,208938,128,2,209366:0:0:0:0:
32,192,209366,1,4,0:0:0:0:
96,192,209366,1,2,0:0:0:0:
160,192,209581,1,0,0:0:0:0:
288,192,209581,1,0,0:0:0:0:
416,192,209581,1,0,0:0:0:0:
96,192,209795,1,8,0:0:0:0:
224,192,209795,1,2,0:0:0:0:
288,192,209902,1,0,0:0:0:0:
416,192,209902,1,0,0:0:0:0:
160,192,210009,1,0,0:0:0:0:
352,192,210116,1,0,0:0:0:0:
480,192,210143,1,0,0:0:0:0:
96,192,210224,1,2,0:0:0:0:
160,192,210438,1,0,0:0:0:0:
288,192,210438,1,0,0:0:0:0:
416,192,210438,1,0,0:0:0:0:
96,192,210652,1,8,0:0:0:0:
224,192,210652,1,2,0:0:0:0:
352,192,210759,1,0,0:0:0:0:
160,192,210866,1,0,0:0:0:0:
288,192,210974,1,0,0:0:0:0:
416,192,210974,1,0,0:0:0:0:
96,192,211081,1,2,0:0:0:0:
160,192,211295,1,0,0:0:0:0:
352,192,211295,1,0,0:0:0:0:
288,192,211402,1,0,0:0:0:0:
96,192,211509,1,10,0:0:0:0:
224,192,211616,1,0,0:0:0:0:
352,192,211616,1,0,0:0:0:0:
160,192,211724,1,0,0:0:0:0:
96,192,211938,1,2,0:0:0:0:
224,192,211938,1,0,0:0:0:0:
416,192,211938,1,0,0:0:0:0:
160,192,212152,1,0,0:0:0:0:
288,192,212152,1,0,0:0:0:0:
480,192,212259,1,0,0:0:0:0:
96,192,212366,1,10,0:0:0:0:
224,192,212474,1,0,0:0:0:0:
352,192,212474,1,0,0:0:0:0:
160,192,212581,1,0,0:0:0:0:
32,192,212795,1,2,0:0:0:0:
96,192,212795,1,4,0:0:0:0:
352,192,212795,1,0,0:0:0:0:
160,192,213009,1,0,0:0:0:0:
480,192,213009,1,0,0:0:0:0:
96,192,213224,1,8,0:0:0:0:
288,192,213224,1,2,0:0:0:0:
480,192,213331,1,0,0:0:0:0:
160,192,213438,1,0,0:0:0:0:
416,192,213438,1,0,0:0:0:0:
96,192,213652,1,2,0:0:0:0:
224,192,213652,1,0,0:0:0:0:
480,192,213759,1,0,0:0:0:0:
160,192,213866,1,0,0:0:0:0:
352,192,213866,1,0,0:0:0:0:
96,192,214081,1,2,0:0:0:0:
288,192,214081,1,8,0:0:0:0:
160,192,214295,1,0,0:0:0:0:
416,192,214295,1,0,0:0:0:0:
96,192,214509,1,2,0:0:0:0:
224,192,214509,1,0,0:0:0:0:
288,192,214616,1,0,0:0:0:0:
160,192,214724,1,0,0:0:0:0:
352,192,214724,1,0,0:0:0:0:
288,192,214831,1,0,0:0:0:0:
96,192,214938,1,8,0:0:0:0:
416,192,214938,1,2,0:0:0:0:
480,192,215045,1,0,0:0:0:0:
160,192,215152,1,0,0:0:0:0:
416,192,215152,1,0,0:0:0:0:
352,192,215259,1,0,0:0:0:0:
96,192,215366,1,2,0:0:0:0:
480,192,215366,1,0,0:0:0:0:
416,192,215438,1,0,0:0:0:0:
352,192,215509,1,0,0:0:0:0:
96,192,215581,1,2,0:0:0:0:
416,192,215581,1,0,0:0:0:0:
352,192,215652,1,0,0:0:0:0:
288,192,215724,1,0,0:0:0:0:
96,192,215795,1,2,0:0:0:0:
224,192,215795,1,8,0:0:0:0:
288,192,215902,1,0,0:0:0:0:
160,192,216009,1,2,0:0:0:0:
352,192,216009,1,0,0:0:0:0:
224,192,216116,1,2,0:0:0:0:
416,192,216116,1,0,0:0:0:0:
32,192,216224,1,4,0:0:0:0:
96,192,216224,1,2,0:0:0:0:
160,192,216438,1,0,0:0:0:0:
288,192,216438,1,0,0:0:0:0:
416,192,216438,1,0,0:0:0:0:
96,192,216652,1,2,0:0:0:0:
224,192,216652,1,8,0:0:0:0:
288,192,216759,1,0,0:0:0:0:
416,192,216759,1,0,0:0:0:0:
160,192,216866,1,0,0:0:0:0:
352,192,216974,1,0,0:0:0:0:
480,192,217000,1,0,0:0:0:0:
96,192,217081,1,2,0:0:0:0:
160,192,217295,1,0,0:0:0:0:
288,192,217295,1,0,0:0:0:0:
416,192,217295,1,0,0:0:0:0:
96,192,217509,1,8,0:0:0:0:
224,192,217509,1,2,0:0:0:0:
288,192,217616,1,0,0:0:0:0:
416,192,217616,1,0,0:0:0:0:
160,192,217724,1,0,0:0:0:0:
352,192,217831,1,0,0:0:0:0:
480,192,217831,1,0,0:0:0:0:
96,192,217938,1,2,0:0:0:0:
288,192,218045,1,0,0:0:0:0:
416,192,218045,1,0,0:0:0:0:
160,192,218152,1,0,0:0:0:0:
96,192,218366,1,2,0:0:0:0:
224,192,218366,1,8,0:0:0:0:
352,192,218474,1,0,0:0:0:0:
160,192,218581,1,0,0:0:0:0:
288,192,218581,1,0,0:0:0:0:
416,192,218688,1,0,0:0:0:0:
96,192,218795,1,2,0:0:0:0:
480,192,218902,1,0,0:0:0:0:
160,192,219009,1,0,0:0:0:0:
416,192,219009,1,0,0:0:0:0:
352,192,219116,1,0,0:0:0:0:
96,192,219224,1,2,0:0:0:0:
416,192,219224,1,8,0:0:0:0:
352,192,219331,1,0,0:0:0:0:
160,192,219438,1,0,0:0:0:0:
288,192,219438,1,0,0:0:0:0:
224,192,219545,1,0,0:0:0:0:
32,192,219652,1,4,0:0:0:0:
96,192,219652,1,2,0:0:0:0:
288,192,219759,1,0,0:0:0:0:
416,192,219759,1,0,0:0:0:0:
160,192,219866,1,0,0:0:0:0:
224,192,219866,1,0,0:0:0:0:
288,192,219974,1,0,0:0:0:0:
416,192,219974,1,0,0:0:0:0:
96,192,220081,1,10,0:0:0:0:
224,192,220188,1,0,0:0:0:0:
352,192,220188,1,0,0:0:0:0:
160,192,220295,1,0,0:0:0:0:
288,192,220402,1,0,0:0:0:0:
416,192,220402,1,0,0:0:0:0:
96,192,220509,1,2,0:0:0:0:
160,192,220724,1,0,0:0:0:0:
288,192,220724,1,0,0:0:0:0:
416,192,220724,1,0,0:0:0:0:
96,192,220938,1,10,0:0:0:0:
352,192,221045,1,0,0:0:0:0:
480,192,221045,1,0,0:0:0:0:
160,192,221152,1,0,0:0:0:0:
416,192,221259,1,0,0:0:0:0:
480,192,221259,1,0,0:0:0:0:
32,192,221366,1,4,0:0:0:0:
224,192,221366,1,2,0:0:0:0:
160,192,221438,1,0,0:0:0:0:
96,192,221509,1,0,0:0:0:0:
480,192,221581,1,6,0:0:0:0:
416,192,221652,1,0,0:0:0:0:
352,192,221724,1,0,0:0:0:0:
288,192,221795,1,0,0:0:0:0:
160,192,221902,1,2,0:0:0:0:
416,192,222116,1,2,0:0:0:0:
96,192,222224,1,2,0:0:0:0:
224,192,222224,1,0,0:0:0:0:
352,192,222331,1,2,0:0:0:0:
96,192,222438,1,2,0:0:0:0:
224,192,222438,1,0,0:0:0:0:
352,192,222545,1,2,0:0:0:0:
96,192,222652,1,2,0:0:0:0:
224,192,222652,1,0,0:0:0:0:
352,192,222759,1,2,0:0:0:0:
96,192,222866,1,2,0:0:0:0:
224,192,222866,1,0,0:0:0:0:
352,192,222974,1,2,0:0:0:0:
32,192,223081,1,4,0:0:0:0:
96,192,223081,1,0,0:0:0:0:
480,192,223081,1,2,0:0:0:0:
160,192,223295,1,0,0:0:0:0:
288,192,223295,1,0,0:0:0:0:
416,192,223295,1,0,0:0:0:0:
96,192,223509,1,8,0:0:0:0:
480,192,223509,1,2,0:0:0:0:
160,192,223616,1,0,0:0:0:0:
288,192,223616,1,0,0:0:0:0:
416,192,223724,1,0,0:0:0:0:
224,192,223831,1,0,0:0:0:0:
352,192,223857,1,0,0:0:0:0:
480,192,223938,1,2,0:0:0:0:
160,192,224152,1,0,0:0:0:0:
288,192,224152,1,0,0:0:0:0:
416,192,224152,1,0,0:0:0:0:
96,192,224366,1,8,0:0:0:0:
480,192,224366,1,2,0:0:0:0:
160,192,224474,1,0,0:0:0:0:
416,192,224581,1,0,0:0:0:0:
96,192,224688,1,0,0:0:0:0:
224,192,224688,1,0,0:0:0:0:
480,192,224795,1,2,0:0:0:0:
352,192,225009,1,0,0:0:0:0:
416,192,225009,1,0,0:0:0:0:
160,192,225116,1,0,0:0:0:0:
480,192,225224,1,10,0:0:0:0:
96,192,225331,1,0,0:0:0:0:
224,192,225331,1,0,0:0:0:0:
416,192,225438,1,0,0:0:0:0:
160,192,225652,1,0,0:0:0:0:
288,192,225652,1,0,0:0:0:0:
480,192,225652,1,2,0:0:0:0:
224,192,225866,1,0,0:0:0:0:
416,192,225866,1,0,0:0:0:0:
352,192,225974,1,0,0:0:0:0:
480,192,226081,1,10,0:0:0:0:
224,192,226188,1,0,0:0:0:0:
352,192,226188,1,0,0:0:0:0:
416,192,226295,1,0,0:0:0:0:
32,192,226509,1,4,0:0:0:0:
480,192,226509,1,2,0:0:0:0:
32,192,226724,1,4,0:0:0:0:
160,192,226724,1,0,0:0:0:0:
480,192,226724,1,2,0:0:0:0:
288,192,226831,1,0,0:0:0:0:
416,192,226938,1,0,0:0:0:0:
480,192,226938,1,2,0:0:0:0:
96,192,227045,1,2,0:0:0:0:
32,192,227045,1,4,0:0:0:0:
352,192,227045,1,0,0:0:0:0:
288,192,227152,1,0,0:0:0:0:
224,192,227259,1,0,0:0:0:0:
416,192,227259,1,0,0:0:0:0:
32,192,227366,1,4,0:0:0:0:
352,192,227366,1,0,0:0:0:0:
480,192,227366,1,2,0:0:0:0:
160,192,227474,1,0,0:0:0:0:
224,192,227581,1,0,0:0:0:0:
32,192,227688,1,4,0:0:0:0:
160,192,227688,1,0,0:0:0:0:
480,192,227688,1,2,0:0:0:0:
224,192,227795,1,0,0:0:0:0:
32,192,227902,1,4,0:0:0:0:
288,192,227902,1,0,0:0:0:0:
480,192,227902,1,2,0:0:0:0:
224,192,228009,1,0,0:0:0:0:
96,192,228116,1,0,0:0:0:0:
32,192,228224,1,4,0:0:0:0:
480,192,228224,1,2,0:0:0:0:
352,192,228331,1,0,0:0:0:0:
32,192,228438,1,4,0:0:0:0:
288,192,228438,1,0,0:0:0:0:
480,192,228438,1,2,0:0:0:0:
352,192,228545,1,0,0:0:0:0:
32,192,228652,1,4,0:0:0:0:
288,192,228652,1,0,0:0:0:0:
480,192,228652,1,2,0:0:0:0:
352,192,228759,1,0,0:0:0:0:
160,192,228866,1,0,0:0:0:0:
416,192,228866,1,2,0:0:0:0:
96,192,228974,1,0,0:0:0:0:
352,192,228974,1,2,0:0:0:0:
32,192,229081,1,4,0:0:0:0:
224,192,229081,1,0,0:0:0:0:
480,192,229081,1,2,0:0:0:0:
32,192,229402,1,4,0:0:0:0:
224,192,229402,1,0,0:0:0:0:
480,192,229402,1,2,0:0:0:0:
352,192,229429,1,0,0:0:0:0:
32,192,229724,1,4,0:0:0:0:
288,192,229724,1,0,0:0:0:0:
480,192,229724,1,2,0:0:0:0:
416,192,229750,1,0,0:0:0:0:
32,192,229938,1,4,0:0:0:0:
96,192,229938,1,2,0:0:0:0:
480,192,229938,1,0,0:0:0:0:
224,192,229965,1,0,0:0:0:0:
288,192,230581,1,0,0:0:0:0:
416,192,230616,1,0,0:0:0:0:
288,192,231224,1,0,0:0:0:0:
480,192,231224,1,0,0:0:0:0:
416,192,231250,1,0,0:0:0:0:
96,192,231438,1,2,0:0:0:0:
32,192,231652,1,4,0:0:0:0:
96,192,231652,1,2,0:0:0:0:
480,192,231652,1,0,0:0:0:0:
96,192,231866,1,2,0:0:0:0:
416,192,231974,1,0,0:0:0:0:
288,192,232000,1,0,0:0:0:0:
96,192,232081,1,2,0:0:0:0:
96,192,232295,1,2,0:0:0:0:
352,192,232295,1,0,0:0:0:0:
224,192,232322,1,0,0:0:0:0:
96,192,232509,1,2,0:0:0:0:
96,192,232724,1,2,0:0:0:0:
160,192,232724,1,0,0:0:0:0:
480,192,232831,1,0,0:0:0:0:
96,192,232938,1,2,0:0:0:0:
416,192,232938,1,0,0:0:0:0:
352,192,233045,1,0,0:0:0:0:
96,192,233152,1,2,0:0:0:0:
288,192,233152,1,0,0:0:0:0:
224,192,233259,1,0,0:0:0:0:
32,192,233366,1,4,0:0:0:0:
96,192,233366,1,0,0:0:0:0:
288,192,233366,1,0,0:0:0:0:
160,192,233581,1,0,0:0:0:0:
480,192,233581,1,0,0:0:0:0:
224,192,233795,1,0,0:0:0:0:
352,192,233795,1,0,0:0:0:0:
480,192,233902,1,0,0:0:0:0:
288,192,234009,1,0,0:0:0:0:
224,192,234224,1,0,0:0:0:0:
416,192,234438,1,0,0:0:0:0:
224,192,234545,1,0,0:0:0:0:
224,192,234866,1,0,0:0:0:0:
480,192,234866,1,0,0:0:0:0:
160,192,235081,1,0,0:0:0:0:
224,192,235295,1,0,0:0:0:0:
416,192,235295,1,0,0:0:0:0:
96,192,235509,1,0,0:0:0:0:
288,192,235509,1,0,0:0:0:0:
224,192,235616,1,0,0:0:0:0:
352,192,235724,1,0,0:0:0:0:
288,192,235938,1,0,0:0:0:0:
480,192,236152,1,0,0:0:0:0:
288,192,236259,1,0,0:0:0:0:
288,192,236581,1,0,0:0:0:0:
96,192,236795,1,0,0:0:0:0:
160,192,237009,1,0,0:0:0:0:
480,192,237009,1,0,0:0:0:0:
224,192,237224,1,0,0:0:0:0:
352,192,237224,1,0,0:0:0:0:
480,192,237331,1,0,0:0:0:0:
288,192,237438,1,0,0:0:0:0:
160,192,237652,1,0,0:0:0:0:
416,192,237866,1,0,0:0:0:0:
160,192,237974,1,0,0:0:0:0:
160,192,238295,1,0,0:0:0:0:
96,192,238509,1,0,0:0:0:0:
416,192,238616,1,0,0:0:0:0:
160,192,238724,1,0,0:0:0:0:
224,192,238938,1,0,0:0:0:0:
416,192,238938,1,0,0:0:0:0:
288,192,239152,1,0,0:0:0:0:
480,192,239259,1,0,0:0:0:0:
352,192,239581,1,0,0:0:0:0:
416,192,239581,1,0,0:0:0:0:
224,192,239902,1,0,0:0:0:0:
224,192,240116,1,0,0:0:0:0:
32,192,240224,1,4,0:0:0:0:
96,192,240224,1,0,0:0:0:0:
160,192,240438,1,0,0:0:0:0:
480,192,240438,1,0,0:0:0:0:
224,192,240652,1,0,0:0:0:0:
352,192,240652,1,0,0:0:0:0:
480,192,240759,1,0,0:0:0:0:
288,192,240866,1,0,0:0:0:0:
224,192,241081,1,0,0:0:0:0:
416,192,241295,1,0,0:0:0:0:
224,192,241402,1,0,0:0:0:0:
224,192,241724,1,0,0:0:0:0:
480,192,241724,1,0,0:0:0:0:
32,192,241938,1,4,0:0:0:0:
160,192,241938,1,0,0:0:0:0:
224,192,242152,1,0,0:0:0:0:
480,192,242152,1,0,0:0:0:0:
96,192,242366,1,0,0:0:0:0:
288,192,242366,1,0,0:0:0:0:
224,192,242474,1,0,0:0:0:0:
352,192,242581,1,0,0:0:0:0:
160,192,242795,1,0,0:0:0:0:
480,192,243009,1,0,0:0:0:0:
160,192,243116,1,0,0:0:0:0:
160,192,243438,1,0,0:0:0:0:
32,192,243652,1,4,0:0:0:0:
96,192,243652,1,0,0:0:0:0:
160,192,243866,1,0,0:0:0:0:
480,192,243866,1,0,0:0:0:0:
224,192,244081,1,0,0:0:0:0:
352,192,244081,1,0,0:0:0:0:
480,192,244188,1,0,0:0:0:0:
288,192,244295,1,0,0:0:0:0:
224,192,244509,1,0,0:0:0:0:
416,192,244724,1,0,0:0:0:0:
224,192,244831,1,0,0:0:0:0:
224,192,245152,1,0,0:0:0:0:
32,192,245366,1,4,0:0:0:0:
96,192,245366,1,0,0:0:0:0:
352,192,245474,1,0,0:0:0:0:
160,192,245581,1,0,0:0:0:0:
224,192,245795,1,0,0:0:0:0:
352,192,245795,1,0,0:0:0:0:
288,192,246009,1,0,0:0:0:0:
480,192,246116,1,0,0:0:0:0:
416,192,246438,1,0,0:0:0:0:
480,192,246438,1,0,0:0:0:0:
288,192,246759,1,0,0:0:0:0:
288,192,246974,1,0,0:0:0:0:
32,192,247081,1,4,0:0:0:0:
96,192,247081,1,0,0:0:0:0:
224,192,247295,1,0,0:0:0:0:
416,192,247295,1,0,0:0:0:0:
96,192,247509,1,0,0:0:0:0:
288,192,247509,1,0,0:0:0:0:
224,192,247616,1,0,0:0:0:0:
352,192,247724,1,0,0:0:0:0:
288,192,247938,1,0,0:0:0:0:
416,192,248152,1,0,0:0:0:0:
288,192,248259,1,0,0:0:0:0:
288,192,248581,1,0,0:0:0:0:
480,192,248581,1,0,0:0:0:0:
32,192,248795,1,4,0:0:0:0:
160,192,248795,1,0,0:0:0:0:
224,192,249009,1,0,0:0:0:0:
416,192,249009,1,0,0:0:0:0:
96,192,249224,1,0,0:0:0:0:
288,192,249224,1,0,0:0:0:0:
224,192,249331,1,0,0:0:0:0:
352,192,249438,1,0,0:0:0:0:
288,192,249652,1,0,0:0:0:0:
480,192,249866,1,0,0:0:0:0:
288,192,249974,1,0,0:0:0:0:
288,192,250295,1,0,0:0:0:0:
32,192,250509,1,4,0:0:0:0:
96,192,250509,1,0,0:0:0:0:
160,192,250724,1,0,0:0:0:0:
480,192,250724,1,0,0:0:0:0:
96,192,250938,1,0,0:0:0:0:
288,192,250938,1,0,0:0:0:0:
224,192,251045,1,0,0:0:0:0:
352,192,251152,1,0,0:0:0:0:
160,192,251366,1,0,0:0:0:0:
416,192,251581,1,0,0:0:0:0:
160,192,251688,1,0,0:0:0:0:
160,192,252009,1,0,0:0:0:0:
32,192,252224,1,4,0:0:0:0:
96,192,252224,1,0,0:0:0:0:
224,192,252331,1,0,0:0:0:0:
160,192,252438,1,0,0:0:0:0:
224,192,252652,1,0,0:0:0:0:
288,192,252652,1,0,0:0:0:0:
352,192,252866,1,0,0:0:0:0:
480,192,252974,1,0,0:0:0:0:
416,192,253295,1,0,0:0:0:0:
480,192,253295,1,0,0:0:0:0:
224,192,253616,1,0,0:0:0:0:
224,192,253831,1,0,0:0:0:0:
32,192,253938,1,4,0:0:0:0:
96,192,253938,1,0,0:0:0:0:
160,192,254152,1,0,0:0:0:0:
480,192,254152,1,0,0:0:0:0:
96,192,254366,1,0,0:0:0:0:
288,192,254366,1,0,0:0:0:0:
224,192,254474,1,0,0:0:0:0:
352,192,254581,1,0,0:0:0:0:
288,192,254795,1,0,0:0:0:0:
416,192,255009,1,0,0:0:0:0:
288,192,255116,1,0,0:0:0:0:
288,192,255438,1,0,0:0:0:0:
480,192,255438,1,0,0:0:0:0:
32,192,255652,1,4,0:0:0:0:
160,192,255652,1,0,0:0:0:0:
224,192,255866,1,0,0:0:0:0:
480,192,255866,1,0,0:0:0:0:
96,192,256081,1,0,0:0:0:0:
288,192,256081,1,0,0:0:0:0:
224,192,256188,1,0,0:0:0:0:
352,192,256295,1,0,0:0:0:0:
160,192,256509,1,0,0:0:0:0:
480,192,256724,1,0,0:0:0:0:
160,192,256831,1,0,0:0:0:0:
160,192,257152,1,0,0:0:0:0:
416,192,257152,1,0,0:0:0:0:
32,192,257366,1,4,0:0:0:0:
96,192,257366,1,0,0:0:0:0:
160,192,257581,1,0,0:0:0:0:
480,192,257581,1,0,0:0:0:0:
96,192,257795,1,0,0:0:0:0:
288,192,257795,1,0,0:0:0:0:
224,192,257902,1,0,0:0:0:0:
352,192,258009,1,0,0:0:0:0:
288,192,258224,1,0,0:0:0:0:
416,192,258438,1,0,0:0:0:0:
288,192,258545,1,0,0:0:0:0:
288,192,258866,1,0,0:0:0:0:
32,192,259081,1,4,0:0:0:0:
96,192,259081,1,0,0:0:0:0:
416,192,259188,1,0,0:0:0:0:
160,192,259295,1,0,0:0:0:0:
288,192,259509,1,0,0:0:0:0:
416,192,259509,1,0,0:0:0:0:
352,192,259724,1,0,0:0:0:0:
480,192,259831,1,0,0:0:0:0:
416,192,260152,1,0,0:0:0:0:
480,192,260152,1,0,0:0:0:0:
224,192,260474,1,0,0:0:0:0:
224,192,260688,1,0,0:0:0:0:
32,192,260795,1,4,0:0:0:0:
96,192,260795,1,0,0:0:0:0:
480,192,260902,1,0,0:0:0:0:
160,192,261009,1,0,0:0:0:0:
352,192,261116,1,0,0:0:0:0:
480,192,261224,1,0,0:0:0:0:
96,192,261331,1,0,0:0:0:0:
224,192,261438,1,0,0:0:0:0:
352,192,261545,1,0,0:0:0:0:
416,192,261652,1,0,0:0:0:0:
288,192,261759,1,0,0:0:0:0:
160,192,261866,1,0,0:0:0:0:
352,192,261974,1,0,0:0:0:0:
224,192,262081,1,0,0:0:0:0:
96,192,262188,1,0,0:0:0:0:
416,192,262295,1,0,0:0:0:0:
288,192,262402,1,0,0:0:0:0:
96,192,262509,1,0,0:0:0:0:
480,192,262616,1,0,0:0:0:0:
160,192,262724,1,0,0:0:0:0:
288,192,262831,1,0,0:0:0:0:
416,192,262938,1,0,0:0:0:0:
96,192,263045,1,0,0:0:0:0:
224,192,263152,1,0,0:0:0:0:
352,192,263259,1,0,0:0:0:0:
416,192,263366,1,0,0:0:0:0:
288,192,263474,1,0,0:0:0:0:
160,192,263581,1,0,0:0:0:0:
352,192,263688,1,0,0:0:0:0:
224,192,263795,1,0,0:0:0:0:
96,192,263902,1,0,0:0:0:0:
416,192,264009,1,0,0:0:0:0:
288,192,264116,1,0,0:0:0:0:
160,192,264224,1,0,0:0:0:0:
352,192,264331,1,0,0:0:0:0:
480,192,264438,1,0,0:0:0:0:
96,192,264545,1,0,0:0:0:0:
224,192,264652,1,0,0:0:0:0:
416,192,264759,1,0,0:0:0:0:
160,192,264866,1,0,0:0:0:0:
288,192,264974,1,0,0:0:0:0:
352,192,265081,1,0,0:0:0:0:
224,192,265188,1,0,0:0:0:0:
96,192,265295,1,0,0:0:0:0:
416,192,265402,1,0,0:0:0:0:
288,192,265509,1,0,0:0:0:0:
160,192,265616,1,0,0:0:0:0:
480,192,265724,1,0,0:0:0:0:
352,192,265831,1,0,0:0:0:0:
96,192,265938,1,0,0:0:0:0:
416,192,266045,1,0,0:0:0:0:
288,192,266152,1,0,0:0:0:0:
160,192,266259,1,0,0:0:0:0:
416,192,266366,1,0,0:0:0:0:
352,192,266474,1,0,0:0:0:0:
224,192,266581,1,0,0:0:0:0:
480,192,266688,1,0,0:0:0:0:
352,192,266795,1,0,0:0:0:0:
32,192,266902,1,4,0:0:0:0:
224,192,266902,1,0,0:0:0:0:
480,192,267009,1,0,0:0:0:0:
416,192,267116,1,0,0:0:0:0:
32,192,267224,1,4,0:0:0:0:
288,192,267224,1,0,0:0:0:0:
352,192,267331,1,0,0:0:0:0:
32,192,267438,1,4,0:0:0:0:
160,192,267438,1,0,0:0:0:0:
352,192,267545,1,0,0:0:0:0:
32,192,267652,1,4,0:0:0:0:
480,192,267652,1,0,0:0:0:0:
288,192,267759,1,0,0:0:0:0:
416,192,267866,1,0,0:0:0:0:
224,192,267974,1,0,0:0:0:0:
352,192,268081,1,0,0:0:0:0:
160,192,268188,1,0,0:0:0:0:
288,192,268295,1,0,0:0:0:0:
96,192,268402,1,0,0:0:0:0:
480,192,268509,1,0,0:0:0:0:
352,192,268616,1,0,0:0:0:0:
416,192,268724,1,0,0:0:0:0:
288,192,268831,1,0,0:0:0:0:
352,192,268938,1,0,0:0:0:0:
224,192,269045,1,0,0:0:0:0:
288,192,269152,1,0,0:0:0:0:
160,192,269259,1,0,0:0:0:0:
480,192,269366,1,0,0:0:0:0:
288,192,269474,1,0,0:0:0:0:
416,192,269581,1,0,0:0:0:0:
224,192,269688,1,0,0:0:0:0:
352,192,269795,1,0,0:0:0:0:
160,192,269902,1,0,0:0:0:0:
288,192,270009,1,0,0:0:0:0:
96,192,270116,1,0,0:0:0:0:
416,192,270224,1,0,0:0:0:0:
288,192,270331,1,0,0:0:0:0:
352,192,270438,1,0,0:0:0:0:
224,192,270545,1,0,0:0:0:0:
288,192,270652,1,0,0:0:0:0:
160,192,270759,1,0,0:0:0:0:
224,192,270866,1,0,0:0:0:0:
96,192,270974,1,0,0:0:0:0:
480,192,271081,1,0,0:0:0:0:
416,192,271188,1,0,0:0:0:0:
288,192,271295,1,0,0:0:0:0:
160,192,271402,1,0,0:0:0:0:
416,192,271509,1,0,0:0:0:0:
352,192,271616,1,0,0:0:0:0:
224,192,271724,1,0,0:0:0:0:
96,192,271831,1,0,0:0:0:0:
480,192,271938,1,0,0:0:0:0:
352,192,272045,1,0,0:0:0:0:
224,192,272152,1,0,0:0:0:0:
160,192,272259,1,0,0:0:0:0:
32,192,272366,1,2,0:0:0:0:
416,192,272366,1,4,0:0:0:0:
288,192,272474,1,0,0:0:0:0:
32,192,272581,1,2,0:0:0:0:
160,192,272581,1,4,0:0:0:0:
96,192,272688,1,0,0:0:0:0:
32,192,272795,1,4,0:0:0:0:
224,192,272795,1,2,0:0:0:0:
352,192,272902,1,2,0:0:0:0:
224,192,273009,1,2,0:0:0:0:
352,192,273116,1,2,0:0:0:0:
96,192,273224,1,0,0:0:0:0:
224,192,273224,1,2,0:0:0:0:
352,192,273331,1,2,0:0:0:0:
480,192,273331,1,0,0:0:0:0:
96,192,273438,1,0,0:0:0:0:
224,192,273438,1,2,0:0:0:0:
352,192,273545,1,2,0:0:0:0:
480,192,273545,1,0,0:0:0:0:
96,192,273652,1,0,0:0:0:0:
160,192,273724,1,0,0:0:0:0:
224,192,273795,1,0,0:0:0:0:
352,192,273866,1,0,0:0:0:0:
416,192,273938,1,0,0:0:0:0:
480,192,274009,128,0,274509:0:0:0:0:
32,192,274509,1,4,0:0:0:0:
96,192,274509,1,2,0:0:0:0:
288,192,274616,1,0,0:0:0:0:
416,192,274724,1,0,0:0:0:0:
160,192,274831,1,0,0:0:0:0:
96,192,274938,1,2,0:0:0:0:
352,192,274938,1,0,0:0:0:0:
480,192,275045,1,0,0:0:0:0:
288,192,275152,1,0,0:0:0:0:
160,192,275259,1,0,0:0:0:0:
96,192,275366,1,2,0:0:0:0:
416,192,275366,1,0,0:0:0:0:
288,192,275474,1,0,0:0:0:0:
224,192,275581,1,0,0:0:0:0:
352,192,275688,1,0,0:0:0:0:
96,192,275795,1,2,0:0:0:0:
224,192,275795,1,0,0:0:0:0:
160,192,275902,1,0,0:0:0:0:
416,192,276009,1,0,0:0:0:0:
288,192,276116,1,0,0:0:0:0:
96,192,276224,1,2,0:0:0:0:
160,192,276224,1,0,0:0:0:0:
288,192,276331,1,0,0:0:0:0:
480,192,276438,1,0,0:0:0:0:
224,192,276545,1,0,0:0:0:0:
96,192,276652,1,2,0:0:0:0:
352,192,276652,1,0,0:0:0:0:
480,192,276759,1,0,0:0:0:0:
288,192,276866,1,0,0:0:0:0:
160,192,276974,1,0,0:0:0:0:
96,192,277081,1,2,0:0:0:0:
416,192,277081,1,0,0:0:0:0:
288,192,277188,1,0,0:0:0:0:
224,192,277295,1,0,0:0:0:0:
480,192,277402,1,0,0:0:0:0:
96,192,277509,1,2,0:0:0:0:
352,192,277509,1,0,0:0:0:0:
224,192,277616,1,0,0:0:0:0:
416,192,277724,1,0,0:0:0:0:
288,192,277831,1,0,0:0:0:0:
96,192,277938,1,2,0:0:0:0:
160,192,277938,1,0,0:0:0:0:
288,192,278045,1,0,0:0:0:0:
416,192,278152,1,0,0:0:0:0:
224,192,278259,1,0,0:0:0:0:
96,192,278366,1,2,0:0:0:0:
352,192,278366,1,0,0:0:0:0:
480,192,278474,1,0,0:0:0:0:
288,192,278581,1,0,0:0:0:0:
160,192,278688,1,0,0:0:0:0:
96,192,278795,1,2,0:0:0:0:
416,192,278795,1,0,0:0:0:0:
352,192,278902,1,0,0:0:0:0:
224,192,279009,1,0,0:0:0:0:
480,192,279116,1,0,0:0:0:0:
96,192,279224,1,2,0:0:0:0:
288,192,279224,1,0,0:0:0:0:
224,192,279331,1,0,0:0:0:0:
416,192,279438,1,0,0:0:0:0:
352,192,279545,1,0,0:0:0:0:
96,192,279652,1,2,0:0:0:0:
224,192,279652,1,0,0:0:0:0:
416,192,279759,1,0,0:0:0:0:
288,192,279866,1,0,0:0:0:0:
160,192,279974,1,0,0:0:0:0:
96,192,280081,1,2,0:0:0:0:
480,192,280081,1,0,0:0:0:0:
352,192,280188,1,0,0:0:0:0:
224,192,280295,1,0,0:0:0:0:
416,192,280402,1,0,0:0:0:0:
96,192,280509,1,2,0:0:0:0:
288,192,280509,1,0,0:0:0:0:
32,192,280616,1,4,0:0:0:0:
224,192,280616,1,0,0:0:0:0:
96,192,280724,1,2,0:0:0:0:
480,192,280724,1,0,0:0:0:0:
352,192,280831,1,0,0:0:0:0:
32,192,280938,1,4,0:0:0:0:
96,192,280938,1,2,0:0:0:0:
224,192,280938,1,0,0:0:0:0:
416,192,281045,1,0,0:0:0:0:
32,192,281152,1,4,0:0:0:0:
96,192,281152,1,2,0:0:0:0:
288,192,281152,1,0,0:0:0:0:
160,192,281259,1,0,0:0:0:0:
32,192,281366,1,4,0:0:0:0:
96,192,281366,1,2,0:0:0:0:
480,192,281366,1,0,0:0:0:0:
224,192,281474,1,0,0:0:0:0:
352,192,281581,1,0,0:0:0:0:
160,192,281688,1,0,0:0:0:0:
288,192,281795,1,0,0:0:0:0:
480,192,281795,1,2,0:0:0:0:
352,192,281902,1,0,0:0:0:0:
96,192,282009,1,0,0:0:0:0:
224,192,282116,1,0,0:0:0:0:
352,192,282224,1,0,0:0:0:0:
480,192,282224,1,2,0:0:0:0:
288,192,282331,1,0,0:0:0:0:
160,192,282438,1,0,0:0:0:0:
416,192,282545,1,0,0:0:0:0:
288,192,282652,1,0,0:0:0:0:
480,192,282652,1,2,0:0:0:0:
160,192,282759,1,0,0:0:0:0:
352,192,282866,1,0,0:0:0:0:
224,192,282974,1,0,0:0:0:0:
96,192,283081,1,0,0:0:0:0:
480,192,283081,1,2,0:0:0:0:
160,192,283188,1,0,0:0:0:0:
352,192,283295,1,0,0:0:0:0:
224,192,283402,1,0,0:0:0:0:
288,192,283509,1,0,0:0:0:0:
480,192,283509,1,2,0:0:0:0:
416,192,283616,1,0,0:0:0:0:
160,192,283724,1,0,0:0:0:0:
288,192,283831,1,0,0:0:0:0:
416,192,283938,1,0,0:0:0:0:
480,192,283938,1,2,0:0:0:0:
288,192,284045,1,0,0:0:0:0:
160,192,284152,1,0,0:0:0:0:
352,192,284259,1,0,0:0:0:0:
224,192,284366,1,0,0:0:0:0:
480,192,284366,1,2,0:0:0:0:
96,192,284474,1,0,0:0:0:0:
288,192,284581,1,0,0:0:0:0:
480,192,284581,1,2,0:0:0:0:
160,192,284688,1,0,0:0:0:0:
32,192,284795,1,4,0:0:0:0:
96,192,284795,1,0,0:0:0:0:
224,192,284795,1,0,0:0:0:0:
352,192,284902,1,0,0:0:0:0:
32,192,285009,1,4,0:0:0:0:
96,192,285009,1,0,0:0:0:0:
416,192,285009,1,0,0:0:0:0:
288,192,285116,1,0,0:0:0:0:
160,192,285224,1,4,0:0:0:0:
416,192,285224,1,0,0:0:0:0:
224,192,285331,1,4,0:0:0:0:
480,192,285331,1,0,0:0:0:0:
32,192,285438,1,4,0:0:0:0:
96,192,285438,1,0,0:0:0:0:
288,192,285438,1,0,0:0:0:0:
416,192,285545,1,0,0:0:0:0:
32,192,285652,1,4,0:0:0:0:
96,192,285652,1,0,0:0:0:0:
480,192,285652,1,0,0:0:0:0:
416,192,285759,1,0,0:0:0:0:
32,192,285866,1,4,0:0:0:0:
96,192,285866,1,0,0:0:0:0:
288,192,285866,1,0,0:0:0:0:
480,192,285974,1,0,0:0:0:0:
160,192,286081,1,4,0:0:0:0:
416,192,286081,1,0,0:0:0:0:
224,192,286188,1,4,0:0:0:0:
288,192,286188,1,0,0:0:0:0:
32,192,286295,1,4,0:0:0:0:
96,192,286295,1,0,0:0:0:0:
416,192,286295,1,0,0:0:0:0:
352,192,286402,1,0,0:0:0:0:
32,192,286509,1,4,0:0:0:0:
96,192,286509,1,0,0:0:0:0:
480,192,286509,1,0,0:0:0:0:
160,192,286616,1,0,0:0:0:0:
416,192,286616,1,0,0:0:0:0:
224,192,286724,1,0,0:0:0:0:
352,192,286724,1,0,0:0:0:0:
288,192,286831,1,0,0:0:0:0:
224,192,286938,1,0,0:0:0:0:
352,192,286938,1,0,0:0:0:0:
160,192,287045,1,0,0:0:0:0:
416,192,287045,1,0,0:0:0:0:
32,192,287152,1,2,0:0:0:0:
96,192,287152,1,0,0:0:0:0:
480,192,287152,1,0,0:0:0:0:
416,192,287259,1,0,0:0:0:0:
352,192,287366,1,0,0:0:0:0:
32,192,287474,1,2,0:0:0:0:
288,192,287474,1,0,0:0:0:0:
224,192,287581,1,0,0:0:0:0:
160,192,287688,1,0,0:0:0:0:
32,192,287795,1,2,0:0:0:0:
96,192,287795,1,0,0:0:0:0:
288,192,287902,1,0,0:0:0:0:
352,192,288009,1,0,0:0:0:0:
416,192,288116,1,0,0:0:0:0:
32,192,288224,1,4,0:0:0:0:
96,192,288224,1,0,0:0:0:0:
480,192,288224,1,0,0:0:0:0:
288,192,288438,1,0,0:0:0:0:
352,192,288652,1,0,0:0:0:0:
224,192,288866,1,0,0:0:0:0:
416,192,289295,1,0,0:0:0:0:
480,192,290795,1,0,0:0:0:0:
160,192,292509,1,0,0:0:0:0:
352,192,293366,1,0,0:0:0:0:
480,192,294224,1,0,0:0:0:0:
96,192,296724,1,0,0:0:0:0:
224,192,296795,1,0,0:0:0:0:
352,192,296866,1,0,0:0:0:0:
