osu file format v14

[General]
AudioFilename: audio.mp3
AudioLeadIn: 3000
PreviewTime: 82509
Countdown: 0
SampleSet: Soft
StackLeniency: 0.7
Mode: 3
LetterboxInBreaks: 0
SpecialStyle: 1
WidescreenStoryboard: 1

[Editor]
DistanceSpacing: 1.2
BeatDivisor: 4
GridSize: 32
TimelineZoom: 1.5

[Metadata]
Title:Frozen World
TitleUnicode:Frozen World
Artist:MuryokuP
ArtistUnicode:無力P
Creator:pwhk
Version:Easy
Source:
Tags:Resonance featured artist fa Instrumental Electronic Artcore Powerless the voc@loid m@ster vocaloid master 18
BeatmapID:1467149
BeatmapSetID:693381

[Difficulty]
HPDrainRate:6.5
CircleSize:8
OverallDifficulty:6.5
ApproachRate:5
SliderMultiplier:1.4
SliderTickRate:1

[Events]
//Background and Video events
0,0,"jeremy-gallman-29163.jpg",0,0
//Break Periods
//Storyboard Layer 0 (Background)
//Storyboard Layer 1 (Fail)
//Storyboard Layer 2 (Pass)
//Storyboard Layer 3 (Foreground)
//Storyboard Layer 4 (Overlay)
//Storyboard Sound Samples

[TimingPoints]
224,428.571428571429,4,2,1,12,1,0
13938,-100,4,2,1,18,0,0
15652,-100,4,2,1,24,0,0
17366,-100,4,2,1,42,0,0
19081,-100,4,2,1,36,0,0
20795,-100,4,2,1,42,0,0
82509,-100,4,2,1,42,0,1
106081,-100,4,2,1,42,0,0
120224,-100,4,2,1,36,0,0
120652,-100,4,2,1,42,0,0
121081,-100,4,2,1,24,0,0
121509,-100,4,2,1,18,0,0
121938,-100,4,2,1,12,0,0
145938,-100,4,2,1,18,0,0
146366,-100,4,2,1,24,0,0
146795,-100,4,2,1,42,0,0
147224,-100,4,2,1,36,0,0
147652,-100,4,2,1,42,0,0
169938,-100,4,2,1,36,0,0
170366,-100,4,2,1,42,0,0
170795,-100,4,2,1,24,0,0
171224,-100,4,2,1,18,0,0
171652,-100,4,2,1,42,0,0
185366,-100,4,2,1,42,0,1
208938,-100,4,2,1,42,0,0
209366,-100,4,2,1,42,0,1
232938,-100,4,2,1,42,0,0
288224,-100,4,2,1,36,0,0
289081,-100,4,2,1,42,0,0
289938,-100,4,2,1,24,0,0
290795,-100,4,2,1,18,0,0
291652,-100,4,2,1,12,0,0

[HitObjects]
416,192,224,5,0,0:0:0:0:
160,192,1938,1,0,0:0:0:0:
416,192,3652,1,0,0:0:0:0:
160,192,5366,1,0,0:0:0:0:
352,192,7081,1,0,0:0:0:0:
224,192,8795,1,0,0:0:0:0:
32,192,9652,1,0,0:0:0:0:
352,192,10509,1,0,0:0:0:0:
224,192,12224,1,0,0:0:0:0:
32,192,13938,1,4,0:0:0:0:
96,192,13938,1,2,0:0:0:0:
480,192,14795,1,8,0:0:0:0:
224,192,15652,1,0,0:0:0:0:
480,192,16509,1,8,0:0:0:0:
416,192,17366,1,0,0:0:0:0:
480,192,18224,1,8,0:0:0:0:
288,192,19081,1,0,0:0:0:0:
480,192,19938,1,8,0:0:0:0:
32,192,20795,1,2,0:0:0:0:
96,192,20795,1,0,0:0:0:0:
416,192,21224,1,0,0:0:0:0:
288,192,21652,1,0,0:0:0:0:
160,192,22081,1,0,0:0:0:0:
96,192,22509,1,0,0:0:0:0:
416,192,22938,1,0,0:0:0:0:
288,192,23152,1,0,0:0:0:0:
288,192,23795,1,0,0:0:0:0:
96,192,24224,1,0,0:0:0:0:
224,192,24652,1,0,0:0:0:0:
288,192,25081,1,0,0:0:0:0:
480,192,25295,1,0,0:0:0:0:
96,192,25938,1,0,0:0:0:0:
160,192,26366,1,0,0:0:0:0:
352,192,26581,1,0,0:0:0:0:
352,192,27224,1,0,0:0:0:0:
32,192,27652,1,2,0:0:0:0:
96,192,27652,1,0,0:0:0:0:
352,192,28081,1,0,0:0:0:0:
160,192,28509,1,0,0:0:0:0:
416,192,28938,1,0,0:0:0:0:
96,192,29366,1,0,0:0:0:0:
352,192,29795,1,0,0:0:0:0:
160,192,30009,1,0,0:0:0:0:
160,192,30652,1,0,0:0:0:0:
288,192,31081,1,0,0:0:0:0:
480,192,31509,1,0,0:0:0:0:
224,192,31938,1,0,0:0:0:0:
352,192,32152,1,0,0:0:0:0:
96,192,32795,1,0,0:0:0:0:
224,192,33224,1,0,0:0:0:0:
416,192,33438,1,0,0:0:0:0:
416,192,34081,1,0,0:0:0:0:
32,192,34509,128,0,41366:0:0:0:0:
96,192,41366,1,2,0:0:0:0:
480,192,41366,1,4,0:0:0:0:
416,192,41795,1,10,0:0:0:0:
224,192,42224,1,2,0:0:0:0:
288,192,42652,1,10,0:0:0:0:
96,192,43081,1,2,0:0:0:0:
416,192,43509,1,10,0:0:0:0:
224,192,43938,1,2,0:0:0:0:
288,192,44366,1,10,0:0:0:0:
96,192,44795,1,2,0:0:0:0:
480,192,45224,1,10,0:0:0:0:
224,192,45652,1,2,0:0:0:0:
416,192,46081,1,10,0:0:0:0:
96,192,46509,1,2,0:0:0:0:
480,192,46938,1,10,0:0:0:0:
416,192,47474,1,4,0:0:0:0:
288,192,47795,1,14,0:0:0:0:
160,192,48009,1,6,0:0:0:0:
96,192,48224,1,6,0:0:0:0:
480,192,48652,1,10,0:0:0:0:
352,192,49081,1,2,0:0:0:0:
224,192,49509,1,10,0:0:0:0:
96,192,49938,1,2,0:0:0:0:
416,192,50366,1,10,0:0:0:0:
288,192,50795,1,2,0:0:0:0:
160,192,51224,1,10,0:0:0:0:
96,192,51652,1,2,0:0:0:0:
480,192,52081,1,10,0:0:0:0:
352,192,52509,1,2,0:0:0:0:
224,192,52938,1,14,0:0:0:0:
32,192,53366,128,6,54224:0:0:0:0:
160,192,54224,1,2,0:0:0:0:
288,192,54438,1,2,0:0:0:0:
416,192,54652,1,2,0:0:0:0:
32,192,55081,1,4,0:0:0:0:
480,192,55081,1,2,0:0:0:0:
160,192,55509,1,2,0:0:0:0:
352,192,55938,1,2,0:0:0:0:
288,192,56366,1,2,0:0:0:0:
480,192,56795,1,2,0:0:0:0:
160,192,57224,1,2,0:0:0:0:
352,192,57652,1,2,0:0:0:0:
288,192,58081,1,2,0:0:0:0:
480,192,58509,1,2,0:0:0:0:
96,192,58938,1,2,0:0:0:0:
352,192,59366,1,2,0:0:0:0:
160,192,59795,1,2,0:0:0:0:
480,192,60224,1,2,0:0:0:0:
96,192,60652,1,2,0:0:0:0:
160,192,61188,1,4,0:0:0:0:
288,192,61509,1,6,0:0:0:0:
416,192,61724,1,6,0:0:0:0:
480,192,61938,1,6,0:0:0:0:
96,192,62366,1,2,0:0:0:0:
224,192,62795,1,2,0:0:0:0:
352,192,63224,1,2,0:0:0:0:
480,192,63652,1,2,0:0:0:0:
160,192,64081,1,2,0:0:0:0:
288,192,64509,1,2,0:0:0:0:
416,192,64938,1,2,0:0:0:0:
32,192,65366,1,6,0:0:0:0:
32,192,66009,1,6,0:0:0:0:
32,192,66224,1,6,0:0:0:0:
32,192,66866,1,6,0:0:0:0:
32,192,67081,128,6,67938:0:0:0:0:
416,192,68366,128,2,68795:0:0:0:0:
32,192,68795,1,6,0:0:0:0:
352,192,69009,1,0,0:0:0:0:
288,192,69331,1,0,0:0:0:0:
160,192,69545,1,0,0:0:0:0:
352,192,69759,1,0,0:0:0:0:
480,192,70081,1,0,0:0:0:0:
288,192,70509,1,0,0:0:0:0:
96,192,70938,1,0,0:0:0:0:
160,192,71152,1,0,0:0:0:0:
288,192,71474,1,0,0:0:0:0:
352,192,71688,1,0,0:0:0:0:
416,192,72009,1,0,0:0:0:0:
480,192,72224,1,0,0:0:0:0:
288,192,72545,1,0,0:0:0:0:
416,192,72759,1,0,0:0:0:0:
224,192,73081,1,0,0:0:0:0:
288,192,73295,1,0,0:0:0:0:
160,192,73616,1,0,0:0:0:0:
96,192,73938,1,0,0:0:0:0:
224,192,74152,1,0,0:0:0:0:
416,192,74474,1,0,0:0:0:0:
32,192,74902,1,4,0:0:0:0:
32,192,75224,1,14,0:0:0:0:
32,192,75438,1,6,0:0:0:0:
32,192,75652,1,6,0:0:0:0:
160,192,75866,1,0,0:0:0:0:
288,192,76081,1,0,0:0:0:0:
224,192,76402,1,0,0:0:0:0:
352,192,76616,1,0,0:0:0:0:
416,192,77045,1,0,0:0:0:0:
480,192,77474,1,0,0:0:0:0:
288,192,77795,1,0,0:0:0:0:
352,192,78009,1,0,0:0:0:0:
224,192,78331,1,0,0:0:0:0:
416,192,78545,1,0,0:0:0:0:
160,192,78759,1,0,0:0:0:0:
32,192,79081,1,4,0:0:0:0:
480,192,79081,1,2,0:0:0:0:
160,192,79509,1,10,0:0:0:0:
352,192,79938,1,2,0:0:0:0:
96,192,80366,1,10,0:0:0:0:
480,192,80795,128,2,81652:0:0:0:0:
32,192,81652,1,6,0:0:0:0:
32,192,81974,1,6,0:0:0:0:
32,192,82295,1,6,0:0:0:0:
32,192,82509,1,6,0:0:0:0:
160,192,82724,1,0,0:0:0:0:
288,192,83045,1,0,0:0:0:0:
480,192,83259,1,0,0:0:0:0:
224,192,83581,1,0,0:0:0:0:
416,192,83795,1,0,0:0:0:0:
352,192,84116,1,0,0:0:0:0:
160,192,84438,1,0,0:0:0:0:
96,192,84759,1,0,0:0:0:0:
288,192,85081,1,0,0:0:0:0:
416,192,85402,1,0,0:0:0:0:
32,192,85938,1,4,0:0:0:0:
480,192,85938,1,2,0:0:0:0:
352,192,86366,1,10,0:0:0:0:
224,192,86795,1,2,0:0:0:0:
96,192,87224,1,10,0:0:0:0:
160,192,87652,1,2,0:0:0:0:
288,192,88081,1,10,0:0:0:0:
416,192,88509,1,2,0:0:0:0:
224,192,88938,1,10,0:0:0:0:
32,192,89366,1,6,0:0:0:0:
160,192,89581,1,0,0:0:0:0:
288,192,89902,1,0,0:0:0:0:
480,192,90116,1,0,0:0:0:0:
224,192,90438,1,0,0:0:0:0:
352,192,90652,1,0,0:0:0:0:
480,192,90974,1,0,0:0:0:0:
224,192,91188,1,0,0:0:0:0:
288,192,91509,1,0,0:0:0:0:
480,192,92045,1,0,0:0:0:0:
352,192,92259,1,0,0:0:0:0:
96,192,92474,1,0,0:0:0:0:
32,192,92795,1,6,0:0:0:0:
160,192,93009,1,0,0:0:0:0:
224,192,93331,1,0,0:0:0:0:
288,192,93545,1,0,0:0:0:0:
352,192,93866,1,0,0:0:0:0:
416,192,94188,1,0,0:0:0:0:
32,192,94509,1,6,0:0:0:0:
32,192,94724,1,6,0:0:0:0:
288,192,95045,1,2,0:0:0:0:
224,192,95366,1,2,0:0:0:0:
96,192,95795,1,2,0:0:0:0:
32,192,96224,1,6,0:0:0:0:
160,192,96438,1,0,0:0:0:0:
288,192,96759,1,0,0:0:0:0:
480,192,96974,1,0,0:0:0:0:
224,192,97295,1,0,0:0:0:0:
416,192,97509,1,0,0:0:0:0:
352,192,97831,1,0,0:0:0:0:
288,192,98152,1,0,0:0:0:0:
96,192,98474,1,0,0:0:0:0:
416,192,98795,1,0,0:0:0:0:
224,192,99116,1,0,0:0:0:0:
160,192,99331,1,0,0:0:0:0:
32,192,99652,1,6,0:0:0:0:
32,192,100188,1,6,0:0:0:0:
32,192,100509,1,6,0:0:0:0:
32,192,100831,1,6,0:0:0:0:
32,192,101366,1,6,0:0:0:0:
32,192,102224,1,6,0:0:0:0:
32,192,102545,1,6,0:0:0:0:
32,192,102866,1,6,0:0:0:0:
32,192,103081,1,6,0:0:0:0:
416,192,103724,1,0,0:0:0:0:
416,192,104366,1,0,0:0:0:0:
32,192,104795,1,4,0:0:0:0:
352,192,104795,1,0,0:0:0:0:
288,192,105116,1,0,0:0:0:0:
160,192,105438,1,0,0:0:0:0:
32,192,106509,1,4,0:0:0:0:
224,192,106509,128,2,107366:0:0:0:0:
416,192,108224,128,2,109081:0:0:0:0:
160,192,109938,128,2,110366:0:0:0:0:
288,192,110795,1,8,0:0:0:0:
352,192,111224,1,0,0:0:0:0:
32,192,111866,1,12,0:0:0:0:
480,192,111866,1,2,0:0:0:0:
32,192,112295,1,12,0:0:0:0:
480,192,112295,1,2,0:0:0:0:
32,192,112938,1,12,0:0:0:0:
480,192,112938,1,2,0:0:0:0:
288,192,113366,128,2,114224:0:0:0:0:
224,192,115081,128,0,115938:0:0:0:0:
416,192,115938,128,8,116366:0:0:0:0:
352,192,116366,1,0,0:0:0:0:
32,192,116795,1,2,0:0:0:0:
96,192,116795,128,0,117652:0:0:0:0:
32,192,118724,1,12,0:0:0:0:
480,192,118724,1,2,0:0:0:0:
32,192,119152,1,12,0:0:0:0:
480,192,119152,1,2,0:0:0:0:
288,192,119795,1,2,0:0:0:0:
32,192,120224,1,4,0:0:0:0:
416,192,121938,1,0,0:0:0:0:
352,192,123652,1,0,0:0:0:0:
288,192,125366,1,0,0:0:0:0:
96,192,127081,1,0,0:0:0:0:
160,192,128795,1,0,0:0:0:0:
224,192,130509,1,0,0:0:0:0:
288,192,132224,1,0,0:0:0:0:
32,192,133938,1,2,0:0:0:0:
352,192,133938,128,0,135652:0:0:0:0:
224,192,135652,128,0,137366:0:0:0:0:
416,192,137366,128,0,139081:0:0:0:0:
160,192,139081,128,0,140795:0:0:0:0:
224,192,140795,128,0,142509:0:0:0:0:
96,192,142509,128,0,144224:0:0:0:0:
480,192,144224,128,0,145938:0:0:0:0:
288,192,145938,128,0,147652:0:0:0:0:
160,192,147652,1,0,0:0:0:0:
416,192,148081,1,0,0:0:0:0:
96,192,148509,1,0,0:0:0:0:
352,192,148938,1,0,0:0:0:0:
96,192,149366,1,0,0:0:0:0:
288,192,149795,1,0,0:0:0:0:
224,192,150009,1,0,0:0:0:0:
224,192,150652,1,0,0:0:0:0:
96,192,151081,1,0,0:0:0:0:
480,192,151509,1,0,0:0:0:0:
352,192,151938,1,0,0:0:0:0:
160,192,152152,1,0,0:0:0:0:
224,192,152795,1,0,0:0:0:0:
160,192,153224,1,0,0:0:0:0:
288,192,153438,1,0,0:0:0:0:
288,192,154081,1,0,0:0:0:0:
224,192,154509,1,0,0:0:0:0:
96,192,154938,1,0,0:0:0:0:
480,192,155366,1,0,0:0:0:0:
352,192,155795,1,0,0:0:0:0:
224,192,156224,1,0,0:0:0:0:
352,192,156652,1,0,0:0:0:0:
160,192,156866,1,0,0:0:0:0:
160,192,157509,1,0,0:0:0:0:
96,192,157938,1,2,0:0:0:0:
96,192,158366,1,2,0:0:0:0:
96,192,158795,1,2,0:0:0:0:
96,192,159224,1,2,0:0:0:0:
160,192,159652,1,2,0:0:0:0:
160,192,160081,1,2,0:0:0:0:
160,192,160509,1,2,0:0:0:0:
160,192,160938,1,2,0:0:0:0:
224,192,161366,1,2,0:0:0:0:
224,192,161795,1,2,0:0:0:0:
224,192,162224,1,2,0:0:0:0:
224,192,162652,1,2,0:0:0:0:
288,192,163081,1,2,0:0:0:0:
288,192,163509,1,2,0:0:0:0:
288,192,163938,1,2,0:0:0:0:
288,192,164366,1,2,0:0:0:0:
352,192,164795,1,2,0:0:0:0:
352,192,165224,1,2,0:0:0:0:
352,192,165652,1,2,0:0:0:0:
352,192,166081,1,2,0:0:0:0:
416,192,166509,1,2,0:0:0:0:
416,192,166938,1,2,0:0:0:0:
416,192,167366,1,2,0:0:0:0:
416,192,167795,1,2,0:0:0:0:
480,192,168224,1,2,0:0:0:0:
480,192,168652,1,2,0:0:0:0:
480,192,169081,1,2,0:0:0:0:
480,192,169509,1,2,0:0:0:0:
416,192,169938,1,2,0:0:0:0:
352,192,170366,1,2,0:0:0:0:
224,192,170795,1,2,0:0:0:0:
160,192,171224,1,2,0:0:0:0:
32,192,171652,1,4,0:0:0:0:
96,192,171652,1,2,0:0:0:0:
352,192,171866,1,0,0:0:0:0:
288,192,172188,1,0,0:0:0:0:
352,192,172402,1,0,0:0:0:0:
160,192,172616,1,0,0:0:0:0:
480,192,172938,1,0,0:0:0:0:
96,192,173366,1,0,0:0:0:0:
224,192,173795,1,0,0:0:0:0:
352,192,174009,1,0,0:0:0:0:
160,192,174331,1,0,0:0:0:0:
288,192,174545,1,0,0:0:0:0:
480,192,174866,1,0,0:0:0:0:
352,192,175081,1,2,0:0:0:0:
96,192,175402,1,0,0:0:0:0:
224,192,175616,1,0,0:0:0:0:
480,192,175938,1,0,0:0:0:0:
352,192,176366,1,0,0:0:0:0:
160,192,176795,1,0,0:0:0:0:
288,192,177224,1,0,0:0:0:0:
480,192,177545,1,0,0:0:0:0:
352,192,177759,1,0,0:0:0:0:
224,192,177974,1,0,0:0:0:0:
32,192,178509,1,4,0:0:0:0:
96,192,178509,1,2,0:0:0:0:
224,192,178938,1,0,0:0:0:0:
288,192,179259,1,0,0:0:0:0:
416,192,179474,1,0,0:0:0:0:
288,192,179688,1,0,0:0:0:0:
352,192,179902,1,0,0:0:0:0:
480,192,180331,1,0,0:0:0:0:
352,192,180652,1,0,0:0:0:0:
224,192,181188,1,0,0:0:0:0:
416,192,181402,1,0,0:0:0:0:
160,192,181616,1,0,0:0:0:0:
32,192,181938,1,4,0:0:0:0:
96,192,181938,1,2,0:0:0:0:
352,192,182366,1,10,0:0:0:0:
224,192,182795,1,2,0:0:0:0:
416,192,183224,1,10,0:0:0:0:
480,192,183652,128,2,184509:0:0:0:0:
32,192,184509,1,6,0:0:0:0:
32,192,184831,1,6,0:0:0:0:
32,192,185152,1,6,0:0:0:0:
32,192,185366,1,6,0:0:0:0:
352,192,185581,1,0,0:0:0:0:
160,192,185902,1,0,0:0:0:0:
480,192,186116,1,0,0:0:0:0:
416,192,186438,1,0,0:0:0:0:
224,192,186652,1,0,0:0:0:0:
288,192,186974,1,0,0:0:0:0:
160,192,187295,1,0,0:0:0:0:
96,192,187616,1,0,0:0:0:0:
224,192,187938,1,0,0:0:0:0:
480,192,188152,1,0,0:0:0:0:
160,192,188474,1,0,0:0:0:0:
32,192,188795,1,4,0:0:0:0:
416,192,188795,1,2,0:0:0:0:
288,192,189224,1,10,0:0:0:0:
160,192,189652,1,2,0:0:0:0:
96,192,190081,1,10,0:0:0:0:
224,192,190509,1,2,0:0:0:0:
352,192,190938,1,10,0:0:0:0:
480,192,191366,1,2,0:0:0:0:
96,192,191795,1,10,0:0:0:0:
32,192,192224,1,6,0:0:0:0:
352,192,192438,1,0,0:0:0:0:
160,192,192759,1,0,0:0:0:0:
480,192,192974,1,0,0:0:0:0:
416,192,193295,1,0,0:0:0:0:
224,192,193509,1,0,0:0:0:0:
352,192,193831,1,0,0:0:0:0:
288,192,194045,1,0,0:0:0:0:
96,192,194366,1,0,0:0:0:0:
480,192,194902,1,0,0:0:0:0:
352,192,195116,1,0,0:0:0:0:
224,192,195331,1,0,0:0:0:0:
32,192,195652,1,6,0:0:0:0:
160,192,195974,1,0,0:0:0:0:
224,192,196188,1,0,0:0:0:0:
288,192,196402,1,0,0:0:0:0:
352,192,196724,1,0,0:0:0:0:
416,192,197045,1,0,0:0:0:0:
32,192,197366,1,4,0:0:0:0:
480,192,197366,1,2,0:0:0:0:
352,192,197795,1,0,0:0:0:0:
224,192,198224,1,2,0:0:0:0:
96,192,198652,1,2,0:0:0:0:
32,192,199081,1,6,0:0:0:0:
416,192,199295,1,0,0:0:0:0:
160,192,199616,1,0,0:0:0:0:
480,192,199831,1,0,0:0:0:0:
224,192,200152,1,0,0:0:0:0:
352,192,200474,1,0,0:0:0:0:
96,192,200688,1,0,0:0:0:0:
288,192,201009,1,0,0:0:0:0:
160,192,201331,1,0,0:0:0:0:
224,192,201652,1,2,0:0:0:0:
224,192,202188,1,0,0:0:0:0:
32,192,202509,1,6,0:0:0:0:
32,192,203045,1,6,0:0:0:0:
32,192,203366,1,6,0:0:0:0:
32,192,203688,1,6,0:0:0:0:
32,192,204224,1,6,0:0:0:0:
32,192,205081,1,6,0:0:0:0:
32,192,205402,1,6,0:0:0:0:
32,192,205724,1,6,0:0:0:0:
32,192,205938,1,6,0:0:0:0:
32,192,206152,1,6,0:0:0:0:
416,192,206581,1,0,0:0:0:0:
32,192,206795,1,6,0:0:0:0:
32,192,207009,1,6,0:0:0:0:
416,192,207224,1,4,0:0:0:0:
32,192,207652,1,4,0:0:0:0:
352,192,207652,1,2,0:0:0:0:
288,192,207974,1,0,0:0:0:0:
224,192,208295,1,0,0:0:0:0:
480,192,208938,128,2,209366:0:0:0:0:
32,192,209366,1,4,0:0:0:0:
96,192,209366,1,2,0:0:0:0:
416,192,209581,1,0,0:0:0:0:
160,192,209902,1,0,0:0:0:0:
480,192,210116,1,0,0:0:0:0:
416,192,210438,1,0,0:0:0:0:
224,192,210652,1,0,0:0:0:0:
352,192,210974,1,0,0:0:0:0:
288,192,211295,1,0,0:0:0:0:
96,192,211616,1,0,0:0:0:0:
224,192,211938,1,0,0:0:0:0:
352,192,212152,1,0,0:0:0:0:
160,192,212474,1,0,0:0:0:0:
32,192,212795,1,2,0:0:0:0:
480,192,212795,1,4,0:0:0:0:
352,192,213224,1,10,0:0:0:0:
224,192,213652,1,2,0:0:0:0:
96,192,214081,1,10,0:0:0:0:
160,192,214509,1,2,0:0:0:0:
288,192,214938,1,10,0:0:0:0:
416,192,215366,1,2,0:0:0:0:
352,192,215795,1,10,0:0:0:0:
32,192,216224,1,6,0:0:0:0:
288,192,216438,1,0,0:0:0:0:
160,192,216759,1,0,0:0:0:0:
480,192,216974,1,0,0:0:0:0:
352,192,217295,1,0,0:0:0:0:
224,192,217509,1,0,0:0:0:0:
416,192,217831,1,0,0:0:0:0:
352,192,218045,1,0,0:0:0:0:
160,192,218366,1,0,0:0:0:0:
480,192,218902,1,0,0:0:0:0:
352,192,219116,1,0,0:0:0:0:
224,192,219331,1,0,0:0:0:0:
32,192,219652,1,6,0:0:0:0:
160,192,219974,1,0,0:0:0:0:
288,192,220188,1,0,0:0:0:0:
352,192,220402,1,0,0:0:0:0:
352,192,220724,1,0,0:0:0:0:
224,192,221045,1,0,0:0:0:0:
32,192,221366,1,6,0:0:0:0:
32,192,221581,1,6,0:0:0:0:
480,192,221795,1,0,0:0:0:0:
288,192,222224,1,2,0:0:0:0:
96,192,222652,1,2,0:0:0:0:
32,192,223081,1,6,0:0:0:0:
288,192,223295,1,0,0:0:0:0:
96,192,223616,1,0,0:0:0:0:
416,192,223831,1,0,0:0:0:0:
352,192,224152,1,0,0:0:0:0:
160,192,224366,1,0,0:0:0:0:
224,192,224688,1,0,0:0:0:0:
416,192,225009,1,0,0:0:0:0:
96,192,225331,1,0,0:0:0:0:
160,192,225652,1,0,0:0:0:0:
288,192,225866,1,0,0:0:0:0:
288,192,226188,1,0,0:0:0:0:
352,192,226509,1,6,0:0:0:0:
416,192,226724,1,6,0:0:0:0:
160,192,227045,1,6,0:0:0:0:
288,192,227366,1,6,0:0:0:0:
352,192,227688,1,6,0:0:0:0:
288,192,227902,1,6,0:0:0:0:
416,192,228224,1,6,0:0:0:0:
160,192,228438,1,6,0:0:0:0:
416,192,228652,1,6,0:0:0:0:
96,192,229081,1,6,0:0:0:0:
160,192,229402,1,6,0:0:0:0:
288,192,229724,1,6,0:0:0:0:
32,192,229938,1,4,0:0:0:0:
480,192,229938,1,2,0:0:0:0:
416,192,230581,1,0,0:0:0:0:
416,192,231224,1,0,0:0:0:0:
32,192,231652,1,4,0:0:0:0:
352,192,231652,1,0,0:0:0:0:
224,192,231974,1,0,0:0:0:0:
96,192,232295,1,0,0:0:0:0:
32,192,233366,1,4,0:0:0:0:
96,192,233366,1,0,0:0:0:0:
224,192,233795,1,0,0:0:0:0:
416,192,234438,1,0,0:0:0:0:
160,192,235081,1,0,0:0:0:0:
288,192,235509,1,0,0:0:0:0:
480,192,236152,1,0,0:0:0:0:
96,192,236795,1,0,0:0:0:0:
224,192,237224,1,0,0:0:0:0:
416,192,237866,1,0,0:0:0:0:
96,192,238509,1,0,0:0:0:0:
224,192,238938,1,0,0:0:0:0:
416,192,239581,1,0,0:0:0:0:
32,192,240224,1,4,0:0:0:0:
96,192,240224,1,0,0:0:0:0:
224,192,240652,1,0,0:0:0:0:
416,192,241295,1,0,0:0:0:0:
32,192,241938,1,4,0:0:0:0:
160,192,241938,1,0,0:0:0:0:
288,192,242366,1,0,0:0:0:0:
480,192,243009,1,0,0:0:0:0:
32,192,243652,1,4,0:0:0:0:
96,192,243652,1,0,0:0:0:0:
224,192,244081,1,0,0:0:0:0:
416,192,244724,1,0,0:0:0:0:
32,192,245366,1,4,0:0:0:0:
96,192,245366,1,0,0:0:0:0:
224,192,245795,1,0,0:0:0:0:
416,192,246438,1,0,0:0:0:0:
32,192,247081,1,4,0:0:0:0:
96,192,247081,1,0,0:0:0:0:
288,192,247509,1,0,0:0:0:0:
416,192,248152,1,0,0:0:0:0:
32,192,248795,1,4,0:0:0:0:
160,192,248795,1,0,0:0:0:0:
288,192,249224,1,0,0:0:0:0:
480,192,249866,1,0,0:0:0:0:
32,192,250509,1,4,0:0:0:0:
96,192,250509,1,0,0:0:0:0:
288,192,250938,1,0,0:0:0:0:
416,192,251581,1,0,0:0:0:0:
32,192,252224,1,4,0:0:0:0:
96,192,252224,1,0,0:0:0:0:
288,192,252652,1,0,0:0:0:0:
416,192,253295,1,0,0:0:0:0:
32,192,253938,1,4,0:0:0:0:
96,192,253938,1,0,0:0:0:0:
352,192,254366,1,0,0:0:0:0:
416,192,255009,1,0,0:0:0:0:
32,192,255652,1,4,0:0:0:0:
160,192,255652,1,0,0:0:0:0:
352,192,256081,1,0,0:0:0:0:
480,192,256724,1,0,0:0:0:0:
32,192,257366,1,4,0:0:0:0:
96,192,257366,1,0,0:0:0:0:
352,192,257795,1,0,0:0:0:0:
416,192,258438,1,0,0:0:0:0:
32,192,259081,1,4,0:0:0:0:
96,192,259081,1,0,0:0:0:0:
352,192,259509,1,0,0:0:0:0:
416,192,260152,1,0,0:0:0:0:
32,192,260795,1,4,0:0:0:0:
96,192,260795,1,2,0:0:0:0:
480,192,261224,1,2,0:0:0:0:
288,192,261652,1,2,0:0:0:0:
160,192,262081,1,2,0:0:0:0:
96,192,262509,1,2,0:0:0:0:
480,192,262938,1,2,0:0:0:0:
288,192,263366,1,2,0:0:0:0:
160,192,263795,1,2,0:0:0:0:
96,192,264224,1,2,0:0:0:0:
480,192,264652,1,2,0:0:0:0:
352,192,265081,1,2,0:0:0:0:
224,192,265509,1,2,0:0:0:0:
96,192,265938,1,2,0:0:0:0:
480,192,266366,1,2,0:0:0:0:
32,192,266902,1,4,0:0:0:0:
32,192,267224,1,6,0:0:0:0:
32,192,267438,1,6,0:0:0:0:
32,192,267652,1,6,0:0:0:0:
352,192,268081,1,2,0:0:0:0:
224,192,268509,1,2,0:0:0:0:
96,192,268938,1,2,0:0:0:0:
416,192,269366,1,2,0:0:0:0:
352,192,269795,1,2,0:0:0:0:
224,192,270224,1,2,0:0:0:0:
96,192,270652,1,2,0:0:0:0:
480,192,271081,1,2,0:0:0:0:
416,192,271509,1,2,0:0:0:0:
288,192,271938,1,2,0:0:0:0:
160,192,272366,1,6,0:0:0:0:
288,192,272795,1,6,0:0:0:0:
288,192,273224,1,6,0:0:0:0:
96,192,273652,128,4,274509:0:0:0:0:
480,192,274081,128,0,274509:0:0:0:0:
32,192,274509,1,4,0:0:0:0:
224,192,274938,1,2,0:0:0:0:
352,192,275366,1,2,0:0:0:0:
96,192,275795,1,2,0:0:0:0:
416,192,276224,1,2,0:0:0:0:
224,192,276652,1,2,0:0:0:0:
352,192,277081,1,2,0:0:0:0:
160,192,277509,1,2,0:0:0:0:
480,192,277938,1,2,0:0:0:0:
288,192,278366,1,2,0:0:0:0:
416,192,278795,1,2,0:0:0:0:
224,192,279224,1,2,0:0:0:0:
352,192,279652,1,2,0:0:0:0:
96,192,280081,1,2,0:0:0:0:
32,192,280616,1,4,0:0:0:0:
32,192,280938,1,4,0:0:0:0:
32,192,281152,1,4,0:0:0:0:
32,192,281366,1,4,0:0:0:0:
480,192,281795,1,2,0:0:0:0:
160,192,282224,1,2,0:0:0:0:
416,192,282652,1,2,0:0:0:0:
224,192,283081,1,2,0:0:0:0:
352,192,283509,1,2,0:0:0:0:
160,192,283938,1,2,0:0:0:0:
416,192,284366,1,2,0:0:0:0:
32,192,284795,1,4,0:0:0:0:
32,192,285009,1,4,0:0:0:0:
32,192,285438,1,4,0:0:0:0:
32,192,285652,1,4,0:0:0:0:
32,192,285866,1,4,0:0:0:0:
32,192,286509,1,4,0:0:0:0:
32,192,287152,1,2,0:0:0:0:
32,192,287474,1,2,0:0:0:0:
32,192,287795,128,2,288224:0:0:0:0:
96,192,288224,1,4,0:0:0:0:
480,192,288224,1,0,0:0:0:0:
224,192,288866,1,0,0:0:0:0:
416,192,289295,1,0,0:0:0:0:
480,192,290795,1,0,0:0:0:0:
160,192,292509,1,0,0:0:0:0:
352,192,293366,1,0,0:0:0:0:
480,192,294224,1,0,0:0:0:0:
224,192,296795,1,0,0:0:0:0:
