osu file format v14

[General]
AudioFilename: P - Frozen World.mp3
AudioLeadIn: 0
PreviewTime: 209371
Countdown: 0
SampleSet: Soft
StackLeniency: 0.2
Mode: 0
LetterboxInBreaks: 0
WidescreenStoryboard: 1

[Editor]
Bookmarks: 157943
DistanceSpacing: 0.5
BeatDivisor: 8
GridSize: 4
TimelineZoom: 2.899999

[Metadata]
Title:Frozen World
TitleUnicode:Frozen World
Artist:MuryokuP
ArtistUnicode:無力P
Creator:Melt
Version:Frozen
Source:
Tags:Resonance
BeatmapID:1244744
BeatmapSetID:417317

[Difficulty]
HPDrainRate:6
CircleSize:4.2
OverallDifficulty:7
ApproachRate:9
SliderMultiplier:1.8
SliderTickRate:1

[Events]
//Background and Video events
0,0,"1111111.jpg",0,0
//Break Periods
2,120429,133343
//Storyboard Layer 0 (Background)
//Storyboard Layer 1 (Fail)
//Storyboard Layer 2 (Pass)
//Storyboard Layer 3 (Foreground)
//Storyboard Sound Samples

[TimingPoints]
229,428.571428571429,4,2,1,40,1,0
229,-166.666666666667,4,2,1,40,0,0
13943,-133.333333333333,4,2,1,50,0,0
20800,-100,4,2,1,60,0,0
40943,-100,4,2,1,10,0,0
41371,-80,4,2,1,80,0,0
54657,-80,4,2,1,50,0,0
54764,-80,4,2,1,60,0,0
54871,-80,4,2,1,70,0,0
54979,-80,4,2,1,80,0,0
55086,-74.0740740740741,4,2,1,80,0,0
68800,-66.6666666666667,4,2,1,90,0,0
81657,-83.3333333333333,4,2,1,90,0,0
81979,-74.0740740740741,4,2,1,90,0,0
82300,-66.6666666666667,4,2,1,90,0,0
82514,-62.5,4,2,1,100,0,1
103086,-100,4,2,1,100,0,0
106514,-133.333333333333,4,2,1,100,0,0
107371,-100,4,2,1,100,0,0
113371,-133.333333333333,4,2,1,100,0,0
114229,-100,4,2,1,100,0,0
119800,-80,4,2,1,100,0,0
120229,-133.333333333333,4,2,1,40,0,0
133943,-117.647058823529,4,2,1,60,0,0
135243,-117.647058823529,4,2,1,80,0,0
147657,-100,4,2,1,100,0,0
159657,-90.9090909090909,4,2,1,100,0,0
161371,-83.3333333333333,4,2,1,100,0,0
163086,-76.9230769230769,4,2,1,100,0,0
164800,-71.4285714285714,4,2,1,100,0,0
168229,-76.9230769230769,4,2,1,100,0,0
169086,-86.9565217391304,4,2,1,100,0,0
169943,-100,4,2,1,100,0,0
171657,-66.6666666666667,4,2,1,100,0,0
184514,-83.3333333333333,4,2,1,100,0,0
184836,-74.0740740740741,4,2,1,100,0,0
185157,-66.6666666666667,4,2,1,100,0,0
185371,-62.5,4,2,1,100,0,1
205943,-60.6060606060606,4,2,1,100,0,0
209371,-60.6060606060606,4,2,1,100,0,1
229943,-133.333333333333,4,2,1,100,0,0
233371,-74.0740740740741,4,2,1,100,0,0
260800,-80,4,2,1,100,0,0
288229,-90.9090909090909,4,2,1,5,0,0
301943,-90.9090909090909,4,2,1,20,0,0

[Colours]
Combo1 : 200,0,0
Combo2 : 90,90,90
Combo3 : 230,230,230
Combo4 : 160,160,160

[HitObjects]
64,136,229,5,0,0:0:0:0:
182,121,657,1,0,0:0:0:0:
255,213,1086,2,0,B|304:226|304:226|369:223,1,107.999996704102,0|0,0:0|0:0,0:0:0:0:
484,289,1943,1,0,0:0:0:0:
475,209,2371,1,0,0:0:0:0:
467,130,2800,1,0,0:0:0:0:
458,50,3229,1,0,0:0:0:0:
276,11,3657,6,0,L|203:19,2,53.9999983520508,0|0|0,0:0|0:0|0:0,0:0:0:0:
160,75,4514,2,0,P|106:85|43:57,1,107.999996704102,0|0,0:0|0:0,0:0:0:0:
0,181,5371,2,0,L|12:295,1,107.999996704102,0|0,0:0|0:0,0:0:0:0:
165,350,6229,2,0,L|153:242,1,107.999996704102,0|0,0:0|0:0,0:0:0:0:
238,328,7086,6,0,L|245:392,2,53.9999983520508,0|0|0,0:0|0:0|0:0,0:0:0:0:
270,199,7943,2,0,P|263:151|289:96,1,107.999996704102,0|0,0:0|0:0,0:0:0:0:
447,110,8800,1,0,0:0:0:0:
366,103,9228,1,0,0:0:0:0:
287,98,9657,1,0,0:0:0:0:
207,93,10086,1,0,0:0:0:0:
53,68,10514,6,0,L|-21:75,2,53.9999983520508,0|0|0,0:0|0:0|0:0,0:0:0:0:
126,155,11371,1,0,0:0:0:0:
177,55,11800,1,0,0:0:0:0:
126,155,12229,2,0,L|139:280,1,107.999996704102,0|0,0:0|0:0,0:0:0:0:
10,360,13086,2,0,L|17:248,1,107.999996704102,0|0,0:0|0:0,0:0:0:0:
137,262,13943,6,0,B|296:278|296:278|245:293,1,202.500007724762,0|0,0:0|0:0,0:0:0:0:
177,373,14800,1,0,0:0:0:0:
329,244,15229,2,0,L|411:238,1,67.5000025749208,0|0,0:0|0:0,0:0:0:0:
396,239,15871,2,0,L|476:233,1,67.5000025749208,0|0,0:0|0:0,0:0:0:0:
341,49,16514,2,0,P|306:104|342:184,1,135.000005149842,0|0,0:0|0:0,0:0:0:0:
401,119,17157,1,0,0:0:0:0:
457,41,17371,6,0,P|495:115|417:212,1,202.500007724762,0|0,0:0|0:0,0:0:0:0:
435,206,18229,1,0,0:0:0:0:
343,10,18657,2,0,L|265:18,1,67.5000025749208,0|0,0:0|0:0,0:0:0:0:
275,16,19300,2,0,L|197:24,1,67.5000025749208,0|0,0:0|0:0,0:0:0:0:
0,83,19943,2,0,L|78:91,1,67.5000025749208,0|0,0:0|0:0,0:0:0:0:
125,180,20371,2,0,L|203:188,1,67.5000025749208,0|0,0:0|0:0,0:0:0:0:
285,240,20800,6,0,P|329:251|385:227,1,90,0|0,0:0|0:0,0:0:0:0:
458,160,21229,1,0,0:0:0:0:
512,264,21443,1,0,0:0:0:0:
510,280,21550,1,0,0:0:0:0:
509,293,21657,1,0,0:0:0:0:
429,380,21871,1,0,0:0:0:0:
330,313,22086,2,0,L|239:317,1,90,0|0,0:0|0:0,0:0:0:0:
133,362,22514,6,0,B|32:352,2,90,0|0|0,0:0|0:0|0:0,0:0:0:0:
240,316,23157,2,0,L|244:257,1,45,0|0,0:0|0:0,0:0:0:0:
293,213,23371,2,0,L|287:116,1,90,0|0,0:0|0:0,0:0:0:0:
287,123,23800,1,0,0:0:0:0:
289,109,23907,1,0,0:0:0:0:
291,96,24014,1,0,0:0:0:0:
294,84,24229,6,0,L|290:29,3,45,0|0|0|0,0:0|0:0|0:0|0:0,0:0:0:0:
216,12,24657,2,0,B|171:17|171:17|104:8,1,90,0|0,0:0|0:0,0:0:0:0:
60,60,24979,2,0,P|36:124|76:196,1,135,0|0,0:0|0:0,0:0:0:0:
236,241,25514,2,0,L|130:231,1,90,0|0,0:0|0:0,0:0:0:0:
66,279,25836,1,0,0:0:0:0:
141,339,25943,6,0,L|232:348,2,90,0|0|0,0:0|0:0|0:0,0:0:0:0:
236,241,26586,1,0,0:0:0:0:
295,172,26693,2,0,L|281:79,1,90,0|0,0:0|0:0,0:0:0:0:
352,24,27014,2,0,L|365:112,1,90,0|0,0:0|0:0,0:0:0:0:
480,199,27443,1,0,0:0:0:0:
365,112,27657,6,0,L|352:24,1,90,0|0,0:0|0:0,0:0:0:0:
352,24,28086,1,0,0:0:0:0:
238,109,28300,1,0,0:0:0:0:
236,126,28407,1,0,0:0:0:0:
235,144,28514,1,0,0:0:0:0:
286,274,28729,2,0,L|278:370,1,90,0|0,0:0|0:0,0:0:0:0:
203,264,29157,2,0,L|197:209,1,45,0|0,0:0|0:0,0:0:0:0:
140,162,29371,6,0,P|95:155|39:173,2,90,0|0|0,0:0|0:0|0:0,0:0:0:0:
203,264,30014,2,0,L|197:320,1,45,0|0,0:0|0:0,0:0:0:0:
279,238,30228,2,0,L|270:128,1,90,0|0,0:0|0:0,0:0:0:0:
199,48,30657,1,0,0:0:0:0:
181,47,30764,1,0,0:0:0:0:
163,48,30871,1,0,0:0:0:0:
0,99,31086,6,0,L|6:156,1,45,0|0,0:0|0:0,0:0:0:0:
73,209,31300,2,0,L|79:266,1,45,0|0,0:0|0:0,0:0:0:0:
38,325,31514,2,0,P|86:335|137:310,1,90,0|0,0:0|0:0,0:0:0:0:
204,275,31836,2,0,P|248:270|307:296,1,90,0|0,0:0|0:0,0:0:0:0:
356,339,32157,1,0,0:0:0:0:
388,153,32371,1,0,0:0:0:0:
502,216,32586,2,0,L|441:223,1,45,0|0,0:0|0:0,0:0:0:0:
308,194,32800,6,0,B|245:182|245:182|209:188,2,90,0|0|0,0:0|0:0|0:0,0:0:0:0:
388,153,33336,1,0,0:0:0:0:
190,119,33550,2,0,B|164:123|164:123|101:111,1,90,0|0,0:0|0:0,0:0:0:0:
18,94,33871,1,0,0:0:0:0:
226,19,34086,2,0,L|281:14,1,45,0|0,0:0|0:0,0:0:0:0:
355,75,34300,2,0,L|405:77,1,45,0|0,0:0|0:0,0:0:0:0:
256,192,34514,12,0,40943,0:0:0:0:
48,112,41372,6,0,B|118:124|118:124|178:118,1,112.5,4|0,0:0|0:0,0:0:0:0:
293,75,41800,1,8,0:0:0:0:
309,76,41907,1,0,0:0:0:0:
325,77,42015,2,0,P|388:131|502:93,1,168.75,0|0,0:0|0:0,0:0:0:0:
479,234,42443,2,0,L|464:83,1,112.5,0|8,0:0|0:0,0:0:0:0:
325,77,42871,2,0,L|239:73,1,56.25,0|0,0:0|0:0,0:0:0:0:
398,28,43086,5,0,0:0:0:0:
401,156,43300,1,0,0:0:0:0:
468,303,43514,2,0,L|462:237,1,56.25,8|0,0:0|0:0,0:0:0:0:
373,240,43729,2,0,P|289:274|202:217,1,168.75,0|0,0:0|0:0,0:0:0:0:
156,169,44157,2,0,L|164:35,1,112.5,0|8,0:0|0:0,0:0:0:0:
224,272,44586,2,0,L|231:329,1,56.25,0|0,0:0|0:0,0:0:0:0:
87,384,44800,6,0,L|95:250,1,112.5,0|0,0:0|0:0,0:0:0:0:
156,169,45229,1,8,0:0:0:0:
33,86,45443,2,0,B|25:219|25:219|41:184,1,168.75,0|0,0:0|0:0,0:0:0:0:
124,93,45872,2,0,P|177:89|241:142,1,112.5,0|8,0:0|0:0,0:0:0:0:
383,150,46300,2,0,L|453:146,1,56.25,0|0,0:0|0:0,0:0:0:0:
512,69,46515,6,0,L|376:77,1,112.5,0|0,0:0|0:0,0:0:0:0:
270,47,46943,1,8,0:0:0:0:
259,34,47050,1,0,0:0:0:0:
248,20,47157,2,0,B|251:138|251:138|239:198,1,168.75,0|0,0:0|0:0,0:0:0:0:
175,252,47586,2,0,L|187:317,1,56.25,0|0,0:0|0:0,0:0:0:0:
92,345,47800,2,0,L|91:288,1,56.25,8|0,0:0|0:0,0:0:0:0:
9,260,48014,2,0,L|-1:325,1,56.25,0|0,0:0|0:0,0:0:0:0:
43,220,48229,6,0,L|36:93,1,112.5,4|0,0:0|0:0,0:0:0:0:
152,30,48657,1,8,0:0:0:0:
367,69,48871,2,0,B|229:78|229:78|284:98,1,168.75,0|0,0:0|0:0,0:0:0:0:
355,144,49300,2,0,L|473:135,1,112.5,0|8,0:0|0:0,0:0:0:0:
306,216,49729,2,0,L|226:209,1,56.25,0|0,0:0|0:0,0:0:0:0:
148,201,49943,5,0,0:0:0:0:
0,315,50157,2,0,L|118:308,1,112.5,0|8,0:0|0:0,0:0:0:0:
218,334,50479,1,0,0:0:0:0:
218,334,50693,2,0,L|363:345,1,112.5,0|0,0:0|0:0,0:0:0:0:
433,278,51014,2,0,P|447:219|425:163,1,112.5,0|8,0:0|0:0,0:0:0:0:
269,108,51443,2,0,L|326:105,1,56.25,0|0,0:0|0:0,0:0:0:0:
201,53,51658,6,0,P|179:108|212:178,1,112.5,0|0,0:0|0:0,0:0:0:0:
86,246,52086,2,0,L|29:249,1,56.25,8|0,0:0|0:0,0:0:0:0:
29,249,52407,1,0,0:0:0:0:
185,294,52621,2,0,L|241:297,1,56.25,0|0,0:0|0:0,0:0:0:0:
346,360,52943,1,8,0:0:0:0:
512,309,53157,2,0,L|455:312,1,56.25,4|0,0:0|0:0,0:0:0:0:
456,300,53371,5,0,1:0:0:0:
456,288,53479,1,0,0:0:0:0:
456,276,53586,1,0,1:0:0:0:
456,264,53693,1,0,0:0:0:0:
480,216,53800,1,8,0:0:0:0:
476,184,53907,1,0,0:0:0:0:
472,152,54014,1,0,1:0:0:0:
468,120,54121,1,0,1:0:0:0:
464,88,54229,6,0,L|468:28,1,56.25,0|0,1:0|0:0,0:0:0:0:
388,155,54443,2,0,L|393:213,1,56.25,0|0,1:0|0:0,0:0:0:0:
328,90,54657,2,0,P|279:106|204:74,1,112.5,0|0,1:0|1:0,0:0:0:0:
75,29,55086,6,0,L|88:163,1,121.500000463486,4|0,0:0|0:0,0:0:0:0:
274,26,55515,1,8,0:0:0:0:
86,149,55729,2,0,L|90:209,1,60.7500002317429,0|0,0:0|0:0,0:0:0:0:
9,291,55943,2,0,L|-2:151,1,121.500000463486,0|0,0:0|0:0,0:0:0:0:
98,344,56372,2,0,P|157:362|241:310,1,121.500000463486,8|0,0:0|0:0,0:0:0:0:
336,288,56800,5,0,0:0:0:0:
154,271,57014,1,0,0:0:0:0:
332,276,57229,1,8,0:0:0:0:
328,264,57336,1,0,0:0:0:0:
324,252,57443,1,0,0:0:0:0:
441,246,57657,2,0,L|320:240,1,121.500000463486,0|0,0:0|0:0,0:0:0:0:
512,192,58086,1,8,0:0:0:0:
458,35,58300,1,0,0:0:0:0:
454,23,58407,1,0,0:0:0:0:
450,11,58515,6,0,L|448:153,1,121.500000463486,0|0,0:0|0:0,0:0:0:0:
281,165,58943,1,8,0:0:0:0:
267,163,59050,1,0,0:0:0:0:
255,161,59157,1,0,0:0:0:0:
101,120,59372,2,0,B|185:131|185:131|224:120,1,121.500000463486,0|0,0:0|0:0,0:0:0:0:
176,0,59800,1,8,0:0:0:0:
320,92,60014,2,0,L|401:86,1,60.7500002317429,0|0,0:0|0:0,0:0:0:0:
466,156,60229,6,0,P|477:209|437:272,1,121.500000463486,0|0,0:0|0:0,0:0:0:0:
307,368,60657,1,8,0:0:0:0:
307,355,60764,1,0,0:0:0:0:
308,343,60871,1,0,0:0:0:0:
245,214,61086,2,0,L|236:133,2,60.7500002317429,0|0|0,0:0|0:0|0:0,0:0:0:0:
308,343,61514,1,8,0:0:0:0:
361,178,61729,2,0,L|367:100,1,60.7500002317429,0|0,0:0|0:0,0:0:0:0:
231,93,61943,6,0,L|245:214,1,121.500000463486,4|0,0:0|0:0,0:0:0:0:
164,319,62371,2,0,L|157:389,2,60.7500002317429,8|0|0,0:0|0:0|0:0,0:0:0:0:
245,214,62800,2,0,L|231:93,1,121.500000463486,0|0,0:0|0:0,0:0:0:0:
328,20,63229,1,8,0:0:0:0:
150,77,63443,2,0,L|160:167,1,60.7500002317429,0|0,0:0|0:0,0:0:0:0:
112,235,63657,6,0,P|48:249|-18:205,1,121.500000463486,0|0,0:0|0:0,0:0:0:0:
203,309,64086,2,0,L|199:372,1,60.7500002317429,8|0,0:0|0:0,0:0:0:0:
286,240,64407,1,0,0:0:0:0:
303,242,64515,2,0,B|381:252|381:252|447:240,1,121.500000463486,0|0,0:0|0:0,0:0:0:0:
512,326,64943,1,8,0:0:0:0:
471,162,65157,2,0,L|475:81,1,60.7500002317429,0|0,0:0|0:0,0:0:0:0:
382,35,65372,6,0,P|332:58|251:26,1,121.500000463486,4|4,0:2|0:2,0:0:0:0:
50,96,65800,1,0,1:0:0:0:
80,98,65907,1,0,0:0:0:0:
110,100,66014,1,0,1:0:0:0:
140,102,66121,1,0,0:0:0:0:
171,105,66229,2,0,B|175:148|175:148|165:235,1,121.500000463486,4|4,0:2|0:2,0:0:0:0:
360,247,66657,1,0,1:0:0:0:
330,249,66764,1,0,0:0:0:0:
300,251,66871,1,0,1:0:0:0:
270,253,66978,1,0,0:0:0:0:
239,255,67086,6,0,L|243:192,1,60.7500002317429,0|0,0:0|0:0,0:0:0:0:
437,288,67300,2,0,L|441:351,1,60.7500002317429,0|0,0:0|0:0,0:0:0:0:
284,372,67514,1,0,0:0:0:0:
241,369,67621,1,0,0:0:0:0:
199,367,67728,1,0,0:0:0:0:
156,364,67835,1,0,0:0:0:0:
114,362,67943,2,0,L|46:367,3,60.7500002317429,0|0|0|0,0:0|0:0|0:0|0:0,0:0:0:0:
0,274,68371,2,0,L|54:278,7,30.3750001158714,0|0|0|0|0|0|0|0,0:0|0:0|0:0|0:0|0:0|0:0|0:0|0:0,0:0:0:0:
75,280,68800,5,4,0:0:0:0:
135,160,69014,2,0,P|199:138|272:171,1,135.000005149842,0|10,0:0|0:0,0:0:0:0:
290,247,69336,1,0,0:0:0:0:
200,292,69443,2,0,L|196:218,1,67.5000025749208,0|2,0:0|0:0,0:0:0:0:
260,159,69657,1,0,0:0:0:0:
292,135,69764,1,0,0:0:0:0:
332,127,69871,1,0,0:0:0:0:
371,137,69978,1,0,0:0:0:0:
403,161,70086,1,10,0:0:0:0:
402,181,70193,1,0,0:0:0:0:
402,201,70300,1,0,0:0:0:0:
401,221,70407,1,0,0:0:0:0:
437,302,70514,6,0,L|446:376,3,67.5000025749208,2|0|0|0,0:0|0:0|0:0|0:0,0:0:0:0:
482,199,70943,2,0,L|486:126,2,67.5000025749208,10|0|2,0:0|0:0|0:0,0:0:0:0:
347,282,71264,2,0,B|259:288|259:288|188:272,1,135.000005149842,2|2,0:0|0:0,0:0:0:0:
135,310,71586,1,0,0:0:0:0:
205,352,71693,2,0,B|251:363|251:363|339:357,1,135.000005149842,2|2,0:0|0:0,0:0:0:0:
355,208,72014,2,0,L|278:213,1,67.5000025749208,2|0,0:0|0:0,0:0:0:0:
203,145,72229,5,0,0:0:0:0:
220,116,72336,1,0,0:0:0:0:
224,83,72443,1,0,0:0:0:0:
213,51,72550,1,0,0:0:0:0:
190,27,72657,2,0,L|94:33,1,67.5000025749208,10|0,0:0|0:0,0:0:0:0:
67,132,72871,2,0,L|0:135,1,67.5000025749208,0|0,0:0|0:0,0:0:0:0:
115,205,73086,1,2,0:0:0:0:
97,233,73193,1,0,0:0:0:0:
93,266,73300,1,0,0:0:0:0:
104,298,73407,1,0,0:0:0:0:
127,322,73514,2,0,B|170:313|170:313|298:327,1,135.000005149842,10|0,0:0|0:0,0:0:0:0:
427,341,73943,6,0,L|500:328,2,67.5000025749208,2|2|2,0:0|0:0|0:0,0:0:0:0:
310,253,74371,1,8,0:0:0:0:
392,260,74479,2,0,P|379:195|421:129,1,135.000005149842,2|2,0:0|0:0,0:0:0:0:
512,41,74800,1,0,0:0:0:0:
327,61,75014,1,0,0:0:0:0:
512,42,75229,2,0,L|429:38,1,67.5000025749208,12|0,0:0|0:0,0:0:0:0:
327,61,75443,2,0,L|241:67,1,67.5000025749208,4|0,0:0|0:0,0:0:0:0:
108,7,75657,6,0,L|194:1,1,67.5000025749208,6|0,0:0|0:0,0:0:0:0:
125,154,75871,2,0,L|39:160,1,67.5000025749208,0|0,0:0|0:0,0:0:0:0:
0,90,76086,1,10,0:0:0:0:
84,82,76193,2,0,B|179:75|179:75|202:126,1,135.000005149842,2|2,0:0|0:0,0:0:0:0:
224,195,76514,2,0,L|216:275,2,67.5000025749208,2|0|2,0:0|0:0|0:0,0:0:0:0:
292,153,76836,1,0,0:0:0:0:
406,87,77050,2,0,B|522:98|522:98|489:74,1,135.000005149842,2|2,0:0|0:0,0:0:0:0:
450,18,77371,6,0,L|369:11,1,67.5000025749208,0|0,0:0|0:0,0:0:0:0:
434,163,77586,2,0,L|515:171,1,67.5000025749208,0|0,0:0|0:0,0:0:0:0:
305,48,77800,2,0,L|224:41,2,67.5000025749208,10|0|2,0:0|0:0|0:0,0:0:0:0:
160,84,78121,2,0,P|134:144|184:225,1,135.000005149842,2|2,0:0|0:0,0:0:0:0:
246,349,78550,2,0,P|265:288|238:219,1,135.000005149842,2|2,0:0|0:0,0:0:0:0:
160,84,78979,1,2,0:0:0:0:
213,145,79086,6,0,L|287:138,3,67.5000025749208,2|0|0|0,1:2|0:0|1:0|0:0,0:0:0:0:
424,188,79514,2,0,L|510:198,3,67.5000025749208,10|0|2|0,0:0|0:0|0:0|0:0,0:0:0:0:
356,250,79943,6,0,L|368:328,1,67.5000025749208,2|0,1:2|0:0,0:0:0:0:
388,112,80157,2,0,L|404:29,1,67.5000025749208,0|0,1:0|0:0,0:0:0:0:
285,295,80371,2,0,L|297:373,1,67.5000025749208,10|0,1:2|0:0,0:0:0:0:
315,77,80586,2,0,L|331:-6,1,67.5000025749208,2|0,1:2|0:0,0:0:0:0:
213,64,80800,2,0,L|198:-16,2,45.0000017166138,0|0|0,1:0|0:0|0:0,0:0:0:0:
117,112,81014,2,0,L|90:65,2,45.0000017166138,2|0|0,1:2|0:0|0:0,0:0:0:0:
86,58,81229,1,8,1:2:0:0:
88,97,81336,1,0,1:2:0:0:
91,137,81443,1,8,1:2:0:0:
94,178,81550,1,0,1:2:0:0:
97,218,81657,22,0,L|9:304,1,107.999996704102,4|0,0:2|2:0,0:0:0:0:
227,353,81979,2,0,L|183:241,1,121.500000463486,4|0,0:2|2:0,0:0:0:0:
233,166,82300,2,0,L|344:170,1,67.5000025749208,4|0,0:2|2:0,0:0:0:0:
394,127,82514,6,0,P|372:60|406:0,1,144,4|2,0:0|0:0,0:0:0:0:
484,134,82943,1,8,0:0:0:0:
431,207,83050,2,0,P|452:273|418:334,1,144,2|2,0:0|0:0,0:0:0:0:
340,332,83372,2,0,L|528:341,1,144,0|2,0:0|0:0,0:0:0:0:
299,251,83800,1,10,0:0:0:0:
270,254,83907,1,2,0:0:0:0:
241,258,84014,1,0,0:0:0:0:
212,261,84121,6,0,P|150:233|58:271,1,144,2|0,0:0|0:0,0:0:0:0:
139,322,84443,1,2,0:0:0:0:
44,333,84550,2,0,L|50:182,1,144,2|2,0:0|0:0,0:0:0:0:
0,40,84871,2,0,L|7:134,1,72,0|0,0:0|0:0,0:0:0:0:
97,112,85086,2,0,P|160:91|242:137,1,144,2|0,0:0|0:0,0:0:0:0:
269,199,85407,1,2,0:0:0:0:
408,35,85621,1,2,0:0:0:0:
405,63,85729,1,2,0:0:0:0:
402,91,85836,1,0,0:0:0:0:
398,119,85943,6,0,B|412:181|412:181|392:269|392:269|407:341,1,216,4|0,0:0|0:0,0:0:0:0:
481,282,86371,1,8,0:0:0:0:
400,237,86479,2,0,B|299:231|299:231|256:241,1,144,2|0,0:0|0:0,0:0:0:0:
200,176,86800,2,0,P|169:236|219:322,1,144,2|2,0:0|0:0,0:0:0:0:
251,368,87121,2,0,P|282:308|232:222,1,144,0|2,0:0|0:0,0:0:0:0:
288,159,87443,2,0,L|383:163,1,72,0|0,0:0|0:0,0:0:0:0:
411,50,87657,5,2,0:0:0:0:
382,51,87764,1,0,0:0:0:0:
353,53,87871,1,2,0:0:0:0:
324,54,87978,1,0,0:0:0:0:
231,27,88085,1,8,0:0:0:0:
202,25,88192,1,2,0:0:0:0:
173,23,88299,1,0,0:0:0:0:
144,22,88406,1,2,0:0:0:0:
0,101,88514,6,0,L|71:105,1,72,0|0,1:0|2:0,0:0:0:0:
205,183,88729,2,0,L|134:179,1,72,0|0,1:0|0:0,0:0:0:0:
268,257,88943,2,0,L|339:261,1,72,8|0,2:0|1:0,0:0:0:0:
473,339,89157,2,0,L|402:335,1,72,0|0,1:0|2:0,0:0:0:0:
339,261,89371,6,0,P|327:186|381:127,1,144,4|2,1:0|0:0,0:0:0:0:
181,27,89800,2,0,L|253:22,2,72,8|2|0,0:0|0:0|0:0,0:0:0:0:
128,104,90121,2,0,P|55:130|-19:62,1,144,2|0,0:0|0:0,0:0:0:0:
66,42,90443,1,2,0:0:0:0:
0,207,90657,1,10,0:0:0:0:
1,235,90764,1,2,0:0:0:0:
2,263,90871,1,0,0:0:0:0:
4,291,90979,6,0,B|105:281|105:281|155:297,1,144,2|0,0:0|0:0,0:0:0:0:
228,321,91300,2,0,L|296:342,1,72,2|0,0:0|0:0,0:0:0:0:
339,273,91514,6,0,L|289:220,1,72,10|2,0:0|0:0,0:0:0:0:
391,167,91729,2,0,L|407:237,1,72,0|2,0:0|0:0,0:0:0:0:
496,338,91943,1,2,0:0:0:0:
498,302,92050,1,2,0:0:0:0:
500,266,92157,1,2,0:0:0:0:
502,230,92264,1,0,0:0:0:0:
485,138,92371,1,10,0:0:0:0:
454,98,92478,1,0,0:0:0:0:
408,78,92585,1,2,0:0:0:0:
358,80,92692,1,0,0:0:0:0:
315,105,92799,5,0,0:0:0:0:
266,191,92907,2,0,L|274:365,1,144,0|0,0:0|0:0,0:0:0:0:
183,151,93336,2,0,L|188:261,1,72,2|0,0:0|0:0,0:0:0:0:
139,300,93550,2,0,P|62:312|-1:257,1,144,2|0,0:0|0:0,0:0:0:0:
9,190,93871,2,0,B|23:67|23:67|35:104,1,144,2|8,0:0|0:0,0:0:0:0:
118,84,94193,2,0,P|184:60|253:89,1,144,2|2,0:0|0:0,0:0:0:0:
341,149,94514,6,0,L|403:143,5,48,6|0|0|0|0|0,0:2|2:0|2:0|0:2|2:0|2:0,0:0:0:0:
442,83,94943,2,0,P|475:77|535:111,1,72,8|0,0:0|0:0,0:0:0:0:
500,214,95157,2,0,P|467:220|407:186,1,72,0|0,0:0|0:0,0:0:0:0:
341,149,95372,2,0,L|248:159,1,72,0|0,1:2|0:0,0:0:0:0:
58,116,95586,2,0,L|129:123,1,72,0|0,1:2|0:0,0:0:0:0:
343,224,95800,2,0,L|250:234,1,72,0|0,1:2|1:2,0:0:0:0:
57,194,96014,2,0,L|128:201,1,72,0|0,1:2|1:2,0:0:0:0:
188,260,96229,6,0,P|202:333|137:394,1,144,4|2,0:0|0:0,0:0:0:0:
207,176,96657,1,8,0:0:0:0:
204,147,96764,1,2,0:0:0:0:
201,118,96871,1,0,0:0:0:0:
199,89,96979,2,0,B|245:102|245:102|352:89,1,144,2|0,0:0|0:0,0:0:0:0:
427,79,97300,1,0,0:0:0:0:
253,6,97514,1,10,0:0:0:0:
224,7,97621,1,2,0:0:0:0:
195,9,97729,1,0,0:0:0:0:
166,11,97836,6,0,P|108:61|147:154,1,144,2|0,0:0|0:0,0:0:0:0:
58,191,98157,1,2,0:0:0:0:
145,207,98264,2,0,B|133:305|133:305|143:349,1,144,2|2,0:0|0:0,0:0:0:0:
217,301,98586,2,0,L|228:209,1,72,0|0,0:0|0:0,0:0:0:0:
294,168,98800,2,0,P|356:150|435:203,1,144,2|2,0:0|0:0,0:0:0:0:
480,257,99121,2,0,P|418:275|339:222,1,144,2|2,0:0|0:0,0:0:0:0:
294,168,99443,2,0,L|288:93,1,72,0|0,0:0|0:0,0:0:0:0:
181,56,99657,5,4,1:2:0:0:
430,32,99871,1,4,0:0:0:0:
181,56,100086,2,0,B|197:129|197:129|188:212|188:212|202:286,1,216,4|0,1:0|0:0,0:0:0:0:
102,340,100514,2,0,L|260:357,1,144,4|0,0:0|1:0,0:0:0:0:
408,256,100836,2,0,L|337:266,1,72,4|0,0:0|0:0,0:0:0:0:
57,200,101050,2,0,P|121:170|190:183,1,144,2|0,1:0|0:0,0:0:0:0:
320,162,101371,2,0,P|300:90|386:15,2,144,4|4|4,1:2|1:2|1:2,0:0:0:0:
485,205,102014,2,0,L|414:203,1,72,0|0,0:0|0:0,0:0:0:0:
361,291,102229,6,0,P|300:316|217:291,1,144,4|0,1:2|0:0,0:0:0:0:
0,264,102550,2,0,P|61:239|144:264,1,144,4|0,1:2|0:0,0:0:0:0:
210,198,102871,2,0,L|217:120,1,72,4|0,1:2|1:2,0:0:0:0:
293,48,103086,6,0,B|434:42|434:42|390:63,1,180,4|0,0:0|0:0,0:0:0:0:
130,79,103729,2,0,B|-11:85|-11:85|33:64,1,180,2|0,0:0|0:0,0:0:0:0:
24,68,104371,1,2,0:0:0:0:
322,275,104801,2,0,L|330:121,2,135,2|0|0,0:0|0:0|0:0,0:0:0:0:
478,337,105657,2,0,P|430:350|372:321,1,90,0|0,0:0|0:0,0:0:0:0:
240,239,106086,2,0,L|246:136,1,90,2|2,0:0|0:0,0:0:0:0:
397,74,106514,5,4,0:0:0:0:
397,74,107371,2,0,L|404:144,1,45,2|2,0:0|0:0,0:0:0:0:
352,183,107586,2,0,L|359:253,1,45,2|2,0:0|0:0,0:0:0:0:
412,368,107800,2,0,L|419:298,1,45,2|2,0:0|0:0,0:0:0:0:
483,279,108014,2,0,L|490:209,1,45,2|2,0:0|0:0,0:0:0:0:
499,148,108229,5,0,1:0:0:0:
256,80,108550,1,0,1:0:0:0:
13,148,108871,1,0,1:0:0:0:
93,296,109086,2,0,L|103:365,1,45,2|0,0:2|0:0,0:0:0:0:
175,213,109300,2,0,L|181:168,1,45,2|0,0:0|0:0,0:0:0:0:
270,321,109514,2,0,L|266:365,1,45,2|0,0:0|0:0,0:0:0:0:
374,269,109729,2,0,L|368:221,1,45,2|0,0:0|0:0,0:0:0:0:
359,129,109943,5,0,0:0:0:0:
359,129,110371,2,0,B|395:132|395:132|434:126,2,60,2|0|0,0:0|0:0|0:0,0:0:0:0:
268,72,110800,1,0,1:0:0:0:
198,91,111014,1,0,0:0:0:0:
128,110,111229,1,0,0:0:0:0:
58,129,111443,2,0,L|-16:116,1,45,0|0,0:0|0:0,0:0:0:0:
59,29,111657,5,0,0:0:0:0:
75,27,111764,1,0,0:0:0:0:
93,25,111871,1,2,0:0:0:0:
268,72,112086,1,0,0:0:0:0:
284,72,112193,1,0,0:0:0:0:
302,74,112300,1,2,0:0:0:0:
371,141,112514,2,0,P|372:210|479:253,1,180,0|0,0:0|1:0,0:0:0:0:
488,89,113157,2,0,L|410:94,1,45,0|0,0:0|0:0,0:0:0:0:
371,141,113372,5,4,0:0:0:0:
123,305,114229,2,0,L|131:379,2,60,0|0|0,0:0|0:0|0:0,0:0:0:0:
195,207,114657,2,0,L|205:134,2,60,0|0|0,0:0|0:0|0:0,0:0:0:0:
209,322,115086,2,0,L|217:393,1,45,2|0,0:0|0:0,0:0:0:0:
114,217,115300,2,0,L|124:145,1,45,2|0,0:0|0:0,0:0:0:0:
0,101,115514,2,0,L|6:162,3,45,0|0|0|0,0:0|0:0|0:0|0:0,0:0:0:0:
62,40,115943,2,0,P|134:12|231:59,1,180,0|2,1:0|0:0,0:0:0:0:
251,291,116586,2,0,L|253:246,1,45,0|2,0:0|0:0,0:0:0:0:
308,169,116800,5,2,0:0:0:0:
137,105,117121,1,0,0:0:0:0:
496,82,117443,1,0,0:0:0:0:
347,59,117657,2,0,L|338:-18,2,60,2|0|0,1:2|0:0|0:0,0:0:0:0:
441,165,118086,1,2,0:0:0:0:
439,200,118193,1,2,0:0:0:0:
438,236,118300,1,2,0:0:0:0:
437,272,118407,1,2,0:0:0:0:
436,308,118514,6,0,B|395:302|395:302|326:313,1,90,0|0,0:0|1:0,0:0:0:0:
207,353,118943,2,0,L|149:349,2,45,0|0|0,1:0|0:0|1:0,0:0:0:0:
273,227,119371,2,0,L|214:231,1,45,0|0,0:0|0:0,0:0:0:0:
47,159,119586,2,0,L|115:166,1,45,2|0,1:2|0:2,0:0:0:0:
189,110,119800,2,0,L|319:102,1,112.5,2|2,0:2|1:2,0:0:0:0:
419,121,120229,5,0,0:0:0:0:
106,95,133943,6,0,P|138:135|55:281,1,229.500004377365,2|0,0:0|0:0,0:0:0:0:
34,176,134800,1,10,0:0:0:0:
184,38,135229,2,0,L|290:45,1,76.5000014591217,0|0,0:0|0:0,0:0:0:0:
450,339,135871,2,0,L|344:332,1,76.5000014591217,0|0,0:0|0:0,0:0:0:0:
116,286,136514,2,0,P|176:258|266:299,1,153.000002918243,10|0,0:0|0:0,0:0:0:0:
307,379,137157,1,0,0:0:0:0:
378,255,137371,6,0,P|346:215|427:60,1,229.500004377365,2|0,0:0|0:0,0:0:0:0:
451,168,138228,1,8,0:0:0:0:
247,28,138657,2,0,L|159:37,1,76.5000014591217,0|2,0:0|0:0,0:0:0:0:
0,321,139300,2,0,L|88:312,1,76.5000014591217,0|0,0:0|0:0,0:0:0:0:
171,196,139943,1,10,0:0:0:0:
247,201,140157,1,0,0:0:0:0:
323,206,140371,1,0,0:0:0:0:
399,212,140585,1,0,0:0:0:0:
449,301,140800,6,0,B|451:249|451:249|430:165|430:165|437:67,1,229.500004377365,2|0,0:0|0:0,0:0:0:0:
273,23,141657,2,0,P|244:89|305:172,1,153.000002918243,8|0,0:0|0:0,0:0:0:0:
331,88,142300,5,2,0:0:0:0:
148,34,142729,2,0,L|58:43,1,76.5000014591217,0|0,0:0|0:0,0:0:0:0:
331,88,143371,2,0,L|407:95,1,76.5000014591217,10|0,0:0|0:0,0:0:0:0:
392,189,143800,2,0,L|468:196,1,76.5000014591217,0|0,0:0|0:0,0:0:0:0:
321,262,144229,6,0,P|215:308|110:234,1,229.500004377365,2|0,0:0|0:0,0:0:0:0:
111,156,145086,6,0,B|126:222|126:222|115:325,1,153.000002918243,8|0,0:0|0:0,0:0:0:0:
28,373,145729,1,2,0:0:0:0:
0,109,146157,6,0,L|11:15,1,76.5000014591217,0|0,0:0|0:0,0:0:0:0:
224,60,146800,1,10,0:0:0:0:
273,115,147014,1,0,0:0:0:0:
346,129,147228,1,0,0:0:0:0:
413,93,147442,1,0,0:0:0:0:
485,161,147657,6,0,P|494:208|476:257,1,90,0|2,0:0|0:0,0:0:0:0:
308,268,148086,2,0,L|384:272,1,45,0|2,0:0|0:0,0:0:0:0:
248,327,148407,2,0,P|199:339|134:306,1,90,0|0,0:0|0:0,0:0:0:0:
86,273,148729,2,0,P|42:262|0:274,1,90,2|0,0:0|0:0,0:0:0:0:
203,249,149157,2,0,L|200:205,1,45,2|0,0:0|0:0,0:0:0:0:
242,139,149371,6,0,L|250:43,1,90,0|2,0:0|0:0,0:0:0:0:
101,18,149800,2,0,L|107:95,1,45,0|2,0:0|0:0,0:0:0:0:
242,139,150121,2,0,P|292:149|343:128,1,90,0|0,0:0|0:0,0:0:0:0:
396,93,150443,2,0,B|494:99,1,90,2|0,0:0|0:0,0:0:0:0:
283,54,150871,2,0,L|238:58,1,45,0|0,0:0|0:0,0:0:0:0:
162,187,151086,6,0,L|170:276,1,90,0|2,0:0|0:0,0:0:0:0:
88,384,151514,2,0,L|91:324,1,45,0|2,0:0|0:0,0:0:0:0:
250,228,151836,2,0,L|241:138,1,90,0|0,0:0|0:0,0:0:0:0:
154,105,152157,2,0,L|145:15,1,90,0|2,0:0|0:0,0:0:0:0:
298,33,152586,2,0,L|253:29,1,45,0|0,0:0|0:0,0:0:0:0:
61,77,152800,6,0,P|52:121|90:185,1,90,0|2,0:0|0:0,0:0:0:0:
160,305,153229,2,0,L|222:298,1,45,0|2,0:0|0:0,0:0:0:0:
438,346,153550,2,0,P|384:357|341:337,1,90,0|0,0:0|0:0,0:0:0:0:
292,266,153872,2,0,L|295:155,1,90,2|0,0:0|0:0,0:0:0:0:
224,1,154300,2,0,L|232:74,1,45,2|0,0:0|0:0,0:0:0:0:
376,104,154514,6,0,B|433:112|433:112|497:99,1,90,0|2,0:0|0:0,0:0:0:0:
302,11,154943,2,0,L|310:84,1,45,0|2,0:0|0:0,0:0:0:0:
512,180,155264,2,0,L|506:285,1,90,0|0,0:0|0:0,0:0:0:0:
401,283,155586,2,0,L|350:195,1,90,2|0,0:0|0:0,0:0:0:0:
289,344,156014,2,0,L|343:370,1,45,2|0,0:0|0:0,0:0:0:0:
198,287,156229,6,0,L|96:293,1,90,0|2,0:0|0:0,0:0:0:0:
0,169,156658,2,0,L|71:173,1,45,0|2,0:0|0:0,0:0:0:0:
188,101,156979,2,0,P|228:92|290:116,1,90,0|0,0:0|0:0,0:0:0:0:
269,197,157300,2,0,P|229:206|167:182,1,90,0|2,0:0|0:0,0:0:0:0:
118,8,157729,2,0,L|113:60,1,45,0|0,0:0|0:0,0:0:0:0:
0,240,157943,6,0,L|9:344,1,90
114,254,158371,2,0,L|123:358,1,90,0|0,1:0|0:0,0:0:0:0:
229,216,158800,2,0,L|238:320,1,90
343,230,159228,2,0,L|352:334,1,90,0|0,0:2|0:2,0:0:0:0:
512,109,159657,6,0,L|503:5,1,90,0|0,1:2|0:0,0:0:0:0:
283,133,160085,2,0,L|275:43,1,90,0|0,1:0|0:0,0:0:0:0:
398,95,160514,2,0,L|390:5,1,90,0|0,0:0|0:0,0:0:0:0:
169,119,160942,2,0,L|160:15,1,90,0|0,1:0|0:0,0:0:0:0:
100,209,161371,6,0,P|45:215|-7:181,1,107.999996704102,0|0,1:2|0:0,0:0:0:0:
187,251,161800,2,0,P|237:235|306:261,1,107.999996704102
473,204,162229,2,0,P|419:219|362:195,1,107.999996704102,0|0,0:0|0:0,0:0:0:0:
290,333,162657,2,0,P|240:349|171:323,1,107.999996704102,0|2,0:0|0:0,0:0:0:0:
0,271,163086,6,0,L|130:264,1,116.999994644165,0|0,1:0|0:0,0:0:0:0:
395,264,163514,2,0,L|512:271,1,116.999994644165,0|0,1:0|0:0,0:0:0:0:
512,113,163943,2,0,L|395:119,1,116.999994644165
116,119,164371,2,0,L|0:113,1,116.999994644165,0|2,0:0|0:0,0:0:0:0:
202,57,164800,5,0,1:2:0:0:
208,138,165229,1,0,1:0:0:0:
214,220,165657,1,0,0:0:0:0:
220,301,166086,1,0,1:2:0:0:
214,220,166514,5,0,1:2:0:0:
176,217,166943,1,0,1:0:0:0:
139,215,167371,1,0,0:0:0:0:
101,213,167800,1,0,0:0:0:0:
256,192,168229,12,0,171229,0:0:0:0:
408,40,171657,5,4,0:0:0:0:
272,113,171871,2,0,P|306:165|290:243,1,135.000005149842,0|10,0:0|0:0,0:0:0:0:
217,276,172193,1,0,0:0:0:0:
213,186,172300,2,0,L|138:197,1,67.5000025749208,0|2,0:0|0:0,0:0:0:0:
64,161,172514,1,0,0:0:0:0:
61,134,172621,1,0,0:0:0:0:
59,107,172728,1,0,0:0:0:0:
57,80,172835,1,0,0:0:0:0:
146,195,172943,1,10,0:0:0:0:
143,235,173050,1,0,0:0:0:0:
140,275,173157,1,0,0:0:0:0:
137,316,173264,1,0,0:0:0:0:
42,349,173371,6,0,L|35:280,3,67.5000025749208,2|0|0|0,0:0|0:0|0:0|0:0,0:0:0:0:
64,161,173800,2,0,L|56:84,2,67.5000025749208,10|0|2,0:0|0:0|0:0,0:0:0:0:
146,195,174121,2,0,B|239:204|239:204|282:195,1,135.000005149842,2|2,0:0|0:0,0:0:0:0:
305,109,174443,1,0,0:0:0:0:
365,174,174550,2,0,B|405:165|405:165|498:174,1,135.000005149842,2|2,0:0|0:0,0:0:0:0:
492,256,174871,2,0,L|418:249,1,67.5000025749208,2|0,0:0|0:0,0:0:0:0:
361,338,175086,5,0,0:0:0:0:
332,355,175193,1,0,0:0:0:0:
299,359,175300,1,0,0:0:0:0:
267,348,175407,1,0,0:0:0:0:
243,325,175514,2,0,L|249:229,1,67.5000025749208,8|0,0:0|0:0,0:0:0:0:
364,173,175728,2,0,L|357:106,1,67.5000025749208,0|0,0:0|0:0,0:0:0:0:
279,37,175943,1,2,0:0:0:0:
251,19,176050,1,0,0:0:0:0:
218,15,176157,1,0,0:0:0:0:
186,26,176264,1,0,0:0:0:0:
162,49,176371,2,0,B|48:41|48:41|70:55,1,135.000005149842,10|0,0:0|0:0,0:0:0:0:
356,105,176800,6,0,L|433:100,2,67.5000025749208,0|0|2,0:0|0:0|0:0,0:0:0:0:
186,145,177228,1,8,0:0:0:0:
136,215,177336,2,0,P|120:281|161:346,1,135.000005149842,2|2,0:0|0:0,0:0:0:0:
399,300,177657,1,0,0:0:0:0:
211,267,177871,1,0,0:0:0:0:
399,300,178086,2,0,L|466:303,1,67.5000025749208,12|0,1:2|0:0,0:0:0:0:
211,267,178300,2,0,L|278:262,1,67.5000025749208,4|0,1:2|0:0,0:0:0:0:
445,228,178514,6,0,L|512:231,1,67.5000025749208,6|0,0:0|0:0,0:0:0:0:
302,183,178729,2,0,L|235:188,1,67.5000025749208,0|0,0:0|0:0,0:0:0:0:
150,156,178943,1,10,0:0:0:0:
210,85,179050,2,0,P|137:65|69:113,1,135.000005149842,2|2,0:0|0:0,0:0:0:0:
12,153,179371,2,0,L|20:233,2,67.5000025749208,2|0|0,0:0|0:0|0:0,0:0:0:0:
0,53,179693,1,0,0:0:0:0:
97,262,179907,2,0,P|111:329|39:397,1,135.000005149842,2|2,0:0|0:0,0:0:0:0:
194,373,180228,6,0,L|291:366,1,67.5000025749208,2|2,0:0|0:0,0:0:0:0:
348,261,180443,2,0,L|429:269,1,67.5000025749208,0|0,0:0|0:0,0:0:0:0:
280,202,180657,2,0,L|212:195,2,67.5000025749208,10|2|2,0:0|0:0|0:0,0:0:0:0:
363,161,180978,2,0,P|386:99|356:34,1,135.000005149842,2|2,0:0|0:0,0:0:0:0:
280,202,181407,2,0,P|256:263|287:329,1,135.000005149842,2|2,0:0|0:0,0:0:0:0:
193,20,181836,1,2,0:0:0:0:
143,106,181943,6,0,L|152:195,3,67.5000025749208,6|0|0|0,1:2|0:0|1:2|0:0,0:0:0:0:
108,294,182371,2,0,L|104:386,3,67.5000025749208,10|0|10|0,0:0|0:0|0:0|0:0,0:0:0:0:
281,372,182800,6,0,L|350:377,1,67.5000025749208,2|0,1:2|0:0,0:0:0:0:
105,361,183014,2,0,L|36:366,1,67.5000025749208,0|0,1:0|0:0,0:0:0:0:
313,300,183229,2,0,L|382:305,1,67.5000025749208,10|0,1:2|0:0,0:0:0:0:
82,290,183443,2,0,L|13:295,1,67.5000025749208,10|0,1:2|0:0,0:0:0:0:
129,217,183657,6,0,L|136:163,2,45.0000017166138,0|0|0,0:0|0:0|0:0,0:0:0:0:
201,115,183871,2,0,L|194:63,2,45.0000017166138,0|0|0,0:0|0:0|0:0,0:0:0:0:
191,38,184086,1,8,1:2:0:0:
229,42,184193,1,0,1:2:0:0:
269,46,184300,1,8,1:2:0:0:
310,50,184407,1,0,1:2:0:0:
350,55,184514,6,0,P|334:120|379:180,1,107.999996704102,4|0,1:2|0:0,0:0:0:0:
418,342,184836,2,0,L|422:204,1,121.500000463486,4|0,1:2|0:0,0:0:0:0:
349,155,185157,2,0,L|280:160,1,67.5000025749208,4|0,1:2|0:0,0:0:0:0:
133,82,185371,6,0,B|26:79|26:79|69:94,1,144,4|2,1:2|0:0,0:0:0:0:
281,159,185800,1,8,0:0:0:0:
215,105,185907,2,0,P|194:171|228:232,1,144,2|2,0:0|0:0,0:0:0:0:
326,267,186229,2,0,L|488:258,1,144,0|2,0:0|0:0,0:0:0:0:
255,340,186657,1,10,0:0:0:0:
225,337,186764,1,2,0:0:0:0:
196,336,186871,1,0,0:0:0:0:
167,334,186978,6,0,P|97:360|25:317,1,144,2|0,0:0|0:0,0:0:0:0:
105,271,187300,1,2,0:0:0:0:
18,245,187407,2,0,L|28:96,1,144,2|2,0:0|0:0,0:0:0:0:
170,128,187728,2,0,L|177:222,1,72,0|0,0:0|0:0,0:0:0:0:
239,72,187943,2,0,P|175:43|108:64,1,144,2|0,0:0|0:0,0:0:0:0:
27,101,188264,1,2,0:0:0:0:
175,199,188478,1,2,0:0:0:0:
203,196,188586,1,2,0:0:0:0:
231,193,188693,1,0,0:0:0:0:
259,189,188800,6,0,P|347:262|462:206,1,216,0|0,0:0|0:0,0:0:0:0:
512,316,189228,1,8,0:0:0:0:
436,236,189336,2,0,P|467:176|417:90,1,144,2|0,0:0|0:0,0:0:0:0:
369,41,189657,2,0,P|338:101|388:187,1,144,0|0,0:0|0:0,0:0:0:0:
344,262,189978,2,0,L|188:246,1,144,0|0,0:0|0:0,0:0:0:0:
93,349,190300,2,0,L|190:345,1,72,2|0,0:0|0:0,0:0:0:0:
200,247,190514,5,2,0:0:0:0:
199,218,190621,1,0,0:0:0:0:
197,189,190728,1,2,0:0:0:0:
196,160,190835,1,0,0:0:0:0:
100,115,190942,1,8,0:0:0:0:
101,86,191049,1,2,0:0:0:0:
103,57,191156,1,0,0:0:0:0:
105,28,191263,1,0,0:0:0:0:
208,0,191371,6,0,L|279:4,1,72,0|0,1:0|0:0,0:0:0:0:
416,207,191586,2,0,L|345:203,1,72,0|0,1:0|0:0,0:0:0:0:
277,102,191800,2,0,L|348:106,1,72,8|0,0:0|1:0,0:0:0:0:
484,308,192014,2,0,L|413:304,1,72,0|0,1:0|1:0,0:0:0:0:
299,347,192229,6,0,B|206:338|206:338|120:357,1,144,4|2,1:0|0:0,0:0:0:0:
74,229,192657,2,0,L|2:226,2,72,8|2|0,0:0|0:0|0:0,0:0:0:0:
150,168,192978,2,0,P|207:145|282:174,1,144,2|0,0:0|0:0,0:0:0:0:
211,242,193300,1,2,0:0:0:0:
361,349,193514,1,10,0:0:0:0:
360,321,193621,1,2,0:0:0:0:
359,293,193728,1,0,0:0:0:0:
357,265,193836,6,0,P|435:290|511:242,1,144,2|0,0:0|0:0,0:0:0:0:
512,178,194157,2,0,L|508:107,1,72,2|0,0:0|0:0,0:0:0:0:
441,43,194371,2,0,P|405:37|367:49,1,72,8|2,0:0|0:0,0:0:0:0:
306,124,194586,2,0,P|270:127|236:115,1,72,0|2,0:0|0:0,0:0:0:0:
166,47,194800,5,2,0:0:0:0:
130,51,194907,1,2,0:0:0:0:
94,55,195014,1,2,0:0:0:0:
58,59,195121,1,0,0:0:0:0:
20,150,195228,1,8,0:0:0:0:
0,196,195335,1,2,0:0:0:0:
6,246,195442,1,0,0:0:0:0:
33,288,195549,1,2,0:0:0:0:
76,313,195656,5,0,0:0:0:0:
97,215,195764,2,0,B|182:205|182:205|264:220,1,144,0|2,0:0|0:0,0:0:0:0:
502,379,196193,2,0,L|503:292,1,72,2|0,0:0|0:0,0:0:0:0:
425,275,196407,2,0,P|363:300|289:265,1,144,2|0,0:0|0:0,0:0:0:0:
364,210,196728,2,0,B|370:172|370:172|354:102|354:102|362:45,1,144,2|8,0:0|0:0,0:0:0:0:
447,37,197050,2,0,B|435:94|435:94|466:226,1,144,2|0,0:0|0:0,0:0:0:0:
364,210,197371,6,0,L|316:205,5,48,0|0|0|0|0|0,0:0|0:0|0:0|0:0|0:0|0:0,0:0:0:0:
234,152,197800,2,0,P|198:145|164:156,1,72,8|0,0:0|1:0,0:0:0:0:
105,227,198014,2,0,P|72:233|12:199,1,72,0|0,0:0|0:0,0:0:0:0:
0,137,198229,2,0,L|5:64,1,72,0|0,1:2|1:2,0:0:0:0:
105,227,198443,2,0,L|110:300,1,72,0|0,1:2|1:2,0:0:0:0:
215,82,198657,2,0,L|220:9,1,72,8|0,1:2|1:2,0:0:0:0:
337,261,198871,2,0,L|342:334,1,72,8|0,1:2|1:2,0:0:0:0:
512,182,199086,6,0,P|443:157|376:183,1,144,4|2,0:0|0:0,0:0:0:0:
206,152,199514,1,8,0:0:0:0:
203,123,199621,1,0,0:0:0:0:
200,94,199728,1,0,0:0:0:0:
198,65,199836,2,0,P|123:88|44:37,1,144,2|0,0:0|0:0,0:0:0:0:
134,0,200157,1,2,0:0:0:0:
0,160,200371,1,10,0:0:0:0:
1,189,200478,1,2,0:0:0:0:
3,218,200586,1,0,0:0:0:0:
5,247,200693,6,0,B|13:358|13:358|32:291,1,144,2|0,0:0|0:0,0:0:0:0:
100,278,201014,1,2,0:0:0:0:
181,327,201121,2,0,P|252:350|340:286,1,144,2|2,0:0|0:0,0:0:0:0:
246,256,201443,2,0,L|253:158,1,72,0|0,0:0|0:0,0:0:0:0:
326,129,201657,2,0,P|344:67|291:-7,1,144,2|0,0:0|0:0,0:0:0:0:
255,76,201978,2,0,B|164:87|164:87|109:72,1,144,2|2,0:0|0:0,0:0:0:0:
0,130,202300,2,0,L|71:149,1,72,0|0,0:0|0:0,0:0:0:0:
113,73,202514,5,4,1:2:0:0:
170,352,202728,1,4,1:2:0:0:
113,73,202943,2,0,B|178:66|178:66|266:91|266:91|358:81,1,216,0|0,1:0|1:0,0:0:0:0:
431,300,203371,2,0,P|457:230|418:156,1,144,4|0,1:2|1:0,0:0:0:0:
352,3,203693,2,0,L|266:12,1,72,4|0,1:2|0:0,0:0:0:0:
43,128,203907,2,0,P|112:158|182:131,1,144,4|0,1:2|1:0,0:0:0:0:
353,355,204228,2,0,P|333:283|419:208,2,144,4|4|4,1:2|1:2|1:2,0:0:0:0:
174,137,204871,2,0,L|178:49,1,72,0|0,0:0|0:0,0:0:0:0:
307,41,205086,6,0,P|374:70|455:45,1,144,4|0,1:2|0:0,0:0:0:0:
177,65,205407,2,0,P|105:48|30:86,1,144,4|0,1:2|0:0,0:0:0:0:
254,122,205729,2,0,L|250:193,1,72,4|0,1:2|0:0,0:0:0:0:
321,265,205943,6,0,L|316:341,1,74.2500007081032,4|0,1:2|0:0,0:0:0:0:
428,205,206157,2,0,L|419:118,1,74.2500007081032,4|0,1:2|0:0,0:0:0:0:
360,53,206371,1,0,0:0:0:0:
496,92,206479,2,0,L|515:262,1,148.500001416206,2|2,0:0|0:0,0:0:0:0:
388,338,206800,2,0,P|353:346|314:338,1,74.2500007081032,2|0,0:0|0:0,0:0:0:0:
91,287,207014,2,0,P|126:279|165:287,1,74.2500007081032,4|0,1:2|0:0,0:0:0:0:
237,370,207228,1,0,0:0:0:0:
231,222,207336,2,0,B|242:177|242:177|230:53,1,148.500001416206,0|0,0:0|0:0,0:0:0:0:
135,84,207657,5,0,1:2:0:0:
97,86,207764,1,0,1:2:0:0:
60,88,207871,1,0,1:2:0:0:
23,90,207978,1,0,1:2:0:0:
20,31,208086,5,0,1:0:0:0:
23,90,208193,1,0,0:0:0:0:
26,149,208300,1,0,1:0:0:0:
29,208,208407,1,0,1:0:0:0:
32,268,208514,1,0,1:0:0:0:
115,321,208621,2,0,P|183:302|253:344,1,148.500001416206,0|0,0:0|1:0,0:0:0:0:
356,360,208943,6,0,L|422:355,1,37.1250003540516,2|0,0:0|0:0,0:0:0:0:
364,351,209050,2,0,L|430:346,1,37.1250003540516,2|0,0:0|0:0,0:0:0:0:
372,342,209157,2,0,L|438:337,1,37.1250003540516,2|0,0:0|0:0,0:0:0:0:
380,333,209264,2,0,L|446:328,1,37.1250003540516,2|0,0:0|0:0,0:0:0:0:
429,330,209371,6,0,P|459:268|421:187,1,148.500001416206,6|2,0:0|0:0,0:0:0:0:
274,67,209800,1,8,0:0:0:0:
194,9,209907,2,0,P|172:92|222:152,1,148.500001416206,2|2,0:0|0:0,0:0:0:0:
275,213,210229,2,0,B|258:310|258:310|270:386,1,148.500001416206,0|2,0:0|0:0,0:0:0:0:
203,140,210657,1,10,0:0:0:0:
166,137,210764,1,2,0:0:0:0:
128,134,210871,1,0,0:0:0:0:
91,131,210978,6,0,B|101:231|101:231|91:295,1,148.500001416206,2|0,0:0|0:0,0:0:0:0:
161,360,211300,1,2,0:0:0:0:
13,342,211407,2,0,B|4:286|4:286|19:191,1,148.500001416206,2|2,0:0|0:0,0:0:0:0:
85,59,211728,2,0,L|92:153,1,72,0|0,0:0|0:0,0:0:0:0:
182,195,211943,2,0,P|262:220|330:184,1,148.500001416206,2|0,0:0|0:0,0:0:0:0:
251,110,212264,1,2,0:0:0:0:
446,347,212478,1,2,0:0:0:0:
443,309,212586,1,2,0:0:0:0:
440,272,212693,1,0,0:0:0:0:
419,239,212800,6,0,B|405:57|405:57|434:93,1,222.75000212431,0|0,0:0|0:0,0:0:0:0:
512,191,213228,1,8,0:0:0:0:
419,239,213336,2,0,P|342:266|268:224,1,148.500001416206,0|0,0:0|0:0,0:0:0:0:
207,141,213657,2,0,P|147:110|56:150,1,148.500001416206,0|2,0:0|0:0,0:0:0:0:
0,207,213979,2,0,P|65:238|134:216,1,148.500001416206,0|0,0:0|0:0,0:0:0:0:
204,355,214300,2,0,L|200:274,1,74.2500007081032,2|0,0:0|0:0,0:0:0:0:
207,141,214514,5,0,0:0:0:0:
190,100,214621,1,0,0:0:0:0:
196,56,214728,1,0,0:0:0:0:
224,22,214835,1,0,0:0:0:0:
319,0,214943,1,10,0:0:0:0:
363,3,215050,1,0,0:0:0:0:
407,6,215157,1,0,0:0:0:0:
452,10,215264,1,0,0:0:0:0:
505,96,215371,6,0,L|512:169,1,74.2500007081032,0|0,1:0|0:0,0:0:0:0:
311,292,215586,2,0,L|303:218,1,74.2500007081032,0|0,1:0|0:0,0:0:0:0:
404,157,215800,2,0,L|412:231,1,74.2500007081032,8|0,0:0|1:0,0:0:0:0:
210,353,216014,2,0,L|202:279,1,74.2500007081032,0|0,1:0|1:0,0:0:0:0:
0,216,216228,6,0,B|92:230|92:230|159:208,1,148.500001416206,4|2,1:0|0:0,0:0:0:0:
303,218,216657,2,0,L|311:292,2,74.2500007081032,8|2|0,0:0|0:0|0:0,0:0:0:0:
293,112,216978,2,0,P|229:82|156:113,1,148.500001416206,2|0,0:0|0:0,0:0:0:0:
144,212,217300,1,2,0:0:0:0:
3,328,217514,1,10,0:0:0:0:
2,290,217621,1,2,0:0:0:0:
1,253,217728,1,0,0:0:0:0:
0,216,217836,6,0,B|15:169|15:169|1:46,1,148.500001416206,2|0,0:0|0:0,0:0:0:0:
112,14,218157,2,0,L|188:23,1,74.2500007081032,2|0,0:0|0:0,0:0:0:0:
235,112,218371,1,8,0:0:0:0:
264,110,218478,1,2,0:0:0:0:
294,109,218585,1,2,0:0:0:0:
324,108,218692,1,0,0:0:0:0:
429,152,218800,5,2,0:0:0:0:
459,193,218907,1,2,0:0:0:0:
458,244,219014,1,2,0:0:0:0:
425,283,219121,1,0,0:0:0:0:
325,322,219229,5,10,0:0:0:0:
273,319,219336,1,0,0:0:0:0:
221,316,219443,1,2,0:0:0:0:
169,314,219550,1,0,0:0:0:0:
83,374,219656,5,0,0:0:0:0:
121,231,219764,2,0,L|288:240,1,148.500001416206,0|2,0:0|0:0,0:0:0:0:
429,152,220193,2,0,L|349:157,1,74.2500007081032,0|0,0:0|0:0,0:0:0:0:
241,129,220407,2,0,P|229:52|291:-10,1,148.500001416206,2|0,0:0|0:0,0:0:0:0:
375,16,220728,2,0,B|498:30|498:30|457:42,1,148.500001416206,2|8,0:0|0:0,0:0:0:0:
429,152,221050,2,0,P|405:218|450:287,1,148.500001416206,2|2,0:0|0:0,0:0:0:0:
347,354,221371,6,0,L|293:349,5,49.5000004720688,2|0|2|2|0|2,0:0|0:0|0:0|0:0|0:0|0:0,0:0:0:0:
198,372,221800,2,0,P|162:377|122:363,1,74.2500007081032,8|0,0:0|0:0,0:0:0:0:
71,284,222014,2,0,P|35:278|-9:294,1,74.2500007081032,0|0,0:0|1:0,0:0:0:0:
170,277,222229,2,0,L|166:178,1,74.2500007081032,0|0,1:0|1:2,0:0:0:0:
239,105,222443,2,0,L|315:114,1,74.2500007081032,0|0,1:2|1:2,0:0:0:0:
512,229,222657,2,0,L|419:237,1,74.2500007081032,8|0,1:2|1:2,0:0:0:0:
298,28,222871,2,0,L|375:36,1,74.2500007081032,8|0,1:2|1:2,0:0:0:0:
239,105,223086,6,0,B|134:115|134:115|74:102,1,148.500001416206,4|2,0:0|0:0,0:0:0:0:
288,180,223514,1,8,0:0:0:0:
291,224,223621,1,2,0:0:0:0:
294,268,223728,1,0,0:0:0:0:
299,313,223836,2,0,B|294:272|294:272|308:133,1,148.500001416206,2|0,0:0|0:0,0:0:0:0:
371,32,224157,1,2,0:0:0:0:
202,67,224371,1,10,0:0:0:0:
157,60,224478,1,2,0:0:0:0:
113,53,224585,1,0,0:0:0:0:
69,48,224693,6,0,B|83:99|83:99|68:205,1,148.500001416206,2|0,0:0|0:0,0:0:0:0:
0,293,225014,1,2,0:0:0:0:
141,297,225121,2,0,P|210:330|291:279,1,148.500001416206,2|2,0:0|0:0,0:0:0:0:
202,170,225443,2,0,L|210:246,1,74.2500007081032,0|0,0:0|0:0,0:0:0:0:
273,109,225657,2,0,P|335:91|420:146,1,148.500001416206,2|2,0:0|0:0,0:0:0:0:
462,218,225979,2,0,P|400:236|315:181,1,148.500001416206,2|2,0:0|0:0,0:0:0:0:
512,122,226300,2,0,L|506:47,1,74.2500007081032,0|0,0:0|0:0,0:0:0:0:
138,21,226514,5,4,1:2:0:0:
506,47,226728,1,0,1:2:0:0:
0,84,226943,2,0,B|82:64|82:64|242:92,1,222.75000212431,0|0,1:0|1:0,0:0:0:0:
465,186,227371,2,0,P|413:208|320:182,1,148.500001416206,4|0,1:2|1:0,0:0:0:0:
195,384,227693,2,0,L|200:280,1,74.2500007081032,4|0,1:2|0:0,0:0:0:0:
88,153,227907,2,0,P|52:210|85:292,1,148.500001416206,4|0,1:2|1:0,0:0:0:0:
286,35,228228,2,0,B|342:45|342:45|449:31,2,148.500001416206,4|4|4,1:2|1:2|1:2,0:0:0:0:
88,153,228871,2,0,L|4:146,1,74.2500007081032,0|0,0:0|0:0,0:0:0:0:
182,226,229086,6,0,P|245:255|330:224,1,148.500001416206,4|0,1:2|0:0,0:0:0:0:
512,143,229407,2,0,P|443:115|368:142,1,148.500001416206,4|0,1:2|0:0,0:0:0:0:
442,335,229728,2,0,L|441:233,1,74.2500007081032,4|0,1:2|0:0,0:0:0:0:
259,143,229944,6,0,P|159:109|82:170,2,202.500007724762,4|2|2,0:0|0:0|0:0,0:0:0:0:
406,83,231659,5,0,0:0:0:0:
427,337,231873,1,0,0:0:0:0:
259,143,232087,1,0,1:0:0:0:
510,201,232301,1,0,1:0:0:0:
273,302,232516,1,0,0:0:0:0:
199,331,232730,2,0,L|157:333,1,33.7500012874604,0|0,0:0|0:0,0:0:0:0:
122,263,232943,2,0,L|80:265,1,33.7500012874604,0|0,0:0|0:0,0:0:0:0:
45,195,233157,2,0,L|3:197,1,33.7500012874604,2|0,0:0|0:0,0:0:0:0:
0,84,233371,6,0,B|85:93|85:93|136:79,1,121.500000463486,2|0,0:0|0:0,0:0:0:0:
267,43,233800,1,0,0:0:0:0:
270,58,233907,2,0,B|278:103|278:103|260:181,1,121.500000463486,0|0,0:0|0:0,0:0:0:0:
210,246,234229,2,0,P|200:306|240:366,1,121.500000463486,2|0,0:0|0:0,0:0:0:0:
286,289,234550,2,0,B|348:277|348:277|414:292,1,121.500000463486,0|0,0:0|0:0,0:0:0:0:
471,230,234871,2,0,L|399:213,1,60.7500002317429,0|0,0:0|0:0,0:0:0:0:
347,54,235086,6,0,P|324:119|360:170,1,121.500000463486,2|0,0:0|0:0,0:0:0:0:
459,12,235515,1,0,0:0:0:0:
439,12,235622,2,0,L|292:15,1,121.500000463486,0|0,0:0|0:0,0:0:0:0:
251,73,235944,2,0,P|189:87|129:53,1,121.500000463486,2|0,0:0|0:0,0:0:0:0:
86,4,236265,2,0,L|93:128,1,121.500000463486,0|0,0:0|0:0,0:0:0:0:
15,184,236586,2,0,L|21:263,1,60.7500002317429,0|0,0:0|0:0,0:0:0:0:
183,311,236800,6,0,P|124:331|59:301,1,121.500000463486,2|0,0:0|0:0,0:0:0:0:
212,224,237229,1,0,0:0:0:0:
234,227,237336,2,0,L|369:239,1,121.500000463486,0|0,0:0|0:0,0:0:0:0:
420,162,237658,2,0,B|512:170|512:170|474:179,1,121.500000463486,2|0,0:0|0:0,0:0:0:0:
441,256,237979,2,0,P|472:309|446:377,1,121.500000463486,0|0,0:0|0:0,0:0:0:0:
369,384,238300,2,0,L|287:377,1,60.7500002317429,0|0,0:0|0:0,0:0:0:0:
121,324,238514,6,0,B|200:335|200:335|242:323,1,121.500000463486,2|0,0:0|0:0,0:0:0:0:
267,162,238943,1,2,0:0:0:0:
265,140,239050,2,0,L|253:0,1,121.500000463486,0|0,0:0|0:0,0:0:0:0:
352,0,239372,2,0,L|484:9,1,121.500000463486,0|0,0:0|0:0,0:0:0:0:
167,37,239800,2,0,L|81:41,1,60.7500002317429,2|0,0:0|0:0,0:0:0:0:
345,73,240014,2,0,L|421:80,1,60.7500002317429,2|0,0:0|0:0,0:0:0:0:
153,112,240229,6,0,L|16:118,1,121.500000463486,2|0,0:0|0:0,0:0:0:0:
217,184,240658,1,0,0:0:0:0:
241,185,240765,2,0,L|386:195,1,121.500000463486,0|0,0:0|0:0,0:0:0:0:
403,270,241087,2,0,P|379:336|412:389,1,121.500000463486,2|0,0:0|0:0,0:0:0:0:
469,328,241407,2,0,P|493:262|460:209,1,121.500000463486,0|0,0:0|0:0,0:0:0:0:
403,270,241729,2,0,L|323:272,1,60.7500002317429,0|0,0:0|0:0,0:0:0:0:
168,322,241944,6,0,P|102:341|38:303,1,121.500000463486,2|0,0:0|0:0,0:0:0:0:
0,172,242373,1,0,0:0:0:0:
4,147,242480,2,0,L|13:22,1,121.500000463486,0|0,0:0|0:0,0:0:0:0:
96,5,242802,2,0,L|86:143,1,121.500000463486,0|0,0:0|0:0,0:0:0:0:
145,187,243123,2,0,P|211:201|272:162,1,121.500000463486,0|0,0:0|0:0,0:0:0:0:
341,156,243444,2,0,L|413:161,1,60.7500002317429,0|0,0:0|0:0,0:0:0:0:
284,77,243658,6,0,L|405:85,1,121.500000463486,2|0,0:0|0:0,0:0:0:0:
512,17,244087,1,0,0:0:0:0:
486,15,244193,2,0,L|365:7,1,121.500000463486,0|0,0:0|0:0,0:0:0:0:
281,7,244514,2,0,L|160:15,1,121.500000463486,2|0,0:0|0:0,0:0:0:0:
122,91,244837,2,0,P|146:151|119:213,1,121.500000463486,0|0,0:0|0:0,0:0:0:0:
66,272,245158,2,0,L|2:266,1,60.7500002317429,0|0,0:0|0:0,0:0:0:0:
155,326,245372,6,0,L|289:315,1,121.500000463486,2|0,0:0|0:0,0:0:0:0:
152,204,245801,1,2,0:0:0:0:
128,202,245907,2,0,L|-6:191,1,121.500000463486,0|0,0:0|0:0,0:0:0:0:
0,113,246230,2,0,L|130:125,1,121.500000463486,0|0,0:0|0:0,0:0:0:0:
235,74,246658,2,0,L|243:-8,1,60.7500002317429,2|0,0:0|0:0,0:0:0:0:
268,226,246872,2,0,L|278:297,1,60.7500002317429,2|0,0:0|0:0,0:0:0:0:
327,163,247086,6,0,P|382:144|460:180,1,121.500000463486,2|0,0:0|0:0,0:0:0:0:
386,368,247515,1,0,0:0:0:0:
386,345,247622,2,0,L|385:219,1,121.500000463486,0|0,0:0|0:0,0:0:0:0:
440,161,247944,2,0,B|448:119|448:119|435:38,1,121.500000463486,2|0,0:0|0:0,0:0:0:0:
360,11,248265,2,0,B|299:23|299:23|223:9,1,121.500000463486,0|0,0:0|0:0,0:0:0:0:
180,70,248586,2,0,L|188:144,1,60.7500002317429,0|0,0:0|0:0,0:0:0:0:
143,314,248801,6,0,P|122:258|160:184,1,121.500000463486,2|0,0:0|0:0,0:0:0:0:
326,148,249230,1,0,0:0:0:0:
351,150,249337,2,0,L|481:158,1,121.500000463486,0|0,0:0|0:0,0:0:0:0:
499,236,249659,2,0,L|365:227,1,121.500000463486,0|0,0:0|0:0,0:0:0:0:
309,273,249980,2,0,P|288:342|326:402,1,121.500000463486,0|0,0:0|0:0,0:0:0:0:
431,333,250301,2,0,L|357:328,1,60.7500002317429,0|0,0:0|0:0,0:0:0:0:
191,247,250515,6,0,B|129:256|129:256|67:243,1,121.500000463486,2|0,0:0|0:0,0:0:0:0:
40,384,250944,1,0,0:0:0:0:
42,360,251051,2,0,L|50:223,1,121.500000463486,0|0,0:0|0:0,0:0:0:0:
0,174,251373,2,0,P|-12:121|23:61,1,121.500000463486,0|0,0:0|0:0,0:0:0:0:
92,28,251694,2,0,L|227:33,1,121.500000463486,0|0,0:0|0:0,0:0:0:0:
223,105,252015,2,0,L|146:102,1,60.7500002317429,0|0,0:0|0:0,0:0:0:0:
275,214,252229,6,0,B|268:251|268:251|280:360,1,121.500000463486,2|0,0:0|0:0,0:0:0:0:
351,172,252658,1,2,0:0:0:0:
352,149,252765,2,0,L|356:9,1,121.500000463486,0|0,0:0|0:0,0:0:0:0:
436,2,253086,2,0,L|431:136,1,121.500000463486,0|0,0:0|0:0,0:0:0:0:
462,294,253515,2,0,L|477:371,1,60.7500002317429,2|0,0:0|0:0,0:0:0:0:
352,149,253729,2,0,L|356:67,1,60.7500002317429,2|0,0:0|0:0,0:0:0:0:
383,261,253943,6,0,L|405:386,1,121.500000463486,2|0,0:0|0:0,0:0:0:0:
351,172,254371,1,0,0:0:0:0:
352,149,254478,2,0,L|356:9,1,121.500000463486,0|0,0:0|0:0,0:0:0:0:
270,17,254801,2,0,P|209:34|144:5,1,121.500000463486,2|0,0:0|0:0,0:0:0:0:
91,64,255122,2,0,L|106:195,1,121.500000463486,0|0,0:0|0:0,0:0:0:0:
36,224,255443,2,0,L|27:150,1,60.7500002317429,0|0,0:0|0:0,0:0:0:0:
161,251,255658,6,0,L|152:390,1,121.500000463486,2|0,0:0|0:0,0:0:0:0:
104,184,256087,1,0,0:0:0:0:
100,159,256193,2,0,L|86:38,1,121.500000463486,0|0,0:0|0:0,0:0:0:0:
157,1,256516,2,0,L|172:125,1,121.500000463486,0|0,0:0|0:0,0:0:0:0:
238,181,256837,2,0,P|300:196|367:165,1,121.500000463486,0|0,0:0|0:0,0:0:0:0:
413,116,257158,2,0,L|406:49,1,60.7500002317429,0|0,0:0|0:0,0:0:0:0:
473,175,257372,6,0,P|498:228|459:299,1,121.500000463486,2|0,0:0|0:0,0:0:0:0:
313,329,257801,1,0,0:0:0:0:
288,331,257908,2,0,L|157:337,1,121.500000463486,0|0,0:0|0:0,0:0:0:0:
96,286,258230,2,0,P|78:229|106:167,1,121.500000463486,2|0,0:0|0:0,0:0:0:0:
167,232,258550,2,0,P|188:176|170:119,1,121.500000463486,0|0,0:0|0:0,0:0:0:0:
95,91,258872,2,0,L|27:96,1,60.7500002317429,0|0,0:0|0:0,0:0:0:0:
170,35,259086,6,0,L|318:42,1,121.500000463486,2|0,0:0|0:0,0:0:0:0:
482,120,259515,1,2,0:0:0:0:
460,122,259622,2,0,L|313:131,1,121.500000463486,0|0,0:0|0:0,0:0:0:0:
252,218,259944,2,0,L|243:301,1,60.7500002317429,0|0,0:0|0:0,0:0:0:0:
180,154,260158,2,0,L|173:82,1,60.7500002317429,0|0,0:0|0:0,0:0:0:0:
174,245,260371,2,0,L|165:328,1,60.7500002317429,2|0,0:0|0:0,0:0:0:0:
102,133,260586,2,0,L|95:61,1,60.7500002317429,2|0,0:0|0:0,0:0:0:0:
0,203,260800,6,0,L|10:322,1,112.5,2|0,0:0|0:0,0:0:0:0:
157,379,261229,1,0,0:0:0:0:
160,356,261336,2,0,L|176:224,1,112.5,0|0,0:0|0:0,0:0:0:0:
257,267,261658,2,0,P|326:280|383:249,1,112.5,2|0,0:0|0:0,0:0:0:0:
415,198,261979,2,0,P|346:185|289:216,1,112.5,0|0,0:0|0:0,0:0:0:0:
363,265,262300,2,0,L|378:342,1,56.25,0|0,0:0|0:0,0:0:0:0:
450,378,262515,6,0,P|466:320|444:257,1,112.5,2|0,0:0|0:0,0:0:0:0:
512,125,262944,1,0,0:0:0:0:
486,122,263051,2,0,L|370:111,1,112.5,0|0,0:0|0:0,0:0:0:0:
309,56,263373,2,0,P|259:70|188:45,1,112.5,2|0,0:0|0:0,0:0:0:0:
137,111,263693,2,0,L|26:122,1,112.5,0|0,0:0|0:0,0:0:0:0:
0,199,264015,2,0,L|72:192,1,56.25,0|0,0:0|0:0,0:0:0:0:
124,242,264229,6,0,P|137:300|106:362,1,112.5,2|0,0:0|0:0,0:0:0:0:
288,374,264658,1,0,0:0:0:0:
289,351,264765,2,0,L|293:222,1,112.5,0|0,0:0|0:0,0:0:0:0:
231,182,265087,2,0,P|216:133|241:74,1,112.5,2|0,0:0|0:0,0:0:0:0:
314,28,265407,2,0,P|328:76|304:136,1,112.5,0|0,0:0|0:0,0:0:0:0:
369,195,265729,2,0,L|443:190,1,56.25,0|0,0:0|0:0,0:0:0:0:
472,261,265943,6,0,L|344:271,1,112.5,2|0,0:0|0:0,0:0:0:0:
206,335,266372,1,2,0:0:0:0:
181,334,266479,2,0,L|61:330,1,112.5,0|0,0:0|0:0,0:0:0:0:
117,254,266800,2,0,L|5:251,1,112.5,0|0,0:0|0:0,0:0:0:0:
197,190,267229,2,0,L|275:193,1,56.25,2|0,0:0|0:0,0:0:0:0:
311,122,267443,2,0,L|389:125,1,56.25,2|0,0:0|0:0,0:0:0:0:
362,39,267657,6,0,P|308:23|248:48,1,112.5,2|0,0:0|0:0,0:0:0:0:
31,69,268086,1,0,0:0:0:0:
56,70,268193,2,0,L|192:74,1,112.5,0|0,0:0|0:0,0:0:0:0:
202,148,268515,2,0,P|182:196|213:269,1,112.5,2|0,0:0|0:0,0:0:0:0:
269,201,268836,2,0,P|322:220|395:194,1,112.5,0|0,0:0|0:0,0:0:0:0:
449,164,269157,2,0,L|532:169,1,56.25,0|0,0:0|0:0,0:0:0:0:
512,93,269372,6,0,L|394:86,1,112.5,2|0,0:0|0:0,0:0:0:0:
269,201,269801,1,0,0:0:0:0:
270,226,269908,2,0,L|279:355,1,112.5,0|0,0:0|0:0,0:0:0:0:
360,363,270230,2,0,L|352:244,1,112.5,2|0,0:0|0:0,0:0:0:0:
348,169,270551,2,0,L|359:42,1,112.5,0|0,0:0|0:0,0:0:0:0:
436,27,270872,2,0,L|429:82,1,56.25,0|0,0:0|0:0,0:0:0:0:
492,132,271086,6,0,P|508:187|488:243,1,112.5,2|0,0:0|0:0,0:0:0:0:
357,307,271515,1,0,0:0:0:0:
333,308,271622,2,0,L|212:315,1,112.5,0|0,0:0|0:0,0:0:0:0:
169,253,271944,2,0,P|115:242|58:262,1,112.5,2|0,0:0|0:0,0:0:0:0:
2,314,272265,2,0,L|13:184,1,112.5,0|0,0:0|0:0,0:0:0:0:
76,149,272586,2,0,L|70:81,1,56.25,0|0,0:0|0:0,0:0:0:0:
18,31,272800,6,0,P|76:47|138:22,1,112.5,2|0,0:0|0:0,0:0:0:0:
276,69,273229,1,2,0:0:0:0:
306,70,273336,2,0,L|437:74,1,112.5,0|0,0:0|0:0,0:0:0:0:
456,150,273658,2,0,L|524:143,1,56.25,0|0,0:0|0:0,0:0:0:0:
371,201,273871,2,0,L|303:194,1,56.25,0|0,0:0|0:0,0:0:0:0:
453,259,274086,2,0,L|521:252,1,56.25,2|0,0:0|0:0,0:0:0:0:
387,324,274300,2,0,L|319:317,1,56.25,2|0,0:0|0:0,0:0:0:0:
270,267,274514,6,0,L|287:404,1,112.5,2|0,0:0|0:0,0:0:0:0:
285,177,274943,1,0,0:0:0:0:
288,151,275050,2,0,L|295:30,1,112.5,0|0,0:0|0:0,0:0:0:0:
212,12,275372,2,0,P|157:29|98:3,1,112.5,2|0,0:0|0:0,0:0:0:0:
37,56,275693,2,0,L|51:172,1,112.5,0|0,0:0|0:0,0:0:0:0:
124,128,276014,2,0,L|133:203,1,56.25,0|0,0:0|0:0,0:0:0:0:
189,250,276229,6,0,P|157:267|60:240,1,140.625,2|0,0:0|0:0,0:0:0:0:
266,204,276658,1,0,0:0:0:0:
267,230,276765,2,0,L|278:354,1,112.5,0|0,0:0|0:0,0:0:0:0:
352,297,277087,2,0,P|408:282|477:314,1,112.5,2|0,0:0|0:0,0:0:0:0:
512,369,277407,2,0,P|456:384|387:352,1,112.5,0|0,0:0|0:0,0:0:0:0:
458,298,277729,2,0,L|460:224,1,56.25,0|0,0:0|0:0,0:0:0:0:
512,175,277943,6,0,L|503:51,1,112.5,2|0,0:0|0:0,0:0:0:0:
370,28,278372,1,0,0:0:0:0:
351,41,278479,2,0,P|290:59|228:26,1,112.5,0|0,0:0|0:0,0:0:0:0:
159,51,278800,2,0,P|106:34|53:52,1,112.5,2|0,0:0|0:0,0:0:0:0:
1,117,279122,2,0,L|13:235,1,112.5,0|0,0:0|0:0,0:0:0:0:
72,289,279443,2,0,P|102:294|139:278,1,56.25,0|0,0:0|0:0,0:0:0:0:
176,221,279657,6,0,P|225:209|286:229,1,112.5,2|0,0:0|0:0,0:0:0:0:
352,99,280086,1,2,0:0:0:0:
376,99,280193,2,0,L|495:103,1,112.5,0|0,0:0|0:0,0:0:0:0:
512,178,280514,2,0,L|399:174,1,112.5,0|0,0:0|0:0,0:0:0:0:
275,251,280943,2,0,L|211:249,1,56.25,2|0,0:0|0:0,0:0:0:0:
160,309,281157,2,0,L|96:307,1,56.25,2|0,0:0|0:0,0:0:0:0:
32,354,281371,6,0,P|22:291|57:238,1,112.5,2|0,0:0|0:0,0:0:0:0:
142,136,281800,1,0,0:0:0:0:
141,112,281907,2,0,L|134:0,1,112.5,0|0,0:0|0:0,0:0:0:0:
57,33,282229,2,0,L|66:169,1,112.5,2|0,0:0|0:0,0:0:0:0:
117,209,282550,2,0,B|156:219|156:219|242:208,1,112.5,0|0,0:0|0:0,0:0:0:0:
274,141,282871,2,0,L|277:74,1,56.25,0|0,0:0|0:0,0:0:0:0:
351,51,283086,6,0,P|405:66|461:43,1,112.5,2|0,0:0|0:0,0:0:0:0:
221,22,283515,1,0,0:0:0:0:
200,15,283622,2,0,P|142:6|91:27,1,112.5,0|0,0:0|0:0,0:0:0:0:
157,88,283944,2,0,B|165:143|165:143|152:215,1,112.5,2|0,0:0|0:0,0:0:0:0:
92,248,284265,2,0,P|71:294|91:361,1,112.5,0|0,0:0|0:0,0:0:0:0:
160,306,284586,2,0,L|238:301,1,56.25,0|0,0:0|0:0,0:0:0:0:
299,297,284800,5,2,0:0:0:0:
466,328,285014,1,0,0:0:0:0:
299,297,285229,2,0,L|303:237,1,56.25,0|0,0:0|0:0,0:0:0:0:
466,328,285443,2,0,L|462:268,1,56.25,0|0,0:0|0:0,0:0:0:0:
458,187,285657,5,2,0:0:0:0:
480,40,285871,1,0,0:0:0:0:
458,187,286086,2,0,L|402:182,1,56.25,0|0,0:0|0:0,0:0:0:0:
480,40,286300,2,0,L|424:45,1,56.25,0|0,0:0|0:0,0:0:0:0:
333,81,286514,2,0,P|300:86|277:80,1,56.25,2|0,0:0|0:0,0:0:0:0:
200,29,286729,2,0,L|128:31,1,56.25,0|0,0:0|0:0,0:0:0:0:
85,92,286943,2,0,P|74:149|103:205,1,112.5,2|0,0:0|0:0,0:0:0:0:
161,136,287264,1,0,0:0:0:0:
233,193,287372,22,0,L|241:253,1,56.25,0|0,0:0|0:0,0:0:0:0:
278,80,287586,2,0,L|287:11,1,56.25,0|0,0:0|0:0,0:0:0:0:
317,208,287800,2,0,L|325:268,1,56.25,2|0,0:0|0:0,0:0:0:0:
362,68,288014,2,0,L|371:-1,1,56.25,2|0,0:0|0:0,0:0:0:0:
256,192,288229,12,0,301943,0:0:0:0:
