osu file format v14

[General]
AudioFilename: audio.mp3
AudioLeadIn: 0
PreviewTime: 68839
Countdown: 0
SampleSet: Normal
StackLeniency: 0.2
Mode: 1
LetterboxInBreaks: 0
WidescreenStoryboard: 0

[Editor]
DistanceSpacing: 0.4
BeatDivisor: 4
GridSize: 32
TimelineZoom: 2

[Metadata]
Title:Frozen World
TitleUnicode:Frozen World
Artist:MuryokuP
ArtistUnicode:無力P
Creator:DDM
Version:Resonance
Source:
Tags:
BeatmapID:1513213
BeatmapSetID:716206

[Difficulty]
HPDrainRate:5
CircleSize:2
OverallDifficulty:6.5
ApproachRate:10
SliderMultiplier:1.4
SliderTickRate:1

[Events]
//Background and Video events
0,0,"icy.jpg",0,108
//Break Periods
//Storyboard Layer 0 (Background)
//Storyboard Layer 1 (Fail)
//Storyboard Layer 2 (Pass)
//Storyboard Layer 3 (Foreground)
//Storyboard Sound Samples

[TimingPoints]
267,428.571428571429,4,1,0,30,1,0
267,-125,4,1,0,30,0,0
13981,-100,4,1,0,40,0,0
20838,-90.9090909090909,4,1,0,55,0,0
34552,-90.9090909090909,4,1,0,5,0,0
36267,-83.3333333333333,4,1,0,5,0,0
37981,-76.9230769230769,4,1,0,5,0,0
39695,-71.4285714285714,4,1,0,5,0,0
41409,-66.6666666666667,4,1,0,85,0,0
68838,-66.6666666666667,4,1,0,95,0,0
82552,-66.6666666666667,4,1,0,100,0,1
103124,-66.6666666666667,4,1,0,100,0,0
104838,-68.4931506849315,4,1,0,100,0,0
105052,-70.4225352112676,4,1,0,100,0,0
105159,-72.463768115942,4,1,0,100,0,0
105374,-74.6268656716418,4,1,0,100,0,0
105481,-76.9230769230769,4,1,0,100,0,0
105695,-79.3650793650794,4,1,0,100,0,0
105909,-81.9672131147541,4,1,0,100,0,0
106124,-84.7457627118644,4,1,0,100,0,0
106338,-87.719298245614,4,1,0,100,0,0
106552,-90.9090909090909,4,1,0,100,0,1
120267,-90.9090909090909,4,1,0,30,0,0
120909,-93.4579439252336,4,1,0,30,0,0
121552,-96.1538461538461,4,1,0,30,0,0
121767,-99.009900990099,4,1,0,30,0,0
121981,-102.040816326531,4,1,0,30,0,0
122409,-105.263157894737,4,1,0,30,0,0
122624,-108.695652173913,4,1,0,30,0,0
123052,-112.359550561798,4,1,0,30,0,0
123267,-116.279069767442,4,1,0,30,0,0
123481,-120.481927710843,4,1,0,30,0,0
123695,-125,4,1,0,30,0,0
133981,-100,4,1,0,40,0,0
147695,-90.9090909090909,4,1,0,55,0,0
157981,-90.9090909090909,4,1,0,60,0,0
159695,-90.9090909090909,4,1,0,65,0,0
161409,-90.9090909090909,4,1,0,70,0,0
163124,-90.9090909090909,4,1,0,75,0,0
164838,-90.9090909090909,4,1,0,5,0,0
166552,-83.3333333333333,4,1,0,5,0,0
168267,-76.9230769230769,4,1,0,5,0,0
169981,-71.4285714285714,4,1,0,5,0,0
171695,-66.6666666666667,4,1,0,95,0,0
185409,-66.6666666666667,4,1,0,100,0,1
205981,-66.6666666666667,4,1,0,100,0,0
209052,-65.359477124183,4,1,0,100,0,0
209124,-64.1025641025641,4,1,0,100,0,0
209195,-62.8930817610063,4,1,0,100,0,0
209267,-61.7283950617284,4,1,0,100,0,0
209338,-60.6060606060606,4,1,0,100,0,0
209409,-59.5238095238095,4,1,0,100,0,1
229981,-59.5238095238095,4,1,0,100,0,0
230409,-60.2409638554217,4,1,0,100,0,0
230517,-60.9756097560976,4,1,0,100,0,0
230624,-61.7283950617284,4,1,0,100,0,0
230838,-62.5,4,1,0,100,0,0
230945,-63.2911392405063,4,1,0,100,0,0
231052,-64.1025641025641,4,1,0,100,0,0
231267,-64.9350649350649,4,1,0,100,0,0
231481,-65.7894736842105,4,1,0,100,0,0
231695,-66.6666666666667,4,1,0,100,0,0
233409,-66.6666666666667,4,1,0,95,0,0
260838,-66.6666666666667,4,1,0,85,0,0
288267,-66.6666666666667,4,1,0,5,0,0

[HitObjects]
256,192,267,5,8,0:0:0:0:
256,192,695,1,8,0:0:0:0:
256,192,1124,1,0,0:0:0:0:
256,192,1552,1,8,0:0:0:0:
256,192,1981,1,0,0:0:0:0:
256,192,2409,1,0,0:0:0:0:
256,192,2838,1,8,0:0:0:0:
256,192,3267,1,0,0:0:0:0:
256,192,3695,5,8,0:0:0:0:
256,192,3909,1,0,0:0:0:0:
256,192,4124,1,8,0:0:0:0:
256,192,4552,1,0,0:0:0:0:
256,192,4981,1,8,0:0:0:0:
256,192,5409,1,0,0:0:0:0:
256,192,5838,1,0,0:0:0:0:
256,192,6267,1,8,0:0:0:0:
256,192,6695,1,0,0:0:0:0:
256,192,7124,5,8,0:0:0:0:
256,192,7338,1,0,0:0:0:0:
256,192,7552,1,8,0:0:0:0:
256,192,7981,1,0,0:0:0:0:
256,192,8409,1,8,0:0:0:0:
256,192,8838,1,0,0:0:0:0:
256,192,9267,1,0,0:0:0:0:
256,192,9695,1,8,0:0:0:0:
256,192,10124,1,0,0:0:0:0:
256,192,10552,5,8,0:0:0:0:
256,192,10767,1,0,0:0:0:0:
256,192,10981,1,8,0:0:0:0:
256,192,11409,1,0,0:0:0:0:
256,192,11838,1,8,0:0:0:0:
256,192,12267,1,0,0:0:0:0:
256,192,12695,1,0,0:0:0:0:
256,192,13124,1,8,0:0:0:0:
256,192,13552,1,0,0:0:0:0:
256,192,13981,5,0,0:0:0:0:
256,192,14838,1,8,0:0:0:0:
256,192,15481,1,0,0:0:0:0:
256,192,16124,1,0,0:0:0:0:
256,192,16552,1,8,0:0:0:0:
256,192,17409,1,0,0:0:0:0:
256,192,18267,1,8,0:0:0:0:
256,192,18909,1,0,0:0:0:0:
256,192,19552,1,0,0:0:0:0:
256,192,19981,1,8,0:0:0:0:
256,192,20838,5,0,0:0:0:0:
256,192,20981,1,0,0:0:0:0:
256,192,21052,1,8,0:0:0:0:
256,192,21374,1,0,0:0:0:0:
256,192,21481,1,8,0:0:0:0:
256,192,21588,1,8,0:0:0:0:
256,192,21695,1,0,0:0:0:0:
256,192,21838,1,0,0:0:0:0:
256,192,21909,1,8,0:0:0:0:
256,192,22124,1,0,0:0:0:0:
256,192,22338,1,8,0:0:0:0:
256,192,22409,1,8,0:0:0:0:
256,192,22481,1,8,0:0:0:0:
256,192,22552,5,0,0:0:0:0:
256,192,22695,1,0,0:0:0:0:
256,192,22767,1,8,0:0:0:0:
256,192,22981,1,0,0:0:0:0:
256,192,23195,1,8,0:0:0:0:
256,192,23267,1,0,0:0:0:0:
256,192,23338,1,0,0:0:0:0:
256,192,23409,1,0,0:0:0:0:
256,192,23552,1,0,0:0:0:0:
256,192,23624,1,8,0:0:0:0:
256,192,23838,1,0,0:0:0:0:
256,192,23892,1,0,0:0:0:0:
256,192,23945,1,0,0:0:0:0:
256,192,23999,1,0,0:0:0:0:
256,192,24052,1,8,0:0:0:0:
256,192,24124,1,8,0:0:0:0:
256,192,24195,1,8,0:0:0:0:
256,192,24267,5,0,0:0:0:0:
256,192,24374,1,0,0:0:0:0:
256,192,24481,1,0,0:0:0:0:
256,192,24588,1,0,0:0:0:0:
256,192,24695,1,8,0:0:0:0:
256,192,24909,1,0,0:0:0:0:
256,192,24981,1,8,0:0:0:0:
256,192,25052,1,8,0:0:0:0:
256,192,25124,1,0,0:0:0:0:
256,192,25267,1,0,0:0:0:0:
256,192,25338,1,8,0:0:0:0:
256,192,25392,1,8,0:0:0:0:
256,192,25445,1,8,0:0:0:0:
256,192,25552,1,0,0:0:0:0:
256,192,25767,1,8,0:0:0:0:
256,192,25838,1,8,0:0:0:0:
256,192,25909,1,8,0:0:0:0:
256,192,25981,5,0,0:0:0:0:
256,192,26124,1,0,0:0:0:0:
256,192,26195,1,8,0:0:0:0:
256,192,26409,1,0,0:0:0:0:
256,192,26624,1,8,0:0:0:0:
256,192,26695,1,0,0:0:0:0:
256,192,26767,1,0,0:0:0:0:
256,192,26838,1,0,0:0:0:0:
256,192,26981,1,0,0:0:0:0:
256,192,27052,1,8,0:0:0:0:
256,192,27267,1,0,0:0:0:0:
256,192,27320,1,0,0:0:0:0:
256,192,27374,1,0,0:0:0:0:
256,192,27427,1,0,0:0:0:0:
256,192,27481,1,8,0:0:0:0:
256,192,27552,1,8,0:0:0:0:
256,192,27624,1,8,0:0:0:0:
256,192,27695,5,0,0:0:0:0:
256,192,27838,1,0,0:0:0:0:
256,192,27909,1,8,0:0:0:0:
256,192,28231,1,0,0:0:0:0:
256,192,28338,1,8,0:0:0:0:
256,192,28445,1,8,0:0:0:0:
256,192,28552,1,0,0:0:0:0:
256,192,28695,1,0,0:0:0:0:
256,192,28767,1,8,0:0:0:0:
256,192,28981,1,0,0:0:0:0:
256,192,29195,1,8,0:0:0:0:
256,192,29267,1,8,0:0:0:0:
256,192,29338,1,8,0:0:0:0:
256,192,29409,5,0,0:0:0:0:
256,192,29552,1,0,0:0:0:0:
256,192,29624,1,8,0:0:0:0:
256,192,29838,1,0,0:0:0:0:
256,192,30052,1,8,0:0:0:0:
256,192,30124,1,0,0:0:0:0:
256,192,30195,1,0,0:0:0:0:
256,192,30267,1,0,0:0:0:0:
256,192,30409,1,0,0:0:0:0:
256,192,30481,1,8,0:0:0:0:
256,192,30695,1,0,0:0:0:0:
256,192,30749,1,0,0:0:0:0:
256,192,30802,1,0,0:0:0:0:
256,192,30856,1,0,0:0:0:0:
256,192,30909,1,8,0:0:0:0:
256,192,30981,1,8,0:0:0:0:
256,192,31052,1,8,0:0:0:0:
256,192,31124,5,0,0:0:0:0:
256,192,31231,1,0,0:0:0:0:
256,192,31338,1,0,0:0:0:0:
256,192,31445,1,0,0:0:0:0:
256,192,31552,1,8,0:0:0:0:
256,192,31767,1,0,0:0:0:0:
256,192,31838,1,8,0:0:0:0:
256,192,31909,1,8,0:0:0:0:
256,192,31981,1,0,0:0:0:0:
256,192,32124,1,0,0:0:0:0:
256,192,32195,1,8,0:0:0:0:
256,192,32249,1,8,0:0:0:0:
256,192,32302,1,8,0:0:0:0:
256,192,32409,1,0,0:0:0:0:
256,192,32624,1,8,0:0:0:0:
256,192,32695,1,8,0:0:0:0:
256,192,32767,1,8,0:0:0:0:
256,192,32838,5,0,0:0:0:0:
256,192,32981,1,0,0:0:0:0:
256,192,33052,1,8,0:0:0:0:
256,192,33267,1,0,0:0:0:0:
256,192,33481,1,8,0:0:0:0:
256,192,33552,1,0,0:0:0:0:
256,192,33624,1,0,0:0:0:0:
256,192,33695,1,0,0:0:0:0:
256,192,33838,1,0,0:0:0:0:
256,192,33909,1,8,0:0:0:0:
256,192,34124,5,0,0:0:0:0:
256,192,34177,1,0,0:0:0:0:
256,192,34231,1,0,0:0:0:0:
256,192,34284,1,0,0:0:0:0:
256,192,34338,1,8,0:0:0:0:
256,192,34409,1,8,0:0:0:0:
256,192,34481,1,8,0:0:0:0:
256,192,34552,12,0,41195,0:0:0:0:
256,192,41409,5,4,0:0:0:0:
256,192,41624,1,8,0:0:0:0:
256,192,41838,1,0,0:0:0:0:
256,192,41945,1,8,0:0:0:0:
256,192,42052,1,0,0:0:0:0:
256,192,42159,1,8,0:0:0:0:
256,192,42374,1,8,0:0:0:0:
256,192,42481,1,0,0:0:0:0:
256,192,42695,1,8,0:0:0:0:
256,192,42802,1,0,0:0:0:0:
256,192,42909,1,8,0:0:0:0:
256,192,43017,1,8,0:0:0:0:
256,192,43124,5,0,0:0:0:0:
256,192,43231,1,0,0:0:0:0:
256,192,43338,1,8,0:0:0:0:
256,192,43552,1,0,0:0:0:0:
256,192,43659,1,8,0:0:0:0:
256,192,43874,1,8,0:0:0:0:
256,192,44088,1,8,0:0:0:0:
256,192,44195,1,0,0:0:0:0:
256,192,44409,1,8,0:0:0:0:
256,192,44517,1,0,0:0:0:0:
256,192,44624,1,8,0:0:0:0:
256,192,44731,1,8,0:0:0:0:
256,192,44838,5,0,0:0:0:0:
256,192,45052,1,8,0:0:0:0:
256,192,45159,1,0,0:0:0:0:
256,192,45267,1,0,0:0:0:0:
256,192,45374,1,8,0:0:0:0:
256,192,45588,1,8,0:0:0:0:
256,192,45802,1,8,0:0:0:0:
256,192,45909,1,0,0:0:0:0:
256,192,46124,1,8,0:0:0:0:
256,192,46231,1,0,0:0:0:0:
256,192,46338,1,8,0:0:0:0:
256,192,46445,1,8,0:0:0:0:
256,192,46552,5,0,0:0:0:0:
256,192,46767,1,8,0:0:0:0:
256,192,46981,1,0,0:0:0:0:
256,192,47088,1,8,0:0:0:0:
256,192,47302,1,8,0:0:0:0:
256,192,47409,1,0,0:0:0:0:
256,192,47517,1,8,0:0:0:0:
256,192,47624,1,0,0:0:0:0:
256,192,47838,1,8,0:0:0:0:
256,192,47945,1,0,0:0:0:0:
256,192,48052,1,8,0:0:0:0:
256,192,48159,1,8,0:0:0:0:
256,192,48267,5,4,0:0:0:0:
256,192,48481,1,8,0:0:0:0:
256,192,48695,1,0,0:0:0:0:
256,192,48802,1,8,0:0:0:0:
256,192,48909,1,0,0:0:0:0:
256,192,49017,1,8,0:0:0:0:
256,192,49231,1,8,0:0:0:0:
256,192,49338,1,0,0:0:0:0:
256,192,49552,1,8,0:0:0:0:
256,192,49659,1,0,0:0:0:0:
256,192,49767,1,8,0:0:0:0:
256,192,49874,1,8,0:0:0:0:
256,192,49981,5,0,0:0:0:0:
256,192,50088,1,0,0:0:0:0:
256,192,50195,1,8,0:0:0:0:
256,192,50409,1,0,0:0:0:0:
256,192,50517,1,8,0:0:0:0:
256,192,50731,1,8,0:0:0:0:
256,192,50945,1,8,0:0:0:0:
256,192,51052,1,0,0:0:0:0:
256,192,51267,1,8,0:0:0:0:
256,192,51374,1,0,0:0:0:0:
256,192,51481,1,8,0:0:0:0:
256,192,51588,1,8,0:0:0:0:
256,192,51695,5,0,0:0:0:0:
256,192,51909,1,8,0:0:0:0:
256,192,52017,1,0,0:0:0:0:
256,192,52124,1,0,0:0:0:0:
256,192,52231,1,8,0:0:0:0:
256,192,52445,1,8,0:0:0:0:
256,192,52659,1,8,0:0:0:0:
256,192,52767,1,0,0:0:0:0:
256,192,52874,1,0,0:0:0:0:
256,192,52981,1,8,0:0:0:0:
256,192,53088,1,0,0:0:0:0:
256,192,53195,1,8,0:0:0:0:
256,192,53302,1,8,0:0:0:0:
256,192,53409,5,0,0:0:0:0:
256,192,53517,1,0,0:0:0:0:
256,192,53624,1,0,0:0:0:0:
256,192,53731,1,0,0:0:0:0:
256,192,53838,1,8,0:0:0:0:
256,192,53945,1,8,0:0:0:0:
256,192,54052,1,0,0:0:0:0:
256,192,54159,1,0,0:0:0:0:
256,192,54267,1,8,0:0:0:0:
256,192,54481,1,0,0:0:0:0:
256,192,54695,1,8,0:0:0:0:
256,192,54802,1,0,0:0:0:0:
256,192,54909,1,8,0:0:0:0:
256,192,55017,1,8,0:0:0:0:
256,192,55124,5,4,0:0:0:0:
256,192,55338,1,8,0:0:0:0:
256,192,55445,1,0,0:0:0:0:
256,192,55552,1,8,0:0:0:0:
256,192,55659,1,8,0:0:0:0:
256,192,55767,1,0,0:0:0:0:
256,192,55874,1,8,0:0:0:0:
256,192,56088,1,8,0:0:0:0:
256,192,56195,1,0,0:0:0:0:
256,192,56409,1,8,0:0:0:0:
256,192,56517,1,0,0:0:0:0:
256,192,56624,1,8,0:0:0:0:
256,192,56731,1,8,0:0:0:0:
256,192,56838,5,0,0:0:0:0:
256,192,56945,1,0,0:0:0:0:
256,192,57052,1,8,0:0:0:0:
256,192,57267,1,0,0:0:0:0:
256,192,57374,1,8,0:0:0:0:
256,192,57588,1,8,0:0:0:0:
256,192,57695,1,0,0:0:0:0:
256,192,57802,1,8,0:0:0:0:
256,192,57909,1,0,0:0:0:0:
256,192,58124,1,8,0:0:0:0:
256,192,58231,1,0,0:0:0:0:
256,192,58338,1,8,0:0:0:0:
256,192,58445,1,8,0:0:0:0:
256,192,58552,5,0,0:0:0:0:
256,192,58659,1,0,0:0:0:0:
256,192,58767,1,8,0:0:0:0:
256,192,58874,1,0,0:0:0:0:
256,192,58981,1,8,0:0:0:0:
256,192,59088,1,8,0:0:0:0:
256,192,59302,1,8,0:0:0:0:
256,192,59517,1,8,0:0:0:0:
256,192,59624,1,0,0:0:0:0:
256,192,59838,1,8,0:0:0:0:
256,192,59945,1,0,0:0:0:0:
256,192,60052,1,8,0:0:0:0:
256,192,60159,1,8,0:0:0:0:
256,192,60267,5,0,0:0:0:0:
256,192,60481,1,8,0:0:0:0:
256,192,60695,1,0,0:0:0:0:
256,192,60802,1,8,0:0:0:0:
256,192,61017,1,8,0:0:0:0:
256,192,61124,1,0,0:0:0:0:
256,192,61231,1,8,0:0:0:0:
256,192,61338,1,0,0:0:0:0:
256,192,61445,1,0,0:0:0:0:
256,192,61552,1,8,0:0:0:0:
256,192,61659,1,0,0:0:0:0:
256,192,61767,1,8,0:0:0:0:
256,192,61874,1,8,0:0:0:0:
256,192,61981,5,4,0:0:0:0:
256,192,62195,1,8,0:0:0:0:
256,192,62302,1,0,0:0:0:0:
256,192,62409,1,8,0:0:0:0:
256,192,62517,1,8,0:0:0:0:
256,192,62731,1,8,0:0:0:0:
256,192,62838,1,0,0:0:0:0:
256,192,62945,1,8,0:0:0:0:
256,192,63052,1,0,0:0:0:0:
256,192,63267,1,8,0:0:0:0:
256,192,63374,1,0,0:0:0:0:
256,192,63481,1,8,0:0:0:0:
256,192,63588,1,8,0:0:0:0:
256,192,63695,5,0,0:0:0:0:
256,192,63802,1,0,0:0:0:0:
256,192,63909,1,8,0:0:0:0:
256,192,64124,1,0,0:0:0:0:
256,192,64231,1,8,0:0:0:0:
256,192,64338,1,0,0:0:0:0:
256,192,64445,1,8,0:0:0:0:
256,192,64659,1,8,0:0:0:0:
256,192,64767,1,0,0:0:0:0:
256,192,64981,1,8,0:0:0:0:
256,192,65088,1,0,0:0:0:0:
256,192,65195,1,8,0:0:0:0:
256,192,65302,1,8,0:0:0:0:
256,192,65409,5,0,0:0:0:0:
256,192,65624,1,8,0:0:0:0:
256,192,65838,1,0,0:0:0:0:
256,192,65945,1,8,0:0:0:0:
256,192,66159,1,8,0:0:0:0:
256,192,66374,1,8,0:0:0:0:
256,192,66481,1,0,0:0:0:0:
256,192,66695,1,8,0:0:0:0:
256,192,66802,1,0,0:0:0:0:
256,192,66909,1,8,0:0:0:0:
256,192,67017,1,8,0:0:0:0:
256,192,67124,5,0,0:0:0:0:
256,192,67231,1,0,0:0:0:0:
256,192,67338,1,8,0:0:0:0:
256,192,67445,1,8,0:0:0:0:
256,192,67552,1,0,0:0:0:0:
256,192,67659,1,8,0:0:0:0:
256,192,67767,1,0,0:0:0:0:
256,192,67838,1,0,0:0:0:0:
256,192,67909,1,0,0:0:0:0:
256,192,67981,1,8,0:0:0:0:
256,192,68052,1,0,0:0:0:0:
256,192,68124,1,0,0:0:0:0:
256,192,68195,1,8,0:0:0:0:
256,192,68267,1,0,0:0:0:0:
256,192,68338,1,0,0:0:0:0:
256,192,68409,1,8,0:0:0:0:
256,192,68481,1,8,0:0:0:0:
256,192,68552,1,0,0:0:0:0:
256,192,68624,1,8,0:0:0:0:
256,192,68695,1,8,0:0:0:0:
256,192,68767,1,8,0:0:0:0:
256,192,68838,5,4,0:0:0:0:
256,192,69052,1,8,0:0:0:0:
256,192,69267,1,0,0:0:0:0:
256,192,69374,1,8,0:0:0:0:
256,192,69588,1,8,0:0:0:0:
256,192,69695,1,0,0:0:0:0:
256,192,69802,1,8,0:0:0:0:
256,192,69909,1,0,0:0:0:0:
256,192,70017,1,0,0:0:0:0:
256,192,70070,1,0,0:0:0:0:
256,192,70124,1,8,0:0:0:0:
256,192,70231,1,8,0:0:0:0:
256,192,70338,1,0,0:0:0:0:
256,192,70445,1,8,0:0:0:0:
256,192,70552,5,0,0:0:0:0:
256,192,70659,1,8,0:0:0:0:
256,192,70767,1,8,0:0:0:0:
256,192,70874,1,8,0:0:0:0:
256,192,70981,1,0,0:0:0:0:
256,192,71088,1,8,0:0:0:0:
256,192,71195,1,0,0:0:0:0:
256,192,71302,1,8,0:0:0:0:
256,192,71517,1,0,0:0:0:0:
256,192,71731,1,8,0:0:0:0:
256,192,71945,1,0,0:0:0:0:
256,192,72052,1,8,0:0:0:0:
256,192,72159,1,0,0:0:0:0:
256,192,72267,5,8,0:0:0:0:
256,192,72374,1,8,0:0:0:0:
256,192,72481,1,8,0:0:0:0:
256,192,72588,1,0,0:0:0:0:
256,192,72695,1,0,0:0:0:0:
256,192,72802,1,8,0:0:0:0:
256,192,73017,1,8,0:0:0:0:
256,192,73124,1,8,0:0:0:0:
256,192,73231,1,0,0:0:0:0:
256,192,73338,1,8,0:0:0:0:
256,192,73392,1,0,0:0:0:0:
256,192,73445,1,0,0:0:0:0:
256,192,73552,1,8,0:0:0:0:
256,192,73659,1,0,0:0:0:0:
256,192,73874,1,8,0:0:0:0:
256,192,73981,5,0,0:0:0:0:
256,192,74088,1,0,0:0:0:0:
256,192,74195,1,8,0:0:0:0:
256,192,74409,1,0,0:0:0:0:
256,192,74517,1,0,0:0:0:0:
256,192,74731,1,8,0:0:0:0:
256,192,74945,1,8,0:0:0:0:
256,192,75052,1,0,0:0:0:0:
256,192,75159,1,8,0:0:0:0:
256,192,75267,1,8,0:0:0:0:
256,192,75374,1,0,0:0:0:0:
256,192,75588,1,8,0:0:0:0:
256,192,75695,5,0,0:0:0:0:
256,192,75802,1,8,0:0:0:0:
256,192,75909,1,0,0:0:0:0:
256,192,76017,1,0,0:0:0:0:
256,192,76124,1,8,0:0:0:0:
256,192,76231,1,8,0:0:0:0:
256,192,76338,1,0,0:0:0:0:
256,192,76445,1,8,0:0:0:0:
256,192,76659,1,0,0:0:0:0:
256,192,76767,1,0,0:0:0:0:
256,192,76874,1,8,0:0:0:0:
256,192,77088,1,8,0:0:0:0:
256,192,77195,1,0,0:0:0:0:
256,192,77302,1,8,0:0:0:0:
256,192,77517,5,8,0:0:0:0:
256,192,77624,1,8,0:0:0:0:
256,192,77731,1,8,0:0:0:0:
256,192,77838,1,0,0:0:0:0:
256,192,77945,1,0,0:0:0:0:
256,192,78052,1,8,0:0:0:0:
256,192,78159,1,8,0:0:0:0:
256,192,78267,1,0,0:0:0:0:
256,192,78374,1,8,0:0:0:0:
256,192,78588,1,8,0:0:0:0:
256,192,78802,1,0,0:0:0:0:
256,192,78909,1,0,0:0:0:0:
256,192,79017,1,8,0:0:0:0:
256,192,79124,5,0,0:0:0:0:
256,192,79231,1,8,0:0:0:0:
256,192,79338,1,8,0:0:0:0:
256,192,79445,1,8,0:0:0:0:
256,192,79552,1,0,0:0:0:0:
256,192,79659,1,0,0:0:0:0:
256,192,79767,1,8,0:0:0:0:
256,192,79874,1,8,0:0:0:0:
256,192,79981,1,0,0:0:0:0:
256,192,80088,1,8,0:0:0:0:
256,192,80195,1,0,0:0:0:0:
256,192,80302,1,8,0:0:0:0:
256,192,80409,1,0,0:0:0:0:
256,192,80517,1,8,0:0:0:0:
256,192,80624,1,8,0:0:0:0:
256,192,80731,1,8,0:0:0:0:
256,192,80838,5,8,0:0:0:0:
256,192,80909,1,8,0:0:0:0:
256,192,80981,1,0,0:0:0:0:
256,192,81052,1,8,0:0:0:0:
256,192,81124,1,0,0:0:0:0:
256,192,81195,1,0,0:0:0:0:
256,192,81267,1,8,0:0:0:0:
256,192,81338,1,8,0:0:0:0:
256,192,81409,1,8,0:0:0:0:
256,192,81481,1,0,0:0:0:0:
256,192,81552,1,0,0:0:0:0:
256,192,81624,1,0,0:0:0:0:
256,192,81695,1,8,0:0:0:0:
256,192,81909,1,0,0:0:0:0:
256,192,82017,1,8,0:0:0:0:
256,192,82231,1,0,0:0:0:0:
256,192,82338,1,8,0:0:0:0:
256,192,82552,5,4,0:0:0:0:
256,192,82767,1,8,0:0:0:0:
256,192,82981,1,0,0:0:0:0:
256,192,83088,1,8,0:0:0:0:
256,192,83302,1,8,0:0:0:0:
256,192,83409,1,0,0:0:0:0:
256,192,83517,1,0,0:0:0:0:
256,192,83624,1,8,0:0:0:0:
256,192,83838,1,0,0:0:0:0:
256,192,83945,1,8,0:0:0:0:
256,192,84159,1,8,0:0:0:0:
256,192,84267,1,0,0:0:0:0:
256,192,84481,1,8,0:0:0:0:
256,192,84588,1,8,0:0:0:0:
256,192,84695,1,0,0:0:0:0:
256,192,84802,1,8,0:0:0:0:
256,192,84909,1,0,0:0:0:0:
256,192,85124,1,8,0:0:0:0:
256,192,85338,1,0,0:0:0:0:
256,192,85445,1,8,0:0:0:0:
256,192,85659,1,8,0:0:0:0:
256,192,85767,1,0,0:0:0:0:
256,192,85874,1,0,0:0:0:0:
256,192,85981,5,8,0:0:0:0:
256,192,86195,1,0,0:0:0:0:
256,192,86409,1,8,0:0:0:0:
256,192,86624,1,0,0:0:0:0:
256,192,86731,1,0,0:0:0:0:
256,192,86945,1,0,0:0:0:0:
256,192,87052,1,0,0:0:0:0:
256,192,87159,1,8,0:0:0:0:
256,192,87267,1,0,0:0:0:0:
256,192,87481,1,8,0:0:0:0:
256,192,87588,1,0,0:0:0:0:
256,192,87802,1,0,0:0:0:0:
256,192,87909,1,0,0:0:0:0:
256,192,88017,1,8,0:0:0:0:
256,192,88124,1,8,0:0:0:0:
256,192,88231,1,8,0:0:0:0:
256,192,88338,1,0,0:0:0:0:
256,192,88445,1,0,0:0:0:0:
256,192,88552,1,8,0:0:0:0:
256,192,88624,1,8,0:0:0:0:
256,192,88695,1,0,0:0:0:0:
256,192,88767,1,8,0:0:0:0:
256,192,88838,1,0,0:0:0:0:
256,192,88909,1,0,0:0:0:0:
256,192,88981,1,8,0:0:0:0:
256,192,89088,1,0,0:0:0:0:
256,192,89195,1,8,0:0:0:0:
256,192,89302,1,8,0:0:0:0:
256,192,89409,5,4,0:0:0:0:
256,192,89624,1,8,0:0:0:0:
256,192,89838,1,0,0:0:0:0:
256,192,89945,1,8,0:0:0:0:
256,192,90159,1,8,0:0:0:0:
256,192,90267,1,0,0:0:0:0:
256,192,90374,1,0,0:0:0:0:
256,192,90481,1,8,0:0:0:0:
256,192,90695,1,0,0:0:0:0:
256,192,90802,1,8,0:0:0:0:
256,192,91017,1,8,0:0:0:0:
256,192,91231,1,8,0:0:0:0:
256,192,91338,1,0,0:0:0:0:
256,192,91552,1,0,0:0:0:0:
256,192,91659,1,8,0:0:0:0:
256,192,91767,1,0,0:0:0:0:
256,192,91874,1,8,0:0:0:0:
256,192,91981,1,0,0:0:0:0:
256,192,92034,1,8,0:0:0:0:
256,192,92088,1,8,0:0:0:0:
256,192,92195,1,8,0:0:0:0:
256,192,92302,1,8,0:0:0:0:
256,192,92409,1,0,0:0:0:0:
256,192,92517,1,0,0:0:0:0:
256,192,92624,1,8,0:0:0:0:
256,192,92731,1,8,0:0:0:0:
256,192,92838,5,0,0:0:0:0:
256,192,92945,1,8,0:0:0:0:
256,192,93052,1,0,0:0:0:0:
256,192,93159,1,8,0:0:0:0:
256,192,93374,1,0,0:0:0:0:
256,192,93588,1,8,0:0:0:0:
256,192,93802,1,0,0:0:0:0:
256,192,93909,1,8,0:0:0:0:
256,192,94017,1,8,0:0:0:0:
256,192,94124,1,0,0:0:0:0:
256,192,94231,1,8,0:0:0:0:
256,192,94445,1,0,0:0:0:0:
256,192,94552,1,8,0:0:0:0:
256,192,94624,1,8,0:0:0:0:
256,192,94695,1,8,0:0:0:0:
256,192,94767,1,0,0:0:0:0:
256,192,94838,1,0,0:0:0:0:
256,192,94909,1,0,0:0:0:0:
256,192,94981,1,8,0:0:0:0:
256,192,95088,1,8,0:0:0:0:
256,192,95195,1,0,0:0:0:0:
256,192,95302,1,0,0:0:0:0:
256,192,95517,1,0,0:0:0:0:
256,192,95624,1,0,0:0:0:0:
256,192,95731,1,8,0:0:0:0:
256,192,95838,1,0,0:0:0:0:
256,192,95945,1,0,0:0:0:0:
256,192,96052,1,8,0:0:0:0:
256,192,96159,1,8,0:0:0:0:
256,192,96267,5,4,0:0:0:0:
256,192,96481,1,8,0:0:0:0:
256,192,96695,1,0,0:0:0:0:
256,192,96802,1,8,0:0:0:0:
256,192,97017,1,8,0:0:0:0:
256,192,97124,1,0,0:0:0:0:
256,192,97231,1,0,0:0:0:0:
256,192,97338,1,8,0:0:0:0:
256,192,97552,1,0,0:0:0:0:
256,192,97659,1,8,0:0:0:0:
256,192,97874,1,8,0:0:0:0:
256,192,97981,1,0,0:0:0:0:
256,192,98195,1,8,0:0:0:0:
256,192,98302,1,8,0:0:0:0:
256,192,98409,1,0,0:0:0:0:
256,192,98517,1,8,0:0:0:0:
256,192,98624,1,0,0:0:0:0:
256,192,98838,1,8,0:0:0:0:
256,192,99052,1,0,0:0:0:0:
256,192,99159,1,8,0:0:0:0:
256,192,99374,1,8,0:0:0:0:
256,192,99481,1,0,0:0:0:0:
256,192,99588,1,0,0:0:0:0:
256,192,99695,5,8,0:0:0:0:
256,192,99909,1,0,0:0:0:0:
256,192,100017,1,0,0:0:0:0:
256,192,100124,1,8,0:0:0:0:
256,192,100177,1,8,0:0:0:0:
256,192,100231,1,8,0:0:0:0:
256,192,100338,1,8,0:0:0:0:
256,192,100445,1,0,0:0:0:0:
256,192,100552,1,8,0:0:0:0:
256,192,100659,1,0,0:0:0:0:
256,192,100767,1,0,0:0:0:0:
256,192,100874,1,8,0:0:0:0:
256,192,101088,1,0,0:0:0:0:
256,192,101195,1,8,0:0:0:0:
256,192,101409,1,0,0:0:0:0:
256,192,101517,1,8,0:0:0:0:
256,192,101624,1,8,0:0:0:0:
256,192,101731,1,8,0:0:0:0:
256,192,101838,1,8,0:0:0:0:
256,192,101945,1,8,0:0:0:0:
256,192,102052,1,8,0:0:0:0:
256,192,102159,1,0,0:0:0:0:
256,192,102267,1,8,0:0:0:0:
256,192,102374,1,0,0:0:0:0:
256,192,102481,1,0,0:0:0:0:
256,192,102588,1,8,0:0:0:0:
256,192,102802,1,0,0:0:0:0:
256,192,102909,1,8,0:0:0:0:
256,192,103124,5,4,0:0:0:0:
256,192,103552,1,0,0:0:0:0:
256,192,103659,1,0,0:0:0:0:
256,192,103767,1,8,0:0:0:0:
256,192,103981,1,0,0:0:0:0:
256,192,104088,1,0,0:0:0:0:
256,192,104195,1,0,0:0:0:0:
256,192,104409,1,8,0:0:0:0:
256,192,104624,1,0,0:0:0:0:
256,192,104838,5,8,0:0:0:0:
256,192,105052,1,0,0:0:0:0:
256,192,105159,1,8,0:0:0:0:
256,192,105374,1,0,0:0:0:0:
256,192,105481,1,8,0:0:0:0:
256,192,105695,1,0,0:0:0:0:
256,192,105909,1,8,0:0:0:0:
256,192,106124,1,0,0:0:0:0:
256,192,106338,1,8,0:0:0:0:
256,192,106552,5,4,0:0:0:0:
256,192,106767,1,0,0:0:0:0:
256,192,106981,1,0,0:0:0:0:
256,192,107409,1,8,0:0:0:0:
256,192,107517,1,8,0:0:0:0:
256,192,107624,1,8,0:0:0:0:
256,192,107731,1,8,0:0:0:0:
256,192,107838,1,8,0:0:0:0:
256,192,107945,1,8,0:0:0:0:
256,192,108052,1,8,0:0:0:0:
256,192,108159,1,8,0:0:0:0:
256,192,108267,5,0,0:0:0:0:
256,192,108588,1,0,0:0:0:0:
256,192,108909,1,8,0:0:0:0:
256,192,109124,1,0,0:0:0:0:
256,192,109231,1,0,0:0:0:0:
256,192,109338,1,0,0:0:0:0:
256,192,109445,1,8,0:0:0:0:
256,192,109552,1,0,0:0:0:0:
256,192,109659,1,0,0:0:0:0:
256,192,109767,1,8,0:0:0:0:
256,192,109874,1,8,0:0:0:0:
256,192,109981,5,0,0:0:0:0:
256,192,110409,1,8,0:0:0:0:
256,192,110552,1,8,0:0:0:0:
256,192,110695,1,8,0:0:0:0:
256,192,110838,1,0,0:0:0:0:
256,192,110945,1,8,0:0:0:0:
256,192,111052,1,8,0:0:0:0:
256,192,111159,1,0,0:0:0:0:
256,192,111267,1,8,0:0:0:0:
256,192,111374,1,0,0:0:0:0:
256,192,111481,1,8,0:0:0:0:
256,192,111588,1,8,0:0:0:0:
256,192,111695,5,0,0:0:0:0:
256,192,111909,1,8,0:0:0:0:
256,192,112124,1,0,0:0:0:0:
256,192,112231,1,0,0:0:0:0:
256,192,112338,1,8,0:0:0:0:
256,192,112552,1,0,0:0:0:0:
256,192,112981,1,8,0:0:0:0:
256,192,113124,1,8,0:0:0:0:
256,192,113267,1,8,0:0:0:0:
256,192,113409,5,4,0:0:0:0:
256,192,113624,1,0,0:0:0:0:
256,192,113838,1,0,0:0:0:0:
256,192,114267,1,8,0:0:0:0:
256,192,114409,1,8,0:0:0:0:
256,192,114552,1,8,0:0:0:0:
256,192,114695,1,8,0:0:0:0:
256,192,114838,1,8,0:0:0:0:
256,192,114981,1,8,0:0:0:0:
256,192,115124,1,0,0:0:0:0:
256,192,115231,1,0,0:0:0:0:
256,192,115338,1,8,0:0:0:0:
256,192,115445,1,8,0:0:0:0:
256,192,115552,1,0,0:0:0:0:
256,192,115659,1,8,0:0:0:0:
256,192,115767,1,8,0:0:0:0:
256,192,115874,1,8,0:0:0:0:
256,192,115981,1,0,0:0:0:0:
256,192,116088,1,0,0:0:0:0:
256,192,116195,1,8,0:0:0:0:
256,192,116249,1,8,0:0:0:0:
256,192,116302,1,8,0:0:0:0:
256,192,116356,1,8,0:0:0:0:
256,192,116409,1,0,0:0:0:0:
256,192,116517,1,0,0:0:0:0:
256,192,116624,1,8,0:0:0:0:
256,192,116731,1,8,0:0:0:0:
256,192,116838,5,4,0:0:0:0:
256,192,117159,1,0,0:0:0:0:
256,192,117481,1,0,0:0:0:0:
256,192,117695,1,8,0:0:0:0:
256,192,117838,1,8,0:0:0:0:
256,192,117981,1,8,0:0:0:0:
256,192,118124,1,8,0:0:0:0:
256,192,118231,1,8,0:0:0:0:
256,192,118338,1,8,0:0:0:0:
256,192,118445,1,8,0:0:0:0:
256,192,118552,5,0,0:0:0:0:
256,192,118767,1,12,0:0:0:0:
256,192,118981,1,0,0:0:0:0:
256,192,119088,1,0,0:0:0:0:
256,192,119195,1,12,0:0:0:0:
256,192,119409,1,0,0:0:0:0:
256,192,119517,1,0,0:0:0:0:
256,192,119624,1,8,0:0:0:0:
256,192,119731,1,8,0:0:0:0:
256,192,119838,1,0,0:0:0:0:
256,192,119892,1,0,0:0:0:0:
256,192,119945,1,0,0:0:0:0:
256,192,119999,1,0,0:0:0:0:
256,192,120052,1,8,0:0:0:0:
256,192,120106,1,8,0:0:0:0:
256,192,120159,1,8,0:0:0:0:
256,192,120213,1,8,0:0:0:0:
256,192,120267,5,0,0:0:0:0:
256,192,120909,1,0,0:0:0:0:
256,192,121552,1,8,0:0:0:0:
256,192,121767,1,8,0:0:0:0:
256,192,121981,1,0,0:0:0:0:
256,192,122409,1,8,0:0:0:0:
256,192,122624,1,0,0:0:0:0:
256,192,123052,1,0,0:0:0:0:
256,192,123267,1,0,0:0:0:0:
256,192,123481,1,8,0:0:0:0:
256,192,123695,5,0,0:0:0:0:
256,192,124124,1,8,0:0:0:0:
256,192,124338,1,8,0:0:0:0:
256,192,124552,1,0,0:0:0:0:
256,192,124981,1,8,0:0:0:0:
256,192,125409,1,0,0:0:0:0:
256,192,125838,1,0,0:0:0:0:
256,192,126267,1,8,0:0:0:0:
256,192,126695,1,0,0:0:0:0:
256,192,127124,5,8,0:0:0:0:
256,192,127338,1,0,0:0:0:0:
256,192,127552,1,8,0:0:0:0:
256,192,127981,1,0,0:0:0:0:
256,192,128409,1,8,0:0:0:0:
256,192,128624,1,8,0:0:0:0:
256,192,128838,5,0,0:0:0:0:
256,192,129052,1,8,0:0:0:0:
256,192,129159,1,0,0:0:0:0:
256,192,129481,1,0,0:0:0:0:
256,192,129695,1,0,0:0:0:0:
256,192,129909,1,8,0:0:0:0:
256,192,130124,1,0,0:0:0:0:
256,192,130552,5,8,0:0:0:0:
256,192,130767,1,0,0:0:0:0:
256,192,130981,1,8,0:0:0:0:
256,192,131409,1,0,0:0:0:0:
256,192,131838,1,8,0:0:0:0:
256,192,132267,1,0,0:0:0:0:
256,192,132695,1,0,0:0:0:0:
256,192,133124,1,8,0:0:0:0:
256,192,133552,1,8,0:0:0:0:
256,192,133981,5,0,0:0:0:0:
256,192,134838,1,8,0:0:0:0:
256,192,135481,1,0,0:0:0:0:
256,192,136124,1,0,0:0:0:0:
256,192,136552,1,8,0:0:0:0:
256,192,137409,1,0,0:0:0:0:
256,192,138267,1,8,0:0:0:0:
256,192,138909,1,0,0:0:0:0:
256,192,139552,1,0,0:0:0:0:
256,192,139981,1,8,0:0:0:0:
256,192,140838,5,0,0:0:0:0:
256,192,141695,1,8,0:0:0:0:
256,192,142338,1,0,0:0:0:0:
256,192,142981,1,0,0:0:0:0:
256,192,143409,1,8,0:0:0:0:
256,192,144267,1,0,0:0:0:0:
256,192,145124,1,8,0:0:0:0:
256,192,145767,1,0,0:0:0:0:
256,192,146409,1,0,0:0:0:0:
256,192,146838,1,8,0:0:0:0:
256,192,147695,5,0,0:0:0:0:
256,192,147838,1,0,0:0:0:0:
256,192,147909,1,8,0:0:0:0:
256,192,148231,1,0,0:0:0:0:
256,192,148338,1,8,0:0:0:0:
256,192,148445,1,8,0:0:0:0:
256,192,148552,1,0,0:0:0:0:
256,192,148695,1,0,0:0:0:0:
256,192,148767,1,8,0:0:0:0:
256,192,148981,1,0,0:0:0:0:
256,192,149195,1,8,0:0:0:0:
256,192,149267,1,8,0:0:0:0:
256,192,149338,1,8,0:0:0:0:
256,192,149409,5,0,0:0:0:0:
256,192,149552,1,0,0:0:0:0:
256,192,149624,1,8,0:0:0:0:
256,192,149838,1,0,0:0:0:0:
256,192,150052,1,8,0:0:0:0:
256,192,150124,1,0,0:0:0:0:
256,192,150195,1,0,0:0:0:0:
256,192,150267,1,0,0:0:0:0:
256,192,150409,1,0,0:0:0:0:
256,192,150481,1,8,0:0:0:0:
256,192,150695,1,0,0:0:0:0:
256,192,150749,1,0,0:0:0:0:
256,192,150802,1,0,0:0:0:0:
256,192,150856,1,0,0:0:0:0:
256,192,150909,1,8,0:0:0:0:
256,192,150981,1,8,0:0:0:0:
256,192,151052,1,8,0:0:0:0:
256,192,151124,5,0,0:0:0:0:
256,192,151231,1,0,0:0:0:0:
256,192,151338,1,0,0:0:0:0:
256,192,151445,1,0,0:0:0:0:
256,192,151552,1,8,0:0:0:0:
256,192,151767,1,0,0:0:0:0:
256,192,151838,1,8,0:0:0:0:
256,192,151909,1,8,0:0:0:0:
256,192,151981,1,0,0:0:0:0:
256,192,152124,1,0,0:0:0:0:
256,192,152195,1,8,0:0:0:0:
256,192,152249,1,8,0:0:0:0:
256,192,152302,1,8,0:0:0:0:
256,192,152409,1,0,0:0:0:0:
256,192,152624,1,8,0:0:0:0:
256,192,152695,1,8,0:0:0:0:
256,192,152767,1,8,0:0:0:0:
256,192,152838,5,0,0:0:0:0:
256,192,152981,1,0,0:0:0:0:
256,192,153052,1,8,0:0:0:0:
256,192,153267,1,0,0:0:0:0:
256,192,153481,1,8,0:0:0:0:
256,192,153552,1,0,0:0:0:0:
256,192,153624,1,0,0:0:0:0:
256,192,153695,1,0,0:0:0:0:
256,192,153838,1,0,0:0:0:0:
256,192,153909,1,8,0:0:0:0:
256,192,154124,1,0,0:0:0:0:
256,192,154177,1,0,0:0:0:0:
256,192,154231,1,0,0:0:0:0:
256,192,154284,1,0,0:0:0:0:
256,192,154338,1,8,0:0:0:0:
256,192,154409,1,8,0:0:0:0:
256,192,154481,1,8,0:0:0:0:
256,192,154552,5,0,0:0:0:0:
256,192,154695,1,0,0:0:0:0:
256,192,154767,1,8,0:0:0:0:
256,192,155088,1,0,0:0:0:0:
256,192,155195,1,8,0:0:0:0:
256,192,155302,1,8,0:0:0:0:
256,192,155409,1,0,0:0:0:0:
256,192,155552,1,0,0:0:0:0:
256,192,155624,1,8,0:0:0:0:
256,192,155838,1,0,0:0:0:0:
256,192,156052,1,8,0:0:0:0:
256,192,156124,1,8,0:0:0:0:
256,192,156195,1,8,0:0:0:0:
256,192,156267,5,0,0:0:0:0:
256,192,156409,1,0,0:0:0:0:
256,192,156481,1,8,0:0:0:0:
256,192,156695,1,0,0:0:0:0:
256,192,156909,1,8,0:0:0:0:
256,192,156981,1,0,0:0:0:0:
256,192,157052,1,0,0:0:0:0:
256,192,157124,1,0,0:0:0:0:
256,192,157267,1,0,0:0:0:0:
256,192,157338,1,8,0:0:0:0:
256,192,157552,1,0,0:0:0:0:
256,192,157606,1,0,0:0:0:0:
256,192,157659,1,0,0:0:0:0:
256,192,157713,1,0,0:0:0:0:
256,192,157767,1,8,0:0:0:0:
256,192,157838,1,8,0:0:0:0:
256,192,157909,1,8,0:0:0:0:
256,192,157981,5,0,0:0:0:0:
256,192,158088,1,0,0:0:0:0:
256,192,158195,1,8,0:0:0:0:
256,192,158409,1,0,0:0:0:0:
256,192,158517,1,8,0:0:0:0:
256,192,158731,1,0,0:0:0:0:
256,192,158838,1,8,0:0:0:0:
256,192,159052,1,0,0:0:0:0:
256,192,159159,1,8,0:0:0:0:
256,192,159374,1,0,0:0:0:0:
256,192,159481,1,8,0:0:0:0:
256,192,159695,1,0,0:0:0:0:
256,192,159802,1,8,0:0:0:0:
256,192,160017,1,0,0:0:0:0:
256,192,160124,1,8,0:0:0:0:
256,192,160338,1,0,0:0:0:0:
256,192,160445,1,8,0:0:0:0:
256,192,160552,1,0,0:0:0:0:
256,192,160659,1,0,0:0:0:0:
256,192,160767,1,8,0:0:0:0:
256,192,160981,1,0,0:0:0:0:
256,192,161088,1,8,0:0:0:0:
256,192,161195,1,0,0:0:0:0:
256,192,161302,1,0,0:0:0:0:
256,192,161409,5,8,0:0:0:0:
256,192,161624,1,0,0:0:0:0:
256,192,161731,1,8,0:0:0:0:
256,192,161945,1,0,0:0:0:0:
256,192,162052,1,8,0:0:0:0:
256,192,162267,1,0,0:0:0:0:
256,192,162374,1,8,0:0:0:0:
256,192,162588,1,0,0:0:0:0:
256,192,162695,1,8,0:0:0:0:
256,192,162909,1,0,0:0:0:0:
256,192,163017,1,8,0:0:0:0:
256,192,163231,1,0,0:0:0:0:
256,192,163338,1,8,0:0:0:0:
256,192,163552,1,0,0:0:0:0:
256,192,163659,1,8,0:0:0:0:
256,192,163767,1,0,0:0:0:0:
256,192,163874,1,0,0:0:0:0:
256,192,163981,1,8,0:0:0:0:
256,192,164195,1,0,0:0:0:0:
256,192,164302,1,8,0:0:0:0:
256,192,164409,1,0,0:0:0:0:
256,192,164517,1,0,0:0:0:0:
256,192,164624,1,8,0:0:0:0:
256,192,164838,12,0,171481,0:0:0:0:
256,192,171695,5,4,0:0:0:0:
256,192,171909,1,8,0:0:0:0:
256,192,172124,1,0,0:0:0:0:
256,192,172231,1,8,0:0:0:0:
256,192,172445,1,8,0:0:0:0:
256,192,172552,1,0,0:0:0:0:
256,192,172659,1,8,0:0:0:0:
256,192,172767,1,0,0:0:0:0:
256,192,172874,1,0,0:0:0:0:
256,192,172927,1,0,0:0:0:0:
256,192,172981,1,8,0:0:0:0:
256,192,173088,1,8,0:0:0:0:
256,192,173195,1,0,0:0:0:0:
256,192,173302,1,8,0:0:0:0:
256,192,173409,5,0,0:0:0:0:
256,192,173517,1,8,0:0:0:0:
256,192,173624,1,8,0:0:0:0:
256,192,173731,1,8,0:0:0:0:
256,192,173838,1,0,0:0:0:0:
256,192,173945,1,8,0:0:0:0:
256,192,174052,1,0,0:0:0:0:
256,192,174159,1,8,0:0:0:0:
256,192,174374,1,0,0:0:0:0:
256,192,174588,1,8,0:0:0:0:
256,192,174802,1,0,0:0:0:0:
256,192,174909,1,8,0:0:0:0:
256,192,175017,1,0,0:0:0:0:
256,192,175124,5,8,0:0:0:0:
256,192,175231,1,8,0:0:0:0:
256,192,175338,1,8,0:0:0:0:
256,192,175445,1,0,0:0:0:0:
256,192,175552,1,0,0:0:0:0:
256,192,175659,1,8,0:0:0:0:
256,192,175874,1,8,0:0:0:0:
256,192,175981,1,8,0:0:0:0:
256,192,176088,1,0,0:0:0:0:
256,192,176195,1,8,0:0:0:0:
256,192,176249,1,0,0:0:0:0:
256,192,176302,1,0,0:0:0:0:
256,192,176409,1,8,0:0:0:0:
256,192,176517,1,0,0:0:0:0:
256,192,176731,1,8,0:0:0:0:
256,192,176838,5,0,0:0:0:0:
256,192,176945,1,0,0:0:0:0:
256,192,177052,1,8,0:0:0:0:
256,192,177267,1,0,0:0:0:0:
256,192,177374,1,0,0:0:0:0:
256,192,177588,1,8,0:0:0:0:
256,192,177802,1,8,0:0:0:0:
256,192,177909,1,0,0:0:0:0:
256,192,178017,1,8,0:0:0:0:
256,192,178124,1,8,0:0:0:0:
256,192,178231,1,0,0:0:0:0:
256,192,178445,1,8,0:0:0:0:
256,192,178552,5,0,0:0:0:0:
256,192,178659,1,8,0:0:0:0:
256,192,178767,1,0,0:0:0:0:
256,192,178874,1,0,0:0:0:0:
256,192,178981,1,8,0:0:0:0:
256,192,179088,1,8,0:0:0:0:
256,192,179195,1,0,0:0:0:0:
256,192,179302,1,8,0:0:0:0:
256,192,179517,1,0,0:0:0:0:
256,192,179624,1,0,0:0:0:0:
256,192,179731,1,8,0:0:0:0:
256,192,179945,1,8,0:0:0:0:
256,192,180052,1,0,0:0:0:0:
256,192,180159,1,8,0:0:0:0:
256,192,180374,5,8,0:0:0:0:
256,192,180481,1,8,0:0:0:0:
256,192,180588,1,8,0:0:0:0:
256,192,180695,1,0,0:0:0:0:
256,192,180802,1,0,0:0:0:0:
256,192,180909,1,8,0:0:0:0:
256,192,181017,1,8,0:0:0:0:
256,192,181124,1,0,0:0:0:0:
256,192,181231,1,8,0:0:0:0:
256,192,181445,1,8,0:0:0:0:
256,192,181659,1,0,0:0:0:0:
256,192,181767,1,0,0:0:0:0:
256,192,181874,1,8,0:0:0:0:
256,192,181981,5,0,0:0:0:0:
256,192,182088,1,8,0:0:0:0:
256,192,182195,1,8,0:0:0:0:
256,192,182302,1,8,0:0:0:0:
256,192,182409,1,0,0:0:0:0:
256,192,182517,1,0,0:0:0:0:
256,192,182624,1,8,0:0:0:0:
256,192,182731,1,8,0:0:0:0:
256,192,182838,1,0,0:0:0:0:
256,192,182945,1,8,0:0:0:0:
256,192,183052,1,0,0:0:0:0:
256,192,183159,1,8,0:0:0:0:
256,192,183267,1,0,0:0:0:0:
256,192,183374,1,8,0:0:0:0:
256,192,183481,1,8,0:0:0:0:
256,192,183588,1,8,0:0:0:0:
256,192,183695,5,8,0:0:0:0:
256,192,183767,1,8,0:0:0:0:
256,192,183838,1,0,0:0:0:0:
256,192,183909,1,8,0:0:0:0:
256,192,183981,1,0,0:0:0:0:
256,192,184052,1,0,0:0:0:0:
256,192,184124,1,8,0:0:0:0:
256,192,184195,1,8,0:0:0:0:
256,192,184267,1,8,0:0:0:0:
256,192,184338,1,0,0:0:0:0:
256,192,184409,1,0,0:0:0:0:
256,192,184481,1,0,0:0:0:0:
256,192,184552,1,8,0:0:0:0:
256,192,184767,1,0,0:0:0:0:
256,192,184874,1,8,0:0:0:0:
256,192,185088,1,0,0:0:0:0:
256,192,185195,1,8,0:0:0:0:
256,192,185409,5,4,0:0:0:0:
256,192,185624,1,8,0:0:0:0:
256,192,185838,1,0,0:0:0:0:
256,192,185945,1,8,0:0:0:0:
256,192,186159,1,8,0:0:0:0:
256,192,186267,1,0,0:0:0:0:
256,192,186374,1,0,0:0:0:0:
256,192,186481,1,8,0:0:0:0:
256,192,186695,1,0,0:0:0:0:
256,192,186802,1,8,0:0:0:0:
256,192,187017,1,8,0:0:0:0:
256,192,187124,1,0,0:0:0:0:
256,192,187338,1,8,0:0:0:0:
256,192,187445,1,8,0:0:0:0:
256,192,187552,1,0,0:0:0:0:
256,192,187659,1,8,0:0:0:0:
256,192,187767,1,0,0:0:0:0:
256,192,187981,1,8,0:0:0:0:
256,192,188195,1,0,0:0:0:0:
256,192,188302,1,8,0:0:0:0:
256,192,188517,1,8,0:0:0:0:
256,192,188624,1,0,0:0:0:0:
256,192,188731,1,0,0:0:0:0:
256,192,188838,5,8,0:0:0:0:
256,192,189052,1,0,0:0:0:0:
256,192,189267,1,8,0:0:0:0:
256,192,189481,1,0,0:0:0:0:
256,192,189588,1,0,0:0:0:0:
256,192,189802,1,0,0:0:0:0:
256,192,189909,1,0,0:0:0:0:
256,192,190017,1,8,0:0:0:0:
256,192,190124,1,0,0:0:0:0:
256,192,190338,1,8,0:0:0:0:
256,192,190445,1,0,0:0:0:0:
256,192,190659,1,0,0:0:0:0:
256,192,190767,1,0,0:0:0:0:
256,192,190874,1,8,0:0:0:0:
256,192,190981,1,8,0:0:0:0:
256,192,191088,1,8,0:0:0:0:
256,192,191195,1,0,0:0:0:0:
256,192,191302,1,0,0:0:0:0:
256,192,191409,1,8,0:0:0:0:
256,192,191481,1,8,0:0:0:0:
256,192,191552,1,0,0:0:0:0:
256,192,191624,1,8,0:0:0:0:
256,192,191695,1,0,0:0:0:0:
256,192,191767,1,0,0:0:0:0:
256,192,191838,1,8,0:0:0:0:
256,192,191945,1,0,0:0:0:0:
256,192,192052,1,8,0:0:0:0:
256,192,192159,1,8,0:0:0:0:
256,192,192267,5,4,0:0:0:0:
256,192,192481,1,8,0:0:0:0:
256,192,192695,1,0,0:0:0:0:
256,192,192802,1,8,0:0:0:0:
256,192,193017,1,8,0:0:0:0:
256,192,193124,1,0,0:0:0:0:
256,192,193231,1,0,0:0:0:0:
256,192,193338,1,8,0:0:0:0:
256,192,193552,1,0,0:0:0:0:
256,192,193659,1,8,0:0:0:0:
256,192,193874,1,8,0:0:0:0:
256,192,194088,1,8,0:0:0:0:
256,192,194195,1,0,0:0:0:0:
256,192,194409,1,0,0:0:0:0:
256,192,194517,1,8,0:0:0:0:
256,192,194624,1,0,0:0:0:0:
256,192,194731,1,8,0:0:0:0:
256,192,194838,1,0,0:0:0:0:
256,192,194892,1,8,0:0:0:0:
256,192,194945,1,8,0:0:0:0:
256,192,195052,1,8,0:0:0:0:
256,192,195159,1,8,0:0:0:0:
256,192,195267,1,0,0:0:0:0:
256,192,195374,1,0,0:0:0:0:
256,192,195481,1,8,0:0:0:0:
256,192,195588,1,8,0:0:0:0:
256,192,195695,5,0,0:0:0:0:
256,192,195802,1,8,0:0:0:0:
256,192,195909,1,0,0:0:0:0:
256,192,196017,1,8,0:0:0:0:
256,192,196231,1,0,0:0:0:0:
256,192,196445,1,8,0:0:0:0:
256,192,196659,1,0,0:0:0:0:
256,192,196767,1,8,0:0:0:0:
256,192,196874,1,8,0:0:0:0:
256,192,196981,1,0,0:0:0:0:
256,192,197088,1,8,0:0:0:0:
256,192,197302,1,0,0:0:0:0:
256,192,197409,1,8,0:0:0:0:
256,192,197481,1,8,0:0:0:0:
256,192,197552,1,8,0:0:0:0:
256,192,197624,1,0,0:0:0:0:
256,192,197695,1,0,0:0:0:0:
256,192,197767,1,0,0:0:0:0:
256,192,197838,1,8,0:0:0:0:
256,192,197945,1,8,0:0:0:0:
256,192,198052,1,0,0:0:0:0:
256,192,198159,1,0,0:0:0:0:
256,192,198374,1,0,0:0:0:0:
256,192,198481,1,0,0:0:0:0:
256,192,198588,1,8,0:0:0:0:
256,192,198695,1,0,0:0:0:0:
256,192,198802,1,0,0:0:0:0:
256,192,198909,1,8,0:0:0:0:
256,192,199017,1,8,0:0:0:0:
256,192,199124,5,4,0:0:0:0:
256,192,199338,1,8,0:0:0:0:
256,192,199552,1,0,0:0:0:0:
256,192,199659,1,8,0:0:0:0:
256,192,199874,1,8,0:0:0:0:
256,192,199981,1,0,0:0:0:0:
256,192,200088,1,0,0:0:0:0:
256,192,200195,1,8,0:0:0:0:
256,192,200409,1,0,0:0:0:0:
256,192,200517,1,8,0:0:0:0:
256,192,200731,1,8,0:0:0:0:
256,192,200838,1,0,0:0:0:0:
256,192,201052,1,8,0:0:0:0:
256,192,201159,1,8,0:0:0:0:
256,192,201267,1,0,0:0:0:0:
256,192,201374,1,8,0:0:0:0:
256,192,201481,1,0,0:0:0:0:
256,192,201695,1,8,0:0:0:0:
256,192,201909,1,0,0:0:0:0:
256,192,202017,1,8,0:0:0:0:
256,192,202231,1,8,0:0:0:0:
256,192,202338,1,0,0:0:0:0:
256,192,202445,1,0,0:0:0:0:
256,192,202552,5,8,0:0:0:0:
256,192,202767,1,0,0:0:0:0:
256,192,202874,1,0,0:0:0:0:
256,192,202981,1,8,0:0:0:0:
256,192,203034,1,8,0:0:0:0:
256,192,203088,1,8,0:0:0:0:
256,192,203195,1,8,0:0:0:0:
256,192,203302,1,0,0:0:0:0:
256,192,203409,1,8,0:0:0:0:
256,192,203517,1,0,0:0:0:0:
256,192,203624,1,0,0:0:0:0:
256,192,203731,1,8,0:0:0:0:
256,192,203945,1,0,0:0:0:0:
256,192,204052,1,8,0:0:0:0:
256,192,204267,1,0,0:0:0:0:
256,192,204374,1,8,0:0:0:0:
256,192,204481,1,8,0:0:0:0:
256,192,204588,1,8,0:0:0:0:
256,192,204695,1,8,0:0:0:0:
256,192,204802,1,8,0:0:0:0:
256,192,204909,1,8,0:0:0:0:
256,192,205017,1,0,0:0:0:0:
256,192,205124,1,8,0:0:0:0:
256,192,205231,1,0,0:0:0:0:
256,192,205338,1,0,0:0:0:0:
256,192,205445,1,8,0:0:0:0:
256,192,205659,1,0,0:0:0:0:
256,192,205767,1,8,0:0:0:0:
256,192,205981,5,0,0:0:0:0:
256,192,206195,1,0,0:0:0:0:
256,192,206409,1,0,0:0:0:0:
256,192,206517,1,0,0:0:0:0:
256,192,206624,1,8,0:0:0:0:
256,192,206731,1,8,0:0:0:0:
256,192,206838,1,0,0:0:0:0:
256,192,207052,1,0,0:0:0:0:
256,192,207267,1,0,0:0:0:0:
256,192,207374,1,0,0:0:0:0:
256,192,207481,1,8,0:0:0:0:
256,192,207534,1,8,0:0:0:0:
256,192,207588,1,8,0:0:0:0:
256,192,207642,1,8,0:0:0:0:
256,192,207695,1,0,0:0:0:0:
256,192,207802,1,0,0:0:0:0:
256,192,207909,1,8,0:0:0:0:
256,192,208017,1,0,0:0:0:0:
256,192,208124,1,8,0:0:0:0:
256,192,208231,1,0,0:0:0:0:
256,192,208338,1,8,0:0:0:0:
256,192,208445,1,8,0:0:0:0:
256,192,208552,1,0,0:0:0:0:
256,192,208659,1,0,0:0:0:0:
256,192,208767,1,0,0:0:0:0:
256,192,208874,1,0,0:0:0:0:
256,192,208981,1,8,0:0:0:0:
256,192,209052,1,8,0:0:0:0:
256,192,209124,1,8,0:0:0:0:
256,192,209195,1,8,0:0:0:0:
256,192,209267,1,8,0:0:0:0:
256,192,209338,1,8,0:0:0:0:
256,192,209409,5,4,0:0:0:0:
256,192,209624,1,8,0:0:0:0:
256,192,209731,1,0,0:0:0:0:
256,192,209838,1,8,0:0:0:0:
256,192,209945,1,8,0:0:0:0:
256,192,210159,1,8,0:0:0:0:
256,192,210267,1,0,0:0:0:0:
256,192,210374,1,0,0:0:0:0:
256,192,210481,1,8,0:0:0:0:
256,192,210695,1,0,0:0:0:0:
256,192,210802,1,8,0:0:0:0:
256,192,211017,1,8,0:0:0:0:
256,192,211124,1,0,0:0:0:0:
256,192,211338,1,8,0:0:0:0:
256,192,211445,1,8,0:0:0:0:
256,192,211552,1,0,0:0:0:0:
256,192,211659,1,8,0:0:0:0:
256,192,211767,1,0,0:0:0:0:
256,192,211874,1,0,0:0:0:0:
256,192,211981,1,8,0:0:0:0:
256,192,212195,1,0,0:0:0:0:
256,192,212302,1,8,0:0:0:0:
256,192,212517,1,8,0:0:0:0:
256,192,212624,1,0,0:0:0:0:
256,192,212731,1,0,0:0:0:0:
256,192,212838,5,8,0:0:0:0:
256,192,213052,1,0,0:0:0:0:
256,192,213267,1,8,0:0:0:0:
256,192,213374,1,0,0:0:0:0:
256,192,213481,1,8,0:0:0:0:
256,192,213588,1,0,0:0:0:0:
256,192,213802,1,0,0:0:0:0:
256,192,213909,1,0,0:0:0:0:
256,192,214017,1,8,0:0:0:0:
256,192,214124,1,0,0:0:0:0:
256,192,214338,1,8,0:0:0:0:
256,192,214445,1,0,0:0:0:0:
256,192,214659,1,0,0:0:0:0:
256,192,214767,1,0,0:0:0:0:
256,192,214874,1,8,0:0:0:0:
256,192,214981,1,8,0:0:0:0:
256,192,215088,1,8,0:0:0:0:
256,192,215195,1,0,0:0:0:0:
256,192,215302,1,0,0:0:0:0:
256,192,215409,1,8,0:0:0:0:
256,192,215481,1,8,0:0:0:0:
256,192,215552,1,0,0:0:0:0:
256,192,215624,1,8,0:0:0:0:
256,192,215695,1,0,0:0:0:0:
256,192,215767,1,0,0:0:0:0:
256,192,215838,1,8,0:0:0:0:
256,192,215945,1,0,0:0:0:0:
256,192,216052,1,8,0:0:0:0:
256,192,216159,1,8,0:0:0:0:
256,192,216267,5,4,0:0:0:0:
256,192,216481,1,8,0:0:0:0:
256,192,216588,1,0,0:0:0:0:
256,192,216695,1,8,0:0:0:0:
256,192,216802,1,8,0:0:0:0:
256,192,217017,1,8,0:0:0:0:
256,192,217124,1,0,0:0:0:0:
256,192,217231,1,0,0:0:0:0:
256,192,217338,1,8,0:0:0:0:
256,192,217552,1,0,0:0:0:0:
256,192,217659,1,8,0:0:0:0:
256,192,217874,1,8,0:0:0:0:
256,192,218088,1,8,0:0:0:0:
256,192,218195,1,0,0:0:0:0:
256,192,218409,1,0,0:0:0:0:
256,192,218517,1,8,0:0:0:0:
256,192,218624,1,0,0:0:0:0:
256,192,218731,1,8,0:0:0:0:
256,192,218838,1,0,0:0:0:0:
256,192,218892,1,8,0:0:0:0:
256,192,218945,1,8,0:0:0:0:
256,192,219052,1,8,0:0:0:0:
256,192,219159,1,8,0:0:0:0:
256,192,219267,1,0,0:0:0:0:
256,192,219374,1,0,0:0:0:0:
256,192,219481,1,8,0:0:0:0:
256,192,219588,1,8,0:0:0:0:
256,192,219695,5,0,0:0:0:0:
256,192,219802,1,8,0:0:0:0:
256,192,219909,1,0,0:0:0:0:
256,192,220017,1,8,0:0:0:0:
256,192,220231,1,0,0:0:0:0:
256,192,220445,1,8,0:0:0:0:
256,192,220552,1,0,0:0:0:0:
256,192,220659,1,0,0:0:0:0:
256,192,220767,1,8,0:0:0:0:
256,192,220874,1,8,0:0:0:0:
256,192,220981,1,0,0:0:0:0:
256,192,221088,1,8,0:0:0:0:
256,192,221302,1,0,0:0:0:0:
256,192,221409,1,8,0:0:0:0:
256,192,221481,1,8,0:0:0:0:
256,192,221552,1,8,0:0:0:0:
256,192,221624,1,0,0:0:0:0:
256,192,221695,1,0,0:0:0:0:
256,192,221767,1,0,0:0:0:0:
256,192,221838,1,8,0:0:0:0:
256,192,221945,1,8,0:0:0:0:
256,192,222052,1,0,0:0:0:0:
256,192,222159,1,0,0:0:0:0:
256,192,222374,1,0,0:0:0:0:
256,192,222481,1,0,0:0:0:0:
256,192,222588,1,8,0:0:0:0:
256,192,222695,1,0,0:0:0:0:
256,192,222802,1,0,0:0:0:0:
256,192,222909,1,8,0:0:0:0:
256,192,223017,1,8,0:0:0:0:
256,192,223124,5,4,0:0:0:0:
256,192,223338,1,8,0:0:0:0:
256,192,223445,1,0,0:0:0:0:
256,192,223552,1,8,0:0:0:0:
256,192,223659,1,8,0:0:0:0:
256,192,223874,1,8,0:0:0:0:
256,192,223981,1,0,0:0:0:0:
256,192,224088,1,0,0:0:0:0:
256,192,224195,1,8,0:0:0:0:
256,192,224409,1,0,0:0:0:0:
256,192,224517,1,8,0:0:0:0:
256,192,224731,1,8,0:0:0:0:
256,192,224838,1,0,0:0:0:0:
256,192,225052,1,8,0:0:0:0:
256,192,225159,1,8,0:0:0:0:
256,192,225267,1,0,0:0:0:0:
256,192,225374,1,8,0:0:0:0:
256,192,225481,1,0,0:0:0:0:
256,192,225695,1,8,0:0:0:0:
256,192,225909,1,0,0:0:0:0:
256,192,226017,1,8,0:0:0:0:
256,192,226231,1,8,0:0:0:0:
256,192,226338,1,0,0:0:0:0:
256,192,226445,1,0,0:0:0:0:
256,192,226552,5,8,0:0:0:0:
256,192,226767,1,0,0:0:0:0:
256,192,226874,1,0,0:0:0:0:
256,192,226981,1,8,0:0:0:0:
256,192,227034,1,8,0:0:0:0:
256,192,227088,1,8,0:0:0:0:
256,192,227195,1,8,0:0:0:0:
256,192,227302,1,0,0:0:0:0:
256,192,227409,1,8,0:0:0:0:
256,192,227517,1,0,0:0:0:0:
256,192,227624,1,0,0:0:0:0:
256,192,227731,1,8,0:0:0:0:
256,192,227945,1,0,0:0:0:0:
256,192,228052,1,8,0:0:0:0:
256,192,228159,1,8,0:0:0:0:
256,192,228267,1,0,0:0:0:0:
256,192,228374,1,8,0:0:0:0:
256,192,228481,1,8,0:0:0:0:
256,192,228588,1,8,0:0:0:0:
256,192,228695,1,8,0:0:0:0:
256,192,228802,1,8,0:0:0:0:
256,192,228909,1,8,0:0:0:0:
256,192,229017,1,0,0:0:0:0:
256,192,229124,1,8,0:0:0:0:
256,192,229231,1,0,0:0:0:0:
256,192,229338,1,0,0:0:0:0:
256,192,229445,1,8,0:0:0:0:
256,192,229659,1,0,0:0:0:0:
256,192,229767,1,8,0:0:0:0:
256,192,229981,5,4,0:0:0:0:
256,192,230409,1,0,0:0:0:0:
256,192,230517,1,0,0:0:0:0:
256,192,230624,1,8,0:0:0:0:
256,192,230838,1,0,0:0:0:0:
256,192,230945,1,0,0:0:0:0:
256,192,231052,1,0,0:0:0:0:
256,192,231267,1,8,0:0:0:0:
256,192,231481,1,0,0:0:0:0:
256,192,231695,5,8,0:0:0:0:
256,192,231909,1,0,0:0:0:0:
256,192,232017,1,8,0:0:0:0:
256,192,232231,1,0,0:0:0:0:
256,192,232338,1,8,0:0:0:0:
256,192,232552,1,0,0:0:0:0:
256,192,232767,1,0,0:0:0:0:
256,192,232874,1,8,0:0:0:0:
256,192,232981,1,8,0:0:0:0:
256,192,233088,1,8,0:0:0:0:
256,192,233195,1,0,0:0:0:0:
256,192,233302,1,8,0:0:0:0:
256,192,233409,5,4,0:0:0:0:
256,192,233624,1,8,0:0:0:0:
256,192,233838,1,0,0:0:0:0:
256,192,233945,1,8,0:0:0:0:
256,192,234159,1,0,0:0:0:0:
256,192,234267,1,8,0:0:0:0:
256,192,234374,1,0,0:0:0:0:
256,192,234481,1,0,0:0:0:0:
256,192,234588,1,8,0:0:0:0:
256,192,234802,1,0,0:0:0:0:
256,192,234909,1,8,0:0:0:0:
256,192,235017,1,8,0:0:0:0:
256,192,235124,5,0,0:0:0:0:
256,192,235338,1,8,0:0:0:0:
256,192,235445,1,0,0:0:0:0:
256,192,235552,1,0,0:0:0:0:
256,192,235659,1,8,0:0:0:0:
256,192,235767,1,0,0:0:0:0:
256,192,235981,1,8,0:0:0:0:
256,192,236088,1,0,0:0:0:0:
256,192,236195,1,0,0:0:0:0:
256,192,236302,1,8,0:0:0:0:
256,192,236517,1,0,0:0:0:0:
256,192,236624,1,8,0:0:0:0:
256,192,236838,5,0,0:0:0:0:
256,192,236945,1,0,0:0:0:0:
256,192,237052,1,8,0:0:0:0:
256,192,237267,1,0,0:0:0:0:
256,192,237374,1,8,0:0:0:0:
256,192,237481,1,0,0:0:0:0:
256,192,237695,1,8,0:0:0:0:
256,192,237909,1,0,0:0:0:0:
256,192,238017,1,8,0:0:0:0:
256,192,238124,1,0,0:0:0:0:
256,192,238231,1,0,0:0:0:0:
256,192,238338,1,8,0:0:0:0:
256,192,238552,5,0,0:0:0:0:
256,192,238659,1,8,0:0:0:0:
256,192,238767,1,0,0:0:0:0:
256,192,238981,1,8,0:0:0:0:
256,192,239088,1,0,0:0:0:0:
256,192,239195,1,0,0:0:0:0:
256,192,239302,1,8,0:0:0:0:
256,192,239409,1,0,0:0:0:0:
256,192,239624,1,8,0:0:0:0:
256,192,239838,1,0,0:0:0:0:
256,192,239945,1,8,0:0:0:0:
256,192,240052,1,0,0:0:0:0:
256,192,240159,1,8,0:0:0:0:
256,192,240267,5,4,0:0:0:0:
256,192,240481,1,8,0:0:0:0:
256,192,240588,1,0,0:0:0:0:
256,192,240802,1,8,0:0:0:0:
256,192,240909,1,0,0:0:0:0:
256,192,241017,1,8,0:0:0:0:
256,192,241124,1,8,0:0:0:0:
256,192,241338,1,0,0:0:0:0:
256,192,241445,1,8,0:0:0:0:
256,192,241552,1,0,0:0:0:0:
256,192,241767,1,8,0:0:0:0:
256,192,241874,1,8,0:0:0:0:
256,192,241981,5,0,0:0:0:0:
256,192,242088,1,0,0:0:0:0:
256,192,242195,1,8,0:0:0:0:
256,192,242302,1,0,0:0:0:0:
256,192,242517,1,8,0:0:0:0:
256,192,242624,1,0,0:0:0:0:
256,192,242838,1,8,0:0:0:0:
256,192,243052,1,0,0:0:0:0:
256,192,243159,1,8,0:0:0:0:
256,192,243267,1,0,0:0:0:0:
256,192,243374,1,0,0:0:0:0:
256,192,243481,1,8,0:0:0:0:
256,192,243695,5,4,0:0:0:0:
256,192,243909,1,8,0:0:0:0:
256,192,244017,1,0,0:0:0:0:
256,192,244124,1,0,0:0:0:0:
256,192,244231,1,8,0:0:0:0:
256,192,244338,1,0,0:0:0:0:
256,192,244552,1,8,0:0:0:0:
256,192,244659,1,0,0:0:0:0:
256,192,244874,1,8,0:0:0:0:
256,192,244981,1,0,0:0:0:0:
256,192,245088,1,0,0:0:0:0:
256,192,245195,1,8,0:0:0:0:
256,192,245409,5,0,0:0:0:0:
256,192,245517,1,8,0:0:0:0:
256,192,245624,1,0,0:0:0:0:
256,192,245838,1,8,0:0:0:0:
256,192,246052,1,0,0:0:0:0:
256,192,246159,1,8,0:0:0:0:
256,192,246267,1,0,0:0:0:0:
256,192,246374,1,0,0:0:0:0:
256,192,246481,1,8,0:0:0:0:
256,192,246695,1,0,0:0:0:0:
256,192,246802,1,8,0:0:0:0:
256,192,246909,1,0,0:0:0:0:
256,192,247017,1,8,0:0:0:0:
256,192,247124,5,4,0:0:0:0:
256,192,247338,1,8,0:0:0:0:
256,192,247552,1,0,0:0:0:0:
256,192,247659,1,8,0:0:0:0:
256,192,247874,1,0,0:0:0:0:
256,192,247981,1,8,0:0:0:0:
256,192,248088,1,0,0:0:0:0:
256,192,248195,1,0,0:0:0:0:
256,192,248302,1,8,0:0:0:0:
256,192,248517,1,0,0:0:0:0:
256,192,248624,1,8,0:0:0:0:
256,192,248731,1,8,0:0:0:0:
256,192,248838,5,0,0:0:0:0:
256,192,249052,1,8,0:0:0:0:
256,192,249159,1,0,0:0:0:0:
256,192,249267,1,0,0:0:0:0:
256,192,249374,1,8,0:0:0:0:
256,192,249481,1,0,0:0:0:0:
256,192,249695,1,8,0:0:0:0:
256,192,249802,1,0,0:0:0:0:
256,192,249909,1,0,0:0:0:0:
256,192,250017,1,8,0:0:0:0:
256,192,250231,1,0,0:0:0:0:
256,192,250338,1,8,0:0:0:0:
256,192,250552,5,4,0:0:0:0:
256,192,250767,1,8,0:0:0:0:
256,192,250874,1,0,0:0:0:0:
256,192,251088,1,8,0:0:0:0:
256,192,251195,1,0,0:0:0:0:
256,192,251302,1,0,0:0:0:0:
256,192,251409,1,8,0:0:0:0:
256,192,251624,1,0,0:0:0:0:
256,192,251731,1,8,0:0:0:0:
256,192,251838,1,0,0:0:0:0:
256,192,251945,1,0,0:0:0:0:
256,192,252052,1,8,0:0:0:0:
256,192,252267,5,0,0:0:0:0:
256,192,252374,1,8,0:0:0:0:
256,192,252481,1,0,0:0:0:0:
256,192,252695,1,8,0:0:0:0:
256,192,252802,1,0,0:0:0:0:
256,192,252909,1,0,0:0:0:0:
256,192,253017,1,8,0:0:0:0:
256,192,253124,1,0,0:0:0:0:
256,192,253338,1,8,0:0:0:0:
256,192,253552,1,0,0:0:0:0:
256,192,253659,1,8,0:0:0:0:
256,192,253767,1,0,0:0:0:0:
256,192,253874,1,8,0:0:0:0:
256,192,253981,5,4,0:0:0:0:
256,192,254195,1,8,0:0:0:0:
256,192,254302,1,0,0:0:0:0:
256,192,254517,1,8,0:0:0:0:
256,192,254624,1,0,0:0:0:0:
256,192,254731,1,8,0:0:0:0:
256,192,254838,1,8,0:0:0:0:
256,192,255052,1,0,0:0:0:0:
256,192,255159,1,8,0:0:0:0:
256,192,255267,1,0,0:0:0:0:
256,192,255481,1,8,0:0:0:0:
256,192,255588,1,8,0:0:0:0:
256,192,255695,5,0,0:0:0:0:
256,192,255802,1,0,0:0:0:0:
256,192,255909,1,8,0:0:0:0:
256,192,256017,1,0,0:0:0:0:
256,192,256231,1,8,0:0:0:0:
256,192,256338,1,0,0:0:0:0:
256,192,256552,1,8,0:0:0:0:
256,192,256767,1,0,0:0:0:0:
256,192,256874,1,8,0:0:0:0:
256,192,256981,1,0,0:0:0:0:
256,192,257088,1,0,0:0:0:0:
256,192,257195,1,8,0:0:0:0:
256,192,257409,5,4,0:0:0:0:
256,192,257624,1,8,0:0:0:0:
256,192,257731,1,0,0:0:0:0:
256,192,257838,1,0,0:0:0:0:
256,192,257945,1,8,0:0:0:0:
256,192,258052,1,0,0:0:0:0:
256,192,258267,1,8,0:0:0:0:
256,192,258374,1,0,0:0:0:0:
256,192,258588,1,8,0:0:0:0:
256,192,258695,1,0,0:0:0:0:
256,192,258802,1,0,0:0:0:0:
256,192,258909,1,8,0:0:0:0:
256,192,259124,5,0,0:0:0:0:
256,192,259231,1,8,0:0:0:0:
256,192,259338,1,0,0:0:0:0:
256,192,259552,1,8,0:0:0:0:
256,192,259767,1,0,0:0:0:0:
256,192,259874,1,8,0:0:0:0:
256,192,259981,1,0,0:0:0:0:
256,192,260088,1,0,0:0:0:0:
256,192,260195,1,8,0:0:0:0:
256,192,260409,1,0,0:0:0:0:
256,192,260517,1,8,0:0:0:0:
256,192,260624,1,0,0:0:0:0:
256,192,260731,1,8,0:0:0:0:
256,192,260838,5,4,0:0:0:0:
256,192,261052,1,8,0:0:0:0:
256,192,261267,1,0,0:0:0:0:
256,192,261374,1,8,0:0:0:0:
256,192,261481,1,0,0:0:0:0:
256,192,261588,1,8,0:0:0:0:
256,192,261802,1,8,0:0:0:0:
256,192,261909,1,0,0:0:0:0:
256,192,262124,1,8,0:0:0:0:
256,192,262231,1,0,0:0:0:0:
256,192,262338,1,8,0:0:0:0:
256,192,262445,1,8,0:0:0:0:
256,192,262552,5,0,0:0:0:0:
256,192,262659,1,0,0:0:0:0:
256,192,262767,1,8,0:0:0:0:
256,192,262981,1,0,0:0:0:0:
256,192,263088,1,8,0:0:0:0:
256,192,263302,1,8,0:0:0:0:
256,192,263517,1,8,0:0:0:0:
256,192,263624,1,0,0:0:0:0:
256,192,263838,1,8,0:0:0:0:
256,192,263945,1,0,0:0:0:0:
256,192,264052,1,8,0:0:0:0:
256,192,264159,1,8,0:0:0:0:
256,192,264267,5,0,0:0:0:0:
256,192,264481,1,8,0:0:0:0:
256,192,264588,1,0,0:0:0:0:
256,192,264695,1,0,0:0:0:0:
256,192,264802,1,8,0:0:0:0:
256,192,265017,1,8,0:0:0:0:
256,192,265231,1,8,0:0:0:0:
256,192,265338,1,0,0:0:0:0:
256,192,265552,1,8,0:0:0:0:
256,192,265659,1,0,0:0:0:0:
256,192,265767,1,8,0:0:0:0:
256,192,265874,1,8,0:0:0:0:
256,192,265981,5,0,0:0:0:0:
256,192,266195,1,8,0:0:0:0:
256,192,266409,1,0,0:0:0:0:
256,192,266517,1,8,0:0:0:0:
256,192,266731,1,8,0:0:0:0:
256,192,266838,1,0,0:0:0:0:
256,192,266945,1,8,0:0:0:0:
256,192,267052,1,0,0:0:0:0:
256,192,267267,1,8,0:0:0:0:
256,192,267374,1,0,0:0:0:0:
256,192,267481,1,8,0:0:0:0:
256,192,267588,1,8,0:0:0:0:
256,192,267695,5,4,0:0:0:0:
256,192,267909,1,8,0:0:0:0:
256,192,268124,1,0,0:0:0:0:
256,192,268231,1,8,0:0:0:0:
256,192,268338,1,0,0:0:0:0:
256,192,268445,1,8,0:0:0:0:
256,192,268659,1,8,0:0:0:0:
256,192,268767,1,0,0:0:0:0:
256,192,268981,1,8,0:0:0:0:
256,192,269088,1,0,0:0:0:0:
256,192,269195,1,8,0:0:0:0:
256,192,269302,1,8,0:0:0:0:
256,192,269409,5,0,0:0:0:0:
256,192,269517,1,0,0:0:0:0:
256,192,269624,1,8,0:0:0:0:
256,192,269838,1,0,0:0:0:0:
256,192,269945,1,8,0:0:0:0:
256,192,270159,1,8,0:0:0:0:
256,192,270374,1,8,0:0:0:0:
256,192,270481,1,0,0:0:0:0:
256,192,270695,1,8,0:0:0:0:
256,192,270802,1,0,0:0:0:0:
256,192,270909,1,8,0:0:0:0:
256,192,271017,1,8,0:0:0:0:
256,192,271124,5,0,0:0:0:0:
256,192,271231,1,0,0:0:0:0:
256,192,271338,1,8,0:0:0:0:
256,192,271445,1,0,0:0:0:0:
256,192,271552,1,8,0:0:0:0:
256,192,271659,1,8,0:0:0:0:
256,192,271767,1,0,0:0:0:0:
256,192,271874,1,8,0:0:0:0:
256,192,271981,1,0,0:0:0:0:
256,192,272088,1,8,0:0:0:0:
256,192,272195,1,0,0:0:0:0:
256,192,272302,1,0,0:0:0:0:
256,192,272409,1,8,0:0:0:0:
256,192,272517,1,0,0:0:0:0:
256,192,272624,1,8,0:0:0:0:
256,192,272731,1,8,0:0:0:0:
256,192,272838,5,0,0:0:0:0:
256,192,272945,1,0,0:0:0:0:
256,192,273159,1,0,0:0:0:0:
256,192,273267,1,8,0:0:0:0:
256,192,273481,1,0,0:0:0:0:
256,192,273588,1,8,0:0:0:0:
256,192,273695,1,0,0:0:0:0:
256,192,273802,1,0,0:0:0:0:
256,192,273909,1,8,0:0:0:0:
256,192,274017,1,8,0:0:0:0:
256,192,274124,1,0,0:0:0:0:
256,192,274231,1,8,0:0:0:0:
256,192,274338,1,8,0:0:0:0:
256,192,274445,1,8,0:0:0:0:
256,192,274552,5,4,0:0:0:0:
256,192,274767,1,8,0:0:0:0:
256,192,274981,1,0,0:0:0:0:
256,192,275088,1,8,0:0:0:0:
256,192,275195,1,0,0:0:0:0:
256,192,275302,1,8,0:0:0:0:
256,192,275517,1,8,0:0:0:0:
256,192,275624,1,0,0:0:0:0:
256,192,275838,1,8,0:0:0:0:
256,192,275945,1,0,0:0:0:0:
256,192,276052,1,8,0:0:0:0:
256,192,276159,1,8,0:0:0:0:
256,192,276267,5,0,0:0:0:0:
256,192,276374,1,0,0:0:0:0:
256,192,276481,1,8,0:0:0:0:
256,192,276695,1,0,0:0:0:0:
256,192,276802,1,8,0:0:0:0:
256,192,277017,1,8,0:0:0:0:
256,192,277231,1,8,0:0:0:0:
256,192,277338,1,0,0:0:0:0:
256,192,277552,1,8,0:0:0:0:
256,192,277659,1,0,0:0:0:0:
256,192,277767,1,8,0:0:0:0:
256,192,277874,1,8,0:0:0:0:
256,192,277981,5,0,0:0:0:0:
256,192,278195,1,8,0:0:0:0:
256,192,278302,1,0,0:0:0:0:
256,192,278409,1,0,0:0:0:0:
256,192,278517,1,8,0:0:0:0:
256,192,278731,1,8,0:0:0:0:
256,192,278945,1,8,0:0:0:0:
256,192,279052,1,0,0:0:0:0:
256,192,279267,1,8,0:0:0:0:
256,192,279374,1,0,0:0:0:0:
256,192,279481,1,8,0:0:0:0:
256,192,279588,1,8,0:0:0:0:
256,192,279695,5,0,0:0:0:0:
256,192,279909,1,8,0:0:0:0:
256,192,280124,1,0,0:0:0:0:
256,192,280231,1,8,0:0:0:0:
256,192,280445,1,8,0:0:0:0:
256,192,280552,1,0,0:0:0:0:
256,192,280659,1,8,0:0:0:0:
256,192,280767,1,0,0:0:0:0:
256,192,280981,1,8,0:0:0:0:
256,192,281088,1,0,0:0:0:0:
256,192,281195,1,8,0:0:0:0:
256,192,281302,1,8,0:0:0:0:
256,192,281409,5,4,0:0:0:0:
256,192,281624,1,8,0:0:0:0:
256,192,281838,1,0,0:0:0:0:
256,192,281945,1,8,0:0:0:0:
256,192,282052,1,0,0:0:0:0:
256,192,282159,1,8,0:0:0:0:
256,192,282374,1,8,0:0:0:0:
256,192,282481,1,0,0:0:0:0:
256,192,282695,1,8,0:0:0:0:
256,192,282802,1,0,0:0:0:0:
256,192,282909,1,8,0:0:0:0:
256,192,283017,1,8,0:0:0:0:
256,192,283124,5,0,0:0:0:0:
256,192,283231,1,0,0:0:0:0:
256,192,283338,1,8,0:0:0:0:
256,192,283552,1,0,0:0:0:0:
256,192,283659,1,8,0:0:0:0:
256,192,283874,1,8,0:0:0:0:
256,192,284088,1,8,0:0:0:0:
256,192,284195,1,0,0:0:0:0:
256,192,284409,1,8,0:0:0:0:
256,192,284517,1,0,0:0:0:0:
256,192,284624,1,8,0:0:0:0:
256,192,284731,1,8,0:0:0:0:
256,192,284838,5,0,0:0:0:0:
256,192,285052,1,8,0:0:0:0:
256,192,285267,1,0,0:0:0:0:
256,192,285374,1,8,0:0:0:0:
256,192,285588,1,8,0:0:0:0:
256,192,285695,1,0,0:0:0:0:
256,192,285802,1,8,0:0:0:0:
256,192,285909,1,0,0:0:0:0:
256,192,286017,1,0,0:0:0:0:
256,192,286124,1,8,0:0:0:0:
256,192,286231,1,0,0:0:0:0:
256,192,286338,1,8,0:0:0:0:
256,192,286445,1,8,0:0:0:0:
256,192,286552,5,0,0:0:0:0:
256,192,286659,1,0,0:0:0:0:
256,192,286767,1,8,0:0:0:0:
256,192,286874,1,8,0:0:0:0:
256,192,286981,1,0,0:0:0:0:
256,192,287088,1,8,0:0:0:0:
256,192,287195,5,0,0:0:0:0:
256,192,287267,1,0,0:0:0:0:
256,192,287338,1,0,0:0:0:0:
256,192,287409,1,8,0:0:0:0:
256,192,287481,1,0,0:0:0:0:
256,192,287552,1,0,0:0:0:0:
256,192,287624,1,8,0:0:0:0:
256,192,287695,1,0,0:0:0:0:
256,192,287767,1,0,0:0:0:0:
256,192,287838,5,8,0:0:0:0:
256,192,287909,1,8,0:0:0:0:
256,192,287981,1,0,0:0:0:0:
256,192,288052,1,8,0:0:0:0:
256,192,288124,1,8,0:0:0:0:
256,192,288195,1,8,0:0:0:0:
256,192,288267,12,0,301552,0:0:0:0:
