osu file format v14

[General]
AudioFilename: audio.mp3
AudioLeadIn: 0
PreviewTime: 82509
Countdown: 0
SampleSet: Soft
StackLeniency: 0.7
Mode: 3
LetterboxInBreaks: 0
SpecialStyle: 0
WidescreenStoryboard: 1

[Editor]
Bookmarks: 41366,68795,82509,106509,120224,171652,185366,209366,233366,260795,274509
DistanceSpacing: 1.2
BeatDivisor: 6
GridSize: 32
TimelineZoom: 2.1

[Metadata]
Title:Frozen World
TitleUnicode:Frozen World
Artist:MuryokuP
ArtistUnicode:無力P
Creator:-NoName-
Version:Niflheim
Source:
Tags:Resonance Powerless electronic instrumental artcore The Voc@loid M@ster vocaloid master 18 Youwhang featured artist fa
BeatmapID:2406404
BeatmapSetID:1095283

[Difficulty]
HPDrainRate:8.5
CircleSize:4
OverallDifficulty:8.3
ApproachRate:5
SliderMultiplier:1.4
SliderTickRate:1

[Events]
//Background and Video events
0,0,"BG.jpg",0,0
//Break Periods
//Storyboard Layer 0 (Background)
//Storyboard Layer 1 (Fail)
//Storyboard Layer 2 (Pass)
//Storyboard Layer 3 (Foreground)
//Storyboard Layer 4 (Overlay)
//Storyboard Sound Samples
Sample,20366,0,"1bm Reverse Cymbals (2).ogg",100
Sample,21224,0,"2bm Beep Leed High E.ogg",10
Sample,21224,0,"1bm Bell high D.ogg",10
Sample,21759,0,"2bm Beep Leed High D.ogg",10
Sample,23045,0,"2bm Beep Leed High F.ogg",20
Sample,23259,0,"2bm Beep Leed High D.ogg",20
Sample,23474,0,"2bm Beep Leed High D.ogg",20
Sample,25188,0,"2bm Beep Leed High D.ogg",25
Sample,26474,0,"2bm Beep Leed High F.ogg",30
Sample,26688,0,"2bm Beep Leed High D.ogg",30
Sample,26902,0,"2bm Beep Leed High D.ogg",30
Sample,39866,0,"2bm Beep Leed High F.ogg",18
Sample,40081,0,"2bm Beep Leed High E.ogg",14
Sample,40188,0,"2bm Beep Leed High F.ogg",14
Sample,40402,0,"2bm Beep Leed High D.ogg",14
Sample,40616,0,"2bm Beep Leed High D.ogg",10
Sample,40724,0,"2bm Beep Leed High C.ogg",10
Sample,40938,0,"2bm Beep Leed High E.ogg",6
Sample,41152,0,"2bm Beep Leed High F.ogg",5
Sample,41259,0,"2bm Beep Leed High E.ogg",4
Sample,66974,0,"2bm Beep Leed High E.ogg",80
Sample,68045,0,"2bm Beep Leed High D.ogg",80
Sample,68152,0,"2bm Beep Leed High C.ogg",80
Sample,68366,0,"2bm Beep Leed High E.ogg",80
Sample,68420,0,"3bm Drum Clap.ogg",30
Sample,68527,0,"3bm Drum Clap.ogg",30
Sample,68581,0,"2bm Beep Leed High F.ogg",80
Sample,81009,0,"4bm piano 091.ogg",100
Sample,81438,0,"4bm piano 097.ogg",100
Sample,81759,0,"4bm piano 101.ogg",100
Sample,82081,0,"4bm piano 104.ogg",70
Sample,82134,0,"4bm piano 105.ogg",70
Sample,82241,0,"4bm piano 107.ogg",70
Sample,82402,0,"4bm piano 109.ogg",100
Sample,82456,0,"4bm piano 110.ogg",100
Sample,88724,0,"5bm piano 025.ogg",100
Sample,89152,0,"5bm piano 030.ogg",100
Sample,89259,0,"5bm piano 031.ogg",100
Sample,92018,0,"5bm piano 037.ogg",100
Sample,94509,0,"5bm piano 037.ogg",100
Sample,94509,0,"5bm final Reverse Cymbals.ogg",100
Sample,94724,0,"5bm piano 053.ogg",100
Sample,100188,0,"5bm piano 068.ogg",100
Sample,100509,0,"5bm piano 071.ogg",100
Sample,101152,0,"5bm piano 071.ogg",70
Sample,102224,0,"5bm piano 077.ogg",100
Sample,102545,0,"5bm piano 078.ogg",100
Sample,102866,0,"5bm piano 079.ogg",70
Sample,105438,0,"3bm Drum Kick.ogg",100
Sample,109938,0,"3bm Crash Cymbals.ogg",40
Sample,110509,0,"6bm ASaw Leed Low F 3sep.ogg",50
Sample,110652,0,"6bm ASaw Leed Low F 3sep.ogg",50
Sample,112938,0,"3bm Drum Clap.ogg",100
Sample,113152,0,"6bm Leed Melody 005.ogg",45
Sample,114366,0,"6bm ASaw Leed Low F 3sep.ogg",50
Sample,114509,0,"6bm ASaw Leed Low F 3sep.ogg",50
Sample,114795,0,"6bm ASaw Leed Low F 3sep.ogg",50
Sample,114938,0,"6bm ASaw Leed Low F 3sep.ogg",50
Sample,119474,0,"6bm Last High F 16.ogg",45
Sample,119688,0,"6bm Last High F 16.ogg",45
Sample,150331,0,"2bm Beep Leed High D.ogg",40
Sample,161795,0,"3bm Drum Kick.ogg",100
Sample,183866,0,"4bm piano 091.ogg",100
Sample,184295,0,"4bm piano 097.ogg",100
Sample,184616,0,"4bm piano 101.ogg",100
Sample,184938,0,"4bm piano 104.ogg",70
Sample,184991,0,"4bm piano 105.ogg",70
Sample,185099,0,"4bm piano 107.ogg",70
Sample,185259,0,"4bm piano 109.ogg",100
Sample,185313,0,"4bm piano 110.ogg",100
Sample,191581,0,"5bm piano 025.ogg",100
Sample,192009,0,"5bm piano 030.ogg",100
Sample,192116,0,"5bm piano 031.ogg",100
Sample,197366,0,"5bm piano 037.ogg",100
Sample,197366,0,"5bm final Reverse Cymbals.ogg",100
Sample,197581,0,"5bm piano 053.ogg",100
Sample,203045,0,"5bm piano 068.ogg",100
Sample,203366,0,"5bm piano 071.ogg",100
Sample,204009,0,"5bm piano 071.ogg",70
Sample,205081,0,"5bm piano 077.ogg",100
Sample,205402,0,"5bm piano 078.ogg",100
Sample,205724,0,"5bm piano 079.ogg",70
Sample,205938,0,"3bm Closing Hihats.ogg",100
Sample,207652,0,"3bm Closing Hihats.ogg",100
Sample,221366,0,"8bm piano 038.ogg",100
Sample,221581,0,"8bm piano 041.ogg",100
Sample,227366,0,"8bm piano 053.ogg",100
Sample,229938,0,"8bm piano 061.ogg",100
Sample,232295,0,"3bm Drum Kick.ogg",100
Sample,287849,0,"3bm Drum Clap.ogg",30
Sample,287956,0,"3bm Drum Clap.ogg",30

[TimingPoints]
224,428.571428571429,4,2,0,15,1,0
13938,-100,4,2,0,15,0,0
82509,-100,4,2,0,25,0,1
106081,-100,4,2,0,25,0,0
185366,-100,4,2,0,25,0,1
208938,-100,4,2,0,25,0,0
209366,-100,4,2,0,25,0,1
232938,-100,4,2,0,25,0,0

[HitObjects]
448,192,224,5,0,0:0:0:50:1bm Bell high A.ogg
64,192,652,1,0,0:0:0:50:1bm Bell high D.ogg
192,192,1081,1,0,0:0:0:50:1bm Bell high E.ogg
448,192,1509,1,0,0:0:0:50:1bm Bell higher C.ogg
64,192,1938,1,0,0:0:0:50:1bm Bell high D.ogg
192,192,2366,1,0,0:0:0:50:1bm Bell high E.ogg
320,192,2795,1,0,0:0:0:50:1bm Bell high G.ogg
64,192,3224,1,0,0:0:0:50:1bm Bell middle A.ogg
448,192,3652,1,0,0:0:0:50:1bm Bell high A.ogg
64,192,4081,1,0,0:0:0:50:1bm Bell high D.ogg
192,192,4509,1,0,0:0:0:50:1bm Bell high E.ogg
448,192,4938,1,0,0:0:0:50:1bm Bell higher C.ogg
64,192,5366,1,0,0:0:0:50:1bm Bell high D.ogg
192,192,5795,1,0,0:0:0:50:1bm Bell high E.ogg
448,192,6224,1,0,0:0:0:50:1bm Bell high G.ogg
192,192,6438,128,0,6652:0:0:0:0:
64,192,6652,1,0,0:0:0:50:1bm Bell middle A.ogg
64,192,6866,1,0,0:0:0:0:
448,192,7081,1,0,0:0:0:50:1bm Bell high A.ogg
64,192,7509,1,0,0:0:0:50:1bm Bell high D.ogg
320,192,7724,128,0,8152:0:0:0:0:
192,192,7938,1,0,0:0:0:50:1bm Bell high E.ogg
448,192,8366,1,0,0:0:0:50:1bm Bell higher C.ogg
64,192,8795,1,0,0:0:0:50:1bm Bell high D.ogg
320,192,9009,1,0,0:0:0:0:
192,192,9224,1,0,0:0:0:50:1bm Bell high E.ogg
320,192,9652,128,0,9866:0:0:0:50:1bm Bell high G.ogg
448,192,9652,1,0,0:0:0:0:
64,192,10081,1,0,0:0:0:50:1bm Bell middle A.ogg
448,192,10509,1,0,0:0:0:50:1bm Bell high A.ogg
192,192,10724,1,0,0:0:0:0:
64,192,10938,1,0,0:0:0:50:1bm Bell high D.ogg
192,192,11366,1,0,0:0:0:50:1bm Bell high E.ogg
320,192,11795,128,0,12224:0:0:0:50:1bm Bell higher C.ogg
448,192,11795,1,0,0:0:0:0:
64,192,12224,1,0,0:0:0:50:1bm Bell high D.ogg
192,192,12652,1,0,0:0:0:50:1bm Bell high E.ogg
320,192,13081,1,0,0:0:0:50:1bm Bell high G.ogg
192,192,13295,128,0,13509:0:0:0:0:
64,192,13509,1,0,0:0:0:50:1bm Bell middle A.ogg
320,192,13754,128,0,13938:0:0:0:0:
64,192,13938,128,0,14045:0:0:0:50:1bm Bell high A.ogg
448,192,13938,1,0,0:0:0:100:2bm Drum Kick.ogg
192,192,14366,1,0,0:0:0:50:1bm Bell high D.ogg
192,192,14795,1,0,0:0:0:50:1bm Bell high E.ogg
320,192,14795,1,0,0:0:0:100:2bm Drum Side Stick.ogg
448,192,15224,1,0,0:0:0:50:1bm Bell higher C.ogg
64,192,15438,1,0,0:0:0:100:2bm Drum Kick.ogg
192,192,15438,1,0,0:0:0:0:
192,192,15652,128,0,15759:0:0:0:50:1bm Bell high D.ogg
64,192,16081,1,0,0:0:0:50:1bm Bell high E.ogg
192,192,16081,1,0,0:0:0:100:2bm Drum Kick.ogg
192,192,16509,1,0,0:0:0:40:1bm Bell high G.ogg
320,192,16509,1,0,0:0:0:100:2bm Drum Side Stick.ogg
320,192,16938,1,0,0:0:0:40:1bm Bell middle A.ogg
64,192,17366,1,0,0:0:0:40:1bm Bell high A.ogg
448,192,17366,128,0,17474:0:0:0:100:2bm Drum Kick.ogg
320,192,17795,1,0,0:0:0:40:1bm Bell high D.ogg
192,192,18224,1,0,0:0:0:40:1bm Bell high E.ogg
320,192,18224,1,0,0:0:0:100:2bm Drum Side Stick.ogg
192,192,18652,1,0,0:0:0:40:1bm Bell higher C.ogg
320,192,18866,1,0,0:0:0:100:2bm Drum Kick.ogg
448,192,18866,1,0,0:0:0:0:
320,192,19081,128,0,19188:0:0:0:30:1bm Bell high D.ogg
320,192,19509,1,0,0:0:0:30:1bm Bell high E.ogg
448,192,19509,1,0,0:0:0:100:2bm Drum Kick.ogg
192,192,19938,1,0,0:0:0:20:1bm Bell high G.ogg
320,192,19938,1,0,0:0:0:100:2bm Drum Side Stick.ogg
192,192,20366,128,0,20795:0:0:0:20:1bm Bell middle A.ogg
64,192,20795,128,0,20902:0:0:0:10:1bm Bell high A.ogg
448,192,20795,1,0,0:0:0:100:2bm Drum Kick with Howling.ogg
320,192,20938,1,0,0:0:0:0:
192,192,21009,1,0,0:0:0:10:2bm Beep Leed High F.ogg
320,192,21331,1,0,0:0:0:10:2bm Beep Leed High F.ogg
64,192,21438,1,0,0:0:0:0:
192,192,21545,1,0,0:0:0:10:2bm Beep Leed High D.ogg
448,192,21652,1,0,0:0:0:0:
64,192,21795,1,0,0:0:0:0:
320,192,21866,1,0,0:0:0:10:2bm Beep Leed High C.ogg
448,192,21866,1,0,0:0:0:0:
64,192,22081,1,0,0:0:0:10:2bm Beep Leed High E.ogg
192,192,22295,1,0,0:0:0:10:2bm Beep Leed High F.ogg
448,192,22295,1,0,0:0:0:0:
320,192,22402,1,0,0:0:0:10:2bm Beep Leed High E.ogg
64,192,22438,1,0,0:0:0:0:
192,192,22509,128,0,22616:0:0:0:0:
448,192,22509,1,0,0:0:0:0:
64,192,22652,1,0,0:0:0:0:
320,192,22724,1,0,0:0:0:20:2bm Beep Leed High F.ogg
192,192,22938,1,0,0:0:0:20:2bm Beep Leed High E.ogg
64,192,22974,1,0,0:0:0:0:
320,192,23009,1,0,0:0:0:0:
448,192,23152,1,0,0:0:0:0:
64,192,23224,1,0,0:0:0:0:
320,192,23271,1,0,0:0:0:0:
192,192,23319,1,0,0:0:0:0:
448,192,23366,1,0,0:0:0:0:
192,192,23509,1,0,0:0:0:0:
64,192,23581,1,0,0:0:0:20:2bm Beep Leed High C.ogg
320,192,23581,1,0,0:0:0:0:
448,192,23795,1,0,0:0:0:20:2bm Beep Leed High E.ogg
192,192,23849,1,0,0:0:0:0:
320,192,23902,1,0,0:0:0:0:
64,192,23956,1,0,0:0:0:0:
448,192,24009,1,0,0:0:0:20:2bm Beep Leed High F.ogg
192,192,24116,1,0,0:0:0:20:2bm Beep Leed High E.ogg
64,192,24152,1,0,0:0:0:0:
448,192,24224,128,0,24331:0:0:0:0:
320,192,24250,1,0,0:0:0:0:
64,192,24331,1,0,0:0:0:0:
192,192,24357,1,0,0:0:0:0:
448,192,24438,1,0,0:0:0:25:2bm Beep Leed High F.ogg
320,192,24465,1,0,0:0:0:0:
64,192,24545,1,0,0:0:0:0:
192,192,24572,1,0,0:0:0:0:
448,192,24652,1,0,0:0:0:25:2bm Beep Leed High E.ogg
64,192,24759,1,0,0:0:0:25:2bm Beep Leed High F.ogg
320,192,24866,1,0,0:0:0:0:
192,192,24974,1,0,0:0:0:25:2bm Beep Leed High D.ogg
448,192,25081,1,0,0:0:0:0:
64,192,25224,1,0,0:0:0:0:
320,192,25295,1,0,0:0:0:25:2bm Beep Leed High C.ogg
192,192,25349,1,0,0:0:0:0:
320,192,25402,1,0,0:0:0:0:
64,192,25509,1,0,0:0:0:25:2bm Beep Leed High E.ogg
320,192,25724,1,0,0:0:0:25:2bm Beep Leed High F.ogg
448,192,25724,1,0,0:0:0:0:
192,192,25831,1,0,0:0:0:25:2bm Beep Leed High E.ogg
448,192,25866,1,0,0:0:0:0:
64,192,25938,1,0,0:0:0:0:
320,192,25938,128,0,26045:0:0:0:0:
192,192,26081,1,0,0:0:0:0:
448,192,26152,1,0,0:0:0:30:2bm Beep Leed High F.ogg
192,192,26366,1,0,0:0:0:30:2bm Beep Leed High E.ogg
64,192,26402,1,0,0:0:0:0:
320,192,26438,1,0,0:0:0:0:
448,192,26581,1,0,0:0:0:0:
192,192,26652,1,0,0:0:0:0:
320,192,26700,1,0,0:0:0:0:
64,192,26747,1,0,0:0:0:0:
448,192,26795,1,0,0:0:0:0:
64,192,26938,1,0,0:0:0:0:
320,192,27009,1,0,0:0:0:30:2bm Beep Leed High C.ogg
448,192,27009,1,0,0:0:0:0:
64,192,27224,1,0,0:0:0:30:2bm Beep Leed High E.ogg
448,192,27224,128,0,27652:0:0:0:100:1bm Reverse Cymbals (2).ogg
192,192,27277,1,0,0:0:0:0:
320,192,27331,1,0,0:0:0:0:
64,192,27384,1,0,0:0:0:0:
192,192,27438,1,0,0:0:0:30:2bm Beep Leed High F.ogg
320,192,27545,1,0,0:0:0:30:2bm Beep Leed High E.ogg
64,192,27652,128,0,27759:0:0:0:100:2bm Drum Kick with Howling.ogg
192,192,27652,1,0,0:0:0:0:
320,192,27795,1,0,0:0:0:0:
192,192,27866,1,0,0:0:0:40:2bm Beep Leed High F.ogg
192,192,28081,1,0,0:0:0:40:2bm Beep Leed High E.ogg
448,192,28188,1,0,0:0:0:40:2bm Beep Leed High F.ogg
64,192,28295,1,0,0:0:0:0:
320,192,28402,1,0,0:0:0:40:2bm Beep Leed High D.ogg
448,192,28438,1,0,0:0:0:0:
64,192,28509,1,0,0:0:0:0:
320,192,28616,1,0,0:0:0:40:2bm Beep Leed High D.ogg
192,192,28652,1,0,0:0:0:0:
64,192,28724,1,0,0:0:0:40:2bm Beep Leed High C.ogg
448,192,28724,1,0,0:0:0:0:
320,192,28831,1,0,0:0:0:0:
192,192,28938,1,0,0:0:0:40:2bm Beep Leed High E.ogg
64,192,29045,1,0,0:0:0:0:
448,192,29152,1,0,0:0:0:40:2bm Beep Leed High F.ogg
64,192,29259,1,0,0:0:0:40:2bm Beep Leed High E.ogg
320,192,29295,1,0,0:0:0:0:
192,192,29366,128,0,29474:0:0:0:0:
320,192,29509,1,0,0:0:0:0:
448,192,29581,1,0,0:0:0:45:2bm Beep Leed High F.ogg
192,192,29795,1,0,0:0:0:45:2bm Beep Leed High E.ogg
64,192,29831,1,0,0:0:0:0:
320,192,29866,1,0,0:0:0:0:
448,192,29902,1,0,0:0:0:45:2bm Beep Leed High F.ogg
64,192,30009,1,0,0:0:0:0:
192,192,30081,1,0,0:0:0:0:
320,192,30116,1,0,0:0:0:45:2bm Beep Leed High D.ogg
448,192,30176,1,0,0:0:0:0:
64,192,30224,1,0,0:0:0:0:
320,192,30331,1,0,0:0:0:45:2bm Beep Leed High D.ogg
64,192,30438,1,0,0:0:0:45:2bm Beep Leed High C.ogg
192,192,30438,1,0,0:0:0:0:
320,192,30545,1,0,0:0:0:0:
192,192,30652,1,0,0:0:0:45:2bm Beep Leed High E.ogg
448,192,30706,1,0,0:0:0:0:
64,192,30759,1,0,0:0:0:0:
320,192,30813,1,0,0:0:0:0:
448,192,30866,1,0,0:0:0:45:2bm Beep Leed High F.ogg
192,192,30974,1,0,0:0:0:45:2bm Beep Leed High E.ogg
64,192,31009,1,0,0:0:0:0:
448,192,31081,128,0,31188:0:0:0:0:
320,192,31107,1,0,0:0:0:0:
64,192,31188,1,0,0:0:0:0:
192,192,31215,1,0,0:0:0:0:
448,192,31295,1,0,0:0:0:50:2bm Beep Leed High F.ogg
320,192,31322,1,0,0:0:0:0:
64,192,31402,1,0,0:0:0:0:
192,192,31429,1,0,0:0:0:0:
320,192,31509,1,0,0:0:0:50:2bm Beep Leed High E.ogg
448,192,31616,1,0,0:0:0:50:2bm Beep Leed High F.ogg
64,192,31724,1,0,0:0:0:0:
320,192,31831,1,0,0:0:0:50:2bm Beep Leed High D.ogg
64,192,31938,1,0,0:0:0:0:
320,192,32045,1,0,0:0:0:50:2bm Beep Leed High D.ogg
192,192,32152,1,0,0:0:0:50:2bm Beep Leed High C.ogg
448,192,32206,1,0,0:0:0:0:
64,192,32259,1,0,0:0:0:0:
320,192,32366,1,0,0:0:0:50:2bm Beep Leed High E.ogg
64,192,32474,1,0,0:0:0:0:
448,192,32581,1,0,0:0:0:50:2bm Beep Leed High F.ogg
64,192,32688,1,0,0:0:0:50:2bm Beep Leed High E.ogg
192,192,32724,1,0,0:0:0:0:
320,192,32795,128,0,32902:0:0:0:0:
192,192,32938,1,0,0:0:0:0:
448,192,33009,1,0,0:0:0:50:2bm Beep Leed High F.ogg
192,192,33224,1,0,0:0:0:50:2bm Beep Leed High E.ogg
64,192,33259,1,0,0:0:0:0:
320,192,33295,1,0,0:0:0:0:
448,192,33331,1,0,0:0:0:50:2bm Beep Leed High F.ogg
64,192,33438,1,0,0:0:0:0:
192,192,33509,1,0,0:0:0:0:
320,192,33545,1,0,0:0:0:50:2bm Beep Leed High D.ogg
448,192,33604,1,0,0:0:0:0:
64,192,33652,1,0,0:0:0:0:
320,192,33759,1,0,0:0:0:50:2bm Beep Leed High D.ogg
64,192,33866,1,0,0:0:0:50:2bm Beep Leed High C.ogg
192,192,33866,1,0,0:0:0:0:
320,192,33974,1,0,0:0:0:0:
192,192,34081,1,0,0:0:0:50:2bm Beep Leed High E.ogg
320,192,34134,1,0,0:0:0:0:
64,192,34188,1,0,0:0:0:0:
448,192,34241,1,0,0:0:0:0:
320,192,34295,1,0,0:0:0:50:2bm Beep Leed High F.ogg
192,192,34402,1,0,0:0:0:50:2bm Beep Leed High E.ogg
448,192,34438,1,0,0:0:0:0:
64,192,34509,128,0,34616:0:0:0:0:
320,192,34616,1,0,0:0:0:0:
448,192,34724,1,0,0:0:0:50:2bm Beep Leed High F.ogg
64,192,34831,1,0,0:0:0:0:
192,192,34938,1,0,0:0:0:48:2bm Beep Leed High E.ogg
448,192,35045,1,0,0:0:0:48:2bm Beep Leed High F.ogg
64,192,35152,1,0,0:0:0:0:
320,192,35259,1,0,0:0:0:48:2bm Beep Leed High D.ogg
64,192,35366,1,0,0:0:0:0:
320,192,35474,1,0,0:0:0:46:2bm Beep Leed High D.ogg
192,192,35581,1,0,0:0:0:46:2bm Beep Leed High C.ogg
64,192,35688,1,0,0:0:0:0:
320,192,35795,1,0,0:0:0:44:2bm Beep Leed High E.ogg
64,192,35902,1,0,0:0:0:0:
448,192,36009,1,0,0:0:0:44:2bm Beep Leed High F.ogg
320,192,36116,1,0,0:0:0:44:2bm Beep Leed High E.ogg
64,192,36224,1,0,0:0:0:0:
320,192,36331,1,0,0:0:0:0:
448,192,36438,1,0,0:0:0:42:2bm Beep Leed High F.ogg
64,192,36545,1,0,0:0:0:0:
192,192,36652,1,0,0:0:0:40:2bm Beep Leed High E.ogg
448,192,36759,1,0,0:0:0:40:2bm Beep Leed High F.ogg
64,192,36866,1,0,0:0:0:0:
320,192,36974,1,0,0:0:0:40:2bm Beep Leed High D.ogg
64,192,37081,1,0,0:0:0:0:
320,192,37188,1,0,0:0:0:38:2bm Beep Leed High D.ogg
192,192,37295,1,0,0:0:0:38:2bm Beep Leed High C.ogg
64,192,37402,1,0,0:0:0:0:
320,192,37509,1,0,0:0:0:36:2bm Beep Leed High E.ogg
64,192,37616,1,0,0:0:0:0:
448,192,37724,1,0,0:0:0:36:2bm Beep Leed High F.ogg
320,192,37831,1,0,0:0:0:36:2bm Beep Leed High E.ogg
64,192,37938,128,0,41259:0:0:0:0:
448,192,38152,1,0,0:0:0:34:2bm Beep Leed High F.ogg
192,192,38366,1,0,0:0:0:32:2bm Beep Leed High E.ogg
448,192,38474,1,0,0:0:0:32:2bm Beep Leed High F.ogg
320,192,38688,1,0,0:0:0:32:2bm Beep Leed High D.ogg
320,192,38902,1,0,0:0:0:30:2bm Beep Leed High D.ogg
192,192,39009,1,0,0:0:0:30:2bm Beep Leed High C.ogg
320,192,39224,1,0,0:0:0:28:2bm Beep Leed High E.ogg
448,192,39438,1,0,0:0:0:28:2bm Beep Leed High F.ogg
320,192,39545,1,0,0:0:0:28:2bm Beep Leed High E.ogg
64,192,41366,1,0,0:0:0:100:3bm Drum Kick.ogg
192,192,41366,1,0,0:0:0:45:3bm Crash Cymbals.ogg
320,192,41366,1,0,0:0:0:0:
448,192,41366,1,0,0:0:0:0:
64,192,41474,1,0,0:0:0:0:
448,192,41581,1,0,0:0:0:80:2bm Beep Leed High F.ogg
64,192,41688,1,0,0:0:0:0:
192,192,41795,1,0,0:0:0:100:3bm Drum Clap.ogg
320,192,41795,1,0,0:0:0:80:2bm Beep Leed High E.ogg
448,192,41795,1,0,0:0:0:0:
448,192,41902,1,0,0:0:0:80:2bm Beep Leed High F.ogg
64,192,42009,1,0,0:0:0:0:
192,192,42116,1,0,0:0:0:80:2bm Beep Leed High D.ogg
320,192,42116,1,0,0:0:0:0:
64,192,42224,1,0,0:0:0:100:3bm Drum Kick.ogg
448,192,42224,1,0,0:0:0:0:
192,192,42331,1,0,0:0:0:80:2bm Beep Leed High D.ogg
320,192,42331,1,0,0:0:0:0:
64,192,42438,1,0,0:0:0:80:2bm Beep Leed High C.ogg
448,192,42438,1,0,0:0:0:0:
448,192,42545,1,0,0:0:0:0:
64,192,42652,1,0,0:0:0:100:3bm Drum Clap.ogg
192,192,42652,1,0,0:0:0:80:2bm Beep Leed High E.ogg
320,192,42652,1,0,0:0:0:0:
64,192,42759,1,0,0:0:0:0:
448,192,42866,1,0,0:0:0:80:2bm Beep Leed High F.ogg
320,192,42974,1,0,0:0:0:80:2bm Beep Leed High E.ogg
64,192,43081,1,0,0:0:0:100:3bm Drum Kick.ogg
192,192,43081,1,0,0:0:0:0:
64,192,43188,1,0,0:0:0:0:
448,192,43295,1,0,0:0:0:80:2bm Beep Leed High F.ogg
64,192,43402,1,0,0:0:0:0:
192,192,43509,1,0,0:0:0:100:3bm Drum Clap.ogg
320,192,43509,1,0,0:0:0:80:2bm Beep Leed High E.ogg
448,192,43509,1,0,0:0:0:0:
448,192,43616,1,0,0:0:0:80:2bm Beep Leed High F.ogg
192,192,43724,1,0,0:0:0:0:
64,192,43831,1,0,0:0:0:80:2bm Beep Leed High D.ogg
448,192,43831,1,0,0:0:0:0:
192,192,43938,1,0,0:0:0:100:3bm Drum Kick.ogg
320,192,43938,1,0,0:0:0:0:
64,192,44045,1,0,0:0:0:80:2bm Beep Leed High D.ogg
448,192,44045,1,0,0:0:0:0:
192,192,44152,1,0,0:0:0:80:2bm Beep Leed High C.ogg
320,192,44152,1,0,0:0:0:0:
320,192,44259,1,0,0:0:0:0:
64,192,44366,1,0,0:0:0:100:3bm Drum Clap.ogg
192,192,44366,1,0,0:0:0:80:2bm Beep Leed High E.ogg
448,192,44366,1,0,0:0:0:0:
64,192,44474,1,0,0:0:0:0:
448,192,44581,1,0,0:0:0:80:2bm Beep Leed High F.ogg
320,192,44688,1,0,0:0:0:80:2bm Beep Leed High E.ogg
64,192,44795,1,0,0:0:0:100:3bm Drum Kick.ogg
192,192,44795,1,0,0:0:0:0:
64,192,44902,1,0,0:0:0:0:
448,192,45009,1,0,0:0:0:80:2bm Beep Leed High F.ogg
64,192,45116,1,0,0:0:0:0:
192,192,45224,1,0,0:0:0:100:3bm Drum Clap.ogg
320,192,45224,1,0,0:0:0:80:2bm Beep Leed High E.ogg
448,192,45224,1,0,0:0:0:0:
320,192,45331,1,0,0:0:0:80:2bm Beep Leed High F.ogg
64,192,45438,1,0,0:0:0:0:
192,192,45545,1,0,0:0:0:80:2bm Beep Leed High D.ogg
320,192,45545,1,0,0:0:0:0:
64,192,45652,1,0,0:0:0:100:3bm Drum Kick.ogg
448,192,45652,1,0,0:0:0:0:
192,192,45759,1,0,0:0:0:80:2bm Beep Leed High D.ogg
320,192,45759,1,0,0:0:0:0:
64,192,45866,1,0,0:0:0:80:2bm Beep Leed High C.ogg
448,192,45866,1,0,0:0:0:0:
64,192,45974,1,0,0:0:0:0:
192,192,46081,1,0,0:0:0:100:3bm Drum Clap.ogg
320,192,46081,1,0,0:0:0:80:2bm Beep Leed High E.ogg
448,192,46081,1,0,0:0:0:0:
320,192,46188,1,0,0:0:0:0:
64,192,46295,1,0,0:0:0:80:2bm Beep Leed High F.ogg
320,192,46402,1,0,0:0:0:80:2bm Beep Leed High E.ogg
64,192,46509,1,0,0:0:0:100:3bm Drum Kick.ogg
192,192,46509,1,0,0:0:0:0:
64,192,46616,1,0,0:0:0:0:
448,192,46724,1,0,0:0:0:80:2bm Beep Leed High F.ogg
64,192,46831,1,0,0:0:0:0:
192,192,46938,1,0,0:0:0:100:3bm Drum Clap.ogg
320,192,46938,1,0,0:0:0:80:2bm Beep Leed High E.ogg
448,192,46938,1,0,0:0:0:0:
448,192,47045,1,0,0:0:0:80:2bm Beep Leed High F.ogg
64,192,47152,1,0,0:0:0:0:
192,192,47259,1,0,0:0:0:80:2bm Beep Leed High D.ogg
320,192,47259,1,0,0:0:0:0:
64,192,47366,1,0,0:0:0:100:3bm Drum Kick.ogg
448,192,47366,1,0,0:0:0:0:
192,192,47474,1,0,0:0:0:100:3bm Closing Hihats.ogg
320,192,47474,1,0,0:0:0:80:2bm Beep Leed High D.ogg
320,192,47581,1,0,0:0:0:80:2bm Beep Leed High C.ogg
448,192,47581,1,0,0:0:0:0:
64,192,47688,1,0,0:0:0:0:
192,192,47795,1,0,0:0:0:100:3bm Drum Clap.ogg
320,192,47795,1,0,0:0:0:80:2bm Beep Leed High E.ogg
448,192,47795,1,0,0:0:0:0:
320,192,47902,1,0,0:0:0:0:
64,192,48009,1,0,0:0:0:100:3bm Closing Hihats.ogg
192,192,48009,1,0,0:0:0:80:2bm Beep Leed High F.ogg
448,192,48009,1,0,0:0:0:0:
320,192,48116,1,0,0:0:0:80:2bm Beep Leed High E.ogg
64,192,48224,1,0,0:0:0:100:3bm Drum Kick.ogg
192,192,48224,1,0,0:0:0:45:3bm Crash Cymbals.ogg
320,192,48224,1,0,0:0:0:0:
448,192,48224,1,0,0:0:0:0:
64,192,48331,1,0,0:0:0:0:
448,192,48438,1,0,0:0:0:80:2bm Beep Leed High F.ogg
64,192,48545,1,0,0:0:0:0:
192,192,48652,1,0,0:0:0:100:3bm Drum Clap.ogg
320,192,48652,1,0,0:0:0:80:2bm Beep Leed High E.ogg
448,192,48652,1,0,0:0:0:0:
448,192,48759,1,0,0:0:0:80:2bm Beep Leed High F.ogg
64,192,48866,1,0,0:0:0:0:
192,192,48974,1,0,0:0:0:80:2bm Beep Leed High D.ogg
320,192,48974,1,0,0:0:0:0:
64,192,49081,1,0,0:0:0:100:3bm Drum Kick.ogg
448,192,49081,1,0,0:0:0:0:
192,192,49188,1,0,0:0:0:80:2bm Beep Leed High D.ogg
320,192,49188,1,0,0:0:0:0:
64,192,49295,1,0,0:0:0:80:2bm Beep Leed High C.ogg
448,192,49295,1,0,0:0:0:0:
448,192,49402,1,0,0:0:0:0:
64,192,49509,1,0,0:0:0:100:3bm Drum Clap.ogg
192,192,49509,1,0,0:0:0:80:2bm Beep Leed High E.ogg
320,192,49509,1,0,0:0:0:0:
64,192,49616,1,0,0:0:0:0:
448,192,49724,1,0,0:0:0:80:2bm Beep Leed High F.ogg
320,192,49831,1,0,0:0:0:80:2bm Beep Leed High E.ogg
64,192,49938,1,0,0:0:0:100:3bm Drum Kick.ogg
192,192,49938,1,0,0:0:0:0:
64,192,50045,1,0,0:0:0:0:
320,192,50152,1,0,0:0:0:80:2bm Beep Leed High F.ogg
64,192,50259,1,0,0:0:0:0:
192,192,50366,1,0,0:0:0:100:3bm Drum Clap.ogg
320,192,50366,1,0,0:0:0:80:2bm Beep Leed High E.ogg
448,192,50366,1,0,0:0:0:0:
448,192,50474,1,0,0:0:0:80:2bm Beep Leed High F.ogg
192,192,50581,1,0,0:0:0:0:
64,192,50688,1,0,0:0:0:80:2bm Beep Leed High D.ogg
448,192,50688,1,0,0:0:0:0:
192,192,50795,1,0,0:0:0:100:3bm Drum Kick.ogg
320,192,50795,1,0,0:0:0:0:
64,192,50902,1,0,0:0:0:80:2bm Beep Leed High D.ogg
448,192,50902,1,0,0:0:0:0:
192,192,51009,1,0,0:0:0:80:2bm Beep Leed High C.ogg
320,192,51009,1,0,0:0:0:0:
192,192,51116,1,0,0:0:0:0:
64,192,51224,1,0,0:0:0:100:3bm Drum Clap.ogg
320,192,51224,1,0,0:0:0:80:2bm Beep Leed High E.ogg
448,192,51224,1,0,0:0:0:0:
448,192,51331,1,0,0:0:0:0:
64,192,51438,1,0,0:0:0:80:2bm Beep Leed High F.ogg
192,192,51545,1,0,0:0:0:80:2bm Beep Leed High E.ogg
320,192,51652,1,0,0:0:0:100:3bm Drum Kick.ogg
448,192,51652,1,0,0:0:0:0:
448,192,51759,1,0,0:0:0:0:
64,192,51866,1,0,0:0:0:80:2bm Beep Leed High F.ogg
448,192,51974,1,0,0:0:0:0:
64,192,52081,1,0,0:0:0:100:3bm Drum Clap.ogg
192,192,52081,1,0,0:0:0:80:2bm Beep Leed High E.ogg
320,192,52081,1,0,0:0:0:0:
64,192,52188,1,0,0:0:0:80:2bm Beep Leed High F.ogg
448,192,52295,1,0,0:0:0:0:
192,192,52402,1,0,0:0:0:80:2bm Beep Leed High D.ogg
320,192,52402,1,0,0:0:0:0:
64,192,52509,1,0,0:0:0:100:3bm Drum Kick.ogg
448,192,52509,1,0,0:0:0:0:
192,192,52616,1,0,0:0:0:80:2bm Beep Leed High D.ogg
320,192,52616,1,0,0:0:0:0:
64,192,52724,1,0,0:0:0:80:2bm Beep Leed High C.ogg
448,192,52724,1,0,0:0:0:0:
64,192,52831,1,0,0:0:0:0:
192,192,52938,1,0,0:0:0:100:3bm Drum Clap.ogg
320,192,52938,1,0,0:0:0:80:2bm Beep Leed High E.ogg
448,192,52938,1,0,0:0:0:0:
320,192,53045,1,0,0:0:0:0:
64,192,53152,1,0,0:0:0:100:3bm Drum Kick.ogg
192,192,53152,1,0,0:0:0:80:2bm Beep Leed High F.ogg
448,192,53152,1,0,0:0:0:0:
192,192,53259,1,0,0:0:0:80:2bm Beep Leed High E.ogg
64,192,53366,1,0,0:0:0:100:3bm Drum Kick.ogg
448,192,53366,1,0,0:0:0:0:
64,192,53474,1,0,0:0:0:100:3bm Drum Kick.ogg
320,192,53474,1,0,0:0:0:0:
192,192,53581,1,0,0:0:0:80:2bm Beep Leed High F.ogg
320,192,53688,1,0,0:0:0:100:3bm Drum Kick.ogg
448,192,53688,1,0,0:0:0:0:
64,192,53795,1,0,0:0:0:100:3bm Drum Clap.ogg
192,192,53795,1,0,0:0:0:80:2bm Beep Leed High E.ogg
448,192,53795,1,0,0:0:0:0:
64,192,53902,1,0,0:0:0:100:3bm Drum Clap.ogg
320,192,53902,1,0,0:0:0:80:2bm Beep Leed High F.ogg
192,192,54009,1,0,0:0:0:0:
320,192,54116,1,0,0:0:0:100:3bm Drum Clap.ogg
448,192,54116,1,0,0:0:0:80:2bm Beep Leed High D.ogg
64,192,54224,1,0,0:0:0:100:3bm Drum Kick.ogg
320,192,54224,1,0,0:0:0:0:
64,192,54331,1,0,0:0:0:80:2bm Beep Leed High D.ogg
192,192,54438,1,0,0:0:0:100:3bm Drum Kick.ogg
448,192,54438,1,0,0:0:0:80:2bm Beep Leed High C.ogg
448,192,54545,1,0,0:0:0:0:
64,192,54652,1,0,0:0:0:100:3bm Drum Clap.ogg
192,192,54652,1,0,0:0:0:80:2bm Beep Leed High E.ogg
320,192,54652,1,0,0:0:0:0:
192,192,54759,1,0,0:0:0:0:
64,192,54866,1,0,0:0:0:80:2bm Beep Leed High F.ogg
448,192,54866,1,0,0:0:0:0:
320,192,54920,1,0,0:0:0:0:
192,192,54974,1,0,0:0:0:80:2bm Beep Leed High E.ogg
64,192,55027,1,0,0:0:0:0:
192,192,55081,1,0,0:0:0:100:3bm Drum Kick.ogg
320,192,55081,1,0,0:0:0:0:
448,192,55081,1,0,0:0:0:0:
448,192,55188,1,0,0:0:0:0:
64,192,55295,1,0,0:0:0:80:2bm Beep Leed High F.ogg
448,192,55402,1,0,0:0:0:0:
64,192,55509,1,0,0:0:0:100:3bm Drum Clap.ogg
192,192,55509,1,0,0:0:0:80:2bm Beep Leed High E.ogg
320,192,55509,1,0,0:0:0:0:
64,192,55616,1,0,0:0:0:80:2bm Beep Leed High F.ogg
448,192,55724,1,0,0:0:0:0:
192,192,55831,1,0,0:0:0:80:2bm Beep Leed High D.ogg
320,192,55831,1,0,0:0:0:0:
64,192,55938,1,0,0:0:0:100:3bm Drum Kick.ogg
448,192,55938,1,0,0:0:0:0:
192,192,56045,1,0,0:0:0:80:2bm Beep Leed High D.ogg
320,192,56045,1,0,0:0:0:0:
64,192,56152,1,0,0:0:0:80:2bm Beep Leed High C.ogg
448,192,56152,1,0,0:0:0:0:
64,192,56259,1,0,0:0:0:0:
192,192,56366,1,0,0:0:0:100:3bm Drum Clap.ogg
320,192,56366,1,0,0:0:0:80:2bm Beep Leed High E.ogg
448,192,56366,1,0,0:0:0:0:
448,192,56474,1,0,0:0:0:0:
64,192,56581,1,0,0:0:0:80:2bm Beep Leed High F.ogg
192,192,56688,1,0,0:0:0:80:2bm Beep Leed High E.ogg
320,192,56795,1,0,0:0:0:100:3bm Drum Kick.ogg
448,192,56795,1,0,0:0:0:0:
448,192,56902,1,0,0:0:0:0:
64,192,57009,1,0,0:0:0:80:2bm Beep Leed High F.ogg
448,192,57116,1,0,0:0:0:0:
64,192,57224,1,0,0:0:0:100:3bm Drum Clap.ogg
192,192,57224,1,0,0:0:0:80:2bm Beep Leed High E.ogg
320,192,57224,1,0,0:0:0:0:
64,192,57331,1,0,0:0:0:80:2bm Beep Leed High F.ogg
320,192,57438,1,0,0:0:0:0:
64,192,57545,1,0,0:0:0:80:2bm Beep Leed High D.ogg
448,192,57545,1,0,0:0:0:0:
192,192,57652,1,0,0:0:0:100:3bm Drum Kick.ogg
320,192,57652,1,0,0:0:0:0:
64,192,57759,1,0,0:0:0:80:2bm Beep Leed High D.ogg
448,192,57759,1,0,0:0:0:0:
192,192,57866,1,0,0:0:0:80:2bm Beep Leed High C.ogg
320,192,57866,1,0,0:0:0:0:
192,192,57974,1,0,0:0:0:0:
64,192,58081,1,0,0:0:0:100:3bm Drum Clap.ogg
320,192,58081,1,0,0:0:0:80:2bm Beep Leed High E.ogg
448,192,58081,1,0,0:0:0:0:
448,192,58188,1,0,0:0:0:0:
64,192,58295,1,0,0:0:0:80:2bm Beep Leed High F.ogg
192,192,58402,1,0,0:0:0:80:2bm Beep Leed High E.ogg
320,192,58509,1,0,0:0:0:100:3bm Drum Kick.ogg
448,192,58509,1,0,0:0:0:0:
448,192,58616,1,0,0:0:0:0:
64,192,58724,1,0,0:0:0:80:2bm Beep Leed High F.ogg
448,192,58831,1,0,0:0:0:0:
64,192,58938,1,0,0:0:0:80:2bm Beep Leed High E.ogg
192,192,58938,1,0,0:0:0:100:3bm Drum Clap.ogg
320,192,58938,1,0,0:0:0:0:
64,192,59045,1,0,0:0:0:80:2bm Beep Leed High F.ogg
448,192,59152,1,0,0:0:0:0:
192,192,59259,1,0,0:0:0:80:2bm Beep Leed High D.ogg
320,192,59259,1,0,0:0:0:0:
64,192,59366,1,0,0:0:0:100:3bm Drum Kick.ogg
448,192,59366,1,0,0:0:0:0:
192,192,59474,1,0,0:0:0:80:2bm Beep Leed High D.ogg
320,192,59474,1,0,0:0:0:0:
64,192,59581,1,0,0:0:0:80:2bm Beep Leed High C.ogg
448,192,59581,1,0,0:0:0:0:
448,192,59688,1,0,0:0:0:0:
64,192,59795,1,0,0:0:0:80:2bm Beep Leed High E.ogg
192,192,59795,1,0,0:0:0:100:3bm Drum Clap.ogg
320,192,59795,1,0,0:0:0:0:
192,192,59902,1,0,0:0:0:0:
448,192,60009,1,0,0:0:0:80:2bm Beep Leed High F.ogg
192,192,60116,1,0,0:0:0:80:2bm Beep Leed High E.ogg
320,192,60224,1,0,0:0:0:100:3bm Drum Kick.ogg
448,192,60224,1,0,0:0:0:0:
448,192,60331,1,0,0:0:0:0:
64,192,60438,1,0,0:0:0:80:2bm Beep Leed High F.ogg
448,192,60545,1,0,0:0:0:0:
64,192,60652,1,0,0:0:0:100:3bm Drum Clap.ogg
192,192,60652,1,0,0:0:0:80:2bm Beep Leed High E.ogg
320,192,60652,1,0,0:0:0:0:
64,192,60759,1,0,0:0:0:80:2bm Beep Leed High F.ogg
448,192,60866,1,0,0:0:0:0:
192,192,60974,1,0,0:0:0:80:2bm Beep Leed High D.ogg
320,192,60974,1,0,0:0:0:0:
64,192,61081,1,0,0:0:0:100:3bm Drum Kick.ogg
448,192,61081,1,0,0:0:0:0:
192,192,61188,1,0,0:0:0:80:2bm Beep Leed High D.ogg
320,192,61188,1,0,0:0:0:100:3bm Closing Hihats.ogg
64,192,61295,1,0,0:0:0:80:2bm Beep Leed High C.ogg
192,192,61295,1,0,0:0:0:0:
448,192,61402,1,0,0:0:0:0:
64,192,61509,1,0,0:0:0:100:3bm Drum Clap.ogg
192,192,61509,1,0,0:0:0:80:2bm Beep Leed High E.ogg
320,192,61509,1,0,0:0:0:0:
192,192,61616,1,0,0:0:0:0:
64,192,61724,1,0,0:0:0:80:2bm Beep Leed High F.ogg
320,192,61724,1,0,0:0:0:100:3bm Closing Hihats.ogg
448,192,61724,1,0,0:0:0:0:
192,192,61831,1,0,0:0:0:80:2bm Beep Leed High E.ogg
64,192,61938,1,0,0:0:0:100:3bm Drum Kick.ogg
192,192,61938,1,0,0:0:0:45:3bm Crash Cymbals.ogg
320,192,61938,1,0,0:0:0:0:
448,192,61938,1,0,0:0:0:0:
448,192,62045,1,0,0:0:0:0:
64,192,62152,1,0,0:0:0:80:2bm Beep Leed High F.ogg
448,192,62259,1,0,0:0:0:0:
64,192,62366,1,0,0:0:0:100:3bm Drum Clap.ogg
192,192,62366,1,0,0:0:0:80:2bm Beep Leed High E.ogg
320,192,62366,1,0,0:0:0:0:
64,192,62474,1,0,0:0:0:80:2bm Beep Leed High F.ogg
448,192,62581,1,0,0:0:0:0:
192,192,62688,1,0,0:0:0:80:2bm Beep Leed High D.ogg
320,192,62688,1,0,0:0:0:0:
64,192,62795,1,0,0:0:0:100:3bm Drum Kick.ogg
448,192,62795,1,0,0:0:0:0:
192,192,62902,1,0,0:0:0:80:2bm Beep Leed High D.ogg
320,192,62902,1,0,0:0:0:0:
64,192,63009,1,0,0:0:0:80:2bm Beep Leed High C.ogg
448,192,63009,1,0,0:0:0:0:
64,192,63116,1,0,0:0:0:0:
192,192,63224,1,0,0:0:0:100:3bm Drum Clap.ogg
320,192,63224,1,0,0:0:0:80:2bm Beep Leed High E.ogg
448,192,63224,1,0,0:0:0:0:
448,192,63331,1,0,0:0:0:0:
64,192,63438,1,0,0:0:0:80:2bm Beep Leed High F.ogg
192,192,63545,1,0,0:0:0:80:2bm Beep Leed High E.ogg
320,192,63652,1,0,0:0:0:100:3bm Drum Kick.ogg
448,192,63652,1,0,0:0:0:0:
448,192,63759,1,0,0:0:0:0:
192,192,63866,1,0,0:0:0:80:2bm Beep Leed High F.ogg
448,192,63974,1,0,0:0:0:0:
64,192,64081,1,0,0:0:0:100:3bm Drum Clap.ogg
192,192,64081,1,0,0:0:0:80:2bm Beep Leed High E.ogg
320,192,64081,1,0,0:0:0:0:
64,192,64188,1,0,0:0:0:80:2bm Beep Leed High F.ogg
320,192,64295,1,0,0:0:0:0:
64,192,64402,1,0,0:0:0:80:2bm Beep Leed High D.ogg
448,192,64402,1,0,0:0:0:0:
192,192,64509,1,0,0:0:0:100:3bm Drum Kick.ogg
320,192,64509,1,0,0:0:0:0:
64,192,64616,1,0,0:0:0:80:2bm Beep Leed High D.ogg
448,192,64616,1,0,0:0:0:0:
192,192,64724,1,0,0:0:0:80:2bm Beep Leed High C.ogg
320,192,64724,1,0,0:0:0:0:
320,192,64831,1,0,0:0:0:0:
64,192,64938,1,0,0:0:0:100:3bm Drum Clap.ogg
192,192,64938,1,0,0:0:0:80:2bm Beep Leed High E.ogg
448,192,64938,1,0,0:0:0:0:
64,192,65045,1,0,0:0:0:0:
320,192,65152,1,0,0:0:0:100:3bm Drum Kick.ogg
448,192,65152,1,0,0:0:0:80:2bm Beep Leed High F.ogg
320,192,65259,1,0,0:0:0:80:2bm Beep Leed High E.ogg
64,192,65366,1,0,0:0:0:100:3bm Drum Kick.ogg
192,192,65366,1,0,0:0:0:0:
448,192,65366,1,0,0:0:0:0:
192,192,65474,1,0,0:0:0:0:
64,192,65581,1,0,0:0:0:100:3bm Drum Kick.ogg
320,192,65581,1,0,0:0:0:80:2bm Beep Leed High F.ogg
448,192,65581,1,0,0:0:0:0:
448,192,65688,1,0,0:0:0:0:
64,192,65795,1,0,0:0:0:100:3bm Drum Clap.ogg
320,192,65795,1,0,0:0:0:80:2bm Beep Leed High E.ogg
64,192,65902,1,0,0:0:0:100:3bm Drum Clap.ogg
192,192,65902,1,0,0:0:0:80:2bm Beep Leed High F.ogg
448,192,66009,1,0,0:0:0:0:
320,192,66009,1,0,0:0:0:0:
320,192,66116,1,0,0:0:0:100:3bm Drum Clap.ogg
192,192,66116,1,0,0:0:0:80:2bm Beep Leed High D.ogg
64,192,66224,1,0,0:0:0:100:3bm Drum Kick.ogg
192,192,66224,1,0,0:0:0:0:
448,192,66224,1,0,0:0:0:0:
448,192,66331,1,0,0:0:0:80:2bm Beep Leed High D.ogg
64,192,66438,1,0,0:0:0:100:3bm Drum Kick.ogg
192,192,66438,1,0,0:0:0:80:2bm Beep Leed High C.ogg
320,192,66438,1,0,0:0:0:0:
64,192,66545,1,0,0:0:0:0:
320,192,66652,1,0,0:0:0:100:3bm Drum Clap.ogg
448,192,66652,1,0,0:0:0:80:2bm Beep Leed High E.ogg
64,192,66759,1,0,0:0:0:100:3bm Drum Kick.ogg
192,192,66866,1,0,0:0:0:100:3bm Drum Clap.ogg
320,192,66866,1,0,0:0:0:80:2bm Beep Leed High F.ogg
448,192,66866,1,0,0:0:0:0:
320,192,66974,1,0,0:0:0:100:3bm Drum Kick.ogg
64,192,67081,1,0,0:0:0:100:3bm Drum Kick.ogg
192,192,67081,1,0,0:0:0:0:
448,192,67081,1,0,0:0:0:0:
64,192,67188,1,0,0:0:0:0:
192,192,67188,1,0,0:0:0:0:
64,192,67295,1,0,0:0:0:100:3bm Drum Kick.ogg
448,192,67295,1,0,0:0:0:80:2bm Beep Leed High F.ogg
192,192,67402,1,0,0:0:0:0:
64,192,67509,1,0,0:0:0:100:3bm Drum Clap.ogg
320,192,67509,1,0,0:0:0:80:2bm Beep Leed High E.ogg
448,192,67509,1,0,0:0:0:0:
192,192,67616,1,0,0:0:0:100:3bm Drum Clap.ogg
448,192,67616,1,0,0:0:0:80:2bm Beep Leed High F.ogg
64,192,67724,1,0,0:0:0:0:
320,192,67724,1,0,0:0:0:0:
64,192,67831,1,0,0:0:0:100:3bm Drum Clap.ogg
192,192,67831,1,0,0:0:0:80:2bm Beep Leed High D.ogg
448,192,67938,1,0,0:0:0:0:
320,192,67991,1,0,0:0:0:0:
64,192,68045,1,0,0:0:0:100:3bm Drum Clap.ogg
192,192,68099,1,0,0:0:0:0:
448,192,68152,1,0,0:0:0:100:3bm Drum Clap.ogg
320,192,68206,1,0,0:0:0:0:
64,192,68259,1,0,0:0:0:100:3bm Drum Clap.ogg
192,192,68313,1,0,0:0:0:0:
448,192,68366,1,0,0:0:0:30:3bm Drum Clap.ogg
320,192,68402,1,0,0:0:0:0:
192,192,68438,1,0,0:0:0:0:
64,192,68474,1,0,0:0:0:30:3bm Drum Clap.ogg
320,192,68509,1,0,0:0:0:0:
448,192,68545,1,0,0:0:0:0:
192,192,68581,1,0,0:0:0:100:3bm Drum Clap.ogg
64,192,68616,1,0,0:0:0:0:
320,192,68652,1,0,0:0:0:0:
448,192,68688,1,0,0:0:0:80:2bm Beep Leed High E.ogg
64,192,68724,1,0,0:0:0:0:
192,192,68759,1,0,0:0:0:0:
320,192,68795,1,0,0:0:0:100:3bm Drum Kick.ogg
448,192,68795,1,0,0:0:0:0:
192,192,68902,1,0,0:0:0:0:
64,192,69009,1,0,0:0:0:100:4bm piano 001.ogg
448,192,69009,1,0,0:0:0:0:
320,192,69116,1,0,0:0:0:0:
64,192,69224,1,0,0:0:0:100:3bm Drum Clap.ogg
192,192,69224,1,0,0:0:0:100:4bm piano 002.ogg
448,192,69224,1,0,0:0:0:0:
64,192,69331,1,0,0:0:0:100:4bm piano 003.ogg
320,192,69331,1,0,0:0:0:0:
448,192,69438,1,0,0:0:0:0:
192,192,69545,1,0,0:0:0:100:4bm piano 004.ogg
64,192,69652,1,0,0:0:0:100:3bm Drum Kick.ogg
320,192,69652,1,0,0:0:0:0:
320,192,69759,1,0,0:0:0:100:4bm piano 005.ogg
448,192,69759,1,0,0:0:0:0:
192,192,69866,1,0,0:0:0:100:4bm piano 006.ogg
320,192,69974,1,0,0:0:0:100:4bm piano 007.ogg
64,192,70045,1,0,0:0:0:0:
192,192,70081,1,0,0:0:0:100:3bm Drum Clap.ogg
448,192,70081,1,0,0:0:0:100:4bm piano 008.ogg
192,192,70188,1,0,0:0:0:100:4bm piano 009.ogg
320,192,70188,1,0,0:0:0:0:
64,192,70295,1,0,0:0:0:100:4bm piano 010.ogg
320,192,70402,1,0,0:0:0:100:4bm piano 011.ogg
64,192,70509,1,0,0:0:0:100:3bm Drum Kick.ogg
448,192,70509,1,0,0:0:0:70:4bm piano 012-2.ogg
192,192,70581,1,0,0:0:0:0:
448,192,70616,1,0,0:0:0:70:4bm piano 013-2.ogg
320,192,70724,1,0,0:0:0:100:4bm piano 014.ogg
64,192,70831,1,0,0:0:0:100:4bm piano 015.ogg
192,192,70938,1,0,0:0:0:100:3bm Drum Clap.ogg
320,192,70938,1,0,0:0:0:100:4bm piano 016.ogg
448,192,70938,1,0,0:0:0:0:
64,192,71045,1,0,0:0:0:100:4bm piano 017.ogg
192,192,71045,1,0,0:0:0:0:
448,192,71152,1,0,0:0:0:100:4bm piano 018.ogg
64,192,71259,1,0,0:0:0:100:4bm piano 019.ogg
320,192,71259,1,0,0:0:0:0:
192,192,71366,1,0,0:0:0:100:3bm Drum Kick.ogg
320,192,71366,1,0,0:0:0:0:
192,192,71474,1,0,0:0:0:100:4bm piano 020.ogg
448,192,71474,1,0,0:0:0:0:
64,192,71581,1,0,0:0:0:0:
192,192,71688,1,0,0:0:0:100:4bm piano 021.ogg
320,192,71688,1,0,0:0:0:0:
64,192,71795,1,0,0:0:0:100:3bm Drum Clap.ogg
320,192,71795,1,0,0:0:0:0:
448,192,71795,1,0,0:0:0:0:
64,192,71902,1,0,0:0:0:100:4bm piano 022.ogg
192,192,71902,1,0,0:0:0:0:
320,192,71974,1,0,0:0:0:0:
448,192,72009,1,0,0:0:0:100:4bm piano 023.ogg
192,192,72116,1,0,0:0:0:100:4bm piano 024.ogg
320,192,72224,1,0,0:0:0:100:3bm Drum Kick.ogg
448,192,72224,1,0,0:0:0:100:4bm piano 025.ogg
64,192,72331,1,0,0:0:0:100:4bm piano 026.ogg
320,192,72331,1,0,0:0:0:0:
192,192,72438,1,0,0:0:0:100:4bm piano 027.ogg
64,192,72545,1,0,0:0:0:100:4bm piano 019.ogg
448,192,72545,1,0,0:0:0:0:
64,192,72652,1,0,0:0:0:100:3bm Drum Clap.ogg
192,192,72652,1,0,0:0:0:0:
320,192,72652,1,0,0:0:0:0:
320,192,72759,1,0,0:0:0:100:4bm piano 020.ogg
448,192,72759,1,0,0:0:0:0:
192,192,72866,1,0,0:0:0:0:
320,192,72974,1,0,0:0:0:100:4bm piano 021.ogg
64,192,73081,1,0,0:0:0:100:3bm Drum Kick.ogg
448,192,73081,1,0,0:0:0:100:4bm piano 028.ogg
64,192,73188,1,0,0:0:0:100:4bm piano 029.ogg
320,192,73188,1,0,0:0:0:0:
192,192,73295,1,0,0:0:0:100:4bm piano 030.ogg
320,192,73366,1,0,0:0:0:0:
448,192,73402,1,0,0:0:0:100:4bm piano 031.ogg
64,192,73509,1,0,0:0:0:100:3bm Drum Clap.ogg
192,192,73509,1,0,0:0:0:100:4bm piano 032.ogg
320,192,73509,1,0,0:0:0:0:
64,192,73616,1,0,0:0:0:100:4bm piano 033.ogg
448,192,73616,1,0,0:0:0:0:
192,192,73724,1,0,0:0:0:0:
448,192,73831,1,0,0:0:0:100:4bm piano 034.ogg
64,192,73938,1,0,0:0:0:100:3bm Drum Kick.ogg
192,192,73938,1,0,0:0:0:100:4bm piano 035.ogg
192,192,74045,1,0,0:0:0:100:4bm piano 036.ogg
448,192,74045,1,0,0:0:0:0:
320,192,74152,1,0,0:0:0:100:4bm piano 037.ogg
448,192,74152,1,0,0:0:0:0:
64,192,74259,1,0,0:0:0:0:
192,192,74366,1,0,0:0:0:100:3bm Drum Clap.ogg
320,192,74366,1,0,0:0:0:100:4bm piano 038.ogg
448,192,74366,1,0,0:0:0:0:
64,192,74474,1,0,0:0:0:100:4bm piano 039.ogg
320,192,74474,1,0,0:0:0:0:
192,192,74581,1,0,0:0:0:100:4bm piano 040.ogg
448,192,74581,1,0,0:0:0:0:
320,192,74688,1,0,0:0:0:100:4bm piano 041.ogg
448,192,74688,1,0,0:0:0:0:
64,192,74795,1,0,0:0:0:100:3bm Drum Kick.ogg
192,192,74795,1,0,0:0:0:0:
192,192,74902,1,0,0:0:0:100:3bm Closing Hihats.ogg
448,192,74902,1,0,0:0:0:100:4bm piano 042.ogg
64,192,75009,1,0,0:0:0:100:4bm piano 043.ogg
320,192,75009,1,0,0:0:0:0:
192,192,75116,1,0,0:0:0:100:4bm piano 044.ogg
320,192,75116,1,0,0:0:0:0:
64,192,75224,1,0,0:0:0:100:3bm Drum Clap.ogg
192,192,75224,1,0,0:0:0:100:4bm piano 045.ogg
448,192,75224,1,0,0:0:0:0:
320,192,75331,1,0,0:0:0:100:4bm piano 046.ogg
64,192,75438,1,0,0:0:0:100:3bm Closing Hihats.ogg
320,192,75438,1,0,0:0:0:100:4bm piano 047.ogg
448,192,75438,1,0,0:0:0:0:
192,192,75545,1,0,0:0:0:100:4bm piano 048.ogg
64,192,75652,1,0,0:0:0:100:3bm Drum Kick.ogg
320,192,75652,1,0,0:0:0:55:3bm Crash Cymbals.ogg
448,192,75652,1,0,0:0:0:100:4bm piano 049.ogg
192,192,75759,1,0,0:0:0:100:4bm piano 050.ogg
320,192,75759,1,0,0:0:0:0:
64,192,75866,1,0,0:0:0:100:4bm piano 051.ogg
320,192,75974,1,0,0:0:0:100:4bm piano 052.ogg
64,192,76081,1,0,0:0:0:100:3bm Drum Clap.ogg
192,192,76081,1,0,0:0:0:100:4bm piano 053.ogg
448,192,76081,1,0,0:0:0:0:
192,192,76188,1,0,0:0:0:100:4bm piano 054.ogg
320,192,76188,1,0,0:0:0:0:
64,192,76295,1,0,0:0:0:0:
448,192,76402,1,0,0:0:0:100:4bm piano 055.ogg
192,192,76509,1,0,0:0:0:100:3bm Drum Kick.ogg
320,192,76509,1,0,0:0:0:0:
192,192,76616,1,0,0:0:0:100:4bm piano 056.ogg
448,192,76616,1,0,0:0:0:0:
64,192,76724,1,0,0:0:0:100:4bm piano 057.ogg
320,192,76831,1,0,0:0:0:100:4bm piano 058.ogg
64,192,76938,1,0,0:0:0:100:3bm Drum Clap.ogg
192,192,76938,1,0,0:0:0:0:
448,192,76938,1,0,0:0:0:0:
320,192,77045,1,0,0:0:0:100:4bm piano 059.ogg
448,192,77045,1,0,0:0:0:0:
64,192,77152,1,0,0:0:0:0:
320,192,77259,1,0,0:0:0:100:4bm piano 060.ogg
448,192,77259,1,0,0:0:0:0:
192,192,77366,1,0,0:0:0:100:3bm Drum Kick.ogg
320,192,77366,1,0,0:0:0:0:
64,192,77438,1,0,0:0:0:0:
192,192,77474,1,0,0:0:0:100:4bm piano 061.ogg
320,192,77581,1,0,0:0:0:100:4bm piano 062.ogg
192,192,77688,1,0,0:0:0:100:4bm piano 063.ogg
64,192,77795,1,0,0:0:0:100:3bm Drum Clap.ogg
320,192,77795,1,0,0:0:0:100:4bm piano 064.ogg
448,192,77795,1,0,0:0:0:0:
192,192,77902,1,0,0:0:0:100:4bm piano 065.ogg
320,192,77902,1,0,0:0:0:0:
64,192,78009,1,0,0:0:0:100:4bm piano 066.ogg
448,192,78116,1,0,0:0:0:100:4bm piano 067.ogg
64,192,78224,1,0,0:0:0:100:3bm Drum Kick.ogg
192,192,78224,1,0,0:0:0:0:
192,192,78331,1,0,0:0:0:100:4bm piano 068.ogg
448,192,78331,1,0,0:0:0:0:
64,192,78438,1,0,0:0:0:0:
320,192,78545,1,0,0:0:0:100:4bm piano 069.ogg
448,192,78545,1,0,0:0:0:0:
64,192,78652,1,0,0:0:0:100:3bm Drum Clap.ogg
192,192,78652,1,0,0:0:0:0:
448,192,78652,1,0,0:0:0:0:
192,192,78759,1,0,0:0:0:100:4bm piano 070.ogg
320,192,78759,1,0,0:0:0:0:
448,192,78866,1,0,0:0:0:100:4bm piano 071.ogg
192,192,78974,1,0,0:0:0:100:4bm piano 072.ogg
64,192,79081,1,0,0:0:0:100:3bm Drum Kick.ogg
320,192,79081,1,0,0:0:0:70:3bm Crash Cymbals.ogg
448,192,79081,1,0,0:0:0:0:
192,192,79188,1,0,0:0:0:100:4bm piano 073.ogg
320,192,79188,1,0,0:0:0:0:
64,192,79295,1,0,0:0:0:100:4bm piano 074.ogg
320,192,79402,1,0,0:0:0:100:4bm piano 075.ogg
64,192,79509,1,0,0:0:0:100:3bm Drum Clap.ogg
192,192,79509,1,0,0:0:0:100:4bm piano 076.ogg
448,192,79509,1,0,0:0:0:0:
64,192,79616,1,0,0:0:0:100:4bm piano 077.ogg
320,192,79616,1,0,0:0:0:0:
192,192,79724,1,0,0:0:0:100:4bm piano 078.ogg
64,192,79831,1,0,0:0:0:100:4bm piano 079.ogg
320,192,79938,1,0,0:0:0:100:3bm Drum Kick.ogg
448,192,79938,1,0,0:0:0:100:4bm piano 080.ogg
320,192,80045,1,0,0:0:0:100:4bm piano 081.ogg
64,192,80152,1,0,0:0:0:100:3bm Drum Kick.ogg
192,192,80152,1,0,0:0:0:100:4bm piano 082.ogg
192,192,80259,1,0,0:0:0:100:4bm piano 083.ogg
64,192,80366,1,0,0:0:0:100:3bm Drum Clap.ogg
320,192,80366,1,0,0:0:0:100:3bm Drum Kick.ogg
448,192,80366,1,0,0:0:0:100:4bm piano 084.ogg
320,192,80474,1,0,0:0:0:100:4bm piano 085 to 087.ogg
64,192,80581,1,0,0:0:0:100:3bm Drum Kick.ogg
448,192,80581,1,0,0:0:0:70:4bm piano 085 to 087.ogg
192,192,80688,128,0,80795:0:0:0:100:4bm piano 085 to 087.ogg
320,192,80768,1,0,0:0:0:0:
64,192,80795,1,0,0:0:0:100:3bm Drum Kick.ogg
448,192,80795,1,0,0:0:0:100:4bm piano 088.ogg
192,192,80866,1,0,0:0:0:100:4bm piano 089 to 090.ogg
320,192,80902,1,0,0:0:0:0:
448,192,80938,1,0,0:0:0:100:4bm piano 089 to 090.ogg
64,192,81009,1,0,0:0:0:100:3bm Drum Kick.ogg
192,192,81081,1,0,0:0:0:100:4bm piano 092.ogg
448,192,81116,1,0,0:0:0:0:
320,192,81152,1,0,0:0:0:100:4bm piano 093.ogg
64,192,81224,1,0,0:0:0:100:3bm Drum Clap.ogg
192,192,81224,1,0,0:0:0:100:4bm piano 094.ogg
448,192,81295,1,0,0:0:0:100:4bm piano 095.ogg
320,192,81331,1,0,0:0:0:100:3bm Drum Clap.ogg
64,192,81366,1,0,0:0:0:100:4bm piano 096.ogg
192,192,81438,1,0,0:0:0:100:3bm Drum Clap.ogg
64,192,81509,1,0,0:0:0:100:4bm piano 098.ogg
448,192,81545,1,0,0:0:0:100:3bm Drum Clap.ogg
320,192,81581,1,0,0:0:0:100:4bm piano 099.ogg
64,192,81652,128,0,81759:0:0:0:95:3bm Closing Hihats.ogg
192,192,81652,128,0,81759:0:0:0:100:4bm piano 100.ogg
448,192,81652,1,0,0:0:0:0:
64,192,81866,1,0,0:0:0:100:4bm piano 102.ogg
192,192,81974,128,0,82081:0:0:0:95:3bm Closing Hihats.ogg
320,192,81974,128,0,82081:0:0:0:100:4bm piano 103.ogg
448,192,81974,1,0,0:0:0:0:
192,192,82188,1,0,0:0:0:70:4bm piano 106.ogg
64,192,82295,1,0,0:0:0:100:5bm final Reverse Cymbals.ogg
320,192,82295,128,0,82402:0:0:0:100:4bm piano 108.ogg
448,192,82295,128,0,82402:0:0:0:0:
64,192,82509,1,0,0:0:0:70:3bm Crash Cymbals.ogg
192,192,82509,1,0,0:0:0:100:3bm Drum Kick.ogg
448,192,82509,1,0,0:0:0:0:
192,192,82616,1,0,0:0:0:0:
320,192,82724,1,0,0:0:0:100:5bm piano 001.ogg
448,192,82724,1,0,0:0:0:0:
64,192,82831,1,0,0:0:0:0:
192,192,82938,1,0,0:0:0:100:3bm Drum Clap.ogg
320,192,82938,1,0,0:0:0:0:
448,192,82938,1,0,0:0:0:0:
64,192,83045,1,0,0:0:0:100:5bm piano 001.ogg
448,192,83045,1,0,0:0:0:0:
192,192,83152,1,0,0:0:0:0:
320,192,83259,1,0,0:0:0:100:5bm piano 002.ogg
448,192,83259,1,0,0:0:0:0:
64,192,83366,1,0,0:0:0:100:3bm Drum Kick.ogg
192,192,83366,1,0,0:0:0:0:
448,192,83474,1,0,0:0:0:0:
64,192,83581,1,0,0:0:0:100:5bm piano 001.ogg
320,192,83581,1,0,0:0:0:0:
192,192,83688,1,0,0:0:0:0:
448,192,83688,1,0,0:0:0:0:
64,192,83795,1,0,0:0:0:100:3bm Drum Clap.ogg
192,192,83795,1,0,0:0:0:100:5bm piano 003.ogg
320,192,83795,1,0,0:0:0:0:
64,192,83902,1,0,0:0:0:100:5bm piano 001.ogg
448,192,83902,1,0,0:0:0:0:
192,192,84009,1,0,0:0:0:0:
320,192,84116,1,0,0:0:0:100:5bm piano 004.ogg
448,192,84116,1,0,0:0:0:0:
64,192,84224,1,0,0:0:0:100:3bm Drum Kick.ogg
320,192,84224,1,0,0:0:0:0:
192,192,84331,1,0,0:0:0:0:
320,192,84438,1,0,0:0:0:100:5bm piano 005.ogg
448,192,84438,1,0,0:0:0:0:
192,192,84545,1,0,0:0:0:100:5bm piano 006.ogg
320,192,84545,1,0,0:0:0:0:
64,192,84652,1,0,0:0:0:100:3bm Drum Clap.ogg
192,192,84652,1,0,0:0:0:0:
448,192,84652,1,0,0:0:0:0:
320,192,84759,1,0,0:0:0:100:5bm piano 007.ogg
448,192,84759,1,0,0:0:0:0:
64,192,84866,1,0,0:0:0:0:
192,192,84974,1,0,0:0:0:0:
320,192,85081,1,0,0:0:0:100:3bm Drum Kick.ogg
448,192,85081,1,0,0:0:0:100:5bm piano 008 009 011.ogg
320,192,85188,1,0,0:0:0:0:
64,192,85295,1,0,0:0:0:100:5bm piano 008 009 011.ogg
192,192,85295,1,0,0:0:0:0:
192,192,85402,1,0,0:0:0:100:5bm piano 010.ogg
448,192,85402,1,0,0:0:0:0:
64,192,85509,1,0,0:0:0:100:3bm Drum Clap.ogg
320,192,85509,1,0,0:0:0:0:
448,192,85509,1,0,0:0:0:0:
192,192,85616,1,0,0:0:0:100:5bm piano 008 009 011.ogg
320,192,85616,1,0,0:0:0:0:
448,192,85724,1,0,0:0:0:0:
64,192,85831,1,0,0:0:0:100:5bm piano 008 009 011.ogg
192,192,85938,1,0,0:0:0:100:3bm Drum Kick.ogg
320,192,85938,1,0,0:0:0:70:3bm Crash Cymbals.ogg
448,192,85938,1,0,0:0:0:100:5bm piano 013.ogg
448,192,86045,1,0,0:0:0:0:
64,192,86152,1,0,0:0:0:100:5bm piano 014.ogg
192,192,86152,1,0,0:0:0:0:
64,192,86259,1,0,0:0:0:0:
192,192,86366,1,0,0:0:0:100:3bm Drum Clap.ogg
320,192,86366,1,0,0:0:0:0:
448,192,86366,1,0,0:0:0:0:
64,192,86474,1,0,0:0:0:100:5bm piano 015.ogg
320,192,86474,1,0,0:0:0:0:
192,192,86581,1,0,0:0:0:100:5bm piano 016.ogg
448,192,86688,1,0,0:0:0:100:5bm piano 017.ogg
192,192,86795,1,0,0:0:0:100:3bm Drum Kick.ogg
320,192,86795,1,0,0:0:0:0:
64,192,86902,1,0,0:0:0:100:5bm piano 018.ogg
448,192,86902,1,0,0:0:0:0:
64,192,87009,1,0,0:0:0:100:5bm piano 017.ogg
320,192,87116,1,0,0:0:0:100:5bm piano 016.ogg
64,192,87224,1,0,0:0:0:100:3bm Drum Clap.ogg
192,192,87224,1,0,0:0:0:0:
448,192,87224,1,0,0:0:0:0:
192,192,87331,1,0,0:0:0:100:5bm piano 016.ogg
448,192,87438,1,0,0:0:0:100:5bm piano 019.ogg
320,192,87545,1,0,0:0:0:100:5bm piano 016.ogg
64,192,87652,1,0,0:0:0:100:3bm Drum Kick.ogg
448,192,87652,1,0,0:0:0:0:
64,192,87759,1,0,0:0:0:100:5bm piano 018.ogg
192,192,87759,1,0,0:0:0:0:
320,192,87866,1,0,0:0:0:100:5bm piano 016.ogg
64,192,87974,1,0,0:0:0:100:5bm piano 020.ogg
192,192,88081,1,0,0:0:0:100:3bm Drum Clap.ogg
320,192,88081,1,0,0:0:0:100:5bm piano 021.ogg
448,192,88081,1,0,0:0:0:0:
64,192,88188,1,0,0:0:0:100:5bm piano 015.ogg
448,192,88188,1,0,0:0:0:0:
64,192,88295,1,0,0:0:0:100:5bm piano 016.ogg
320,192,88295,1,0,0:0:0:0:
192,192,88402,1,0,0:0:0:100:5bm piano 018.ogg
320,192,88474,1,0,0:0:0:100:5bm piano 022.ogg
64,192,88509,1,0,0:0:0:100:3bm Drum Kick.ogg
448,192,88509,1,0,0:0:0:0:
320,192,88581,1,0,0:0:0:100:5bm piano 023.ogg
192,192,88616,1,0,0:0:0:0:
64,192,88652,1,0,0:0:0:100:5bm piano 024.ogg
448,192,88724,1,0,0:0:0:100:3bm Drum Kick.ogg
192,192,88795,1,0,0:0:0:100:5bm piano 026.ogg
64,192,88831,1,0,0:0:0:0:
320,192,88866,1,0,0:0:0:100:5bm piano 027.ogg
192,192,88938,1,0,0:0:0:100:3bm Drum Clap.ogg
448,192,88938,1,0,0:0:0:100:5bm piano 028.ogg
64,192,89009,1,0,0:0:0:0:
320,192,89045,1,0,0:0:0:100:5bm piano 029.ogg
448,192,89081,1,0,0:0:0:0:
192,192,89152,1,0,0:0:0:100:3bm Drum Kick.ogg
320,192,89224,1,0,0:0:0:0:
64,192,89259,1,0,0:0:0:100:3bm Drum Kick.ogg
192,192,89295,1,0,0:0:0:0:
320,192,89366,1,0,0:0:0:100:3bm Drum Kick.ogg
448,192,89366,1,0,0:0:0:70:3bm Crash Cymbals.ogg
192,192,89474,1,0,0:0:0:0:
320,192,89581,1,0,0:0:0:100:5bm piano 001.ogg
448,192,89581,1,0,0:0:0:0:
64,192,89688,1,0,0:0:0:0:
192,192,89795,1,0,0:0:0:100:3bm Drum Clap.ogg
320,192,89795,1,0,0:0:0:0:
448,192,89795,1,0,0:0:0:0:
64,192,89902,1,0,0:0:0:100:5bm piano 001.ogg
448,192,89902,1,0,0:0:0:0:
192,192,90009,1,0,0:0:0:0:
320,192,90116,1,0,0:0:0:100:5bm piano 002.ogg
448,192,90116,1,0,0:0:0:0:
64,192,90224,1,0,0:0:0:100:3bm Drum Kick.ogg
192,192,90224,1,0,0:0:0:0:
448,192,90331,1,0,0:0:0:0:
64,192,90438,1,0,0:0:0:100:5bm piano 001.ogg
320,192,90438,1,0,0:0:0:0:
192,192,90545,1,0,0:0:0:0:
448,192,90545,1,0,0:0:0:0:
64,192,90652,1,0,0:0:0:100:3bm Drum Clap.ogg
192,192,90652,1,0,0:0:0:100:5bm piano 003.ogg
320,192,90652,1,0,0:0:0:0:
64,192,90759,1,0,0:0:0:100:5bm piano 001.ogg
448,192,90759,1,0,0:0:0:0:
192,192,90866,1,0,0:0:0:0:
320,192,90974,1,0,0:0:0:100:5bm piano 002.ogg
448,192,90974,1,0,0:0:0:0:
64,192,91081,1,0,0:0:0:100:3bm Drum Kick.ogg
320,192,91081,1,0,0:0:0:0:
64,192,91188,1,0,0:0:0:100:5bm piano 032.ogg
448,192,91188,1,0,0:0:0:0:
192,192,91295,1,0,0:0:0:0:
320,192,91402,1,0,0:0:0:0:
64,192,91509,1,0,0:0:0:100:3bm Drum Clap.ogg
192,192,91509,1,0,0:0:0:100:5bm piano 033.ogg
448,192,91509,1,0,0:0:0:0:
192,192,91616,1,0,0:0:0:100:5bm piano 034.ogg
320,192,91616,1,0,0:0:0:0:
64,192,91724,1,0,0:0:0:100:5bm piano 035.ogg
320,192,91724,1,0,0:0:0:0:
64,192,91831,1,0,0:0:0:100:5bm piano 036.ogg
448,192,91831,1,0,0:0:0:0:
192,192,91938,1,0,0:0:0:100:3bm Drum Kick.ogg
320,192,91938,1,0,0:0:0:0:
320,192,92045,1,0,0:0:0:0:
448,192,92045,1,0,0:0:0:0:
192,192,92152,1,0,0:0:0:100:5bm piano 038.ogg
448,192,92152,1,0,0:0:0:0:
64,192,92259,1,0,0:0:0:100:5bm piano 039.ogg
192,192,92259,1,0,0:0:0:0:
64,192,92366,1,0,0:0:0:100:3bm Drum Clap.ogg
320,192,92366,1,0,0:0:0:100:5bm piano 040.ogg
448,192,92366,1,0,0:0:0:0:
192,192,92474,1,0,0:0:0:100:5bm piano 041.ogg
448,192,92474,1,0,0:0:0:0:
64,192,92581,1,0,0:0:0:100:5bm piano 042.ogg
320,192,92581,1,0,0:0:0:0:
64,192,92688,1,0,0:0:0:100:5bm piano 043.ogg
192,192,92795,1,0,0:0:0:70:3bm Crash Cymbals.ogg
320,192,92795,1,0,0:0:0:100:3bm Drum Kick.ogg
448,192,92795,1,0,0:0:0:0:
64,192,92902,1,0,0:0:0:100:5bm piano 044.ogg
448,192,92902,1,0,0:0:0:0:
192,192,93009,1,0,0:0:0:100:5bm piano 045.ogg
320,192,93009,1,0,0:0:0:0:
64,192,93116,1,0,0:0:0:100:5bm piano 046.ogg
448,192,93116,1,0,0:0:0:0:
192,192,93224,1,0,0:0:0:100:3bm Drum Clap.ogg
320,192,93224,1,0,0:0:0:0:
448,192,93224,1,0,0:0:0:0:
64,192,93331,1,0,0:0:0:100:5bm piano 047.ogg
320,192,93331,1,0,0:0:0:0:
192,192,93438,1,0,0:0:0:0:
320,192,93545,1,0,0:0:0:100:5bm piano 048.ogg
448,192,93545,1,0,0:0:0:0:
64,192,93652,1,0,0:0:0:100:3bm Drum Kick.ogg
448,192,93652,1,0,0:0:0:0:
64,192,93759,1,0,0:0:0:0:
192,192,93759,1,0,0:0:0:0:
192,192,93866,1,0,0:0:0:100:5bm piano 048.ogg
448,192,93866,1,0,0:0:0:0:
320,192,93974,1,0,0:0:0:0:
64,192,94081,1,0,0:0:0:100:3bm Drum Clap.ogg
192,192,94081,1,0,0:0:0:0:
448,192,94081,1,0,0:0:0:0:
64,192,94188,1,0,0:0:0:100:5bm piano 049.ogg
320,192,94188,1,0,0:0:0:0:
448,192,94295,1,0,0:0:0:0:
192,192,94402,1,0,0:0:0:100:5bm piano 050.ogg
448,192,94402,1,0,0:0:0:0:
64,192,94474,1,0,0:0:0:0:
320,192,94509,1,0,0:0:0:100:3bm Drum Kick.ogg
192,192,94581,1,0,0:0:0:100:5bm piano 051.ogg
448,192,94652,1,0,0:0:0:100:5bm piano 052.ogg
64,192,94724,1,0,0:0:0:100:3bm Drum Kick.ogg
320,192,94724,1,0,0:0:0:100:5bm final Reverse Cymbals.ogg
192,192,94795,1,0,0:0:0:100:5bm piano 054.ogg
448,192,94866,1,0,0:0:0:100:5bm piano 055.ogg
64,192,94938,1,0,0:0:0:100:3bm Drum Clap.ogg
320,192,94938,1,0,0:0:0:100:5bm piano 056.ogg
64,192,95045,1,0,0:0:0:100:3bm Drum Kick.ogg
192,192,95045,1,0,0:0:0:100:5bm piano 057.ogg
320,192,95152,1,0,0:0:0:100:5bm final Reverse Cymbals.ogg
448,192,95152,1,0,0:0:0:100:5bm piano 058.ogg
192,192,95259,1,0,0:0:0:100:3bm Drum Kick.ogg
320,192,95259,1,0,0:0:0:100:5bm piano 059.ogg
64,192,95366,1,0,0:0:0:100:3bm Drum Kick.ogg
192,192,95366,1,0,0:0:0:0:
64,192,95474,1,0,0:0:0:100:3bm Drum Kick.ogg
192,192,95474,1,0,0:0:0:100:5bm piano 060.ogg
320,192,95581,1,0,0:0:0:100:3bm Drum Kick.ogg
448,192,95581,1,0,0:0:0:100:5bm piano 061.ogg
320,192,95688,1,0,0:0:0:100:3bm Drum Kick.ogg
448,192,95688,1,0,0:0:0:100:5bm piano 062.ogg
64,192,95795,1,0,0:0:0:100:3bm Drum Kick.ogg
192,192,95795,1,0,0:0:0:100:5bm piano 063.ogg
64,192,95902,1,0,0:0:0:100:3bm Drum Kick.ogg
192,192,95902,1,0,0:0:0:100:5bm piano 064.ogg
320,192,96009,1,0,0:0:0:100:3bm Drum Kick.ogg
448,192,96009,1,0,0:0:0:0:
64,192,96116,1,0,0:0:0:100:3bm Drum Kick.ogg
320,192,96116,1,0,0:0:0:0:
64,192,96224,1,0,0:0:0:70:3bm Crash Cymbals.ogg
192,192,96224,1,0,0:0:0:100:3bm Drum Kick.ogg
448,192,96224,1,0,0:0:0:0:
192,192,96331,1,0,0:0:0:0:
320,192,96438,1,0,0:0:0:100:5bm piano 001.ogg
448,192,96438,1,0,0:0:0:0:
64,192,96545,1,0,0:0:0:0:
192,192,96652,1,0,0:0:0:100:3bm Drum Clap.ogg
320,192,96652,1,0,0:0:0:0:
448,192,96652,1,0,0:0:0:0:
64,192,96759,1,0,0:0:0:100:5bm piano 001.ogg
448,192,96759,1,0,0:0:0:0:
192,192,96866,1,0,0:0:0:0:
320,192,96974,1,0,0:0:0:100:5bm piano 002.ogg
448,192,96974,1,0,0:0:0:0:
64,192,97081,1,0,0:0:0:100:3bm Drum Kick.ogg
192,192,97081,1,0,0:0:0:0:
448,192,97188,1,0,0:0:0:0:
64,192,97295,1,0,0:0:0:100:5bm piano 001.ogg
320,192,97295,1,0,0:0:0:0:
192,192,97402,1,0,0:0:0:0:
448,192,97402,1,0,0:0:0:0:
64,192,97509,1,0,0:0:0:100:5bm piano 003.ogg
192,192,97509,1,0,0:0:0:100:3bm Drum Clap.ogg
320,192,97509,1,0,0:0:0:0:
64,192,97616,1,0,0:0:0:100:5bm piano 001.ogg
448,192,97616,1,0,0:0:0:0:
192,192,97724,1,0,0:0:0:0:
320,192,97831,1,0,0:0:0:100:5bm piano 004.ogg
448,192,97831,1,0,0:0:0:0:
64,192,97938,1,0,0:0:0:100:3bm Drum Kick.ogg
320,192,97938,1,0,0:0:0:0:
192,192,98045,1,0,0:0:0:0:
320,192,98152,1,0,0:0:0:100:5bm piano 005.ogg
448,192,98152,1,0,0:0:0:0:
192,192,98259,1,0,0:0:0:100:5bm piano 006.ogg
320,192,98259,1,0,0:0:0:0:
64,192,98366,1,0,0:0:0:100:3bm Drum Clap.ogg
192,192,98366,1,0,0:0:0:0:
448,192,98366,1,0,0:0:0:0:
320,192,98474,1,0,0:0:0:100:5bm piano 007.ogg
448,192,98474,1,0,0:0:0:0:
64,192,98581,1,0,0:0:0:0:
192,192,98688,1,0,0:0:0:0:
320,192,98795,1,0,0:0:0:100:5bm piano 008 009 011.ogg
448,192,98795,1,0,0:0:0:100:3bm Drum Kick.ogg
320,192,98902,1,0,0:0:0:0:
64,192,99009,1,0,0:0:0:100:5bm piano 008 009 011.ogg
192,192,99009,1,0,0:0:0:0:
192,192,99116,1,0,0:0:0:100:5bm piano 010.ogg
448,192,99116,1,0,0:0:0:0:
64,192,99224,1,0,0:0:0:100:3bm Drum Clap.ogg
320,192,99224,1,0,0:0:0:0:
448,192,99224,1,0,0:0:0:0:
192,192,99331,1,0,0:0:0:100:5bm piano 008 009 011.ogg
320,192,99331,1,0,0:0:0:0:
448,192,99438,1,0,0:0:0:0:
64,192,99545,1,0,0:0:0:100:5bm piano 008 009 011.ogg
192,192,99652,1,0,0:0:0:100:5bm piano 013.ogg
320,192,99652,1,0,0:0:0:100:3bm Closing Hihats.ogg
448,192,99652,1,0,0:0:0:100:3bm Drum Kick.ogg
64,192,99759,1,0,0:0:0:0:
192,192,99866,1,0,0:0:0:100:3bm Closing Hihats.ogg
320,192,99866,1,0,0:0:0:100:3bm Drum Kick.ogg
448,192,99866,1,0,0:0:0:100:5bm piano 065.ogg
64,192,99974,1,0,0:0:0:100:5bm piano 066.ogg
320,192,100054,1,0,0:0:0:0:
192,192,100081,1,0,0:0:0:100:5bm piano 067.ogg
448,192,100081,1,0,0:0:0:0:
64,192,100188,1,0,0:0:0:100:3bm Closing Hihats.ogg
320,192,100188,1,0,0:0:0:100:3bm Drum Kick.ogg
192,192,100295,1,0,0:0:0:100:5bm piano 069.ogg
320,192,100402,1,0,0:0:0:100:3bm Drum Kick.ogg
448,192,100402,1,0,0:0:0:100:5bm piano 070.ogg
64,192,100482,1,0,0:0:0:0:
192,192,100509,1,0,0:0:0:100:3bm Closing Hihats.ogg
448,192,100509,1,0,0:0:0:100:3bm Drum Kick.ogg
320,192,100616,1,0,0:0:0:100:5bm piano 072.ogg
320,192,100724,1,0,0:0:0:100:5bm piano 072.ogg
64,192,100831,1,0,0:0:0:100:3bm Closing Hihats.ogg
192,192,100831,1,0,0:0:0:100:3bm Drum Kick.ogg
448,192,100831,1,0,0:0:0:100:5bm piano 073.ogg
320,192,100938,1,0,0:0:0:0:
64,192,101045,1,0,0:0:0:100:3bm Closing Hihats.ogg
192,192,101045,1,0,0:0:0:100:3bm Drum Kick.ogg
448,192,101045,1,0,0:0:0:100:5bm piano 072.ogg
448,192,101152,1,0,0:0:0:100:3bm Closing Hihats.ogg
64,192,101259,1,0,0:0:0:0:
64,192,101366,1,0,0:0:0:100:3bm Closing Hihats.ogg
320,192,101366,1,0,0:0:0:100:3bm Drum Kick.ogg
448,192,101366,1,0,0:0:0:0:
192,192,101474,1,0,0:0:0:100:5bm piano 074.ogg
192,192,101581,1,0,0:0:0:100:3bm Closing Hihats.ogg
320,192,101581,1,0,0:0:0:100:3bm Drum Kick.ogg
448,192,101581,1,0,0:0:0:100:5bm piano 075.ogg
320,192,101688,1,0,0:0:0:100:5bm piano 075.ogg
320,192,101795,1,0,0:0:0:100:3bm Closing Hihats.ogg
192,192,101795,1,0,0:0:0:100:3bm Drum Kick.ogg
64,192,101795,1,0,0:0:0:100:5bm piano 075.ogg
320,192,101902,1,0,0:0:0:100:5bm piano 075.ogg
448,192,102009,1,0,0:0:0:100:3bm Drum Kick.ogg
192,192,102009,1,0,0:0:0:100:5bm piano 076.ogg
64,192,102009,1,0,0:0:0:0:
64,192,102116,1,0,0:0:0:100:3bm Drum Kick.ogg
192,192,102116,1,0,0:0:0:100:5bm piano 075.ogg
320,192,102224,1,0,0:0:0:100:3bm Closing Hihats.ogg
448,192,102224,1,0,0:0:0:100:3bm Drum Kick.ogg
64,192,102277,1,0,0:0:0:0:
192,192,102331,1,0,0:0:0:0:
448,192,102384,1,0,0:0:0:0:
320,192,102438,1,0,0:0:0:0:
192,192,102491,1,0,0:0:0:0:
64,192,102545,1,0,0:0:0:100:3bm Drum Kick.ogg
448,192,102545,1,0,0:0:0:100:3bm Closing Hihats.ogg
320,192,102599,1,0,0:0:0:0:
192,192,102652,1,0,0:0:0:0:
64,192,102706,1,0,0:0:0:0:
320,192,102759,1,0,0:0:0:0:
448,192,102813,1,0,0:0:0:0:
64,192,102866,1,0,0:0:0:100:3bm Closing Hihats.ogg
192,192,102866,1,0,0:0:0:100:3bm Drum Kick.ogg
320,192,102920,1,0,0:0:0:0:
448,192,102974,1,0,0:0:0:0:
192,192,103027,1,0,0:0:0:0:
64,192,103081,1,0,0:0:0:70:3bm Crash Cymbals.ogg
320,192,103081,1,0,0:0:0:100:5bm piano 080.ogg
448,192,103081,1,0,0:0:0:100:3bm Drum Kick.ogg
192,192,103188,1,0,0:0:0:0:
320,192,103295,1,0,0:0:0:0:
64,192,103402,1,0,0:0:0:0:
320,192,103509,1,0,0:0:0:0:
448,192,103509,1,0,0:0:0:0:
64,192,103616,1,0,0:0:0:0:
192,192,103697,1,0,0:0:0:0:
320,192,103724,1,0,0:0:0:100:5bm piano 081.ogg
448,192,103750,1,0,0:0:0:0:
64,192,103831,1,0,0:0:0:0:
448,192,103938,1,0,0:0:0:0:
192,192,104045,1,0,0:0:0:0:
320,192,104152,1,0,0:0:0:0:
64,192,104259,1,0,0:0:0:0:
448,192,104340,1,0,0:0:0:0:
320,192,104366,1,0,0:0:0:100:5bm piano 082.ogg
192,192,104393,1,0,0:0:0:0:
448,192,104474,1,0,0:0:0:0:
192,192,104581,1,0,0:0:0:100:3bm Drum Kick.ogg
320,192,104581,1,0,0:0:0:0:
320,192,104688,1,0,0:0:0:0:
64,192,104795,1,0,0:0:0:100:5bm piano 083.ogg
192,192,104795,1,0,0:0:0:100:3bm Drum Kick.ogg
448,192,104795,1,0,0:0:0:100:3bm Closing Hihats.ogg
192,192,104902,1,0,0:0:0:0:
64,192,105009,1,0,0:0:0:100:3bm Drum Kick.ogg
448,192,105009,1,0,0:0:0:0:
192,192,105116,1,0,0:0:0:100:5bm piano 084.ogg
448,192,105116,1,0,0:0:0:0:
64,192,105224,1,0,0:0:0:100:3bm Drum Kick.ogg
320,192,105224,1,0,0:0:0:0:
448,192,105331,1,0,0:0:0:0:
64,192,105411,1,0,0:0:0:0:
192,192,105438,1,0,0:0:0:100:5bm piano 085.ogg
320,192,105465,1,0,0:0:0:0:
448,192,105545,1,0,0:0:0:0:
64,192,105652,1,0,0:0:0:100:3bm Drum Kick.ogg
192,192,105652,1,0,0:0:0:0:
320,192,105706,1,0,0:0:0:0:
448,192,105759,1,0,0:0:0:0:
192,192,105813,1,0,0:0:0:0:
320,192,105866,1,0,0:0:0:100:5bm piano 086.ogg
64,192,105866,1,0,0:0:0:100:3bm Drum Kick.ogg
448,192,105920,1,0,0:0:0:0:
192,192,105974,1,0,0:0:0:0:
64,192,106027,1,0,0:0:0:0:
448,192,106081,1,0,0:0:0:100:5bm piano 087.ogg
320,192,106081,1,0,0:0:0:100:3bm Drum Kick.ogg
64,192,106134,1,0,0:0:0:0:
192,192,106188,1,0,0:0:0:100:5bm piano 088.ogg
448,192,106241,1,0,0:0:0:0:
64,192,106295,1,0,0:0:0:100:5bm piano 089.ogg
320,192,106295,1,0,0:0:0:100:3bm Drum Kick.ogg
192,192,106349,1,0,0:0:0:0:
320,192,106402,1,0,0:0:0:100:5bm piano 090.ogg
448,192,106456,1,0,0:0:0:0:
192,192,106509,1,0,0:0:0:100:3bm Drum Kick.ogg
64,192,106509,1,0,0:0:0:40:3bm Crash Cymbals.ogg
320,192,106570,1,0,0:0:0:0:
448,192,106632,1,0,0:0:0:0:
192,192,106693,1,0,0:0:0:0:
64,192,106754,1,0,0:0:0:0:
448,192,106815,1,0,0:0:0:0:
192,192,106877,1,0,0:0:0:0:
64,192,106938,1,0,0:0:0:0:
320,192,106999,1,0,0:0:0:0:
448,192,107060,1,0,0:0:0:0:
192,192,107121,1,0,0:0:0:0:
320,192,107183,1,0,0:0:0:0:
448,192,107244,1,0,0:0:0:0:
64,192,107305,1,0,0:0:0:0:
192,192,107366,1,0,0:0:0:50:6bm ASaw Leed Low F.ogg
448,192,107366,1,0,0:0:0:0:
448,192,107474,1,0,0:0:0:50:6bm ASaw Leed Low F.ogg
448,192,107581,1,0,0:0:0:50:6bm ASaw Leed Low F.ogg
448,192,107688,1,0,0:0:0:50:6bm ASaw Leed Low F.ogg
64,192,107795,1,0,0:0:0:50:6bm ASaw Leed Low F.ogg
64,192,107902,1,0,0:0:0:50:6bm ASaw Leed Low F.ogg
64,192,108009,1,0,0:0:0:50:6bm ASaw Leed Low F.ogg
64,192,108116,1,0,0:0:0:50:6bm ASaw Leed Low F.ogg
192,192,108224,1,0,0:0:0:70:6bm Leed F sound Bass.ogg
320,192,108224,1,0,0:0:0:40:3bm Crash Cymbals.ogg
320,192,108545,1,0,0:0:0:70:6bm Leed F sound Bass.ogg
192,192,108545,1,0,0:0:0:0:
64,192,108599,1,0,0:0:0:0:
320,192,108652,1,0,0:0:0:0:
448,192,108706,1,0,0:0:0:0:
192,192,108759,1,0,0:0:0:0:
320,192,108813,1,0,0:0:0:0:
448,192,108866,1,0,0:0:0:70:6bm Leed F sound Bass.ogg
64,192,108920,1,0,0:0:0:0:
192,192,108974,1,0,0:0:0:0:
448,192,109027,1,0,0:0:0:0:
64,192,109081,1,0,0:0:0:50:6bm ASaw Leed Lower F.ogg
320,192,109081,1,0,0:0:0:0:
64,192,109188,1,0,0:0:0:50:6bm ASaw Leed Lower F.ogg
64,192,109295,1,0,0:0:0:50:6bm ASaw Leed Lower F.ogg
64,192,109402,1,0,0:0:0:50:6bm ASaw Leed Lower F.ogg
192,192,109509,128,0,109938:0:0:0:50:6bm ASaw Leed Low C.ogg
448,192,109509,1,0,0:0:0:0:
448,192,109616,1,0,0:0:0:0:
448,192,109724,1,0,0:0:0:0:
448,192,109831,1,0,0:0:0:0:
320,192,109938,1,0,0:0:0:50:6bm ASaw Leed Lower F Longer.ogg
64,192,109938,1,0,0:0:0:100:3bm Drum Kick.ogg
448,192,109999,1,0,0:0:0:0:
192,192,110060,1,0,0:0:0:0:
64,192,110121,1,0,0:0:0:0:
320,192,110183,1,0,0:0:0:0:
448,192,110244,1,0,0:0:0:0:
64,192,110305,1,0,0:0:0:0:
448,192,110366,1,0,0:0:0:50:6bm ASaw Leed Low F 3sep.ogg
320,192,110366,1,0,0:0:0:0:
192,192,110402,1,0,0:0:0:0:
320,192,110500,1,0,0:0:0:0:
448,192,110527,1,0,0:0:0:0:
320,192,110634,1,0,0:0:0:0:
192,192,110661,1,0,0:0:0:0:
64,192,110759,1,0,0:0:0:0:
192,192,110795,1,0,0:0:0:0:
320,192,110795,128,0,111009:0:0:0:0:
448,192,110902,128,0,111009:0:0:0:45:6bm Leed Melody 001.ogg
64,192,111009,128,0,111545:0:0:0:45:6bm Leed Melody 002.ogg
192,192,111116,128,0,111224:0:0:0:0:
320,192,111224,128,0,111438:0:0:0:45:6bm Leed Melody 003.ogg
192,192,111331,128,0,111545:0:0:0:0:
448,192,111438,128,0,111652:0:0:0:45:6bm Leed Melody 004.ogg
320,192,111545,128,0,111652:0:0:0:45:6bm Leed Melody 003.ogg
64,192,111652,1,0,0:0:0:100:3bm Drum Kick.ogg
192,192,111652,1,0,0:0:0:40:3bm Crash Cymbals.ogg
64,192,111759,1,0,0:0:0:0:
192,192,111866,1,0,0:0:0:100:3bm Drum Clap.ogg
448,192,111866,1,0,0:0:0:45:6bm Leed Melody 005.ogg
64,192,112081,1,0,0:0:0:100:3bm Drum Kick.ogg
192,192,112081,1,0,0:0:0:45:6bm Leed Melody 005.ogg
192,192,112188,1,0,0:0:0:100:3bm Drum Kick.ogg
448,192,112188,1,0,0:0:0:45:6bm Leed Melody 005.ogg
64,192,112295,1,0,0:0:0:100:3bm Drum Clap.ogg
448,192,112295,1,0,0:0:0:45:6bm Leed Melody 005.ogg
64,192,112509,1,0,0:0:0:100:3bm Drum Kick.ogg
192,192,112509,1,0,0:0:0:0:
448,192,112570,1,0,0:0:0:0:
320,192,112632,1,0,0:0:0:0:
192,192,112693,1,0,0:0:0:0:
448,192,112754,1,0,0:0:0:0:
64,192,112815,1,0,0:0:0:0:
192,192,112877,1,0,0:0:0:0:
320,192,112938,1,0,0:0:0:45:6bm Leed Melody 006.ogg
64,192,112938,1,0,0:0:0:0:
448,192,112974,1,0,0:0:0:0:
320,192,113081,1,0,0:0:0:0:
192,192,113116,1,0,0:0:0:0:
320,192,113224,1,0,0:0:0:0:
448,192,113259,1,0,0:0:0:45:6bm Leed Melody 007.ogg
64,192,113366,1,0,0:0:0:100:3bm Drum Kick.ogg
192,192,113366,1,0,0:0:0:40:3bm Crash Cymbals.ogg
320,192,113428,1,0,0:0:0:0:
448,192,113489,1,0,0:0:0:0:
192,192,113550,1,0,0:0:0:0:
64,192,113611,1,0,0:0:0:0:
448,192,113672,1,0,0:0:0:0:
192,192,113734,1,0,0:0:0:0:
64,192,113795,1,0,0:0:0:0:
320,192,113856,1,0,0:0:0:0:
448,192,113917,1,0,0:0:0:0:
192,192,113979,1,0,0:0:0:0:
320,192,114040,1,0,0:0:0:0:
448,192,114101,1,0,0:0:0:0:
64,192,114162,1,0,0:0:0:0:
192,192,114224,1,0,0:0:0:50:6bm ASaw Leed Low F 3sep.ogg
320,192,114224,1,0,0:0:0:0:
448,192,114250,1,0,0:0:0:0:
320,192,114357,1,0,0:0:0:0:
192,192,114384,1,0,0:0:0:0:
320,192,114491,1,0,0:0:0:0:
448,192,114518,1,0,0:0:0:0:
192,192,114625,1,0,0:0:0:0:
64,192,114652,1,0,0:0:0:50:6bm ASaw Leed Low F 3sep.ogg
192,192,114759,1,0,0:0:0:0:
320,192,114786,1,0,0:0:0:0:
192,192,114893,1,0,0:0:0:0:
64,192,114920,1,0,0:0:0:0:
448,192,115027,1,0,0:0:0:0:
64,192,115081,1,0,0:0:0:40:3bm Crash Cymbals.ogg
320,192,115081,1,0,0:0:0:50:6bm Leed EDM Short F.ogg
320,192,115188,1,0,0:0:0:50:6bm Leed EDM Short F.ogg
320,192,115295,1,0,0:0:0:50:6bm Leed EDM Short F.ogg
320,192,115402,1,0,0:0:0:50:6bm Leed EDM Short F.ogg
64,192,115509,1,0,0:0:0:70:6bm Leed F sound Bass.ogg
192,192,115509,1,0,0:0:0:0:
448,192,115509,128,0,115938:0:0:0:0:
192,192,115616,1,0,0:0:0:0:
192,192,115724,1,0,0:0:0:0:
192,192,115831,1,0,0:0:0:0:
64,192,115938,1,0,0:0:0:100:3bm Drum Clap.ogg
320,192,115938,1,0,0:0:0:0:
320,192,116045,1,0,0:0:0:0:
192,192,116152,1,0,0:0:0:0:
448,192,116206,1,0,0:0:0:0:
64,192,116259,1,0,0:0:0:0:
192,192,116313,1,0,0:0:0:0:
320,192,116366,128,0,116688:0:0:0:35:6bm Leed G 8.ogg
192,192,116581,128,0,116688:0:0:0:35:6bm Leed F 16.ogg
448,192,116688,128,0,116795:0:0:0:35:6bm Last C 16.ogg
192,192,116795,1,0,0:0:0:70:6bm Leed F sound Bass.ogg
64,192,116795,1,0,0:0:0:40:3bm Crash Cymbals.ogg
320,192,117009,1,0,0:0:0:0:
448,192,117063,1,0,0:0:0:0:
64,192,117116,1,0,0:0:0:70:6bm Leed F sound Bass.ogg
192,192,117116,1,0,0:0:0:0:
320,192,117170,1,0,0:0:0:0:
448,192,117224,1,0,0:0:0:0:
64,192,117277,1,0,0:0:0:0:
192,192,117331,1,0,0:0:0:0:
448,192,117384,1,0,0:0:0:0:
64,192,117438,1,0,0:0:0:70:6bm Leed F sound Bass.ogg
320,192,117438,1,0,0:0:0:0:
192,192,117491,1,0,0:0:0:0:
448,192,117545,1,0,0:0:0:0:
64,192,117599,1,0,0:0:0:0:
192,192,117652,1,0,0:0:0:100:3bm Drum Clap.ogg
320,192,117652,1,0,0:0:0:50:6bm ASaw Leed Low F.ogg
320,192,117795,1,0,0:0:0:50:6bm ASaw Leed Low F.ogg
448,192,117831,1,0,0:0:0:0:
320,192,117938,1,0,0:0:0:50:6bm ASaw Leed Low F.ogg
192,192,117974,1,0,0:0:0:0:
64,192,118081,1,0,0:0:0:50:6bm ASaw Leed Low F.ogg
64,192,118188,1,0,0:0:0:50:6bm ASaw Leed Low F.ogg
64,192,118295,1,0,0:0:0:50:6bm ASaw Leed Low F.ogg
64,192,118402,1,0,0:0:0:50:6bm ASaw Leed Low F.ogg
192,192,118509,1,0,0:0:0:100:3bm Drum Kick.ogg
320,192,118509,1,0,0:0:0:0:
192,192,118724,1,0,0:0:0:100:3bm Drum Clap.ogg
448,192,118724,1,0,0:0:0:45:6bm Last C 8.ogg
64,192,118938,1,0,0:0:0:100:3bm Drum Kick.ogg
448,192,118938,1,0,0:0:0:45:6bm Last C 16.ogg
64,192,119045,1,0,0:0:0:100:3bm Drum Kick.ogg
448,192,119045,1,0,0:0:0:45:6bm Last C 16.ogg
192,192,119152,1,0,0:0:0:100:3bm Drum Clap.ogg
448,192,119152,1,0,0:0:0:45:6bm Last C 8.ogg
448,192,119259,1,0,0:0:0:0:
192,192,119366,1,0,0:0:0:100:3bm Drum Kick.ogg
320,192,119366,1,0,0:0:0:45:6bm Last High F 16.ogg
192,192,119474,1,0,0:0:0:100:3bm Drum Kick.ogg
64,192,119527,1,0,0:0:0:0:
320,192,119581,1,0,0:0:0:100:3bm Drum Kick.ogg
448,192,119581,1,0,0:0:0:45:6bm Last High F 16.ogg
448,192,119688,1,0,0:0:0:100:3bm Drum Kick.ogg
64,192,119795,1,0,0:0:0:45:6bm Last High F 8.ogg
192,192,119795,1,0,0:0:0:0:
320,192,119831,1,0,0:0:0:0:
448,192,119866,1,0,0:0:0:0:
192,192,119902,1,0,0:0:0:0:
448,192,120009,1,0,0:0:0:45:6bm Last C 8.ogg
320,192,120045,1,0,0:0:0:0:
64,192,120081,1,0,0:0:0:0:
192,192,120116,1,0,0:0:0:0:
448,192,120152,1,0,0:0:0:0:
320,192,120188,1,0,0:0:0:0:
64,192,120224,1,0,0:0:0:100:2bm Drum Kick with Howling.ogg
192,192,120224,1,0,0:0:0:100:7bm Bell 001.ogg
448,192,120438,1,0,0:0:0:0:
320,192,120652,1,0,0:0:0:100:7bm Bell 002.ogg
192,192,120866,1,0,0:0:0:100:7bm Bell 003.ogg
448,192,120866,1,0,0:0:0:0:
64,192,121081,1,0,0:0:0:100:7bm Bell 001.ogg
192,192,121295,1,0,0:0:0:0:
448,192,121509,1,0,0:0:0:100:7bm Bell 004.ogg
320,192,121724,1,0,0:0:0:100:7bm Bell 005.ogg
64,192,121938,1,0,0:0:0:100:7bm Bell 001.ogg
448,192,121938,1,0,0:0:0:0:
192,192,122152,1,0,0:0:0:0:
320,192,122366,1,0,0:0:0:100:7bm Bell 001.ogg
64,192,122581,1,0,0:0:0:0:
192,192,122581,1,0,0:0:0:0:
448,192,122795,1,0,0:0:0:100:7bm Bell 006.ogg
192,192,122982,1,0,0:0:0:0:
320,192,123009,1,0,0:0:0:0:
64,192,123224,1,0,0:0:0:100:7bm Bell 007.ogg
320,192,123438,1,0,0:0:0:100:7bm Bell 008.ogg
192,192,123625,1,0,0:0:0:0:
448,192,123652,1,0,0:0:0:100:7bm Bell 009.ogg
64,192,123866,1,0,0:0:0:0:
192,192,124081,1,0,0:0:0:100:7bm Bell 002.ogg
64,192,124295,1,0,0:0:0:0:
448,192,124295,1,0,0:0:0:0:
320,192,124509,1,0,0:0:0:100:7bm Bell 001.ogg
64,192,124724,1,0,0:0:0:0:
448,192,124938,1,0,0:0:0:100:7bm Bell 004.ogg
192,192,125152,1,0,0:0:0:0:
64,192,125366,1,0,0:0:0:100:7bm Bell 002.ogg
320,192,125366,1,0,0:0:0:0:
192,192,125581,1,0,0:0:0:0:
320,192,125795,1,0,0:0:0:100:7bm Bell 001.ogg
448,192,126009,1,0,0:0:0:0:
64,192,126224,1,0,0:0:0:100:7bm Bell 006.ogg
192,192,126652,1,0,0:0:0:100:7bm Bell 007.ogg
448,192,126866,1,0,0:0:0:0:
64,192,127081,1,0,0:0:0:100:7bm Bell 001.ogg
320,192,127081,1,0,0:0:0:0:
192,192,127295,1,0,0:0:0:0:
320,192,127509,1,0,0:0:0:100:7bm Bell 002.ogg
192,192,127724,1,0,0:0:0:100:7bm Bell 003.ogg
448,192,127724,1,0,0:0:0:0:
320,192,127938,1,0,0:0:0:100:7bm Bell 001.ogg
64,192,128152,1,0,0:0:0:0:
192,192,128152,1,0,0:0:0:0:
448,192,128366,1,0,0:0:0:100:7bm Bell 004.ogg
192,192,128554,1,0,0:0:0:0:
320,192,128581,1,0,0:0:0:100:7bm Bell 005.ogg
64,192,128795,1,0,0:0:0:100:7bm Bell 002.ogg
448,192,128795,1,0,0:0:0:0:
320,192,129009,1,0,0:0:0:0:
192,192,129116,1,0,0:0:0:100:7bm Bell 003.ogg
64,192,129224,1,0,0:0:0:100:7bm Bell 001.ogg
192,192,129438,1,0,0:0:0:0:
448,192,129438,1,0,0:0:0:0:
320,192,129652,1,0,0:0:0:100:7bm Bell 006.ogg
448,192,129866,1,0,0:0:0:0:
64,192,130081,1,0,0:0:0:100:7bm Bell 007.ogg
320,192,130295,1,0,0:0:0:0:
64,192,130509,1,0,0:0:0:100:7bm Bell 009.ogg
448,192,130509,1,0,0:0:0:0:
192,192,130724,1,0,0:0:0:0:
448,192,130938,1,0,0:0:0:100:7bm Bell 002.ogg
64,192,131152,1,0,0:0:0:0:
320,192,131152,1,0,0:0:0:0:
192,192,131366,1,0,0:0:0:100:7bm Bell 001.ogg
64,192,131581,1,0,0:0:0:0:
448,192,131795,1,0,0:0:0:100:7bm Bell 004.ogg
64,192,132009,1,0,0:0:0:0:
192,192,132224,1,0,0:0:0:100:7bm Bell 002.ogg
320,192,132224,1,0,0:0:0:0:
64,192,132438,1,0,0:0:0:0:
320,192,132652,1,0,0:0:0:100:7bm Bell 001.ogg
192,192,132866,1,0,0:0:0:0:
448,192,133081,1,0,0:0:0:100:7bm Bell 006.ogg
320,192,133509,1,0,0:0:0:100:7bm Bell 009.ogg
64,192,133938,1,0,0:0:0:100:2bm Drum Kick.ogg
192,192,133938,128,0,134045:0:0:0:100:7bm Long Bell F.ogg
448,192,133938,1,0,0:0:0:0:
448,192,134366,1,0,0:0:0:0:
64,192,134795,1,0,0:0:0:100:2bm Drum Side Stick.ogg
320,192,134795,1,0,0:0:0:0:
192,192,135224,1,0,0:0:0:0:
192,192,135438,1,0,0:0:0:100:2bm Drum Kick.ogg
64,192,135438,1,0,0:0:0:0:
64,192,135652,128,0,135759:0:0:0:100:7bm Long Bell E.ogg
64,192,136081,1,0,0:0:0:100:2bm Drum Kick.ogg
192,192,136081,1,0,0:0:0:0:
192,192,136509,1,0,0:0:0:100:2bm Drum Side Stick.ogg
448,192,136509,1,0,0:0:0:0:
320,192,136938,1,0,0:0:0:0:
64,192,137366,1,0,0:0:0:100:2bm Drum Kick.ogg
448,192,137366,128,0,137474:0:0:0:70:7bm Long Bell High C.ogg
64,192,137795,1,0,0:0:0:0:
192,192,138224,1,0,0:0:0:100:2bm Drum Side Stick.ogg
448,192,138224,1,0,0:0:0:0:
448,192,138652,1,0,0:0:0:0:
320,192,138866,1,0,0:0:0:100:2bm Drum Kick.ogg
448,192,138866,1,0,0:0:0:0:
320,192,139081,128,0,139188:0:0:0:100:7bm Long Bell G.ogg
320,192,139509,1,0,0:0:0:100:2bm Drum Kick.ogg
448,192,139509,1,0,0:0:0:0:
64,192,139938,1,0,0:0:0:100:2bm Drum Side Stick.ogg
320,192,139938,1,0,0:0:0:0:
192,192,140366,1,0,0:0:0:0:
64,192,140795,1,0,0:0:0:100:2bm Drum Kick.ogg
192,192,140795,128,0,140902:0:0:0:100:7bm Long Bell F.ogg
448,192,141224,1,0,0:0:0:0:
192,192,141652,1,0,0:0:0:100:2bm Drum Side Stick.ogg
320,192,141652,1,0,0:0:0:0:
192,192,142081,1,0,0:0:0:0:
192,192,142295,1,0,0:0:0:100:2bm Drum Kick.ogg
64,192,142295,1,0,0:0:0:0:
64,192,142509,128,0,142616:0:0:0:100:7bm Long Bell E.ogg
64,192,142938,1,0,0:0:0:100:2bm Drum Kick.ogg
192,192,142938,1,0,0:0:0:0:
192,192,143366,1,0,0:0:0:100:2bm Drum Side Stick.ogg
448,192,143366,1,0,0:0:0:0:
320,192,143795,1,0,0:0:0:0:
64,192,144224,1,0,0:0:0:100:2bm Drum Kick.ogg
448,192,144224,128,0,144331:0:0:0:70:7bm Long Bell High C.ogg
64,192,144652,1,0,0:0:0:0:
192,192,145081,1,0,0:0:0:100:2bm Drum Side Stick.ogg
448,192,145081,1,0,0:0:0:0:
448,192,145509,1,0,0:0:0:0:
320,192,145724,1,0,0:0:0:100:2bm Drum Kick.ogg
448,192,145724,1,0,0:0:0:0:
320,192,145938,128,0,146045:0:0:0:100:7bm Long Bell G.ogg
320,192,146366,1,0,0:0:0:100:2bm Drum Kick.ogg
448,192,146366,1,0,0:0:0:0:
64,192,146795,1,0,0:0:0:100:2bm Drum Side Stick.ogg
320,192,146795,1,0,0:0:0:0:
192,192,147224,1,0,0:0:0:0:
64,192,147652,1,0,0:0:0:100:2bm Drum Kick with Howling.ogg
192,192,147652,128,0,147759:0:0:0:0:
320,192,147795,1,0,0:0:0:0:
448,192,147866,1,0,0:0:0:40:2bm Beep Leed High F.ogg
192,192,148081,1,0,0:0:0:40:2bm Beep Leed High E.ogg
448,192,148188,1,0,0:0:0:40:2bm Beep Leed High F.ogg
64,192,148295,1,0,0:0:0:0:
192,192,148295,1,0,0:0:0:0:
320,192,148402,1,0,0:0:0:40:2bm Beep Leed High D.ogg
192,192,148438,1,0,0:0:0:0:
64,192,148509,1,0,0:0:0:0:
320,192,148616,1,0,0:0:0:40:2bm Beep Leed High D.ogg
448,192,148652,1,0,0:0:0:0:
192,192,148724,1,0,0:0:0:40:2bm Beep Leed High C.ogg
64,192,148831,1,0,0:0:0:0:
320,192,148938,1,0,0:0:0:40:2bm Beep Leed High E.ogg
64,192,149045,1,0,0:0:0:0:
448,192,149152,1,0,0:0:0:40:2bm Beep Leed High F.ogg
320,192,149259,1,0,0:0:0:40:2bm Beep Leed High E.ogg
192,192,149295,1,0,0:0:0:0:
64,192,149366,128,0,149474:0:0:0:0:
320,192,149509,1,0,0:0:0:0:
448,192,149581,1,0,0:0:0:40:2bm Beep Leed High F.ogg
320,192,149795,1,0,0:0:0:40:2bm Beep Leed High E.ogg
192,192,149831,1,0,0:0:0:0:
64,192,149866,1,0,0:0:0:0:
448,192,149902,1,0,0:0:0:40:2bm Beep Leed High F.ogg
64,192,150009,1,0,0:0:0:0:
192,192,150081,1,0,0:0:0:0:
320,192,150116,1,0,0:0:0:40:2bm Beep Leed High D.ogg
448,192,150176,1,0,0:0:0:0:
64,192,150224,1,0,0:0:0:0:
320,192,150366,1,0,0:0:0:0:
192,192,150438,1,0,0:0:0:40:2bm Beep Leed High C.ogg
448,192,150438,1,0,0:0:0:0:
64,192,150545,1,0,0:0:0:0:
320,192,150652,1,0,0:0:0:40:2bm Beep Leed High E.ogg
192,192,150706,1,0,0:0:0:0:
64,192,150759,1,0,0:0:0:0:
320,192,150813,1,0,0:0:0:0:
448,192,150866,1,0,0:0:0:40:2bm Beep Leed High F.ogg
64,192,150974,1,0,0:0:0:40:2bm Beep Leed High E.ogg
448,192,151081,128,0,151188:0:0:0:0:
192,192,151107,1,0,0:0:0:0:
64,192,151188,1,0,0:0:0:0:
320,192,151215,1,0,0:0:0:0:
448,192,151295,1,0,0:0:0:40:2bm Beep Leed High F.ogg
192,192,151322,1,0,0:0:0:0:
64,192,151402,1,0,0:0:0:0:
320,192,151429,1,0,0:0:0:0:
192,192,151509,1,0,0:0:0:40:2bm Beep Leed High E.ogg
448,192,151616,1,0,0:0:0:40:2bm Beep Leed High F.ogg
64,192,151724,1,0,0:0:0:0:
192,192,151724,1,0,0:0:0:0:
320,192,151831,1,0,0:0:0:40:2bm Beep Leed High D.ogg
192,192,151866,1,0,0:0:0:0:
64,192,151938,1,0,0:0:0:0:
320,192,152045,1,0,0:0:0:40:2bm Beep Leed High D.ogg
448,192,152081,1,0,0:0:0:0:
64,192,152152,1,0,0:0:0:40:2bm Beep Leed High C.ogg
192,192,152206,1,0,0:0:0:0:
320,192,152259,1,0,0:0:0:0:
448,192,152366,1,0,0:0:0:40:2bm Beep Leed High E.ogg
64,192,152474,1,0,0:0:0:0:
448,192,152581,1,0,0:0:0:40:2bm Beep Leed High F.ogg
64,192,152688,1,0,0:0:0:40:2bm Beep Leed High E.ogg
192,192,152724,1,0,0:0:0:0:
320,192,152795,128,0,152902:0:0:0:0:
192,192,152938,1,0,0:0:0:0:
448,192,153009,1,0,0:0:0:40:2bm Beep Leed High F.ogg
320,192,153224,1,0,0:0:0:40:2bm Beep Leed High E.ogg
192,192,153259,1,0,0:0:0:0:
64,192,153295,1,0,0:0:0:0:
448,192,153331,1,0,0:0:0:40:2bm Beep Leed High F.ogg
64,192,153438,1,0,0:0:0:0:
192,192,153509,1,0,0:0:0:0:
320,192,153545,1,0,0:0:0:40:2bm Beep Leed High D.ogg
448,192,153604,1,0,0:0:0:0:
64,192,153652,1,0,0:0:0:0:
320,192,153759,1,0,0:0:0:40:2bm Beep Leed High D.ogg
448,192,153795,1,0,0:0:0:0:
192,192,153866,1,0,0:0:0:40:2bm Beep Leed High C.ogg
64,192,153974,1,0,0:0:0:0:
320,192,154081,1,0,0:0:0:40:2bm Beep Leed High E.ogg
192,192,154134,1,0,0:0:0:0:
64,192,154188,1,0,0:0:0:0:
320,192,154241,1,0,0:0:0:0:
448,192,154295,1,0,0:0:0:40:2bm Beep Leed High F.ogg
64,192,154402,1,0,0:0:0:40:2bm Beep Leed High E.ogg
320,192,154438,1,0,0:0:0:0:
192,192,154509,128,0,154616:0:0:0:0:
320,192,154652,1,0,0:0:0:0:
448,192,154724,1,0,0:0:0:40:2bm Beep Leed High F.ogg
192,192,154938,1,0,0:0:0:40:2bm Beep Leed High E.ogg
448,192,155045,1,0,0:0:0:40:2bm Beep Leed High F.ogg
64,192,155152,1,0,0:0:0:0:
192,192,155152,1,0,0:0:0:0:
320,192,155259,1,0,0:0:0:40:2bm Beep Leed High D.ogg
448,192,155295,1,0,0:0:0:0:
64,192,155366,1,0,0:0:0:0:
320,192,155474,1,0,0:0:0:40:2bm Beep Leed High D.ogg
448,192,155509,1,0,0:0:0:0:
192,192,155581,1,0,0:0:0:40:2bm Beep Leed High C.ogg
64,192,155688,1,0,0:0:0:0:
320,192,155795,1,0,0:0:0:40:2bm Beep Leed High E.ogg
64,192,155902,1,0,0:0:0:0:
448,192,156009,1,0,0:0:0:40:2bm Beep Leed High F.ogg
320,192,156116,1,0,0:0:0:40:2bm Beep Leed High E.ogg
192,192,156152,1,0,0:0:0:0:
64,192,156224,128,0,156331:0:0:0:0:
320,192,156366,1,0,0:0:0:0:
448,192,156438,1,0,0:0:0:40:2bm Beep Leed High F.ogg
320,192,156652,1,0,0:0:0:40:2bm Beep Leed High E.ogg
192,192,156688,1,0,0:0:0:0:
64,192,156724,1,0,0:0:0:0:
448,192,156759,1,0,0:0:0:40:2bm Beep Leed High F.ogg
64,192,156866,1,0,0:0:0:0:
192,192,156938,1,0,0:0:0:0:
320,192,156974,1,0,0:0:0:40:2bm Beep Leed High D.ogg
448,192,157033,1,0,0:0:0:0:
64,192,157081,1,0,0:0:0:0:
320,192,157188,1,0,0:0:0:40:2bm Beep Leed High D.ogg
448,192,157224,1,0,0:0:0:0:
192,192,157295,1,0,0:0:0:40:2bm Beep Leed High C.ogg
64,192,157402,1,0,0:0:0:0:
320,192,157509,1,0,0:0:0:40:2bm Beep Leed High E.ogg
192,192,157563,1,0,0:0:0:0:
64,192,157616,1,0,0:0:0:0:
320,192,157670,1,0,0:0:0:0:
448,192,157724,1,0,0:0:0:40:2bm Beep Leed High F.ogg
192,192,157831,1,0,0:0:0:40:2bm Beep Leed High E.ogg
320,192,157866,1,0,0:0:0:0:
64,192,157938,1,0,0:0:0:100:3bm Drum Kick.ogg
448,192,157938,128,0,158045:0:0:0:0:
320,192,158081,1,0,0:0:0:0:
448,192,158152,1,0,0:0:0:40:2bm Beep Leed High F.ogg
64,192,158366,1,0,0:0:0:40:2bm Beep Leed High E.ogg
192,192,158366,1,0,0:0:0:100:3bm Drum Kick.ogg
448,192,158474,1,0,0:0:0:40:2bm Beep Leed High F.ogg
64,192,158581,1,0,0:0:0:0:
320,192,158688,1,0,0:0:0:40:2bm Beep Leed High D.ogg
448,192,158724,1,0,0:0:0:0:
64,192,158795,1,0,0:0:0:100:3bm Drum Kick.ogg
320,192,158902,1,0,0:0:0:40:2bm Beep Leed High D.ogg
448,192,158938,1,0,0:0:0:0:
192,192,159009,1,0,0:0:0:40:2bm Beep Leed High C.ogg
64,192,159116,1,0,0:0:0:0:
192,192,159224,1,0,0:0:0:40:2bm Beep Leed High E.ogg
320,192,159224,1,0,0:0:0:100:3bm Drum Kick.ogg
64,192,159331,1,0,0:0:0:0:
448,192,159438,1,0,0:0:0:40:2bm Beep Leed High F.ogg
320,192,159545,1,0,0:0:0:40:2bm Beep Leed High E.ogg
192,192,159581,1,0,0:0:0:0:
64,192,159652,1,0,0:0:0:100:3bm Drum Kick.ogg
448,192,159652,128,0,159759:0:0:0:0:
320,192,159795,1,0,0:0:0:0:
448,192,159866,1,0,0:0:0:40:2bm Beep Leed High F.ogg
320,192,160081,1,0,0:0:0:40:2bm Beep Leed High E.ogg
448,192,160081,1,0,0:0:0:100:3bm Drum Kick.ogg
192,192,160116,1,0,0:0:0:0:
64,192,160152,1,0,0:0:0:0:
448,192,160188,1,0,0:0:0:40:2bm Beep Leed High F.ogg
64,192,160295,1,0,0:0:0:0:
192,192,160366,1,0,0:0:0:0:
320,192,160402,1,0,0:0:0:40:2bm Beep Leed High D.ogg
448,192,160462,1,0,0:0:0:0:
64,192,160509,1,0,0:0:0:100:3bm Drum Kick.ogg
192,192,160509,1,0,0:0:0:0:
320,192,160616,1,0,0:0:0:40:2bm Beep Leed High D.ogg
448,192,160652,1,0,0:0:0:0:
192,192,160724,1,0,0:0:0:40:2bm Beep Leed High C.ogg
64,192,160831,1,0,0:0:0:0:
320,192,160938,1,0,0:0:0:40:2bm Beep Leed High E.ogg
448,192,160938,1,0,0:0:0:100:3bm Drum Kick.ogg
192,192,160991,1,0,0:0:0:0:
64,192,161045,1,0,0:0:0:0:
320,192,161099,1,0,0:0:0:0:
448,192,161152,1,0,0:0:0:40:2bm Beep Leed High F.ogg
192,192,161259,1,0,0:0:0:40:2bm Beep Leed High E.ogg
64,192,161295,1,0,0:0:0:0:
320,192,161366,1,0,0:0:0:100:3bm Drum Kick.ogg
448,192,161366,128,0,161474:0:0:0:0:
192,192,161393,1,0,0:0:0:0:
64,192,161474,1,0,0:0:0:0:
320,192,161500,1,0,0:0:0:0:
448,192,161581,1,0,0:0:0:40:2bm Beep Leed High F.ogg
192,192,161607,1,0,0:0:0:0:
64,192,161688,1,0,0:0:0:0:
320,192,161715,1,0,0:0:0:0:
192,192,161795,1,0,0:0:0:40:2bm Beep Leed High E.ogg
448,192,161902,1,0,0:0:0:40:2bm Beep Leed High F.ogg
64,192,162009,1,0,0:0:0:0:
320,192,162116,1,0,0:0:0:40:2bm Beep Leed High D.ogg
448,192,162152,1,0,0:0:0:0:
64,192,162224,1,0,0:0:0:100:3bm Drum Kick.ogg
192,192,162224,1,0,0:0:0:0:
320,192,162331,1,0,0:0:0:40:2bm Beep Leed High D.ogg
448,192,162366,1,0,0:0:0:0:
192,192,162438,1,0,0:0:0:40:2bm Beep Leed High C.ogg
320,192,162491,1,0,0:0:0:0:
64,192,162545,1,0,0:0:0:0:
448,192,162545,1,0,0:0:0:0:
192,192,162652,1,0,0:0:0:40:2bm Beep Leed High E.ogg
320,192,162652,1,0,0:0:0:100:3bm Drum Kick.ogg
64,192,162759,1,0,0:0:0:0:
448,192,162866,1,0,0:0:0:40:2bm Beep Leed High F.ogg
320,192,162974,1,0,0:0:0:40:2bm Beep Leed High E.ogg
192,192,163009,1,0,0:0:0:0:
64,192,163081,1,0,0:0:0:100:3bm Drum Kick.ogg
448,192,163081,128,0,163188:0:0:0:0:
320,192,163224,1,0,0:0:0:0:
448,192,163295,1,0,0:0:0:40:2bm Beep Leed High F.ogg
320,192,163509,1,0,0:0:0:40:2bm Beep Leed High E.ogg
448,192,163509,1,0,0:0:0:100:3bm Drum Kick.ogg
192,192,163545,1,0,0:0:0:0:
64,192,163581,1,0,0:0:0:0:
448,192,163616,1,0,0:0:0:40:2bm Beep Leed High F.ogg
64,192,163724,1,0,0:0:0:0:
192,192,163795,1,0,0:0:0:0:
320,192,163831,1,0,0:0:0:40:2bm Beep Leed High D.ogg
448,192,163890,1,0,0:0:0:0:
64,192,163938,1,0,0:0:0:100:3bm Drum Kick.ogg
192,192,163938,1,0,0:0:0:0:
320,192,164045,1,0,0:0:0:40:2bm Beep Leed High D.ogg
448,192,164081,1,0,0:0:0:0:
192,192,164152,1,0,0:0:0:40:2bm Beep Leed High C.ogg
64,192,164259,1,0,0:0:0:0:
320,192,164366,1,0,0:0:0:40:2bm Beep Leed High E.ogg
448,192,164366,1,0,0:0:0:100:3bm Drum Kick.ogg
192,192,164420,1,0,0:0:0:0:
64,192,164474,1,0,0:0:0:0:
320,192,164527,1,0,0:0:0:0:
448,192,164581,1,0,0:0:0:40:2bm Beep Leed High F.ogg
320,192,164688,1,0,0:0:0:40:2bm Beep Leed High E.ogg
192,192,164724,1,0,0:0:0:0:
64,192,164795,1,0,0:0:0:0:
448,192,164795,128,0,164902:0:0:0:0:
320,192,164938,1,0,0:0:0:0:
448,192,165009,1,0,0:0:0:40:2bm Beep Leed High F.ogg
192,192,165224,1,0,0:0:0:40:2bm Beep Leed High E.ogg
320,192,165224,1,0,0:0:0:0:
448,192,165331,1,0,0:0:0:40:2bm Beep Leed High F.ogg
64,192,165438,1,0,0:0:0:0:
320,192,165545,1,0,0:0:0:40:2bm Beep Leed High D.ogg
448,192,165581,1,0,0:0:0:0:
64,192,165652,1,0,0:0:0:0:
192,192,165652,1,0,0:0:0:0:
320,192,165759,1,0,0:0:0:40:2bm Beep Leed High D.ogg
448,192,165795,1,0,0:0:0:0:
192,192,165866,1,0,0:0:0:40:2bm Beep Leed High C.ogg
64,192,165974,1,0,0:0:0:0:
320,192,166081,1,0,0:0:0:40:2bm Beep Leed High E.ogg
64,192,166188,1,0,0:0:0:0:
448,192,166295,1,0,0:0:0:40:2bm Beep Leed High F.ogg
320,192,166402,1,0,0:0:0:40:2bm Beep Leed High E.ogg
192,192,166438,1,0,0:0:0:0:
64,192,166509,1,0,0:0:0:0:
448,192,166509,128,0,166616:0:0:0:0:
320,192,166652,1,0,0:0:0:0:
448,192,166724,1,0,0:0:0:40:2bm Beep Leed High F.ogg
64,192,166938,1,0,0:0:0:40:2bm Beep Leed High E.ogg
192,192,166938,1,0,0:0:0:0:
448,192,167045,1,0,0:0:0:40:2bm Beep Leed High F.ogg
64,192,167152,1,0,0:0:0:0:
192,192,167224,1,0,0:0:0:0:
320,192,167259,1,0,0:0:0:40:2bm Beep Leed High D.ogg
448,192,167319,1,0,0:0:0:0:
64,192,167366,1,0,0:0:0:0:
320,192,167474,1,0,0:0:0:38:2bm Beep Leed High D.ogg
192,192,167581,1,0,0:0:0:38:2bm Beep Leed High C.ogg
64,192,167688,1,0,0:0:0:0:
320,192,167795,1,0,0:0:0:36:2bm Beep Leed High E.ogg
448,192,167795,1,0,0:0:0:0:
192,192,167849,1,0,0:0:0:0:
64,192,167902,1,0,0:0:0:0:
320,192,167956,1,0,0:0:0:0:
448,192,168009,1,0,0:0:0:36:2bm Beep Leed High F.ogg
320,192,168116,1,0,0:0:0:36:2bm Beep Leed High E.ogg
192,192,168152,1,0,0:0:0:0:
64,192,168224,1,0,0:0:0:0:
448,192,168224,128,0,168331:0:0:0:0:
320,192,168331,1,0,0:0:0:0:
64,192,168438,1,0,0:0:0:34:2bm Beep Leed High F.ogg
320,192,168545,1,0,0:0:0:0:
192,192,168652,1,0,0:0:0:32:2bm Beep Leed High E.ogg
64,192,168652,1,0,0:0:0:0:
448,192,168759,1,0,0:0:0:32:2bm Beep Leed High F.ogg
192,192,168866,1,0,0:0:0:0:
448,192,168974,1,0,0:0:0:32:2bm Beep Leed High D.ogg
64,192,169081,1,0,0:0:0:0:
320,192,169188,1,0,0:0:0:30:2bm Beep Leed High D.ogg
64,192,169295,1,0,0:0:0:30:2bm Beep Leed High C.ogg
192,192,169349,1,0,0:0:0:0:
448,192,169402,1,0,0:0:0:0:
64,192,169509,1,0,0:0:0:28:2bm Beep Leed High E.ogg
320,192,169509,1,0,0:0:0:0:
192,192,169616,1,0,0:0:0:0:
448,192,169724,1,0,0:0:0:28:2bm Beep Leed High F.ogg
192,192,169831,1,0,0:0:0:28:2bm Beep Leed High E.ogg
320,192,169938,1,0,0:0:0:0:
64,192,170045,1,0,0:0:0:0:
320,192,170152,1,0,0:0:0:24:2bm Beep Leed High F.ogg
192,192,170259,1,0,0:0:0:0:
320,192,170366,1,0,0:0:0:20:2bm Beep Leed High E.ogg
448,192,170366,1,0,0:0:0:0:
64,192,170474,1,0,0:0:0:20:2bm Beep Leed High F.ogg
448,192,170581,1,0,0:0:0:0:
320,192,170688,1,0,0:0:0:20:2bm Beep Leed High D.ogg
64,192,170795,1,0,0:0:0:0:
448,192,170902,1,0,0:0:0:16:2bm Beep Leed High D.ogg
64,192,171009,1,0,0:0:0:16:2bm Beep Leed High C.ogg
320,192,171116,1,0,0:0:0:0:
64,192,171224,1,0,0:0:0:12:2bm Beep Leed High E.ogg
448,192,171331,1,0,0:0:0:0:
64,192,171438,1,0,0:0:0:11:2bm Beep Leed High F.ogg
192,192,171545,1,0,0:0:0:10:2bm Beep Leed High E.ogg
64,192,171652,1,0,0:0:0:100:3bm Drum Kick.ogg
320,192,171652,1,0,0:0:0:0:
448,192,171652,1,0,0:0:0:0:
192,192,171759,1,0,0:0:0:0:
64,192,171866,1,0,0:0:0:100:4bm piano 001.ogg
448,192,171866,1,0,0:0:0:0:
320,192,171974,1,0,0:0:0:0:
64,192,172081,1,0,0:0:0:100:3bm Drum Clap.ogg
192,192,172081,1,0,0:0:0:100:4bm piano 002.ogg
448,192,172081,1,0,0:0:0:0:
64,192,172188,1,0,0:0:0:100:4bm piano 003.ogg
320,192,172188,1,0,0:0:0:0:
448,192,172295,1,0,0:0:0:0:
64,192,172402,1,0,0:0:0:100:4bm piano 004.ogg
192,192,172402,1,0,0:0:0:0:
64,192,172509,1,0,0:0:0:100:3bm Drum Kick.ogg
320,192,172509,1,0,0:0:0:0:
320,192,172616,1,0,0:0:0:100:4bm piano 005.ogg
448,192,172616,1,0,0:0:0:0:
64,192,172724,1,0,0:0:0:100:4bm piano 006.ogg
192,192,172724,1,0,0:0:0:0:
320,192,172831,1,0,0:0:0:100:4bm piano 007.ogg
64,192,172902,1,0,0:0:0:0:
192,192,172938,1,0,0:0:0:100:3bm Drum Clap.ogg
448,192,172938,1,0,0:0:0:100:4bm piano 008.ogg
192,192,173045,1,0,0:0:0:100:4bm piano 009.ogg
320,192,173045,1,0,0:0:0:0:
64,192,173152,1,0,0:0:0:100:4bm piano 010.ogg
320,192,173259,1,0,0:0:0:100:4bm piano 011.ogg
64,192,173366,1,0,0:0:0:100:3bm Drum Kick.ogg
448,192,173366,1,0,0:0:0:70:4bm piano 012-2.ogg
192,192,173438,1,0,0:0:0:0:
448,192,173474,1,0,0:0:0:70:4bm piano 013-2.ogg
320,192,173581,1,0,0:0:0:100:4bm piano 014.ogg
64,192,173688,1,0,0:0:0:100:4bm piano 015.ogg
192,192,173795,1,0,0:0:0:100:3bm Drum Clap.ogg
320,192,173795,1,0,0:0:0:100:4bm piano 016.ogg
448,192,173795,1,0,0:0:0:0:
64,192,173902,1,0,0:0:0:100:4bm piano 017.ogg
192,192,173902,1,0,0:0:0:0:
448,192,174009,1,0,0:0:0:100:4bm piano 018.ogg
64,192,174116,1,0,0:0:0:100:4bm piano 019.ogg
320,192,174116,1,0,0:0:0:0:
192,192,174224,1,0,0:0:0:100:3bm Drum Kick.ogg
320,192,174224,1,0,0:0:0:0:
192,192,174331,1,0,0:0:0:100:4bm piano 020.ogg
448,192,174331,1,0,0:0:0:0:
64,192,174438,1,0,0:0:0:0:
192,192,174545,1,0,0:0:0:100:4bm piano 021.ogg
320,192,174545,1,0,0:0:0:0:
64,192,174652,1,0,0:0:0:100:3bm Drum Clap.ogg
320,192,174652,1,0,0:0:0:0:
448,192,174652,1,0,0:0:0:0:
64,192,174759,1,0,0:0:0:100:4bm piano 022.ogg
192,192,174759,1,0,0:0:0:0:
320,192,174831,1,0,0:0:0:0:
448,192,174866,1,0,0:0:0:100:4bm piano 023.ogg
192,192,174974,1,0,0:0:0:100:4bm piano 024.ogg
320,192,175081,1,0,0:0:0:100:3bm Drum Kick.ogg
448,192,175081,1,0,0:0:0:100:4bm piano 025.ogg
64,192,175188,1,0,0:0:0:100:4bm piano 026.ogg
320,192,175188,1,0,0:0:0:0:
192,192,175295,1,0,0:0:0:100:4bm piano 027.ogg
64,192,175402,1,0,0:0:0:100:4bm piano 019.ogg
448,192,175402,1,0,0:0:0:0:
64,192,175509,1,0,0:0:0:100:3bm Drum Clap.ogg
192,192,175509,1,0,0:0:0:0:
320,192,175509,1,0,0:0:0:0:
320,192,175616,1,0,0:0:0:100:4bm piano 020.ogg
448,192,175616,1,0,0:0:0:0:
192,192,175724,1,0,0:0:0:0:
320,192,175831,1,0,0:0:0:100:4bm piano 021.ogg
64,192,175938,1,0,0:0:0:100:3bm Drum Kick.ogg
448,192,175938,1,0,0:0:0:100:4bm piano 028.ogg
64,192,176045,1,0,0:0:0:100:4bm piano 029.ogg
320,192,176045,1,0,0:0:0:0:
192,192,176152,1,0,0:0:0:100:4bm piano 030.ogg
320,192,176224,1,0,0:0:0:0:
448,192,176259,1,0,0:0:0:100:4bm piano 031.ogg
64,192,176366,1,0,0:0:0:100:3bm Drum Clap.ogg
192,192,176366,1,0,0:0:0:100:4bm piano 032.ogg
320,192,176366,1,0,0:0:0:0:
64,192,176474,1,0,0:0:0:100:4bm piano 033.ogg
448,192,176474,1,0,0:0:0:0:
192,192,176581,1,0,0:0:0:0:
448,192,176688,1,0,0:0:0:100:4bm piano 034.ogg
64,192,176795,1,0,0:0:0:100:3bm Drum Kick.ogg
192,192,176795,1,0,0:0:0:100:4bm piano 035.ogg
192,192,176902,1,0,0:0:0:100:4bm piano 036.ogg
448,192,176902,1,0,0:0:0:0:
320,192,177009,1,0,0:0:0:100:4bm piano 037.ogg
448,192,177009,1,0,0:0:0:0:
64,192,177116,1,0,0:0:0:0:
192,192,177224,1,0,0:0:0:100:3bm Drum Clap.ogg
320,192,177224,1,0,0:0:0:100:4bm piano 038.ogg
448,192,177224,1,0,0:0:0:0:
64,192,177331,1,0,0:0:0:100:4bm piano 039.ogg
320,192,177331,1,0,0:0:0:0:
192,192,177438,1,0,0:0:0:100:4bm piano 040.ogg
448,192,177438,1,0,0:0:0:0:
320,192,177545,1,0,0:0:0:100:4bm piano 041.ogg
448,192,177545,1,0,0:0:0:0:
64,192,177652,1,0,0:0:0:100:3bm Drum Kick.ogg
192,192,177652,1,0,0:0:0:0:
192,192,177759,1,0,0:0:0:100:3bm Closing Hihats.ogg
448,192,177759,1,0,0:0:0:100:4bm piano 042.ogg
64,192,177866,1,0,0:0:0:100:4bm piano 043.ogg
320,192,177866,1,0,0:0:0:0:
192,192,177974,1,0,0:0:0:100:4bm piano 044.ogg
320,192,177974,1,0,0:0:0:0:
64,192,178081,1,0,0:0:0:100:3bm Drum Clap.ogg
192,192,178081,1,0,0:0:0:100:4bm piano 045.ogg
448,192,178081,1,0,0:0:0:0:
320,192,178188,1,0,0:0:0:100:4bm piano 046.ogg
64,192,178295,1,0,0:0:0:100:3bm Closing Hihats.ogg
320,192,178295,1,0,0:0:0:100:4bm piano 047.ogg
448,192,178295,1,0,0:0:0:0:
192,192,178402,1,0,0:0:0:100:4bm piano 048.ogg
64,192,178509,1,0,0:0:0:100:3bm Drum Kick.ogg
320,192,178509,1,0,0:0:0:55:3bm Crash Cymbals.ogg
448,192,178509,1,0,0:0:0:100:4bm piano 049.ogg
192,192,178616,1,0,0:0:0:100:4bm piano 050.ogg
320,192,178616,1,0,0:0:0:0:
64,192,178724,1,0,0:0:0:100:4bm piano 051.ogg
320,192,178831,1,0,0:0:0:100:4bm piano 052.ogg
64,192,178938,1,0,0:0:0:100:3bm Drum Clap.ogg
192,192,178938,1,0,0:0:0:100:4bm piano 053.ogg
448,192,178938,1,0,0:0:0:0:
192,192,179045,1,0,0:0:0:100:4bm piano 054.ogg
320,192,179045,1,0,0:0:0:0:
64,192,179152,1,0,0:0:0:0:
448,192,179259,1,0,0:0:0:100:4bm piano 055.ogg
192,192,179366,1,0,0:0:0:100:3bm Drum Kick.ogg
320,192,179366,1,0,0:0:0:0:
192,192,179474,1,0,0:0:0:100:4bm piano 056.ogg
448,192,179474,1,0,0:0:0:0:
64,192,179581,1,0,0:0:0:100:4bm piano 057.ogg
320,192,179688,1,0,0:0:0:100:4bm piano 058.ogg
64,192,179795,1,0,0:0:0:100:3bm Drum Clap.ogg
192,192,179795,1,0,0:0:0:0:
448,192,179795,1,0,0:0:0:0:
320,192,179902,1,0,0:0:0:100:4bm piano 059.ogg
448,192,179902,1,0,0:0:0:0:
64,192,180009,1,0,0:0:0:0:
320,192,180116,1,0,0:0:0:100:4bm piano 060.ogg
448,192,180116,1,0,0:0:0:0:
192,192,180224,1,0,0:0:0:100:3bm Drum Kick.ogg
320,192,180224,1,0,0:0:0:0:
64,192,180295,1,0,0:0:0:100:4bm piano 061.ogg
192,192,180331,1,0,0:0:0:0:
320,192,180438,1,0,0:0:0:100:4bm piano 062.ogg
192,192,180545,1,0,0:0:0:100:4bm piano 063.ogg
64,192,180652,1,0,0:0:0:100:3bm Drum Clap.ogg
320,192,180652,1,0,0:0:0:100:4bm piano 064.ogg
448,192,180652,1,0,0:0:0:0:
192,192,180759,1,0,0:0:0:100:4bm piano 065.ogg
320,192,180759,1,0,0:0:0:0:
64,192,180866,1,0,0:0:0:100:4bm piano 066.ogg
448,192,180974,1,0,0:0:0:100:4bm piano 067.ogg
64,192,181081,1,0,0:0:0:100:3bm Drum Kick.ogg
192,192,181081,1,0,0:0:0:0:
192,192,181188,1,0,0:0:0:100:4bm piano 068.ogg
448,192,181188,1,0,0:0:0:0:
64,192,181295,1,0,0:0:0:0:
320,192,181402,1,0,0:0:0:100:4bm piano 069.ogg
448,192,181402,1,0,0:0:0:0:
64,192,181509,1,0,0:0:0:100:3bm Drum Clap.ogg
192,192,181509,1,0,0:0:0:0:
448,192,181509,1,0,0:0:0:0:
192,192,181616,1,0,0:0:0:100:4bm piano 070.ogg
320,192,181616,1,0,0:0:0:0:
448,192,181724,1,0,0:0:0:100:4bm piano 071.ogg
192,192,181831,1,0,0:0:0:100:4bm piano 072.ogg
64,192,181938,1,0,0:0:0:100:3bm Drum Kick.ogg
320,192,181938,1,0,0:0:0:70:3bm Crash Cymbals.ogg
448,192,181938,1,0,0:0:0:0:
192,192,182045,1,0,0:0:0:100:4bm piano 073.ogg
320,192,182045,1,0,0:0:0:0:
64,192,182152,1,0,0:0:0:100:4bm piano 074.ogg
320,192,182259,1,0,0:0:0:100:4bm piano 075.ogg
64,192,182366,1,0,0:0:0:100:3bm Drum Clap.ogg
192,192,182366,1,0,0:0:0:100:4bm piano 076.ogg
448,192,182366,1,0,0:0:0:0:
64,192,182474,1,0,0:0:0:100:4bm piano 077.ogg
320,192,182474,1,0,0:0:0:0:
192,192,182581,1,0,0:0:0:100:4bm piano 078.ogg
64,192,182688,1,0,0:0:0:100:4bm piano 079.ogg
320,192,182795,1,0,0:0:0:100:3bm Drum Kick.ogg
448,192,182795,1,0,0:0:0:100:4bm piano 080.ogg
320,192,182902,1,0,0:0:0:100:4bm piano 081.ogg
64,192,183009,1,0,0:0:0:100:3bm Drum Kick.ogg
192,192,183009,1,0,0:0:0:100:4bm piano 082.ogg
192,192,183116,1,0,0:0:0:100:4bm piano 083.ogg
64,192,183224,1,0,0:0:0:100:3bm Drum Clap.ogg
320,192,183224,1,0,0:0:0:100:3bm Drum Kick.ogg
448,192,183224,1,0,0:0:0:100:4bm piano 084.ogg
320,192,183331,1,0,0:0:0:100:4bm piano 085 to 087.ogg
64,192,183438,1,0,0:0:0:100:3bm Drum Kick.ogg
448,192,183438,1,0,0:0:0:70:4bm piano 085 to 087.ogg
192,192,183545,128,0,183652:0:0:0:100:4bm piano 085 to 087.ogg
320,192,183625,1,0,0:0:0:0:
64,192,183652,1,0,0:0:0:100:3bm Drum Kick.ogg
448,192,183652,1,0,0:0:0:100:4bm piano 088.ogg
192,192,183724,1,0,0:0:0:100:4bm piano 089 to 090.ogg
320,192,183759,1,0,0:0:0:0:
64,192,183795,1,0,0:0:0:100:4bm piano 089 to 090.ogg
448,192,183866,1,0,0:0:0:100:3bm Drum Kick.ogg
192,192,183938,1,0,0:0:0:100:4bm piano 092.ogg
64,192,183974,1,0,0:0:0:0:
448,192,184009,1,0,0:0:0:100:4bm piano 093.ogg
192,192,184081,1,0,0:0:0:100:3bm Drum Clap.ogg
320,192,184081,1,0,0:0:0:100:4bm piano 094.ogg
64,192,184152,1,0,0:0:0:100:4bm piano 095.ogg
448,192,184188,1,0,0:0:0:100:3bm Drum Clap.ogg
320,192,184224,1,0,0:0:0:100:4bm piano 096.ogg
64,192,184295,1,0,0:0:0:100:3bm Drum Clap.ogg
192,192,184366,1,0,0:0:0:100:4bm piano 098.ogg
448,192,184402,1,0,0:0:0:100:3bm Drum Clap.ogg
320,192,184438,1,0,0:0:0:100:4bm piano 099.ogg
64,192,184509,128,0,184616:0:0:0:95:3bm Closing Hihats.ogg
192,192,184509,128,0,184616:0:0:0:100:4bm piano 100.ogg
448,192,184509,1,0,0:0:0:0:
64,192,184724,1,0,0:0:0:100:4bm piano 102.ogg
192,192,184831,128,0,184938:0:0:0:95:3bm Closing Hihats.ogg
320,192,184831,128,0,184938:0:0:0:100:4bm piano 103.ogg
448,192,184831,1,0,0:0:0:0:
192,192,185045,1,0,0:0:0:70:4bm piano 106.ogg
64,192,185152,1,0,0:0:0:100:5bm final Reverse Cymbals.ogg
320,192,185152,128,0,185259:0:0:0:100:4bm piano 108.ogg
448,192,185152,128,0,185259:0:0:0:0:
64,192,185366,1,0,0:0:0:70:3bm Crash Cymbals.ogg
192,192,185366,1,0,0:0:0:100:3bm Drum Kick.ogg
448,192,185366,1,0,0:0:0:0:
192,192,185474,1,0,0:0:0:0:
320,192,185581,1,0,0:0:0:100:5bm piano 001.ogg
448,192,185581,1,0,0:0:0:0:
64,192,185688,1,0,0:0:0:0:
192,192,185795,1,0,0:0:0:100:3bm Drum Clap.ogg
320,192,185795,1,0,0:0:0:0:
448,192,185795,1,0,0:0:0:0:
64,192,185902,1,0,0:0:0:100:5bm piano 001.ogg
448,192,185902,1,0,0:0:0:0:
192,192,186009,1,0,0:0:0:0:
320,192,186116,1,0,0:0:0:100:5bm piano 002.ogg
448,192,186116,1,0,0:0:0:0:
64,192,186224,1,0,0:0:0:100:3bm Drum Kick.ogg
192,192,186224,1,0,0:0:0:0:
448,192,186331,1,0,0:0:0:0:
64,192,186438,1,0,0:0:0:100:5bm piano 001.ogg
320,192,186438,1,0,0:0:0:0:
192,192,186545,1,0,0:0:0:0:
448,192,186545,1,0,0:0:0:0:
64,192,186652,1,0,0:0:0:100:3bm Drum Clap.ogg
192,192,186652,1,0,0:0:0:100:5bm piano 003.ogg
320,192,186652,1,0,0:0:0:0:
64,192,186759,1,0,0:0:0:100:5bm piano 001.ogg
448,192,186759,1,0,0:0:0:0:
192,192,186866,1,0,0:0:0:0:
320,192,186974,1,0,0:0:0:100:5bm piano 004.ogg
448,192,186974,1,0,0:0:0:0:
64,192,187081,1,0,0:0:0:100:3bm Drum Kick.ogg
320,192,187081,1,0,0:0:0:0:
192,192,187188,1,0,0:0:0:0:
320,192,187295,1,0,0:0:0:100:5bm piano 005.ogg
448,192,187295,1,0,0:0:0:0:
192,192,187402,1,0,0:0:0:100:5bm piano 006.ogg
320,192,187402,1,0,0:0:0:0:
64,192,187509,1,0,0:0:0:100:3bm Drum Clap.ogg
192,192,187509,1,0,0:0:0:0:
448,192,187509,1,0,0:0:0:0:
320,192,187616,1,0,0:0:0:100:5bm piano 007.ogg
448,192,187616,1,0,0:0:0:0:
64,192,187724,1,0,0:0:0:0:
192,192,187831,1,0,0:0:0:0:
320,192,187938,1,0,0:0:0:100:3bm Drum Kick.ogg
448,192,187938,1,0,0:0:0:100:5bm piano 008 009 011.ogg
320,192,188045,1,0,0:0:0:0:
64,192,188152,1,0,0:0:0:100:5bm piano 008 009 011.ogg
192,192,188152,1,0,0:0:0:0:
192,192,188259,1,0,0:0:0:100:5bm piano 010.ogg
448,192,188259,1,0,0:0:0:0:
64,192,188366,1,0,0:0:0:100:3bm Drum Clap.ogg
320,192,188366,1,0,0:0:0:0:
448,192,188366,1,0,0:0:0:0:
192,192,188474,1,0,0:0:0:100:5bm piano 008 009 011.ogg
320,192,188474,1,0,0:0:0:0:
448,192,188581,1,0,0:0:0:0:
64,192,188688,1,0,0:0:0:100:5bm piano 008 009 011.ogg
192,192,188795,1,0,0:0:0:100:3bm Drum Kick.ogg
320,192,188795,1,0,0:0:0:70:3bm Crash Cymbals.ogg
448,192,188795,1,0,0:0:0:100:5bm piano 013.ogg
448,192,188902,1,0,0:0:0:0:
64,192,189009,1,0,0:0:0:100:5bm piano 014.ogg
192,192,189009,1,0,0:0:0:0:
64,192,189116,1,0,0:0:0:0:
192,192,189224,1,0,0:0:0:100:3bm Drum Clap.ogg
320,192,189224,1,0,0:0:0:0:
448,192,189224,1,0,0:0:0:0:
64,192,189331,1,0,0:0:0:100:5bm piano 015.ogg
320,192,189331,1,0,0:0:0:0:
192,192,189438,1,0,0:0:0:100:5bm piano 016.ogg
448,192,189545,1,0,0:0:0:100:5bm piano 017.ogg
192,192,189652,1,0,0:0:0:100:3bm Drum Kick.ogg
320,192,189652,1,0,0:0:0:0:
64,192,189759,1,0,0:0:0:100:5bm piano 018.ogg
448,192,189759,1,0,0:0:0:0:
64,192,189866,1,0,0:0:0:100:5bm piano 017.ogg
320,192,189974,1,0,0:0:0:100:5bm piano 016.ogg
448,192,189974,1,0,0:0:0:0:
64,192,190081,1,0,0:0:0:100:3bm Drum Clap.ogg
192,192,190081,1,0,0:0:0:0:
448,192,190081,1,0,0:0:0:0:
192,192,190188,1,0,0:0:0:100:5bm piano 016.ogg
448,192,190295,1,0,0:0:0:100:5bm piano 019.ogg
320,192,190402,1,0,0:0:0:100:5bm piano 016.ogg
64,192,190509,1,0,0:0:0:100:3bm Drum Kick.ogg
448,192,190509,1,0,0:0:0:0:
64,192,190616,1,0,0:0:0:100:5bm piano 018.ogg
320,192,190616,1,0,0:0:0:0:
448,192,190724,1,0,0:0:0:100:5bm piano 016.ogg
64,192,190831,1,0,0:0:0:100:5bm piano 020.ogg
192,192,190938,1,0,0:0:0:100:3bm Drum Clap.ogg
320,192,190938,1,0,0:0:0:100:5bm piano 021.ogg
448,192,190938,1,0,0:0:0:0:
64,192,191045,1,0,0:0:0:100:5bm piano 015.ogg
448,192,191045,1,0,0:0:0:0:
64,192,191152,1,0,0:0:0:100:5bm piano 016.ogg
320,192,191152,1,0,0:0:0:0:
192,192,191259,1,0,0:0:0:100:5bm piano 018.ogg
320,192,191331,1,0,0:0:0:0:
64,192,191366,1,0,0:0:0:100:3bm Drum Kick.ogg
448,192,191366,1,0,0:0:0:100:5bm piano 022.ogg
192,192,191438,1,0,0:0:0:100:5bm piano 023.ogg
448,192,191474,1,0,0:0:0:0:
320,192,191509,1,0,0:0:0:100:5bm piano 024.ogg
64,192,191581,1,0,0:0:0:100:3bm Drum Kick.ogg
320,192,191652,1,0,0:0:0:100:5bm piano 026.ogg
448,192,191688,1,0,0:0:0:0:
192,192,191724,1,0,0:0:0:100:5bm piano 027.ogg
64,192,191795,1,0,0:0:0:100:3bm Drum Clap.ogg
320,192,191795,1,0,0:0:0:100:5bm piano 028.ogg
448,192,191866,1,0,0:0:0:0:
192,192,191902,1,0,0:0:0:100:5bm piano 029.ogg
64,192,191938,1,0,0:0:0:0:
448,192,192009,1,0,0:0:0:100:3bm Drum Kick.ogg
320,192,192081,1,0,0:0:0:0:
192,192,192116,1,0,0:0:0:100:3bm Drum Kick.ogg
64,192,192152,1,0,0:0:0:0:
320,192,192224,1,0,0:0:0:100:3bm Drum Kick.ogg
448,192,192224,1,0,0:0:0:70:3bm Crash Cymbals.ogg
192,192,192331,1,0,0:0:0:0:
320,192,192438,1,0,0:0:0:100:5bm piano 001.ogg
448,192,192438,1,0,0:0:0:0:
64,192,192545,1,0,0:0:0:0:
192,192,192652,1,0,0:0:0:100:3bm Drum Clap.ogg
320,192,192652,1,0,0:0:0:0:
448,192,192652,1,0,0:0:0:0:
64,192,192759,1,0,0:0:0:100:5bm piano 001.ogg
448,192,192759,1,0,0:0:0:0:
192,192,192866,1,0,0:0:0:0:
320,192,192974,1,0,0:0:0:100:5bm piano 002.ogg
448,192,192974,1,0,0:0:0:0:
64,192,193081,1,0,0:0:0:100:3bm Drum Kick.ogg
192,192,193081,1,0,0:0:0:0:
448,192,193188,1,0,0:0:0:0:
64,192,193295,1,0,0:0:0:100:5bm piano 001.ogg
320,192,193295,1,0,0:0:0:0:
192,192,193402,1,0,0:0:0:0:
448,192,193402,1,0,0:0:0:0:
64,192,193509,1,0,0:0:0:100:3bm Drum Clap.ogg
192,192,193509,1,0,0:0:0:100:5bm piano 003.ogg
320,192,193509,1,0,0:0:0:0:
64,192,193616,1,0,0:0:0:100:5bm piano 001.ogg
448,192,193616,1,0,0:0:0:0:
192,192,193724,1,0,0:0:0:0:
320,192,193831,1,0,0:0:0:100:5bm piano 002.ogg
448,192,193831,1,0,0:0:0:0:
64,192,193938,1,0,0:0:0:100:3bm Drum Kick.ogg
320,192,193938,1,0,0:0:0:0:
64,192,194045,1,0,0:0:0:100:5bm piano 032.ogg
448,192,194045,1,0,0:0:0:0:
192,192,194152,1,0,0:0:0:0:
320,192,194259,1,0,0:0:0:0:
64,192,194366,1,0,0:0:0:100:3bm Drum Clap.ogg
192,192,194366,1,0,0:0:0:100:5bm piano 033.ogg
448,192,194366,1,0,0:0:0:0:
192,192,194474,1,0,0:0:0:100:5bm piano 034.ogg
320,192,194474,1,0,0:0:0:0:
64,192,194581,1,0,0:0:0:100:5bm piano 035.ogg
320,192,194581,1,0,0:0:0:0:
64,192,194688,1,0,0:0:0:100:5bm piano 036.ogg
448,192,194688,1,0,0:0:0:0:
192,192,194795,1,0,0:0:0:100:3bm Drum Kick.ogg
320,192,194795,1,0,0:0:0:0:
320,192,194902,1,0,0:0:0:100:5bm piano 037.ogg
448,192,194902,1,0,0:0:0:0:
192,192,195009,1,0,0:0:0:100:5bm piano 038.ogg
448,192,195009,1,0,0:0:0:0:
64,192,195116,1,0,0:0:0:100:5bm piano 039.ogg
192,192,195116,1,0,0:0:0:0:
64,192,195224,1,0,0:0:0:100:3bm Drum Clap.ogg
320,192,195224,1,0,0:0:0:100:5bm piano 040.ogg
448,192,195224,1,0,0:0:0:0:
192,192,195331,1,0,0:0:0:100:5bm piano 041.ogg
448,192,195331,1,0,0:0:0:0:
64,192,195438,1,0,0:0:0:100:5bm piano 042.ogg
320,192,195438,1,0,0:0:0:0:
64,192,195545,1,0,0:0:0:100:5bm piano 043.ogg
192,192,195652,1,0,0:0:0:70:3bm Crash Cymbals.ogg
320,192,195652,1,0,0:0:0:100:3bm Drum Kick.ogg
448,192,195652,1,0,0:0:0:0:
64,192,195759,1,0,0:0:0:100:5bm piano 044.ogg
448,192,195759,1,0,0:0:0:0:
192,192,195866,1,0,0:0:0:100:5bm piano 045.ogg
320,192,195866,1,0,0:0:0:0:
64,192,195974,1,0,0:0:0:100:5bm piano 046.ogg
448,192,195974,1,0,0:0:0:0:
192,192,196081,1,0,0:0:0:100:3bm Drum Clap.ogg
320,192,196081,1,0,0:0:0:0:
448,192,196081,1,0,0:0:0:0:
64,192,196188,1,0,0:0:0:100:5bm piano 047.ogg
320,192,196188,1,0,0:0:0:0:
192,192,196295,1,0,0:0:0:0:
320,192,196402,1,0,0:0:0:100:5bm piano 048.ogg
448,192,196402,1,0,0:0:0:0:
64,192,196509,1,0,0:0:0:100:3bm Drum Kick.ogg
448,192,196509,1,0,0:0:0:0:
64,192,196616,1,0,0:0:0:0:
192,192,196616,1,0,0:0:0:0:
192,192,196724,1,0,0:0:0:100:5bm piano 048.ogg
448,192,196724,1,0,0:0:0:0:
320,192,196831,1,0,0:0:0:0:
64,192,196938,1,0,0:0:0:100:3bm Drum Clap.ogg
192,192,196938,1,0,0:0:0:0:
448,192,196938,1,0,0:0:0:0:
64,192,197045,1,0,0:0:0:100:5bm piano 049.ogg
320,192,197045,1,0,0:0:0:0:
448,192,197152,1,0,0:0:0:0:
192,192,197259,1,0,0:0:0:100:5bm piano 050.ogg
448,192,197259,1,0,0:0:0:0:
64,192,197331,1,0,0:0:0:0:
320,192,197366,1,0,0:0:0:100:3bm Drum Kick.ogg
192,192,197438,1,0,0:0:0:100:5bm piano 051.ogg
448,192,197509,1,0,0:0:0:100:5bm piano 052.ogg
64,192,197581,1,0,0:0:0:100:3bm Drum Kick.ogg
320,192,197581,1,0,0:0:0:100:5bm final Reverse Cymbals.ogg
192,192,197652,1,0,0:0:0:100:5bm piano 054.ogg
448,192,197724,1,0,0:0:0:100:5bm piano 055.ogg
64,192,197795,1,0,0:0:0:100:3bm Drum Clap.ogg
320,192,197795,1,0,0:0:0:100:5bm piano 056.ogg
64,192,197902,1,0,0:0:0:100:3bm Drum Kick.ogg
192,192,197902,1,0,0:0:0:100:5bm piano 057.ogg
320,192,198009,1,0,0:0:0:100:5bm final Reverse Cymbals.ogg
448,192,198009,1,0,0:0:0:100:5bm piano 058.ogg
64,192,198116,1,0,0:0:0:100:3bm Drum Kick.ogg
320,192,198116,1,0,0:0:0:100:5bm piano 059.ogg
192,192,198224,1,0,0:0:0:100:3bm Drum Kick.ogg
448,192,198224,1,0,0:0:0:0:
192,192,198331,1,0,0:0:0:100:3bm Drum Kick.ogg
320,192,198331,1,0,0:0:0:100:5bm piano 060.ogg
64,192,198438,1,0,0:0:0:100:3bm Drum Kick.ogg
448,192,198438,1,0,0:0:0:100:5bm piano 061.ogg
320,192,198545,1,0,0:0:0:100:3bm Drum Kick.ogg
448,192,198545,1,0,0:0:0:100:5bm piano 062.ogg
64,192,198652,1,0,0:0:0:100:3bm Drum Kick.ogg
192,192,198652,1,0,0:0:0:100:5bm piano 063.ogg
192,192,198759,1,0,0:0:0:100:3bm Drum Kick.ogg
448,192,198759,1,0,0:0:0:100:5bm piano 064.ogg
64,192,198866,1,0,0:0:0:100:3bm Drum Kick.ogg
320,192,198866,1,0,0:0:0:0:
320,192,198974,1,0,0:0:0:100:3bm Drum Kick.ogg
448,192,198974,1,0,0:0:0:0:
64,192,199081,1,0,0:0:0:70:3bm Crash Cymbals.ogg
192,192,199081,1,0,0:0:0:100:3bm Drum Kick.ogg
448,192,199081,1,0,0:0:0:0:
192,192,199188,1,0,0:0:0:0:
320,192,199295,1,0,0:0:0:100:5bm piano 001.ogg
448,192,199295,1,0,0:0:0:0:
64,192,199402,1,0,0:0:0:0:
192,192,199509,1,0,0:0:0:100:3bm Drum Clap.ogg
320,192,199509,1,0,0:0:0:0:
448,192,199509,1,0,0:0:0:0:
64,192,199616,1,0,0:0:0:100:5bm piano 001.ogg
448,192,199616,1,0,0:0:0:0:
192,192,199724,1,0,0:0:0:0:
320,192,199831,1,0,0:0:0:100:5bm piano 002.ogg
448,192,199831,1,0,0:0:0:0:
64,192,199938,1,0,0:0:0:100:3bm Drum Kick.ogg
192,192,199938,1,0,0:0:0:0:
448,192,200045,1,0,0:0:0:0:
64,192,200152,1,0,0:0:0:100:5bm piano 001.ogg
320,192,200152,1,0,0:0:0:0:
192,192,200259,1,0,0:0:0:0:
448,192,200259,1,0,0:0:0:0:
64,192,200366,1,0,0:0:0:100:5bm piano 003.ogg
192,192,200366,1,0,0:0:0:100:3bm Drum Clap.ogg
320,192,200366,1,0,0:0:0:0:
64,192,200474,1,0,0:0:0:100:5bm piano 001.ogg
448,192,200474,1,0,0:0:0:0:
192,192,200581,1,0,0:0:0:0:
320,192,200688,1,0,0:0:0:100:5bm piano 004.ogg
448,192,200688,1,0,0:0:0:0:
64,192,200795,1,0,0:0:0:100:3bm Drum Kick.ogg
320,192,200795,1,0,0:0:0:0:
192,192,200902,1,0,0:0:0:0:
320,192,201009,1,0,0:0:0:100:5bm piano 005.ogg
448,192,201009,1,0,0:0:0:0:
192,192,201116,1,0,0:0:0:100:5bm piano 006.ogg
320,192,201116,1,0,0:0:0:0:
64,192,201224,1,0,0:0:0:100:3bm Drum Clap.ogg
192,192,201224,1,0,0:0:0:0:
448,192,201224,1,0,0:0:0:0:
320,192,201331,1,0,0:0:0:100:5bm piano 007.ogg
448,192,201331,1,0,0:0:0:0:
64,192,201438,1,0,0:0:0:0:
192,192,201545,1,0,0:0:0:0:
320,192,201652,1,0,0:0:0:100:5bm piano 008 009 011.ogg
448,192,201652,1,0,0:0:0:100:3bm Drum Kick.ogg
320,192,201759,1,0,0:0:0:0:
64,192,201866,1,0,0:0:0:100:5bm piano 008 009 011.ogg
192,192,201866,1,0,0:0:0:0:
192,192,201974,1,0,0:0:0:100:5bm piano 010.ogg
448,192,201974,1,0,0:0:0:0:
64,192,202081,1,0,0:0:0:100:3bm Drum Clap.ogg
320,192,202081,1,0,0:0:0:0:
448,192,202081,1,0,0:0:0:0:
192,192,202188,1,0,0:0:0:100:5bm piano 008 009 011.ogg
320,192,202188,1,0,0:0:0:0:
64,192,202295,1,0,0:0:0:0:
448,192,202402,1,0,0:0:0:100:5bm piano 008 009 011.ogg
64,192,202509,1,0,0:0:0:100:5bm piano 013.ogg
192,192,202509,1,0,0:0:0:100:3bm Closing Hihats.ogg
320,192,202509,1,0,0:0:0:100:3bm Drum Kick.ogg
448,192,202616,1,0,0:0:0:0:
64,192,202724,1,0,0:0:0:100:3bm Closing Hihats.ogg
192,192,202724,1,0,0:0:0:100:3bm Drum Kick.ogg
320,192,202724,1,0,0:0:0:100:5bm piano 065.ogg
448,192,202831,1,0,0:0:0:100:5bm piano 066.ogg
192,192,202911,1,0,0:0:0:0:
64,192,202938,1,0,0:0:0:100:5bm piano 067.ogg
320,192,202938,1,0,0:0:0:0:
192,192,203045,1,0,0:0:0:100:3bm Closing Hihats.ogg
448,192,203045,1,0,0:0:0:100:3bm Drum Kick.ogg
320,192,203152,1,0,0:0:0:100:5bm piano 069.ogg
64,192,203259,1,0,0:0:0:100:3bm Drum Kick.ogg
192,192,203259,1,0,0:0:0:100:5bm piano 070.ogg
448,192,203340,1,0,0:0:0:0:
64,192,203366,1,0,0:0:0:100:3bm Closing Hihats.ogg
320,192,203366,1,0,0:0:0:100:3bm Drum Kick.ogg
192,192,203474,1,0,0:0:0:100:5bm piano 072.ogg
192,192,203581,1,0,0:0:0:100:5bm piano 072.ogg
64,192,203688,1,0,0:0:0:100:3bm Closing Hihats.ogg
320,192,203688,1,0,0:0:0:100:3bm Drum Kick.ogg
448,192,203688,1,0,0:0:0:100:5bm piano 073.ogg
192,192,203795,1,0,0:0:0:0:
64,192,203902,1,0,0:0:0:100:3bm Closing Hihats.ogg
320,192,203902,1,0,0:0:0:100:3bm Drum Kick.ogg
448,192,203902,1,0,0:0:0:100:5bm piano 072.ogg
448,192,204009,1,0,0:0:0:100:3bm Closing Hihats.ogg
192,192,204116,1,0,0:0:0:0:
64,192,204224,1,0,0:0:0:100:3bm Closing Hihats.ogg
192,192,204224,1,0,0:0:0:100:3bm Drum Kick.ogg
448,192,204224,1,0,0:0:0:0:
320,192,204331,1,0,0:0:0:100:5bm piano 074.ogg
64,192,204438,1,0,0:0:0:100:3bm Closing Hihats.ogg
192,192,204438,1,0,0:0:0:100:3bm Drum Kick.ogg
320,192,204438,1,0,0:0:0:100:5bm piano 075.ogg
192,192,204545,1,0,0:0:0:100:5bm piano 075.ogg
448,192,204652,1,0,0:0:0:100:3bm Closing Hihats.ogg
320,192,204652,1,0,0:0:0:100:3bm Drum Kick.ogg
192,192,204652,1,0,0:0:0:100:5bm piano 075.ogg
192,192,204759,1,0,0:0:0:100:5bm piano 075.ogg
448,192,204866,1,0,0:0:0:100:3bm Drum Kick.ogg
320,192,204866,1,0,0:0:0:100:5bm piano 076.ogg
64,192,204866,1,0,0:0:0:0:
320,192,204974,1,0,0:0:0:100:3bm Drum Kick.ogg
448,192,204974,1,0,0:0:0:100:5bm piano 075.ogg
64,192,205081,1,0,0:0:0:100:3bm Closing Hihats.ogg
192,192,205081,1,0,0:0:0:100:3bm Drum Kick.ogg
320,192,205134,1,0,0:0:0:0:
448,192,205188,1,0,0:0:0:0:
192,192,205241,1,0,0:0:0:0:
64,192,205295,1,0,0:0:0:0:
448,192,205349,1,0,0:0:0:0:
192,192,205402,1,0,0:0:0:100:3bm Drum Kick.ogg
320,192,205402,1,0,0:0:0:100:3bm Closing Hihats.ogg
64,192,205456,1,0,0:0:0:0:
448,192,205509,1,0,0:0:0:0:
192,192,205563,1,0,0:0:0:0:
320,192,205616,1,0,0:0:0:0:
64,192,205670,1,0,0:0:0:0:
192,192,205724,1,0,0:0:0:100:3bm Closing Hihats.ogg
448,192,205724,1,0,0:0:0:100:3bm Drum Kick.ogg
320,192,205777,1,0,0:0:0:0:
64,192,205831,1,0,0:0:0:0:
192,192,205884,1,0,0:0:0:0:
64,192,205938,1,0,0:0:0:70:3bm Crash Cymbals.ogg
320,192,205938,1,0,0:0:0:100:5bm piano 080.ogg
448,192,205938,1,0,0:0:0:100:3bm Drum Kick.ogg
320,192,206045,1,0,0:0:0:0:
64,192,206152,1,0,0:0:0:100:3bm Drum Kick.ogg
192,192,206152,1,0,0:0:0:100:3bm Closing Hihats.ogg
448,192,206152,1,0,0:0:0:0:
64,192,206259,1,0,0:0:0:0:
192,192,206366,1,0,0:0:0:0:
320,192,206366,1,0,0:0:0:0:
64,192,206474,1,0,0:0:0:0:
320,192,206581,1,0,0:0:0:100:5bm piano 081.ogg
448,192,206607,1,0,0:0:0:0:
320,192,206688,1,0,0:0:0:0:
64,192,206795,1,0,0:0:0:100:3bm Drum Kick.ogg
192,192,206795,1,0,0:0:0:100:3bm Closing Hihats.ogg
448,192,206795,1,0,0:0:0:0:
192,192,206902,1,0,0:0:0:0:
64,192,207009,1,0,0:0:0:100:3bm Drum Kick.ogg
320,192,207009,1,0,0:0:0:100:3bm Closing Hihats.ogg
448,192,207009,1,0,0:0:0:0:
320,192,207116,1,0,0:0:0:0:
64,192,207224,1,0,0:0:0:100:5bm piano 082.ogg
192,192,207224,1,0,0:0:0:0:
64,192,207331,1,0,0:0:0:0:
320,192,207438,1,0,0:0:0:100:3bm Drum Kick.ogg
448,192,207474,1,0,0:0:0:0:
192,192,207509,1,0,0:0:0:0:
320,192,207545,1,0,0:0:0:0:
64,192,207581,1,0,0:0:0:0:
192,192,207616,1,0,0:0:0:0:
320,192,207652,1,0,0:0:0:100:5bm piano 083.ogg
448,192,207652,1,0,0:0:0:100:3bm Drum Kick.ogg
64,192,207759,1,0,0:0:0:100:3bm Drum Kick.ogg
448,192,207759,1,0,0:0:0:100:3bm Closing Hihats.ogg
192,192,207866,1,0,0:0:0:0:
320,192,207947,1,0,0:0:0:0:
64,192,207974,1,0,0:0:0:100:5bm piano 084.ogg
448,192,207974,1,0,0:0:0:100:3bm Drum Kick.ogg
64,192,208081,1,0,0:0:0:100:3bm Closing Hihats.ogg
448,192,208188,1,0,0:0:0:0:
192,192,208268,1,0,0:0:0:0:
320,192,208295,1,0,0:0:0:100:5bm piano 085.ogg
64,192,208402,1,0,0:0:0:100:3bm Drum Kick.ogg
448,192,208402,1,0,0:0:0:0:
192,192,208509,1,0,0:0:0:0:
192,192,208616,1,0,0:0:0:100:3bm Drum Kick.ogg
448,192,208616,1,0,0:0:0:0:
320,192,208724,1,0,0:0:0:100:5bm piano 086.ogg
448,192,208724,1,0,0:0:0:0:
64,192,208831,1,0,0:0:0:70:3bm Drum Kick.ogg
192,192,208831,1,0,0:0:0:0:
448,192,208938,1,0,0:0:0:100:3bm Drum Kick.ogg
320,192,208974,1,0,0:0:0:0:
192,192,209009,1,0,0:0:0:0:
64,192,209045,1,0,0:0:0:100:3bm Drum Kick.ogg
448,192,209081,1,0,0:0:0:0:
320,192,209116,1,0,0:0:0:0:
192,192,209152,1,0,0:0:0:100:3bm Drum Kick.ogg
64,192,209188,1,0,0:0:0:0:
448,192,209224,1,0,0:0:0:0:
320,192,209259,1,0,0:0:0:100:3bm Drum Kick.ogg
192,192,209295,1,0,0:0:0:0:
64,192,209331,1,0,0:0:0:0:
320,192,209366,1,0,0:0:0:70:3bm Crash Cymbals.ogg
448,192,209366,1,0,0:0:0:100:3bm Drum Kick.ogg
448,192,209474,1,0,0:0:0:0:
192,192,209581,1,0,0:0:0:100:8bm piano 001.ogg
320,192,209581,1,0,0:0:0:0:
64,192,209688,1,0,0:0:0:0:
192,192,209795,1,0,0:0:0:100:3bm Drum Clap.ogg
320,192,209795,1,0,0:0:0:0:
448,192,209795,1,0,0:0:0:0:
64,192,209902,1,0,0:0:0:100:8bm piano 001.ogg
320,192,209902,1,0,0:0:0:0:
448,192,210009,1,0,0:0:0:0:
192,192,210116,1,0,0:0:0:100:8bm piano 002.ogg
448,192,210116,1,0,0:0:0:0:
64,192,210224,1,0,0:0:0:100:3bm Drum Kick.ogg
320,192,210224,1,0,0:0:0:0:
64,192,210331,1,0,0:0:0:0:
192,192,210438,1,0,0:0:0:100:8bm piano 001.ogg
448,192,210438,1,0,0:0:0:0:
192,192,210545,1,0,0:0:0:0:
320,192,210545,1,0,0:0:0:0:
64,192,210652,1,0,0:0:0:100:8bm piano 003.ogg
320,192,210652,1,0,0:0:0:100:3bm Drum Clap.ogg
448,192,210652,1,0,0:0:0:0:
192,192,210759,1,0,0:0:0:100:8bm piano 001.ogg
448,192,210759,1,0,0:0:0:0:
320,192,210866,1,0,0:0:0:0:
192,192,210974,1,0,0:0:0:100:8bm piano 004.ogg
320,192,210974,1,0,0:0:0:0:
64,192,211081,1,0,0:0:0:100:3bm Drum Kick.ogg
448,192,211081,1,0,0:0:0:0:
192,192,211188,1,0,0:0:0:0:
320,192,211295,1,0,0:0:0:100:8bm piano 005.ogg
448,192,211295,1,0,0:0:0:0:
192,192,211402,1,0,0:0:0:100:8bm piano 006.ogg
320,192,211402,1,0,0:0:0:0:
64,192,211509,1,0,0:0:0:100:3bm Drum Clap.ogg
192,192,211509,1,0,0:0:0:0:
448,192,211509,1,0,0:0:0:0:
64,192,211616,1,0,0:0:0:100:8bm piano 007.ogg
320,192,211616,1,0,0:0:0:0:
448,192,211724,1,0,0:0:0:0:
320,192,211831,1,0,0:0:0:0:
64,192,211938,1,0,0:0:0:100:8bm piano 008.ogg
192,192,211938,1,0,0:0:0:100:3bm Drum Kick.ogg
192,192,212045,1,0,0:0:0:0:
64,192,212152,1,0,0:0:0:100:8bm piano 008.ogg
448,192,212152,1,0,0:0:0:0:
320,192,212259,1,0,0:0:0:100:8bm piano 009.ogg
448,192,212259,1,0,0:0:0:0:
64,192,212366,1,0,0:0:0:100:3bm Drum Clap.ogg
192,192,212366,1,0,0:0:0:0:
320,192,212366,1,0,0:0:0:0:
64,192,212474,1,0,0:0:0:100:8bm piano 010.ogg
448,192,212474,1,0,0:0:0:0:
320,192,212581,1,0,0:0:0:0:
192,192,212688,1,0,0:0:0:0:
64,192,212795,1,0,0:0:0:100:8bm piano 011.ogg
192,192,212795,1,0,0:0:0:100:3bm Drum Kick.ogg
320,192,212795,1,0,0:0:0:70:3bm Crash Cymbals.ogg
448,192,212795,1,0,0:0:0:0:
448,192,212902,1,0,0:0:0:0:
64,192,213009,1,0,0:0:0:100:8bm piano 012.ogg
192,192,213009,1,0,0:0:0:0:
320,192,213116,1,0,0:0:0:0:
64,192,213224,1,0,0:0:0:100:3bm Drum Clap.ogg
192,192,213224,1,0,0:0:0:0:
448,192,213224,1,0,0:0:0:0:
192,192,213331,1,0,0:0:0:100:8bm piano 013.ogg
320,192,213331,1,0,0:0:0:0:
64,192,213438,1,0,0:0:0:100:8bm piano 014.ogg
448,192,213438,1,0,0:0:0:0:
320,192,213545,1,0,0:0:0:100:8bm piano 015.ogg
448,192,213545,1,0,0:0:0:0:
64,192,213652,1,0,0:0:0:100:3bm Drum Kick.ogg
192,192,213652,1,0,0:0:0:0:
192,192,213759,1,0,0:0:0:100:8bm piano 013.ogg
448,192,213759,1,0,0:0:0:0:
64,192,213866,1,0,0:0:0:100:8bm piano 014.ogg
448,192,213866,1,0,0:0:0:0:
192,192,213974,1,0,0:0:0:100:8bm piano 013.ogg
320,192,213974,1,0,0:0:0:0:
64,192,214081,1,0,0:0:0:100:8bm piano 013.ogg
320,192,214081,1,0,0:0:0:100:3bm Drum Clap.ogg
448,192,214081,1,0,0:0:0:0:
192,192,214188,1,0,0:0:0:100:8bm piano 015.ogg
448,192,214188,1,0,0:0:0:0:
64,192,214295,1,0,0:0:0:100:8bm piano 016.ogg
320,192,214295,1,0,0:0:0:0:
320,192,214402,1,0,0:0:0:100:8bm piano 015.ogg
448,192,214402,1,0,0:0:0:0:
64,192,214509,1,0,0:0:0:100:3bm Drum Kick.ogg
192,192,214509,1,0,0:0:0:0:
192,192,214616,1,0,0:0:0:100:8bm piano 013.ogg
320,192,214616,1,0,0:0:0:0:
64,192,214724,1,0,0:0:0:100:8bm piano 014.ogg
448,192,214724,1,0,0:0:0:0:
320,192,214831,1,0,0:0:0:100:8bm piano 018.ogg
64,192,214938,1,0,0:0:0:100:8bm piano 016.ogg
192,192,214938,1,0,0:0:0:100:3bm Drum Clap.ogg
448,192,214938,1,0,0:0:0:0:
320,192,215045,1,0,0:0:0:100:8bm piano 017.ogg
448,192,215045,1,0,0:0:0:0:
192,192,215152,1,0,0:0:0:100:8bm piano 014.ogg
320,192,215152,1,0,0:0:0:0:
64,192,215259,1,0,0:0:0:100:8bm piano 013.ogg
192,192,215259,1,0,0:0:0:0:
320,192,215340,1,0,0:0:0:0:
64,192,215366,1,0,0:0:0:100:3bm Drum Kick.ogg
448,192,215366,1,0,0:0:0:0:
192,192,215438,1,0,0:0:0:0:
320,192,215474,1,0,0:0:0:0:
64,192,215509,1,0,0:0:0:0:
320,192,215581,1,0,0:0:0:100:3bm Drum Kick.ogg
448,192,215581,1,0,0:0:0:0:
192,192,215652,1,0,0:0:0:0:
64,192,215688,1,0,0:0:0:0:
320,192,215724,1,0,0:0:0:0:
64,192,215795,1,0,0:0:0:100:3bm Drum Clap.ogg
192,192,215795,1,0,0:0:0:0:
448,192,215795,1,0,0:0:0:0:
448,192,215902,1,0,0:0:0:0:
192,192,216009,1,0,0:0:0:100:3bm Drum Kick.ogg
320,192,216009,1,0,0:0:0:0:
192,192,216116,1,0,0:0:0:100:3bm Drum Kick.ogg
320,192,216116,1,0,0:0:0:0:
64,192,216224,1,0,0:0:0:70:3bm Crash Cymbals.ogg
192,192,216224,1,0,0:0:0:100:3bm Drum Kick.ogg
320,192,216224,1,0,0:0:0:0:
448,192,216224,1,0,0:0:0:0:
64,192,216331,1,0,0:0:0:0:
192,192,216438,1,0,0:0:0:100:8bm piano 001.ogg
320,192,216438,1,0,0:0:0:0:
64,192,216545,1,0,0:0:0:0:
192,192,216652,1,0,0:0:0:100:3bm Drum Clap.ogg
320,192,216652,1,0,0:0:0:0:
448,192,216652,1,0,0:0:0:0:
64,192,216759,1,0,0:0:0:100:8bm piano 001.ogg
320,192,216759,1,0,0:0:0:0:
448,192,216866,1,0,0:0:0:0:
192,192,216974,1,0,0:0:0:100:8bm piano 002.ogg
448,192,216974,1,0,0:0:0:0:
64,192,217081,1,0,0:0:0:100:3bm Drum Kick.ogg
320,192,217081,1,0,0:0:0:0:
192,192,217188,1,0,0:0:0:0:
64,192,217295,1,0,0:0:0:100:8bm piano 001.ogg
448,192,217295,1,0,0:0:0:0:
64,192,217402,1,0,0:0:0:0:
320,192,217402,1,0,0:0:0:0:
192,192,217509,1,0,0:0:0:100:3bm Drum Clap.ogg
320,192,217509,1,0,0:0:0:100:8bm piano 003.ogg
448,192,217509,1,0,0:0:0:0:
64,192,217616,1,0,0:0:0:100:8bm piano 001.ogg
448,192,217616,1,0,0:0:0:0:
192,192,217724,1,0,0:0:0:0:
192,192,217831,1,0,0:0:0:100:8bm piano 002.ogg
448,192,217831,1,0,0:0:0:0:
64,192,217938,1,0,0:0:0:100:3bm Drum Kick.ogg
448,192,217938,1,0,0:0:0:0:
64,192,218045,1,0,0:0:0:100:8bm piano 019.ogg
192,192,218045,1,0,0:0:0:0:
448,192,218152,1,0,0:0:0:0:
320,192,218259,1,0,0:0:0:0:
64,192,218366,1,0,0:0:0:100:3bm Drum Clap.ogg
192,192,218366,1,0,0:0:0:100:8bm piano 020.ogg
448,192,218366,1,0,0:0:0:0:
64,192,218474,1,0,0:0:0:100:8bm piano 021.ogg
320,192,218474,1,0,0:0:0:0:
192,192,218581,1,0,0:0:0:100:8bm piano 022.ogg
448,192,218581,1,0,0:0:0:0:
320,192,218688,1,0,0:0:0:100:8bm piano 023.ogg
448,192,218688,1,0,0:0:0:0:
64,192,218795,1,0,0:0:0:100:3bm Drum Kick.ogg
192,192,218795,1,0,0:0:0:0:
192,192,218902,1,0,0:0:0:100:8bm piano 024.ogg
448,192,218902,1,0,0:0:0:0:
320,192,219009,1,0,0:0:0:100:8bm piano 025.ogg
448,192,219009,1,0,0:0:0:0:
64,192,219116,1,0,0:0:0:100:8bm piano 026.ogg
320,192,219116,1,0,0:0:0:0:
64,192,219224,1,0,0:0:0:100:3bm Drum Clap.ogg
192,192,219224,1,0,0:0:0:100:8bm piano 027.ogg
448,192,219224,1,0,0:0:0:0:
192,192,219331,1,0,0:0:0:100:8bm piano 028.ogg
320,192,219331,1,0,0:0:0:0:
64,192,219438,1,0,0:0:0:100:8bm piano 029.ogg
448,192,219438,1,0,0:0:0:0:
192,192,219545,1,0,0:0:0:100:8bm piano 030.ogg
320,192,219545,1,0,0:0:0:0:
64,192,219652,1,0,0:0:0:70:3bm Crash Cymbals.ogg
192,192,219652,1,0,0:0:0:100:3bm Drum Kick.ogg
320,192,219652,1,0,0:0:0:0:
448,192,219652,1,0,0:0:0:0:
64,192,219759,1,0,0:0:0:100:8bm piano 031.ogg
448,192,219759,1,0,0:0:0:0:
192,192,219866,1,0,0:0:0:100:8bm piano 032.ogg
320,192,219866,1,0,0:0:0:0:
64,192,219974,1,0,0:0:0:70:8bm piano 031.ogg
448,192,219974,1,0,0:0:0:0:
64,192,220081,1,0,0:0:0:100:3bm Drum Clap.ogg
192,192,220081,1,0,0:0:0:0:
320,192,220081,1,0,0:0:0:0:
320,192,220188,1,0,0:0:0:100:8bm piano 034.ogg
448,192,220188,1,0,0:0:0:0:
64,192,220295,1,0,0:0:0:0:
64,192,220402,1,0,0:0:0:100:8bm piano 035.ogg
320,192,220402,1,0,0:0:0:0:
192,192,220509,1,0,0:0:0:100:3bm Drum Kick.ogg
320,192,220509,1,0,0:0:0:0:
192,192,220616,1,0,0:0:0:0:
448,192,220616,1,0,0:0:0:0:
64,192,220724,1,0,0:0:0:100:8bm piano 035.ogg
320,192,220724,1,0,0:0:0:0:
448,192,220831,1,0,0:0:0:0:
64,192,220938,1,0,0:0:0:100:3bm Drum Clap.ogg
192,192,220938,1,0,0:0:0:0:
448,192,220938,1,0,0:0:0:0:
192,192,221045,1,0,0:0:0:100:8bm piano 036.ogg
320,192,221045,1,0,0:0:0:0:
64,192,221152,1,0,0:0:0:0:
192,192,221259,1,0,0:0:0:100:8bm piano 037.ogg
448,192,221259,1,0,0:0:0:0:
320,192,221340,1,0,0:0:0:0:
64,192,221366,1,0,0:0:0:100:5bm final Reverse Cymbals.ogg
448,192,221366,1,0,0:0:0:100:3bm Drum Kick.ogg
320,192,221438,1,0,0:0:0:100:8bm piano 039.ogg
192,192,221509,1,0,0:0:0:100:8bm piano 040.ogg
64,192,221581,1,0,0:0:0:100:5bm final Reverse Cymbals.ogg
448,192,221581,1,0,0:0:0:100:3bm Drum Kick.ogg
320,192,221652,1,0,0:0:0:100:8bm piano 042.ogg
192,192,221724,1,0,0:0:0:100:8bm piano 043.ogg
64,192,221795,1,0,0:0:0:100:3bm Drum Clap.ogg
448,192,221795,1,0,0:0:0:100:8bm piano 027.ogg
64,192,221902,1,0,0:0:0:100:3bm Drum Kick.ogg
320,192,221902,1,0,0:0:0:100:8bm piano 028.ogg
320,192,222009,1,0,0:0:0:100:5bm final Reverse Cymbals.ogg
448,192,222009,1,0,0:0:0:100:8bm piano 029.ogg
64,192,222116,1,0,0:0:0:100:3bm Drum Kick.ogg
448,192,222116,1,0,0:0:0:100:8bm piano 030.ogg
64,192,222224,1,0,0:0:0:100:3bm Drum Kick.ogg
192,192,222224,1,0,0:0:0:0:
192,192,222331,1,0,0:0:0:100:3bm Drum Kick.ogg
448,192,222331,1,0,0:0:0:100:8bm piano 044.ogg
320,192,222438,1,0,0:0:0:100:3bm Drum Kick.ogg
448,192,222438,1,0,0:0:0:100:8bm piano 045.ogg
192,192,222545,1,0,0:0:0:100:3bm Drum Kick.ogg
320,192,222545,1,0,0:0:0:100:8bm piano 046.ogg
64,192,222652,1,0,0:0:0:100:3bm Drum Kick.ogg
448,192,222652,1,0,0:0:0:0:
64,192,222759,1,0,0:0:0:100:3bm Drum Kick.ogg
448,192,222759,1,0,0:0:0:100:8bm piano 047.ogg
192,192,222866,1,0,0:0:0:100:3bm Drum Kick.ogg
320,192,222866,1,0,0:0:0:0:
192,192,222974,1,0,0:0:0:100:3bm Drum Kick.ogg
320,192,222974,1,0,0:0:0:0:
64,192,223081,1,0,0:0:0:100:3bm Drum Kick.ogg
192,192,223081,1,0,0:0:0:70:3bm Crash Cymbals.ogg
320,192,223081,1,0,0:0:0:0:
448,192,223081,1,0,0:0:0:0:
448,192,223188,1,0,0:0:0:0:
192,192,223295,1,0,0:0:0:100:8bm piano 001.ogg
320,192,223295,1,0,0:0:0:0:
64,192,223402,1,0,0:0:0:0:
192,192,223509,1,0,0:0:0:100:3bm Drum Clap.ogg
320,192,223509,1,0,0:0:0:0:
448,192,223509,1,0,0:0:0:0:
64,192,223616,1,0,0:0:0:100:8bm piano 001.ogg
320,192,223616,1,0,0:0:0:0:
448,192,223724,1,0,0:0:0:0:
192,192,223831,1,0,0:0:0:100:8bm piano 002.ogg
448,192,223831,1,0,0:0:0:0:
64,192,223938,1,0,0:0:0:100:3bm Drum Kick.ogg
320,192,223938,1,0,0:0:0:0:
320,192,224045,1,0,0:0:0:0:
64,192,224152,1,0,0:0:0:100:8bm piano 001.ogg
448,192,224152,1,0,0:0:0:0:
64,192,224259,1,0,0:0:0:0:
192,192,224259,1,0,0:0:0:0:
192,192,224366,1,0,0:0:0:100:3bm Drum Clap.ogg
320,192,224366,1,0,0:0:0:100:8bm piano 003.ogg
448,192,224366,1,0,0:0:0:0:
64,192,224474,1,0,0:0:0:100:8bm piano 001.ogg
448,192,224474,1,0,0:0:0:0:
192,192,224581,1,0,0:0:0:0:
320,192,224688,1,0,0:0:0:100:8bm piano 004.ogg
448,192,224688,1,0,0:0:0:0:
64,192,224795,1,0,0:0:0:100:3bm Drum Kick.ogg
448,192,224795,1,0,0:0:0:0:
192,192,224902,1,0,0:0:0:0:
320,192,225009,1,0,0:0:0:100:8bm piano 005.ogg
448,192,225009,1,0,0:0:0:0:
192,192,225116,1,0,0:0:0:100:8bm piano 006.ogg
320,192,225116,1,0,0:0:0:0:
64,192,225224,1,0,0:0:0:100:3bm Drum Clap.ogg
192,192,225224,1,0,0:0:0:0:
448,192,225224,1,0,0:0:0:0:
64,192,225331,1,0,0:0:0:100:8bm piano 007.ogg
320,192,225331,1,0,0:0:0:0:
448,192,225438,1,0,0:0:0:0:
320,192,225545,1,0,0:0:0:0:
64,192,225652,1,0,0:0:0:100:3bm Drum Kick.ogg
192,192,225652,1,0,0:0:0:100:8bm piano 008.ogg
192,192,225759,1,0,0:0:0:0:
64,192,225866,1,0,0:0:0:100:8bm piano 008.ogg
448,192,225866,1,0,0:0:0:0:
320,192,225974,1,0,0:0:0:100:8bm piano 009.ogg
448,192,225974,1,0,0:0:0:0:
64,192,226081,1,0,0:0:0:100:3bm Drum Clap.ogg
192,192,226081,1,0,0:0:0:0:
320,192,226081,1,0,0:0:0:0:
64,192,226188,1,0,0:0:0:100:8bm piano 010.ogg
448,192,226188,1,0,0:0:0:0:
320,192,226295,1,0,0:0:0:0:
192,192,226402,1,0,0:0:0:0:
192,192,226509,1,0,0:0:0:100:3bm Closing Hihats.ogg
320,192,226509,1,0,0:0:0:100:3bm Drum Kick.ogg
448,192,226509,1,0,0:0:0:100:8bm piano 011.ogg
64,192,226616,1,0,0:0:0:0:
192,192,226724,1,0,0:0:0:100:3bm Closing Hihats.ogg
320,192,226724,1,0,0:0:0:100:3bm Drum Kick.ogg
448,192,226724,1,0,0:0:0:100:8bm piano 048.ogg
64,192,226831,1,0,0:0:0:100:8bm piano 049.ogg
320,192,226911,1,0,0:0:0:0:
192,192,226938,1,0,0:0:0:100:3bm Drum Kick.ogg
448,192,226938,1,0,0:0:0:100:8bm piano 050.ogg
64,192,227045,1,0,0:0:0:100:3bm Closing Hihats.ogg
320,192,227045,1,0,0:0:0:100:8bm piano 051.ogg
64,192,227152,1,0,0:0:0:100:8bm piano 052.ogg
192,192,227259,1,0,0:0:0:100:3bm Drum Kick.ogg
448,192,227259,1,0,0:0:0:100:8bm piano 049.ogg
64,192,227340,1,0,0:0:0:0:
320,192,227366,1,0,0:0:0:100:3bm Closing Hihats.ogg
448,192,227366,1,0,0:0:0:100:3bm Drum Kick.ogg
192,192,227474,1,0,0:0:0:100:8bm piano 054.ogg
192,192,227581,1,0,0:0:0:100:8bm piano 054.ogg
64,192,227688,1,0,0:0:0:100:3bm Closing Hihats.ogg
320,192,227688,1,0,0:0:0:100:3bm Drum Kick.ogg
448,192,227688,1,0,0:0:0:100:8bm piano 055.ogg
192,192,227795,1,0,0:0:0:0:
64,192,227902,1,0,0:0:0:100:3bm Closing Hihats.ogg
320,192,227902,1,0,0:0:0:100:3bm Drum Kick.ogg
448,192,227902,1,0,0:0:0:100:8bm piano 054.ogg
448,192,228009,1,0,0:0:0:100:3bm Closing Hihats.ogg
192,192,228116,1,0,0:0:0:0:
64,192,228224,1,0,0:0:0:100:3bm Closing Hihats.ogg
192,192,228224,1,0,0:0:0:100:3bm Drum Kick.ogg
448,192,228224,1,0,0:0:0:0:
320,192,228331,1,0,0:0:0:100:8bm piano 056.ogg
64,192,228438,1,0,0:0:0:100:3bm Closing Hihats.ogg
192,192,228438,1,0,0:0:0:100:3bm Drum Kick.ogg
320,192,228438,1,0,0:0:0:100:8bm piano 056.ogg
320,192,228545,1,0,0:0:0:100:8bm piano 056.ogg
64,192,228652,1,0,0:0:0:100:3bm Closing Hihats.ogg
192,192,228652,1,0,0:0:0:100:3bm Drum Kick.ogg
320,192,228652,1,0,0:0:0:100:8bm piano 056.ogg
320,192,228759,1,0,0:0:0:100:8bm piano 056.ogg
64,192,228866,1,0,0:0:0:100:3bm Drum Kick.ogg
192,192,228866,1,0,0:0:0:100:8bm piano 057.ogg
448,192,228866,1,0,0:0:0:0:
64,192,228974,1,0,0:0:0:100:3bm Drum Kick.ogg
448,192,228974,1,0,0:0:0:100:8bm piano 056.ogg
192,192,229081,1,0,0:0:0:100:3bm Closing Hihats.ogg
320,192,229081,1,0,0:0:0:100:3bm Drum Kick.ogg
448,192,229081,1,0,0:0:0:100:8bm piano 058.ogg
64,192,229134,1,0,0:0:0:0:
192,192,229188,1,0,0:0:0:0:
448,192,229241,1,0,0:0:0:0:
320,192,229295,1,0,0:0:0:0:
192,192,229349,1,0,0:0:0:0:
64,192,229402,1,0,0:0:0:100:3bm Drum Kick.ogg
320,192,229402,1,0,0:0:0:100:3bm Closing Hihats.ogg
448,192,229402,1,0,0:0:0:100:8bm piano 059.ogg
192,192,229456,1,0,0:0:0:0:
448,192,229509,1,0,0:0:0:0:
64,192,229563,1,0,0:0:0:0:
192,192,229616,1,0,0:0:0:0:
448,192,229670,1,0,0:0:0:0:
64,192,229724,1,0,0:0:0:100:3bm Closing Hihats.ogg
192,192,229724,1,0,0:0:0:100:3bm Drum Kick.ogg
320,192,229724,1,0,0:0:0:100:8bm piano 060.ogg
448,192,229777,1,0,0:0:0:0:
64,192,229831,1,0,0:0:0:0:
192,192,229884,1,0,0:0:0:0:
320,192,229938,1,0,0:0:0:70:3bm Crash Cymbals.ogg
448,192,229938,1,0,0:0:0:100:3bm Drum Kick.ogg
192,192,230045,1,0,0:0:0:0:
320,192,230152,1,0,0:0:0:0:
64,192,230259,1,0,0:0:0:0:
320,192,230366,1,0,0:0:0:0:
448,192,230366,1,0,0:0:0:0:
64,192,230474,1,0,0:0:0:0:
192,192,230554,1,0,0:0:0:0:
320,192,230581,1,0,0:0:0:100:8bm piano 062.ogg
448,192,230607,1,0,0:0:0:0:
64,192,230688,1,0,0:0:0:0:
448,192,230795,1,0,0:0:0:0:
192,192,230902,1,0,0:0:0:0:
320,192,231009,1,0,0:0:0:0:
64,192,231116,1,0,0:0:0:0:
448,192,231197,1,0,0:0:0:0:
320,192,231224,1,0,0:0:0:100:8bm piano 063.ogg
192,192,231250,1,0,0:0:0:0:
64,192,231277,1,0,0:0:0:0:
448,192,231331,1,0,0:0:0:0:
192,192,231438,1,0,0:0:0:100:3bm Drum Kick.ogg
320,192,231438,1,0,0:0:0:0:
320,192,231545,1,0,0:0:0:0:
64,192,231652,1,0,0:0:0:100:8bm piano 064.ogg
192,192,231652,1,0,0:0:0:100:3bm Drum Kick.ogg
448,192,231652,1,0,0:0:0:100:3bm Closing Hihats.ogg
192,192,231759,1,0,0:0:0:0:
64,192,231866,1,0,0:0:0:100:3bm Drum Kick.ogg
448,192,231866,1,0,0:0:0:0:
64,192,231974,1,0,0:0:0:100:8bm piano 065.ogg
192,192,231974,1,0,0:0:0:0:
320,192,232081,1,0,0:0:0:100:3bm Drum Kick.ogg
448,192,232081,1,0,0:0:0:0:
448,192,232188,1,0,0:0:0:0:
64,192,232268,1,0,0:0:0:0:
192,192,232295,1,0,0:0:0:100:8bm piano 066.ogg
320,192,232322,1,0,0:0:0:0:
448,192,232402,1,0,0:0:0:0:
64,192,232509,1,0,0:0:0:100:3bm Drum Kick.ogg
192,192,232509,1,0,0:0:0:0:
448,192,232563,1,0,0:0:0:0:
320,192,232616,1,0,0:0:0:0:
192,192,232670,1,0,0:0:0:0:
64,192,232724,1,0,0:0:0:100:8bm piano 067.ogg
448,192,232724,1,0,0:0:0:100:3bm Drum Kick.ogg
320,192,232777,1,0,0:0:0:0:
192,192,232831,1,0,0:0:0:100:8bm piano 021.ogg
320,192,232884,1,0,0:0:0:0:
64,192,232938,1,0,0:0:0:100:8bm piano 002.ogg
448,192,232938,1,0,0:0:0:100:3bm Drum Kick.ogg
192,192,232991,1,0,0:0:0:0:
320,192,233045,1,0,0:0:0:100:8bm piano 027.ogg
64,192,233099,1,0,0:0:0:0:
192,192,233152,1,0,0:0:0:100:8bm piano 028.ogg
448,192,233152,1,0,0:0:0:100:3bm Drum Kick.ogg
64,192,233206,1,0,0:0:0:0:
448,192,233259,1,0,0:0:0:100:8bm piano 029.ogg
320,192,233313,1,0,0:0:0:0:
64,192,233366,1,0,0:0:0:40:3bm Crash Cymbals.ogg
192,192,233366,1,0,0:0:0:100:3bm Drum Kick.ogg
320,192,233474,1,0,0:0:0:0:
448,192,233581,128,0,233688:0:0:0:0:
64,192,233688,1,0,0:0:0:0:
192,192,233795,128,0,233902:0:0:0:100:3bm Drum Clap.ogg
320,192,233795,1,0,0:0:0:0:
320,192,233902,128,0,234009:0:0:0:0:
64,192,234009,1,0,0:0:0:0:
192,192,234116,128,0,234224:0:0:0:0:
320,192,234224,128,0,234331:0:0:0:100:3bm Drum Kick.ogg
448,192,234224,1,0,0:0:0:0:
192,192,234331,1,0,0:0:0:0:
64,192,234438,128,0,234545:0:0:0:0:
320,192,234545,128,0,234652:0:0:0:0:
192,192,234652,1,0,0:0:0:100:3bm Drum Clap.ogg
448,192,234652,1,0,0:0:0:0:
192,192,234759,128,0,234866:0:0:0:0:
320,192,234866,128,0,234974:0:0:0:0:
448,192,234974,1,0,0:0:0:0:
64,192,235081,1,0,0:0:0:100:3bm Drum Kick.ogg
192,192,235081,1,0,0:0:0:0:
320,192,235188,1,0,0:0:0:0:
448,192,235295,128,0,235402:0:0:0:0:
64,192,235402,1,0,0:0:0:0:
192,192,235509,128,0,235616:0:0:0:100:3bm Drum Clap.ogg
448,192,235509,1,0,0:0:0:0:
448,192,235616,128,0,235724:0:0:0:0:
64,192,235724,1,0,0:0:0:0:
192,192,235831,128,0,235938:0:0:0:0:
320,192,235938,128,0,236045:0:0:0:100:3bm Drum Kick.ogg
448,192,235938,1,0,0:0:0:0:
192,192,236045,1,0,0:0:0:0:
64,192,236152,128,0,236259:0:0:0:0:
320,192,236259,128,0,236366:0:0:0:0:
192,192,236366,1,0,0:0:0:100:3bm Drum Clap.ogg
448,192,236366,1,0,0:0:0:0:
192,192,236474,128,0,236581:0:0:0:0:
320,192,236581,128,0,236688:0:0:0:0:
448,192,236688,1,0,0:0:0:0:
64,192,236795,1,0,0:0:0:100:3bm Drum Kick.ogg
192,192,236795,1,0,0:0:0:0:
320,192,236902,1,0,0:0:0:0:
448,192,237009,128,0,237116:0:0:0:0:
64,192,237116,1,0,0:0:0:0:
192,192,237224,128,0,237331:0:0:0:100:3bm Drum Clap.ogg
448,192,237224,1,0,0:0:0:0:
448,192,237331,128,0,237438:0:0:0:0:
64,192,237438,1,0,0:0:0:0:
192,192,237545,128,0,237652:0:0:0:0:
320,192,237652,128,0,237759:0:0:0:100:3bm Drum Kick.ogg
448,192,237652,1,0,0:0:0:0:
192,192,237759,1,0,0:0:0:0:
64,192,237866,128,0,237974:0:0:0:0:
320,192,237974,128,0,238081:0:0:0:0:
192,192,238081,1,0,0:0:0:100:3bm Drum Clap.ogg
448,192,238081,1,0,0:0:0:0:
192,192,238188,128,0,238295:0:0:0:0:
320,192,238295,128,0,238402:0:0:0:0:
448,192,238402,1,0,0:0:0:0:
64,192,238509,1,0,0:0:0:100:3bm Drum Kick.ogg
192,192,238509,1,0,0:0:0:0:
320,192,238616,128,0,238724:0:0:0:0:
64,192,238724,128,0,238831:0:0:0:0:
448,192,238831,1,0,0:0:0:0:
64,192,238938,1,0,0:0:0:100:3bm Drum Clap.ogg
320,192,238938,128,0,239045:0:0:0:0:
64,192,239045,128,0,239152:0:0:0:0:
192,192,239152,1,0,0:0:0:0:
448,192,239259,128,0,239366:0:0:0:0:
64,192,239366,128,0,239474:0:0:0:100:3bm Drum Kick.ogg
192,192,239366,1,0,0:0:0:0:
320,192,239474,1,0,0:0:0:0:
448,192,239581,128,0,239688:0:0:0:0:
64,192,239688,128,0,239795:0:0:0:0:
192,192,239795,1,0,0:0:0:100:3bm Drum Clap.ogg
448,192,239795,1,0,0:0:0:0:
192,192,239902,128,0,240009:0:0:0:0:
320,192,240009,128,0,240116:0:0:0:0:
192,192,240116,128,0,240224:0:0:0:0:
64,192,240224,1,0,0:0:0:55:3bm Crash Cymbals.ogg
320,192,240224,1,0,0:0:0:100:3bm Drum Kick.ogg
448,192,240224,1,0,0:0:0:0:
64,192,240331,1,0,0:0:0:0:
448,192,240438,128,0,240545:0:0:0:0:
64,192,240545,1,0,0:0:0:0:
192,192,240652,128,0,240759:0:0:0:100:3bm Drum Clap.ogg
320,192,240652,1,0,0:0:0:0:
320,192,240759,128,0,240866:0:0:0:0:
64,192,240866,1,0,0:0:0:0:
192,192,240974,128,0,241081:0:0:0:0:
320,192,241081,128,0,241188:0:0:0:100:3bm Drum Kick.ogg
448,192,241081,1,0,0:0:0:0:
192,192,241188,1,0,0:0:0:0:
64,192,241295,128,0,241402:0:0:0:0:
320,192,241402,128,0,241509:0:0:0:0:
192,192,241509,1,0,0:0:0:100:3bm Drum Clap.ogg
448,192,241509,1,0,0:0:0:0:
192,192,241616,128,0,241724:0:0:0:0:
320,192,241724,128,0,241831:0:0:0:0:
64,192,241831,1,0,0:0:0:0:
192,192,241938,1,0,0:0:0:100:3bm Drum Kick.ogg
320,192,241938,1,0,0:0:0:55:3bm Crash Cymbals.ogg
448,192,241938,1,0,0:0:0:0:
192,192,242045,1,0,0:0:0:0:
448,192,242152,128,0,242259:0:0:0:0:
64,192,242259,1,0,0:0:0:0:
192,192,242366,128,0,242474:0:0:0:100:3bm Drum Clap.ogg
448,192,242366,1,0,0:0:0:0:
448,192,242474,128,0,242581:0:0:0:0:
64,192,242581,1,0,0:0:0:0:
192,192,242688,128,0,242795:0:0:0:0:
320,192,242795,128,0,242902:0:0:0:100:3bm Drum Kick.ogg
448,192,242795,1,0,0:0:0:0:
192,192,242902,1,0,0:0:0:0:
64,192,243009,128,0,243116:0:0:0:0:
320,192,243116,128,0,243224:0:0:0:0:
192,192,243224,1,0,0:0:0:100:3bm Drum Clap.ogg
448,192,243224,1,0,0:0:0:0:
192,192,243331,128,0,243438:0:0:0:0:
320,192,243438,128,0,243545:0:0:0:0:
192,192,243545,1,0,0:0:0:0:
64,192,243652,1,0,0:0:0:100:3bm Drum Kick.ogg
320,192,243652,1,0,0:0:0:55:3bm Crash Cymbals.ogg
448,192,243652,1,0,0:0:0:0:
64,192,243759,1,0,0:0:0:0:
448,192,243866,128,0,243974:0:0:0:0:
64,192,243974,1,0,0:0:0:0:
192,192,244081,128,0,244188:0:0:0:100:3bm Drum Clap.ogg
448,192,244081,1,0,0:0:0:0:
448,192,244188,128,0,244295:0:0:0:0:
64,192,244295,1,0,0:0:0:0:
192,192,244402,128,0,244509:0:0:0:0:
320,192,244509,128,0,244616:0:0:0:100:3bm Drum Kick.ogg
448,192,244509,1,0,0:0:0:0:
192,192,244616,1,0,0:0:0:0:
64,192,244724,128,0,244831:0:0:0:0:
320,192,244831,128,0,244938:0:0:0:0:
192,192,244938,1,0,0:0:0:100:3bm Drum Clap.ogg
448,192,244938,1,0,0:0:0:0:
192,192,245045,128,0,245152:0:0:0:0:
448,192,245152,128,0,245259:0:0:0:0:
192,192,245259,1,0,0:0:0:0:
64,192,245366,1,0,0:0:0:100:3bm Drum Kick.ogg
320,192,245366,1,0,0:0:0:55:3bm Crash Cymbals.ogg
448,192,245366,1,0,0:0:0:0:
320,192,245474,128,0,245581:0:0:0:0:
64,192,245581,128,0,245688:0:0:0:0:
448,192,245688,1,0,0:0:0:0:
64,192,245795,1,0,0:0:0:100:3bm Drum Clap.ogg
320,192,245795,128,0,245902:0:0:0:0:
64,192,245902,128,0,246009:0:0:0:0:
320,192,246009,1,0,0:0:0:0:
448,192,246116,128,0,246224:0:0:0:0:
64,192,246224,128,0,246331:0:0:0:100:3bm Drum Kick.ogg
192,192,246224,1,0,0:0:0:0:
320,192,246331,1,0,0:0:0:0:
448,192,246438,128,0,246545:0:0:0:0:
64,192,246545,128,0,246652:0:0:0:0:
192,192,246652,1,0,0:0:0:100:3bm Drum Clap.ogg
448,192,246652,1,0,0:0:0:0:
192,192,246759,128,0,246866:0:0:0:0:
320,192,246866,128,0,246974:0:0:0:0:
192,192,246974,128,0,247081:0:0:0:0:
64,192,247081,1,0,0:0:0:100:3bm Drum Kick.ogg
320,192,247081,1,0,0:0:0:55:3bm Crash Cymbals.ogg
448,192,247081,1,0,0:0:0:0:
448,192,247188,1,0,0:0:0:0:
64,192,247295,128,0,247402:0:0:0:0:
448,192,247402,1,0,0:0:0:0:
192,192,247509,1,0,0:0:0:100:3bm Drum Clap.ogg
320,192,247509,128,0,247616:0:0:0:0:
192,192,247616,128,0,247724:0:0:0:0:
448,192,247724,1,0,0:0:0:0:
320,192,247831,128,0,247938:0:0:0:0:
64,192,247938,1,0,0:0:0:100:3bm Drum Kick.ogg
192,192,247938,128,0,248045:0:0:0:0:
320,192,248045,1,0,0:0:0:0:
448,192,248152,128,0,248259:0:0:0:0:
192,192,248259,128,0,248366:0:0:0:0:
64,192,248366,1,0,0:0:0:100:3bm Drum Clap.ogg
320,192,248366,1,0,0:0:0:0:
320,192,248474,128,0,248581:0:0:0:0:
192,192,248581,128,0,248688:0:0:0:0:
448,192,248688,1,0,0:0:0:0:
64,192,248795,1,0,0:0:0:100:3bm Drum Kick.ogg
192,192,248795,1,0,0:0:0:55:3bm Crash Cymbals.ogg
320,192,248795,1,0,0:0:0:0:
320,192,248902,1,0,0:0:0:0:
64,192,249009,128,0,249116:0:0:0:0:
448,192,249116,1,0,0:0:0:0:
64,192,249224,1,0,0:0:0:100:3bm Drum Clap.ogg
320,192,249224,128,0,249331:0:0:0:0:
64,192,249331,128,0,249438:0:0:0:0:
448,192,249438,1,0,0:0:0:0:
320,192,249545,128,0,249652:0:0:0:0:
64,192,249652,1,0,0:0:0:100:3bm Drum Kick.ogg
192,192,249652,128,0,249759:0:0:0:0:
320,192,249759,1,0,0:0:0:0:
448,192,249866,128,0,249974:0:0:0:0:
192,192,249974,128,0,250081:0:0:0:0:
64,192,250081,1,0,0:0:0:100:3bm Drum Clap.ogg
320,192,250081,1,0,0:0:0:0:
320,192,250188,128,0,250295:0:0:0:0:
192,192,250295,128,0,250402:0:0:0:0:
448,192,250402,1,0,0:0:0:0:
64,192,250509,1,0,0:0:0:100:3bm Drum Kick.ogg
192,192,250509,1,0,0:0:0:55:3bm Crash Cymbals.ogg
320,192,250509,1,0,0:0:0:0:
320,192,250616,1,0,0:0:0:0:
64,192,250724,128,0,250831:0:0:0:0:
448,192,250831,1,0,0:0:0:0:
64,192,250938,1,0,0:0:0:100:3bm Drum Clap.ogg
320,192,250938,128,0,251045:0:0:0:0:
64,192,251045,128,0,251152:0:0:0:0:
448,192,251152,1,0,0:0:0:0:
320,192,251259,128,0,251366:0:0:0:0:
64,192,251366,1,0,0:0:0:100:3bm Drum Kick.ogg
192,192,251366,128,0,251474:0:0:0:0:
320,192,251474,1,0,0:0:0:0:
448,192,251581,128,0,251688:0:0:0:0:
192,192,251688,128,0,251795:0:0:0:0:
64,192,251795,1,0,0:0:0:100:3bm Drum Clap.ogg
320,192,251795,1,0,0:0:0:0:
320,192,251902,128,0,252009:0:0:0:0:
64,192,252009,128,0,252116:0:0:0:0:
320,192,252116,1,0,0:0:0:0:
64,192,252224,1,0,0:0:0:100:3bm Drum Kick.ogg
192,192,252224,1,0,0:0:0:55:3bm Crash Cymbals.ogg
448,192,252224,1,0,0:0:0:0:
192,192,252331,128,0,252438:0:0:0:0:
448,192,252438,128,0,252545:0:0:0:0:
64,192,252545,1,0,0:0:0:0:
192,192,252652,128,0,252759:0:0:0:100:3bm Drum Clap.ogg
448,192,252652,1,0,0:0:0:0:
448,192,252759,128,0,252866:0:0:0:0:
320,192,252866,1,0,0:0:0:0:
64,192,252974,128,0,253081:0:0:0:0:
320,192,253081,1,0,0:0:0:100:3bm Drum Kick.ogg
448,192,253081,128,0,253188:0:0:0:0:
192,192,253188,1,0,0:0:0:0:
64,192,253295,128,0,253402:0:0:0:0:
448,192,253402,128,0,253509:0:0:0:0:
192,192,253509,1,0,0:0:0:100:3bm Drum Clap.ogg
320,192,253509,1,0,0:0:0:0:
320,192,253616,128,0,253724:0:0:0:0:
192,192,253724,128,0,253831:0:0:0:0:
320,192,253831,128,0,253938:0:0:0:0:
64,192,253938,1,0,0:0:0:100:3bm Drum Kick.ogg
192,192,253938,1,0,0:0:0:55:3bm Crash Cymbals.ogg
448,192,253938,1,0,0:0:0:0:
448,192,254045,1,0,0:0:0:0:
64,192,254152,128,0,254259:0:0:0:0:
448,192,254259,1,0,0:0:0:0:
192,192,254366,1,0,0:0:0:100:3bm Drum Clap.ogg
320,192,254366,128,0,254474:0:0:0:0:
192,192,254474,128,0,254581:0:0:0:0:
448,192,254581,1,0,0:0:0:0:
320,192,254688,128,0,254795:0:0:0:0:
64,192,254795,1,0,0:0:0:100:3bm Drum Kick.ogg
192,192,254795,128,0,254902:0:0:0:0:
320,192,254902,1,0,0:0:0:0:
448,192,255009,128,0,255116:0:0:0:0:
192,192,255116,128,0,255224:0:0:0:0:
64,192,255224,1,0,0:0:0:100:3bm Drum Clap.ogg
320,192,255224,1,0,0:0:0:0:
320,192,255331,128,0,255438:0:0:0:0:
192,192,255438,128,0,255545:0:0:0:0:
448,192,255545,1,0,0:0:0:0:
64,192,255652,1,0,0:0:0:100:3bm Drum Kick.ogg
192,192,255652,1,0,0:0:0:55:3bm Crash Cymbals.ogg
320,192,255652,1,0,0:0:0:0:
320,192,255759,1,0,0:0:0:0:
64,192,255866,128,0,255974:0:0:0:0:
448,192,255974,1,0,0:0:0:0:
64,192,256081,1,0,0:0:0:100:3bm Drum Clap.ogg
320,192,256081,128,0,256188:0:0:0:0:
64,192,256188,128,0,256295:0:0:0:0:
448,192,256295,1,0,0:0:0:0:
320,192,256402,128,0,256509:0:0:0:0:
64,192,256509,1,0,0:0:0:100:3bm Drum Kick.ogg
192,192,256509,128,0,256616:0:0:0:0:
320,192,256616,1,0,0:0:0:0:
448,192,256724,128,0,256831:0:0:0:0:
192,192,256831,128,0,256938:0:0:0:0:
64,192,256938,1,0,0:0:0:100:3bm Drum Clap.ogg
320,192,256938,1,0,0:0:0:0:
320,192,257045,128,0,257152:0:0:0:0:
192,192,257152,128,0,257259:0:0:0:0:
320,192,257259,1,0,0:0:0:0:
64,192,257366,1,0,0:0:0:100:3bm Drum Kick.ogg
192,192,257366,1,0,0:0:0:55:3bm Crash Cymbals.ogg
448,192,257366,1,0,0:0:0:0:
448,192,257474,1,0,0:0:0:0:
64,192,257581,128,0,257688:0:0:0:0:
448,192,257688,1,0,0:0:0:0:
64,192,257795,1,0,0:0:0:100:3bm Drum Clap.ogg
320,192,257795,128,0,257902:0:0:0:0:
64,192,257902,128,0,258009:0:0:0:0:
448,192,258009,1,0,0:0:0:0:
320,192,258116,128,0,258224:0:0:0:0:
64,192,258224,1,0,0:0:0:100:3bm Drum Kick.ogg
192,192,258224,128,0,258331:0:0:0:0:
320,192,258331,1,0,0:0:0:0:
448,192,258438,128,0,258545:0:0:0:0:
192,192,258545,128,0,258652:0:0:0:0:
64,192,258652,1,0,0:0:0:100:3bm Drum Clap.ogg
320,192,258652,1,0,0:0:0:0:
320,192,258759,128,0,258866:0:0:0:0:
64,192,258866,128,0,258974:0:0:0:0:
320,192,258974,1,0,0:0:0:0:
64,192,259081,1,0,0:0:0:100:3bm Drum Kick.ogg
192,192,259081,1,0,0:0:0:55:3bm Crash Cymbals.ogg
448,192,259081,1,0,0:0:0:0:
192,192,259188,128,0,259295:0:0:0:0:
448,192,259295,128,0,259402:0:0:0:0:
64,192,259402,1,0,0:0:0:0:
192,192,259509,128,0,259616:0:0:0:100:3bm Drum Clap.ogg
448,192,259509,1,0,0:0:0:0:
448,192,259616,128,0,259759:0:0:0:0:
192,192,259724,1,0,0:0:0:0:
64,192,259831,128,0,259938:0:0:0:0:
320,192,259938,1,0,0:0:0:100:3bm Drum Kick.ogg
448,192,259938,128,0,260116:0:0:0:0:
192,192,260045,1,0,0:0:0:0:
64,192,260152,128,0,260295:0:0:0:0:
448,192,260259,128,0,260474:0:0:0:0:
64,192,260366,1,0,0:0:0:100:3bm Drum Clap.ogg
320,192,260366,1,0,0:0:0:0:
320,192,260474,128,0,260616:0:0:0:0:
192,192,260581,128,0,260724:0:0:0:0:
320,192,260688,128,0,260795:0:0:0:0:
64,192,260795,1,0,0:0:0:100:3bm Drum Kick.ogg
192,192,260795,1,0,0:0:0:55:3bm Crash Cymbals.ogg
448,192,260795,1,0,0:0:0:0:
192,192,260902,1,0,0:0:0:0:
448,192,261009,128,0,261116:0:0:0:0:
64,192,261116,1,0,0:0:0:0:
192,192,261224,128,0,261331:0:0:0:100:3bm Drum Clap.ogg
320,192,261224,1,0,0:0:0:0:
448,192,261224,1,0,0:0:0:0:
448,192,261331,128,0,261438:0:0:0:0:
64,192,261438,128,0,261545:0:0:0:0:
192,192,261545,1,0,0:0:0:0:
320,192,261545,128,0,261652:0:0:0:0:
64,192,261652,128,0,261759:0:0:0:100:3bm Drum Kick.ogg
448,192,261652,1,0,0:0:0:0:
192,192,261759,1,0,0:0:0:0:
320,192,261759,128,0,261866:0:0:0:0:
64,192,261866,128,0,261974:0:0:0:0:
448,192,261866,1,0,0:0:0:0:
448,192,261974,1,0,0:0:0:0:
64,192,262081,1,0,0:0:0:100:3bm Drum Clap.ogg
192,192,262081,1,0,0:0:0:0:
320,192,262081,128,0,262188:0:0:0:0:
192,192,262188,128,0,262295:0:0:0:0:
448,192,262295,128,0,262402:0:0:0:0:
320,192,262402,128,0,262509:0:0:0:0:
64,192,262509,1,0,0:0:0:100:3bm Drum Kick.ogg
192,192,262509,1,0,0:0:0:0:
64,192,262616,1,0,0:0:0:0:
448,192,262724,128,0,262831:0:0:0:0:
64,192,262831,1,0,0:0:0:0:
192,192,262938,128,0,263045:0:0:0:100:3bm Drum Clap.ogg
320,192,262938,1,0,0:0:0:0:
448,192,262938,1,0,0:0:0:0:
448,192,263045,128,0,263152:0:0:0:0:
64,192,263152,128,0,263259:0:0:0:0:
192,192,263259,1,0,0:0:0:0:
320,192,263259,128,0,263366:0:0:0:0:
64,192,263366,128,0,263474:0:0:0:100:3bm Drum Kick.ogg
448,192,263366,1,0,0:0:0:0:
192,192,263474,1,0,0:0:0:0:
320,192,263474,128,0,263581:0:0:0:0:
64,192,263581,128,0,263688:0:0:0:0:
448,192,263581,1,0,0:0:0:0:
448,192,263688,1,0,0:0:0:0:
64,192,263795,1,0,0:0:0:100:3bm Drum Clap.ogg
192,192,263795,1,0,0:0:0:0:
320,192,263795,128,0,263902:0:0:0:0:
192,192,263902,128,0,264009:0:0:0:0:
448,192,264009,128,0,264116:0:0:0:0:
320,192,264116,128,0,264224:0:0:0:0:
64,192,264224,1,0,0:0:0:100:3bm Drum Kick.ogg
192,192,264224,1,0,0:0:0:0:
448,192,264331,1,0,0:0:0:0:
64,192,264438,128,0,264545:0:0:0:0:
448,192,264545,1,0,0:0:0:0:
64,192,264652,1,0,0:0:0:100:3bm Drum Clap.ogg
192,192,264652,1,0,0:0:0:0:
320,192,264652,128,0,264759:0:0:0:0:
64,192,264759,128,0,264866:0:0:0:0:
448,192,264866,128,0,264974:0:0:0:0:
192,192,264974,128,0,265081:0:0:0:0:
320,192,264974,1,0,0:0:0:0:
64,192,265081,1,0,0:0:0:100:3bm Drum Kick.ogg
448,192,265081,128,0,265188:0:0:0:0:
192,192,265188,128,0,265295:0:0:0:0:
320,192,265188,1,0,0:0:0:0:
64,192,265295,1,0,0:0:0:0:
448,192,265295,128,0,265402:0:0:0:0:
64,192,265402,1,0,0:0:0:0:
192,192,265509,128,0,265616:0:0:0:100:3bm Drum Clap.ogg
320,192,265509,1,0,0:0:0:0:
448,192,265509,1,0,0:0:0:0:
320,192,265616,128,0,265724:0:0:0:0:
64,192,265724,128,0,265831:0:0:0:0:
192,192,265831,128,0,265938:0:0:0:0:
320,192,265938,1,0,0:0:0:100:3bm Drum Kick.ogg
448,192,265938,1,0,0:0:0:0:
448,192,266045,1,0,0:0:0:0:
64,192,266152,128,0,266259:0:0:0:0:
448,192,266259,1,0,0:0:0:0:
64,192,266366,1,0,0:0:0:100:3bm Drum Clap.ogg
192,192,266366,1,0,0:0:0:0:
320,192,266366,128,0,266474:0:0:0:0:
64,192,266474,128,0,266581:0:0:0:0:
448,192,266581,128,0,266688:0:0:0:0:
192,192,266688,128,0,266795:0:0:0:0:
320,192,266688,1,0,0:0:0:0:
64,192,266795,1,0,0:0:0:100:3bm Drum Kick.ogg
448,192,266795,128,0,266902:0:0:0:0:
192,192,266902,1,0,0:0:0:100:3bm Closing Hihats.ogg
320,192,266902,1,0,0:0:0:0:
64,192,267009,1,0,0:0:0:0:
320,192,267009,1,0,0:0:0:0:
448,192,267116,1,0,0:0:0:0:
64,192,267224,1,0,0:0:0:100:3bm Drum Clap.ogg
192,192,267224,1,0,0:0:0:0:
320,192,267224,1,0,0:0:0:0:
192,192,267331,1,0,0:0:0:0:
64,192,267438,1,0,0:0:0:100:3bm Closing Hihats.ogg
320,192,267438,1,0,0:0:0:0:
448,192,267438,1,0,0:0:0:0:
192,192,267545,1,0,0:0:0:0:
64,192,267652,1,0,0:0:0:100:3bm Drum Kick.ogg
192,192,267652,1,0,0:0:0:55:3bm Crash Cymbals.ogg
320,192,267652,1,0,0:0:0:0:
448,192,267652,1,0,0:0:0:0:
64,192,267759,1,0,0:0:0:0:
448,192,267866,128,0,267974:0:0:0:0:
64,192,267974,1,0,0:0:0:0:
192,192,268081,128,0,268188:0:0:0:100:3bm Drum Clap.ogg
320,192,268081,1,0,0:0:0:0:
448,192,268081,1,0,0:0:0:0:
448,192,268188,128,0,268295:0:0:0:0:
64,192,268295,128,0,268402:0:0:0:0:
192,192,268402,1,0,0:0:0:0:
320,192,268402,128,0,268509:0:0:0:0:
64,192,268509,128,0,268616:0:0:0:100:3bm Drum Kick.ogg
448,192,268509,1,0,0:0:0:0:
192,192,268616,1,0,0:0:0:0:
320,192,268616,128,0,268724:0:0:0:0:
64,192,268724,128,0,268831:0:0:0:0:
448,192,268724,1,0,0:0:0:0:
448,192,268831,1,0,0:0:0:0:
64,192,268938,1,0,0:0:0:100:3bm Drum Clap.ogg
192,192,268938,1,0,0:0:0:0:
320,192,268938,128,0,269045:0:0:0:0:
192,192,269045,128,0,269152:0:0:0:0:
448,192,269152,128,0,269259:0:0:0:0:
320,192,269259,128,0,269366:0:0:0:0:
64,192,269366,1,0,0:0:0:100:3bm Drum Kick.ogg
192,192,269366,1,0,0:0:0:0:
64,192,269474,1,0,0:0:0:0:
448,192,269581,128,0,269688:0:0:0:0:
64,192,269688,1,0,0:0:0:0:
192,192,269795,128,0,269902:0:0:0:100:3bm Drum Clap.ogg
320,192,269795,1,0,0:0:0:0:
448,192,269795,1,0,0:0:0:0:
448,192,269902,128,0,270009:0:0:0:0:
64,192,270009,128,0,270116:0:0:0:0:
192,192,270116,1,0,0:0:0:0:
320,192,270116,128,0,270224:0:0:0:0:
64,192,270224,128,0,270331:0:0:0:100:3bm Drum Kick.ogg
448,192,270224,1,0,0:0:0:0:
192,192,270331,1,0,0:0:0:0:
320,192,270331,128,0,270438:0:0:0:0:
64,192,270438,128,0,270545:0:0:0:0:
448,192,270438,1,0,0:0:0:0:
448,192,270545,1,0,0:0:0:0:
64,192,270652,1,0,0:0:0:100:3bm Drum Clap.ogg
192,192,270652,1,0,0:0:0:0:
320,192,270652,128,0,270759:0:0:0:0:
192,192,270759,128,0,270866:0:0:0:0:
448,192,270866,128,0,270974:0:0:0:0:
320,192,270974,128,0,271081:0:0:0:0:
64,192,271081,1,0,0:0:0:100:3bm Drum Kick.ogg
192,192,271081,1,0,0:0:0:0:
448,192,271188,1,0,0:0:0:0:
64,192,271295,128,0,271402:0:0:0:0:
448,192,271402,1,0,0:0:0:0:
64,192,271509,1,0,0:0:0:100:3bm Drum Clap.ogg
192,192,271509,1,0,0:0:0:0:
320,192,271509,128,0,271616:0:0:0:0:
64,192,271616,128,0,271724:0:0:0:0:
448,192,271724,128,0,271831:0:0:0:0:
192,192,271831,128,0,271938:0:0:0:0:
320,192,271831,1,0,0:0:0:0:
64,192,271938,1,0,0:0:0:100:3bm Drum Kick.ogg
448,192,271938,128,0,272045:0:0:0:0:
192,192,272045,128,0,272152:0:0:0:0:
320,192,272045,1,0,0:0:0:0:
64,192,272152,1,0,0:0:0:0:
448,192,272152,128,0,272259:0:0:0:0:
64,192,272259,1,0,0:0:0:0:
192,192,272366,1,0,0:0:0:100:3bm Drum Clap.ogg
320,192,272366,1,0,0:0:0:0:
448,192,272366,1,0,0:0:0:0:
320,192,272474,1,0,0:0:0:0:
64,192,272581,1,0,0:0:0:100:3bm Drum Kick.ogg
192,192,272581,1,0,0:0:0:0:
448,192,272581,1,0,0:0:0:0:
192,192,272688,1,0,0:0:0:0:
64,192,272795,1,0,0:0:0:100:3bm Drum Kick.ogg
320,192,272795,1,0,0:0:0:0:
192,192,272902,1,0,0:0:0:100:3bm Drum Kick.ogg
320,192,272902,1,0,0:0:0:0:
448,192,273009,1,0,0:0:0:0:
64,192,273116,1,0,0:0:0:100:3bm Drum Kick.ogg
192,192,273116,1,0,0:0:0:0:
192,192,273224,1,0,0:0:0:100:3bm Drum Kick.ogg
448,192,273224,1,0,0:0:0:0:
64,192,273331,1,0,0:0:0:0:
320,192,273331,1,0,0:0:0:0:
448,192,273438,1,0,0:0:0:100:3bm Drum Kick.ogg
64,192,273545,1,0,0:0:0:100:3bm Drum Kick.ogg
320,192,273545,1,0,0:0:0:0:
64,192,273652,128,0,273974:0:0:0:100:3bm Drum Kick.ogg
448,192,273652,128,0,273866:0:0:0:0:
192,192,273759,128,0,274402:0:0:0:100:3bm Drum Kick.ogg
320,192,273866,128,0,274402:0:0:0:100:3bm Drum Kick.ogg
448,192,273974,128,0,274402:0:0:0:0:
64,192,274081,128,0,274402:0:0:0:0:
64,192,274509,1,0,0:0:0:100:3bm Drum Kick.ogg
320,192,274509,1,0,0:0:0:0:
448,192,274509,1,0,0:0:0:0:
192,192,274616,1,0,0:0:0:0:
448,192,274724,128,0,274831:0:0:0:0:
64,192,274831,1,0,0:0:0:0:
192,192,274938,128,0,275045:0:0:0:100:3bm Drum Clap.ogg
320,192,274938,1,0,0:0:0:0:
448,192,274938,1,0,0:0:0:0:
448,192,275045,128,0,275152:0:0:0:0:
64,192,275152,128,0,275259:0:0:0:0:
192,192,275259,1,0,0:0:0:0:
320,192,275259,128,0,275366:0:0:0:0:
64,192,275366,128,0,275474:0:0:0:100:3bm Drum Kick.ogg
448,192,275366,1,0,0:0:0:0:
192,192,275474,1,0,0:0:0:0:
320,192,275474,128,0,275581:0:0:0:0:
64,192,275581,128,0,275688:0:0:0:0:
448,192,275581,1,0,0:0:0:0:
448,192,275688,1,0,0:0:0:0:
64,192,275795,1,0,0:0:0:100:3bm Drum Clap.ogg
192,192,275795,1,0,0:0:0:0:
320,192,275795,128,0,275902:0:0:0:0:
192,192,275902,128,0,276009:0:0:0:0:
448,192,276009,128,0,276116:0:0:0:0:
320,192,276116,128,0,276224:0:0:0:0:
64,192,276224,1,0,0:0:0:100:3bm Drum Kick.ogg
192,192,276224,1,0,0:0:0:0:
64,192,276331,1,0,0:0:0:0:
448,192,276438,128,0,276545:0:0:0:0:
64,192,276545,1,0,0:0:0:0:
192,192,276652,128,0,276759:0:0:0:100:3bm Drum Clap.ogg
320,192,276652,1,0,0:0:0:0:
448,192,276652,1,0,0:0:0:0:
448,192,276759,128,0,276866:0:0:0:0:
64,192,276866,128,0,276974:0:0:0:0:
192,192,276974,1,0,0:0:0:0:
320,192,276974,128,0,277081:0:0:0:0:
64,192,277081,128,0,277188:0:0:0:100:3bm Drum Kick.ogg
448,192,277081,1,0,0:0:0:0:
192,192,277188,1,0,0:0:0:0:
320,192,277188,128,0,277295:0:0:0:0:
64,192,277295,128,0,277402:0:0:0:0:
448,192,277295,1,0,0:0:0:0:
448,192,277402,1,0,0:0:0:0:
64,192,277509,1,0,0:0:0:100:3bm Drum Clap.ogg
192,192,277509,1,0,0:0:0:0:
320,192,277509,128,0,277616:0:0:0:0:
192,192,277616,128,0,277724:0:0:0:0:
448,192,277724,128,0,277831:0:0:0:0:
320,192,277831,128,0,277938:0:0:0:0:
64,192,277938,1,0,0:0:0:100:3bm Drum Kick.ogg
192,192,277938,1,0,0:0:0:0:
448,192,278045,1,0,0:0:0:0:
64,192,278152,128,0,278259:0:0:0:0:
448,192,278259,1,0,0:0:0:0:
64,192,278366,1,0,0:0:0:100:3bm Drum Clap.ogg
192,192,278366,1,0,0:0:0:0:
320,192,278366,128,0,278474:0:0:0:0:
64,192,278474,128,0,278581:0:0:0:0:
448,192,278581,128,0,278688:0:0:0:0:
192,192,278688,128,0,278795:0:0:0:0:
320,192,278688,1,0,0:0:0:0:
64,192,278795,1,0,0:0:0:100:3bm Drum Kick.ogg
448,192,278795,128,0,278902:0:0:0:0:
192,192,278902,128,0,279009:0:0:0:0:
320,192,278902,1,0,0:0:0:0:
64,192,279009,1,0,0:0:0:0:
448,192,279009,128,0,279116:0:0:0:0:
64,192,279116,1,0,0:0:0:0:
192,192,279224,128,0,279331:0:0:0:100:3bm Drum Clap.ogg
320,192,279224,1,0,0:0:0:0:
448,192,279224,1,0,0:0:0:0:
320,192,279331,128,0,279438:0:0:0:0:
64,192,279438,128,0,279545:0:0:0:0:
192,192,279545,128,0,279652:0:0:0:0:
320,192,279652,1,0,0:0:0:100:3bm Drum Kick.ogg
448,192,279652,1,0,0:0:0:0:
448,192,279759,1,0,0:0:0:0:
64,192,279866,128,0,279974:0:0:0:0:
448,192,279974,1,0,0:0:0:0:
64,192,280081,1,0,0:0:0:100:3bm Drum Clap.ogg
192,192,280081,1,0,0:0:0:0:
320,192,280081,128,0,280188:0:0:0:0:
64,192,280188,128,0,280295:0:0:0:0:
448,192,280295,128,0,280402:0:0:0:0:
192,192,280402,128,0,280509:0:0:0:0:
320,192,280402,1,0,0:0:0:0:
64,192,280509,1,0,0:0:0:100:3bm Drum Kick.ogg
448,192,280509,128,0,280616:0:0:0:0:
192,192,280616,1,0,0:0:0:100:3bm Closing Hihats.ogg
320,192,280616,1,0,0:0:0:0:
64,192,280724,1,0,0:0:0:0:
320,192,280724,1,0,0:0:0:0:
64,192,280831,1,0,0:0:0:0:
192,192,280938,1,0,0:0:0:100:3bm Drum Clap.ogg
320,192,280938,1,0,0:0:0:0:
448,192,280938,1,0,0:0:0:0:
320,192,281045,1,0,0:0:0:0:
64,192,281152,1,0,0:0:0:100:3bm Closing Hihats.ogg
192,192,281152,1,0,0:0:0:0:
448,192,281152,1,0,0:0:0:0:
320,192,281259,1,0,0:0:0:0:
64,192,281366,1,0,0:0:0:55:3bm Crash Cymbals.ogg
192,192,281366,1,0,0:0:0:100:3bm Drum Kick.ogg
320,192,281366,1,0,0:0:0:0:
448,192,281366,1,0,0:0:0:0:
64,192,281474,1,0,0:0:0:0:
448,192,281581,128,0,281688:0:0:0:0:
64,192,281688,1,0,0:0:0:0:
192,192,281795,128,0,281902:0:0:0:100:3bm Drum Clap.ogg
320,192,281795,1,0,0:0:0:0:
448,192,281795,1,0,0:0:0:0:
448,192,281902,128,0,282009:0:0:0:0:
64,192,282009,128,0,282116:0:0:0:0:
192,192,282116,1,0,0:0:0:0:
320,192,282116,128,0,282224:0:0:0:0:
64,192,282224,128,0,282331:0:0:0:100:3bm Drum Kick.ogg
448,192,282224,1,0,0:0:0:0:
192,192,282331,1,0,0:0:0:0:
320,192,282331,128,0,282438:0:0:0:0:
64,192,282438,128,0,282545:0:0:0:0:
448,192,282438,1,0,0:0:0:0:
448,192,282545,1,0,0:0:0:0:
64,192,282652,1,0,0:0:0:100:3bm Drum Clap.ogg
192,192,282652,1,0,0:0:0:0:
320,192,282652,128,0,282759:0:0:0:0:
192,192,282759,128,0,282866:0:0:0:0:
448,192,282866,128,0,282974:0:0:0:0:
320,192,282974,128,0,283081:0:0:0:0:
64,192,283081,1,0,0:0:0:100:3bm Drum Kick.ogg
192,192,283081,1,0,0:0:0:0:
64,192,283188,1,0,0:0:0:0:
448,192,283295,128,0,283402:0:0:0:0:
64,192,283402,1,0,0:0:0:0:
192,192,283509,128,0,283616:0:0:0:100:3bm Drum Clap.ogg
320,192,283509,1,0,0:0:0:0:
448,192,283509,1,0,0:0:0:0:
448,192,283616,128,0,283724:0:0:0:0:
64,192,283724,128,0,283831:0:0:0:0:
192,192,283831,1,0,0:0:0:0:
320,192,283831,128,0,283938:0:0:0:0:
64,192,283938,128,0,284045:0:0:0:100:3bm Drum Kick.ogg
448,192,283938,1,0,0:0:0:0:
192,192,284045,1,0,0:0:0:0:
320,192,284045,128,0,284152:0:0:0:0:
64,192,284152,128,0,284259:0:0:0:0:
448,192,284152,1,0,0:0:0:0:
448,192,284259,1,0,0:0:0:0:
64,192,284366,1,0,0:0:0:100:3bm Drum Clap.ogg
192,192,284366,1,0,0:0:0:0:
320,192,284366,128,0,284474:0:0:0:0:
192,192,284474,128,0,284581:0:0:0:0:
448,192,284581,128,0,284688:0:0:0:100:3bm Drum Kick.ogg
64,192,284581,1,0,0:0:0:0:
320,192,284688,128,0,284795:0:0:0:0:
64,192,284795,1,0,0:0:0:100:3bm Drum Kick.ogg
192,192,284795,1,0,0:0:0:0:
448,192,284795,1,0,0:0:0:0:
64,192,284902,1,0,0:0:0:0:
192,192,285009,1,0,0:0:0:100:3bm Drum Kick.ogg
320,192,285009,1,0,0:0:0:0:
448,192,285009,1,0,0:0:0:0:
448,192,285116,1,0,0:0:0:0:
64,192,285224,1,0,0:0:0:100:3bm Drum Clap.ogg
320,192,285224,1,0,0:0:0:0:
192,192,285331,1,0,0:0:0:100:3bm Drum Clap.ogg
320,192,285331,1,0,0:0:0:0:
64,192,285438,1,0,0:0:0:100:3bm Drum Kick.ogg
192,192,285438,1,0,0:0:0:0:
448,192,285438,1,0,0:0:0:0:
448,192,285545,1,0,0:0:0:100:3bm Drum Clap.ogg
64,192,285652,1,0,0:0:0:100:3bm Drum Kick.ogg
192,192,285652,1,0,0:0:0:0:
320,192,285652,1,0,0:0:0:0:
64,192,285759,1,0,0:0:0:0:
192,192,285866,1,0,0:0:0:100:3bm Drum Kick.ogg
320,192,285866,1,0,0:0:0:0:
448,192,285866,1,0,0:0:0:0:
320,192,285974,1,0,0:0:0:0:
64,192,286081,1,0,0:0:0:100:3bm Drum Clap.ogg
192,192,286081,1,0,0:0:0:0:
192,192,286188,1,0,0:0:0:100:3bm Drum Kick.ogg
64,192,286295,1,0,0:0:0:100:3bm Drum Clap.ogg
448,192,286295,1,0,0:0:0:0:
320,192,286349,1,0,0:0:0:0:
192,192,286402,1,0,0:0:0:100:3bm Drum Clap.ogg
64,192,286456,1,0,0:0:0:0:
320,192,286509,1,0,0:0:0:100:3bm Drum Kick.ogg
448,192,286509,1,0,0:0:0:0:
192,192,286616,1,0,0:0:0:0:
320,192,286616,1,0,0:0:0:0:
64,192,286724,1,0,0:0:0:100:3bm Drum Kick.ogg
192,192,286831,1,0,0:0:0:0:
448,192,286831,1,0,0:0:0:0:
192,192,286938,1,0,0:0:0:100:3bm Drum Clap.ogg
320,192,287045,1,0,0:0:0:100:3bm Drum Clap.ogg
64,192,287152,1,0,0:0:0:0:
448,192,287152,1,0,0:0:0:0:
192,192,287188,1,0,0:0:0:0:
320,192,287224,1,0,0:0:0:0:
448,192,287259,1,0,0:0:0:100:3bm Drum Clap.ogg
64,192,287366,1,0,0:0:0:0:
192,192,287420,1,0,0:0:0:0:
448,192,287474,1,0,0:0:0:100:3bm Drum Clap.ogg
320,192,287527,1,0,0:0:0:0:
64,192,287581,1,0,0:0:0:100:3bm Drum Clap.ogg
192,192,287634,1,0,0:0:0:0:
448,192,287688,1,0,0:0:0:100:3bm Drum Clap.ogg
320,192,287741,1,0,0:0:0:0:
64,192,287795,1,0,0:0:0:30:3bm Drum Clap.ogg
192,192,287831,1,0,0:0:0:0:
320,192,287866,1,0,0:0:0:0:
448,192,287902,1,0,0:0:0:30:3bm Drum Clap.ogg
192,192,287938,1,0,0:0:0:0:
64,192,287974,1,0,0:0:0:0:
320,192,288009,1,0,0:0:0:100:3bm Drum Clap.ogg
448,192,288045,1,0,0:0:0:0:
192,192,288081,1,0,0:0:0:0:
64,192,288116,1,0,0:0:0:0:
448,192,288152,1,0,0:0:0:0:
320,192,288188,1,0,0:0:0:0:
64,192,288224,1,0,0:0:0:100:2bm Drum Kick with Howling.ogg
192,192,288224,1,0,0:0:0:100:3bm Crash Cymbals.ogg
192,192,288438,1,0,0:0:0:0:
320,192,288652,1,0,0:0:0:0:
64,192,288866,1,0,0:0:0:0:
448,192,289295,1,0,0:0:0:0:
192,192,290795,1,0,0:0:0:0:
64,192,292509,1,0,0:0:0:0:
320,192,293366,1,0,0:0:0:0:
64,192,294224,128,0,301509:0:0:0:0:
448,192,294224,1,0,0:0:0:0:
192,192,296724,1,0,0:0:0:0:
320,192,296795,1,0,0:0:0:0:
448,192,296866,128,0,301509:0:0:0:0:
