osu file format v14

[General]
AudioFilename: Catastrophe.mp3
AudioLeadIn: 0
PreviewTime: 158530
Countdown: 1
SampleSet: Normal
StackLeniency: 0.2
Mode: 0
LetterboxInBreaks: 0
WidescreenStoryboard: 0

[Editor]
Bookmarks: 96130,110530,115330,134530
DistanceSpacing: 1.1
BeatDivisor: 4
GridSize: 4
TimelineZoom: 1

[Metadata]
Title:Catastrophe
TitleUnicode:Catastrophe
Artist:MuryokuP
ArtistUnicode:無力P
Creator:Reimoe
Version:Disaster
Source:
Tags:MuryokuP
BeatmapID:791350
BeatmapSetID:359941

[Difficulty]
HPDrainRate:6
CircleSize:4.3
OverallDifficulty:8
ApproachRate:9.7
SliderMultiplier:1.8
SliderTickRate:1

[Events]
//Background and Video events
0,0,"bg.jpg",0,0
//Break Periods
2,57930,66835
//Storyboard Layer 0 (Background)
//Storyboard Layer 1 (Fail)
//Storyboard Layer 2 (Pass)
//Storyboard Layer 3 (Foreground)
//Storyboard Sound Samples

[TimingPoints]
130,300,4,1,1,71,1,0
9730,-50,4,1,1,71,0,0
14530,-200,4,1,1,71,0,0
16930,-133.333333333333,4,1,1,71,0,0
17230,-100,4,1,1,71,0,0
17530,-80,4,1,1,71,0,0
17830,-66.6666666666667,4,1,1,71,0,0
20530,-100,4,1,1,71,0,0
31330,-50,4,1,1,71,0,0
33730,-100,4,1,1,71,0,0
38530,-66.6666666666667,4,1,1,71,0,0
48430,-200,4,1,1,71,0,0
50530,-100,4,1,1,71,0,0
52930,-50,4,1,1,71,0,0
67330,-100,4,1,1,71,0,0
81730,-50,4,1,1,71,0,0
82030,-100,4,1,1,71,0,0
88930,-50,4,1,1,71,0,0
90130,-100,4,1,1,71,0,0
92830,-50,4,1,1,71,0,0
93130,-100,4,1,1,71,0,0
93430,-50,4,1,1,71,0,0
96130,-100,4,1,1,71,0,0
115330,-50,4,1,1,71,0,0
123730,-100,4,1,1,71,0,0
128980,-50,4,1,1,71,0,0
129730,-50,4,1,1,71,0,0
134530,-200,4,1,1,71,0,1
135130,-50,4,1,1,71,0,1
139330,-100,4,1,1,71,0,1
139930,-50,4,1,1,71,0,1
153730,-200,4,1,1,71,0,0

[Colours]
Combo1 : 255,160,115
Combo2 : 213,213,213
Combo3 : 255,0,0
Combo4 : 92,92,92

[HitObjects]
88,88,130,6,0,B|64:208|64:208|140:156|196:204|220:256|156:360|128:300,1,360
477,298,1330,2,0,B|374:262|374:262|313:330|233:276|233:276|141:319,1,360
233,275,2530,6,0,P|295:141|376:265,1,360
309,324,3730,2,0,P|275:149|127:41,1,360
82,203,4480,1,0,0:0:0:0:
141,271,4630,1,0,0:0:0:0:
220,313,4780,1,0,0:0:0:0:
309,324,4930,5,4,0:0:0:0:
396,303,5080,1,0,0:0:0:0:
171,120,5380,2,0,L|168:17,1,90,8|0,0:0|0:0,0:0:0:0:
343,30,5830,2,0,L|341:120,1,90
430,203,6130,5,0,0:0:0:0:
371,271,6280,1,0,0:0:0:0:
292,313,6430,1,0,0:0:0:0:
203,324,6580,1,0,0:0:0:0:
116,303,6730,2,0,P|196:265|205:148,1,180,8|0,0:0|0:0,0:0:0:0:
199,99,7180,1,0,0:0:0:0:
148,31,7330,5,8,0:0:0:0:
49,175,7630,2,0,L|106:146,2,45
18,190,7930,1,8,0:0:0:0:
147,288,8230,2,0,L|204:259,2,45
116,303,8530,5,8,0:0:0:0:
332,309,8830,2,0,L|291:329,2,45
358,296,9055,1,2,0:0:0:0:
360,290,9130,1,2,0:0:0:0:
362,285,9205,1,2,0:0:0:0:
365,280,9280,1,2,0:0:0:0:
367,275,9355,1,2,0:0:0:0:
369,270,9430,1,2,0:0:0:0:
372,265,9505,1,2,0:0:0:0:
374,260,9580,1,2,0:0:0:0:
377,255,9655,1,2,0:0:0:0:
383,242,9730,6,0,L|449:66,1,180
69,92,12130,6,4,L|324:127,1,180,4|0,0:0|0:0,0:0:0:0:
65,312,14530,6,0,L|86:240,1,67.5
117,135,14830,2,0,L|180:184,1,67.5
263,269,15130,2,0,L|196:286,1,67.5
65,312,15430,2,0,L|86:240,1,67.5
117,135,15730,6,0,L|191:105,1,67.5
314,112,16030,2,0,L|252:138,1,67.5
36,165,16330,2,0,P|33:132|38:99,1,67.5
392,148,16630,2,0,P|396:115|393:82,1,67.5
347,238,16930,6,0,P|377:197|391:148,1,101.250003862381
223,278,17230,2,0,P|290:272|347:237,1,135
95,189,17530,2,0,P|143:255|223:278,1,168.75
169,25,17830,2,0,P|108:69|119:226,1,202.500007724762
73,216,18130,5,0,0:0:0:0:
91,220,18205,1,0,0:0:0:0:
110,225,18280,1,0,0:0:0:0:
129,230,18355,1,0,0:0:0:0:
147,234,18430,1,0,0:0:0:0:
166,239,18505,1,0,0:0:0:0:
185,244,18580,1,0,0:0:0:0:
203,249,18655,1,0,0:0:0:0:
224,302,18730,5,0,0:0:0:0:
253,295,18805,1,0,0:0:0:0:
286,289,18880,1,0,0:0:0:0:
319,283,18955,1,0,0:0:0:0:
350,278,19030,1,0,0:0:0:0:
382,272,19105,1,0,0:0:0:0:
415,267,19180,1,0,0:0:0:0:
441,259,19255,6,4,L|514:244,1,67.5000025749208
109,324,19480,1,0,0:0:0:0:
296,170,19630,1,8,0:0:0:0:
364,347,19780,1,0,0:0:0:0:
132,284,19930,5,0,0:0:0:0:
290,125,20080,1,0,0:0:0:0:
334,345,20230,1,8,0:0:0:0:
102,293,20380,1,0,0:0:0:0:
166,215,20530,6,0,P|216:208|274:232,1,90
322,127,20830,2,0,L|290:43,1,90,8|0,0:0|0:0,0:0:0:0:
410,91,21131,2,0,P|417:135|406:178,1,90
254,219,21430,2,0,L|210:104,1,90,8|0,0:0|0:0,0:0:0:0:
173,19,21730,5,8,0:0:0:0:
101,294,21880,1,0,0:0:0:0:
124,295,22180,5,0,0:0:0:0:
203,299,22330,1,8,0:0:0:0:
41,294,22630,5,8,0:0:0:0:
422,303,22780,1,0,0:0:0:0:
92,336,23080,5,0,0:0:0:0:
104,52,23230,1,8,0:0:0:0:
90,360,23380,1,0,0:0:0:0:
226,262,23530,1,2,0:0:0:0:
223,217,23605,1,2,0:0:0:0:
212,173,23680,1,2,0:0:0:0:
190,134,23755,1,2,0:0:0:0:
163,107,23830,1,2,0:0:0:0:
178,149,23905,1,2,0:0:0:0:
212,179,23980,1,2,0:0:0:0:
251,199,24055,1,2,0:0:0:0:
294,215,24130,6,0,P|333:225|384:211,1,90
325,44,24430,1,8,0:0:0:0:
187,340,24580,1,0,0:0:0:0:
46,145,24730,1,0,0:0:0:0:
466,239,24880,1,0,0:0:0:0:
271,307,25030,2,8,L|172:345,1,90
172,196,25330,6,0,L|256:163,1,90
429,97,25630,1,8,0:0:0:0:
317,336,25780,1,0,0:0:0:0:
142,224,25930,6,0,L|226:191,1,90
428,130,26230,1,8,0:0:0:0:
205,311,26380,1,0,0:0:0:0:
280,33,26530,5,8,0:0:0:0:
383,302,26680,1,0,0:0:0:0:
142,145,26830,1,0,0:0:0:0:
428,130,26980,5,8,0:0:0:0:
205,311,27130,1,0,0:0:0:0:
280,33,27280,1,0,0:0:0:0:
468,272,27430,6,0,L|367:307,1,90,8|0,0:0|0:0,0:0:0:0:
121,362,27730,1,0,0:0:0:0:
481,252,27880,6,0,L|375:272,1,90,8|0,0:0|0:0,0:0:0:0:
40,309,28180,1,0,0:0:0:0:
420,150,28330,1,2,0:0:0:0:
418,156,28405,1,2,0:0:0:0:
416,162,28480,1,2,0:0:0:0:
415,168,28555,1,2,0:0:0:0:
413,174,28630,1,2,0:0:0:0:
412,181,28705,1,2,0:0:0:0:
410,187,28780,1,2,0:0:0:0:
409,193,28855,1,2,0:0:0:0:
396,232,28930,6,0,L|296:280,1,90
314,366,29230,2,0,L|396:328,1,90,8|0,0:0|0:0,0:0:0:0:
492,276,29530,1,0,0:0:0:0:
260,156,29680,1,0,0:0:0:0:
228,344,29830,1,8,0:0:0:0:
448,216,29980,1,0,0:0:0:0:
176,256,30130,6,0,P|180:308|208:336,1,90
323,93,30430,1,8,0:0:0:0:
100,133,30580,1,0,0:0:0:0:
490,179,30730,2,0,L|407:128,1,90
230,39,31030,2,0,P|200:34|232:50,1,90,8|0,0:0|0:0,0:0:0:0:
230,39,31330,6,0,P|220:120|111:124,1,180,8|0,0:0|0:0,0:0:0:0:
69,137,31780,2,0,P|196:151|305:198,1,180,0|8,0:0|0:0,0:0:0:0:
334,151,32230,2,0,P|209:190|150:281,1,180,8|0,0:0|0:0,0:0:0:0:
329,330,32680,5,0,0:0:0:0:
292,88,32830,1,8,0:0:0:0:
143,282,32980,1,0,0:0:0:0:
412,359,33130,1,0,0:0:0:0:
416,347,33205,1,2,0:0:0:0:
418,334,33280,1,2,0:0:0:0:
419,321,33355,1,2,0:0:0:0:
417,309,33430,1,2,0:0:0:0:
413,296,33505,1,2,0:0:0:0:
407,285,33580,1,2,0:0:0:0:
400,275,33655,1,2,0:0:0:0:
387,248,33730,6,0,B|378:212|401:187|387:135,1,90
306,0,34030,2,0,B|281:39|290:88,1,90,8|0,0:0|0:0,0:0:0:0:
387,247,34330,1,0,0:0:0:0:
307,158,34480,1,0,0:0:0:0:
194,122,34630,1,8,0:0:0:0:
78,147,34780,1,0,0:0:0:0:
10,301,34930,6,0,L|130:252,1,90
286,307,35230,2,0,L|202:341,1,90,8|0,0:0|0:0,0:0:0:0:
227,200,35530,2,0,P|193:133|214:87,1,90
105,135,35830,2,0,P|101:91|73:58,1,90,8|0,0:0|0:0,0:0:0:0:
213,5,36130,5,8,0:0:0:0:
307,158,36280,1,0,0:0:0:0:
401,311,36430,1,0,0:0:0:0:
331,0,36580,5,8,0:0:0:0:
370,175,36730,1,0,0:0:0:0:
409,350,36880,1,0,0:0:0:0:
472,64,37030,5,8,0:0:0:0:
443,216,37180,1,0,0:0:0:0:
415,369,37330,1,0,0:0:0:0:
489,336,37480,5,8,0:0:0:0:
288,312,37630,1,0,0:0:0:0:
89,290,37780,1,0,0:0:0:0:
489,336,37930,5,2,0:0:0:0:
477,291,38005,1,2,0:0:0:0:
454,250,38080,1,2,0:0:0:0:
421,217,38155,1,2,0:0:0:0:
341,157,38230,2,2,P|285:135|261:139,1,45
174,111,38380,2,2,P|134:110|104:116,1,45
72,47,38530,6,0,P|52:118|113:207,1,135.000005149842,4|0,0:0|0:0,0:0:0:0:
129,264,38830,1,0,0:0:0:0:
415,374,39130,1,8,0:0:0:0:
410,175,39280,1,0,0:0:0:0:
274,30,39430,1,0,0:0:0:0:
414,330,39580,1,8,0:0:0:0:
68,356,39880,6,0,L|226:338,1,135.000005149842,8|0,0:0|0:0,0:0:0:0:
492,317,40180,1,0,0:0:0:0:
243,150,40330,1,0,0:0:0:0:
115,305,40480,1,0,0:0:0:0:
300,342,40630,1,8,0:0:0:0:
73,54,40930,5,0,0:0:0:0:
106,253,41080,1,0,0:0:0:0:
89,153,41230,5,8,0:0:0:0:
114,300,41380,1,0,0:0:0:0:
204,60,41680,5,0,0:0:0:0:
255,362,41830,1,8,0:0:0:0:
238,262,41980,1,0,0:0:0:0:
492,344,42280,5,0,0:0:0:0:
344,159,42430,1,8,0:0:0:0:
255,362,42580,1,0,0:0:0:0:
362,221,42730,1,2,0:0:0:0:
365,212,42805,1,2,0:0:0:0:
369,203,42880,1,2,0:0:0:0:
372,194,42955,1,2,0:0:0:0:
376,185,43030,1,2,0:0:0:0:
380,176,43105,1,2,0:0:0:0:
383,167,43180,1,0,0:0:0:0:
387,159,43255,6,0,L|420:73,1,67.5000025749208
250,112,43480,1,0,0:0:0:0:
68,144,43630,1,8,0:0:0:0:
341,261,43780,1,0,0:0:0:0:
330,288,44080,1,0,0:0:0:0:
207,19,44230,1,8,0:0:0:0:
73,248,44380,1,0,0:0:0:0:
318,314,44680,5,0,0:0:0:0:
184,58,44830,1,8,0:0:0:0:
15,335,44980,1,0,0:0:0:0:
187,307,45130,2,0,P|258:295|328:320,1,135.000005149842
393,357,45430,1,8,0:0:0:0:
321,263,45730,6,0,P|384:298|391:358,1,135.000005149842
239,257,46030,1,8,0:0:0:0:
363,228,46180,6,0,P|393:292|389:361,1,135.000005149842
218,133,46480,1,8,0:0:0:0:
395,222,46630,6,0,P|397:334|362:409,1,135.000005149842
198,16,46930,5,8,0:0:0:0:
115,290,47080,1,0,0:0:0:0:
333,155,47230,1,0,0:0:0:0:
107,20,47380,1,0,0:0:0:0:
66,286,47530,1,2,0:0:0:0:
78,287,47605,1,2,0:0:0:0:
90,288,47680,1,2,0:0:0:0:
103,289,47755,1,2,0:0:0:0:
115,290,47830,1,2,0:0:0:0:
128,291,47905,1,2,0:0:0:0:
140,292,47980,1,2,0:0:0:0:
152,293,48055,1,0,0:0:0:0:
184,296,48130,6,0,L|338:309,1,135.000005149842,4|0,0:0|0:0,0:0:0:0:
456,320,48430,2,0,L|399:315,1,45
220,245,48730,1,8,0:0:0:0:
416,62,48880,1,8,0:0:0:0:
448,279,49030,1,8,0:0:0:0:
209,199,49180,1,8,0:0:0:0:
441,239,49480,5,0,0:0:0:0:
83,261,49630,1,0,0:0:0:0:
226,31,49780,1,0,0:0:0:0:
363,349,49930,1,8,0:0:0:0:
34,239,50080,1,0,0:0:0:0:
285,24,50230,1,0,0:0:0:0:
61,123,50530,6,0,L|153:134,1,90
446,167,50830,1,8,0:0:0:0:
320,326,50980,1,0,0:0:0:0:
277,150,51130,1,0,0:0:0:0:
330,236,51280,1,0,0:0:0:0:
420,247,51430,1,8,0:0:0:0:
409,336,51580,1,0,0:0:0:0:
103,336,51880,5,0,0:0:0:0:
92,247,52030,1,8,0:0:0:0:
182,236,52180,1,0,0:0:0:0:
192,326,52330,1,0,0:0:0:0:
205,282,52405,1,0,0:0:0:0:
210,238,52480,1,2,0:0:0:0:
207,193,52555,1,2,0:0:0:0:
197,149,52630,1,2,0:0:0:0:
179,108,52705,1,2,0:0:0:0:
154,71,52780,1,2,0:0:0:0:
122,39,52855,1,0,0:0:0:0:
86,12,52930,6,0,P|224:93|292:96,1,180,4|0,0:0|0:0,0:0:0:0:
315,111,53230,1,0,0:0:0:0:
390,112,53380,1,0,0:0:0:0:
425,371,53530,2,0,P|288:291|220:288,1,180,8|0,0:0|0:0,0:0:0:0:
197,273,53830,1,0,0:0:0:0:
122,272,53980,1,0,0:0:0:0:
42,326,54130,6,0,L|250:180,1,180
238,186,54430,1,0,0:0:0:0:
288,152,54580,1,0,0:0:0:0:
489,165,54730,2,0,L|281:311,1,180,8|0,0:0|0:0,0:0:0:0:
293,305,55030,1,0,0:0:0:0:
243,339,55180,1,0,0:0:0:0:
154,58,55330,6,0,P|144:127|64:90,1,180,8|0,0:0|0:0,0:0:0:0:
358,58,55630,2,0,P|368:127|448:90,1,180,8|0,0:0|0:0,0:0:0:0:
168,261,55930,2,0,P|97:264|0:320,1,180,8|0,0:0|0:0,0:0:0:0:
344,261,56230,2,0,P|415:264|512:320,1,180,8|0,0:0|0:0,0:0:0:0:
257,361,56530,5,0,0:0:0:0:
256,348,56605,1,0,0:0:0:0:
256,335,56680,1,0,0:0:0:0:
256,322,56755,1,0,0:0:0:0:
256,309,56830,1,0,0:0:0:0:
256,296,56905,1,0,0:0:0:0:
256,283,56980,1,0,0:0:0:0:
256,271,57055,1,0,0:0:0:0:
255,230,57130,5,0,0:0:0:0:
255,204,57205,1,0,0:0:0:0:
255,178,57280,1,0,0:0:0:0:
255,152,57355,1,0,0:0:0:0:
255,127,57430,1,0,0:0:0:0:
255,101,57505,1,0,0:0:0:0:
255,75,57580,1,0,0:0:0:0:
255,50,57655,1,0,0:0:0:0:
255,12,57730,1,2,0:0:0:0:
152,48,67330,6,0,B|128:128|180:160|136:204|136:204|184:240|144:312,1,270,8|0,0:0|0:0,0:0:0:0:
440,316,68080,2,0,L|344:328,1,90
149,300,68380,2,0,L|245:288,1,90,0|8,0:0|0:0,0:0:0:0:
248,120,68830,2,0,P|280:184|268:232,1,90,0|8,0:0|0:0,0:0:0:0:
400,216,69280,1,0,0:0:0:0:
192,184,69580,1,0,0:0:0:0:
192,184,69730,5,8,0:0:0:0:
312,36,69880,1,0,0:0:0:0:
109,41,70180,2,0,P|117:117|221:189,1,180
347,239,70630,2,0,P|319:203|282:180,1,90
224,68,70930,1,8,0:0:0:0:
424,172,71230,2,8,L|456:76,1,90,0|8,0:0|0:0,0:0:0:0:
88,212,71680,2,0,L|56:308,1,90,0|8,0:0|0:0,0:0:0:0:
420,352,72130,5,0,0:0:0:0:
420,352,72280,1,0,0:0:0:0:
208,300,72430,1,0,0:0:0:0:
208,300,72580,1,0,0:0:0:0:
352,164,72730,1,8,0:0:0:0:
352,164,72880,1,0,0:0:0:0:
312,32,73030,1,0,0:0:0:0:
312,32,73180,1,0,0:0:0:0:
225,80,73330,5,0,0:0:0:0:
138,58,73480,1,0,0:0:0:0:
116,146,73630,1,0,0:0:0:0:
204,168,73780,1,0,0:0:0:0:
225,304,73930,2,0,L|117:332,1,90,8|0,0:0|0:0,0:0:0:0:
117,239,74230,1,2,0:0:0:0:
138,233,74305,1,2,0:0:0:0:
160,227,74380,1,2,0:0:0:0:
182,221,74455,1,2,0:0:0:0:
204,216,74530,5,2,0:0:0:0:
437,159,74680,1,0,0:0:0:0:
184,69,74980,5,0,0:0:0:0:
184,69,75055,1,0,0:0:0:0:
184,69,75130,1,8,0:0:0:0:
138,58,75280,1,0,0:0:0:0:
295,213,75430,5,8,0:0:0:0:
249,202,75580,1,0,0:0:0:0:
417,338,75730,5,8,0:0:0:0:
371,327,75880,1,0,0:0:0:0:
224,293,76030,5,8,0:0:0:0:
72,304,76180,1,0,0:0:0:0:
164,236,76330,2,2,P|189:209|196:182,1,45
206,156,76480,1,2,0:0:0:0:
200,106,76555,1,2,0:0:0:0:
173,51,76630,1,2,0:0:0:0:
229,104,76705,1,2,0:0:0:0:
304,128,76780,1,2,0:0:0:0:
381,117,76855,1,2,0:0:0:0:
446,74,76930,5,6,0:0:0:0:
316,8,77080,1,0,0:0:0:0:
286,183,77230,2,0,L|360:131,1,90
364,301,77530,2,0,L|289:352,1,90,8|0,0:0|0:0,0:0:0:0:
304,128,77830,1,0,0:0:0:0:
470,228,77980,1,0,0:0:0:0:
160,360,78130,6,0,P|136:294|149:249,1,90
236,141,78430,2,0,P|260:207|247:252,1,90
183,197,78730,2,0,L|95:175,1,90,8|0,0:0|0:0,0:0:0:0:
143,35,79030,2,0,L|230:56,1,90
463,95,79330,5,8,0:0:0:0:
259,294,79480,1,0,0:0:0:0:
150,269,79780,5,0,0:0:0:0:
501,343,79930,1,8,0:0:0:0:
482,309,80230,5,8,0:0:0:0:
335,24,80380,1,0,0:0:0:0:
154,318,80680,5,0,0:0:0:0:
198,85,80830,1,0,0:0:0:0:
398,241,80980,1,0,0:0:0:0:
172,363,81130,1,2,0:0:0:0:
156,368,81205,1,2,0:0:0:0:
139,367,81280,1,2,0:0:0:0:
123,361,81355,1,2,0:0:0:0:
111,350,81430,1,2,0:0:0:0:
103,335,81505,1,2,0:0:0:0:
100,318,81580,1,2,0:0:0:0:
103,302,81655,1,2,0:0:0:0:
112,288,81730,6,0,B|173:275|217:326|290:305,1,180
458,268,82030,1,0,0:0:0:0:
443,135,82180,1,0,0:0:0:0:
347,41,82330,1,8,0:0:0:0:
213,25,82480,1,0,0:0:0:0:
91,81,82630,2,0,P|95:155|119:180,1,90
195,256,82930,6,0,P|213:297|207:341,1,90
133,188,83230,1,0,0:0:0:0:
206,341,83380,1,0,0:0:0:0:
422,354,83530,2,0,P|403:313|410:269,1,90,8|0,0:0|0:0,0:0:0:0:
445,172,83830,1,0,0:0:0:0:
421,354,83980,1,0,0:0:0:0:
330,335,84130,5,8,0:0:0:0:
241,316,84280,1,0,0:0:0:0:
302,249,84430,1,0,0:0:0:0:
241,316,84580,5,8,0:0:0:0:
99,330,84730,1,0,0:0:0:0:
157,201,84880,1,0,0:0:0:0:
347,291,85030,5,8,0:0:0:0:
157,201,85180,1,0,0:0:0:0:
327,81,85330,1,0,0:0:0:0:
347,291,85480,5,8,0:0:0:0:
185,70,85630,1,0,0:0:0:0:
470,39,85780,1,0,0:0:0:0:
227,369,85930,5,2,0:0:0:0:
208,321,86005,1,2,0:0:0:0:
207,270,86080,1,2,0:0:0:0:
223,221,86155,1,2,0:0:0:0:
256,182,86230,1,2,0:0:0:0:
300,156,86305,1,2,0:0:0:0:
350,147,86380,1,2,0:0:0:0:
400,156,86455,1,2,0:0:0:0:
460,196,86530,6,0,L|340:224,1,90
259,311,86830,2,0,L|346:290,1,90
460,360,87130,2,0,P|450:301|392:268,1,90,8|0,0:0|0:0,0:0:0:0:
288,128,87430,2,0,P|298:187|356:220,1,90
416,264,87730,5,0,0:0:0:0:
412,91,87880,1,0,0:0:0:0:
244,32,88030,1,0,0:0:0:0:
208,184,88180,1,0,0:0:0:0:
56,132,88330,1,8,0:0:0:0:
56,132,88480,1,0,0:0:0:0:
152,253,88630,2,0,P|202:195|214:163,1,90
163,104,88930,6,0,P|119:210|211:266,1,180,8|0,0:0|0:0,0:0:0:0:
76,320,89230,1,0,0:0:0:0:
76,320,89380,6,0,B|148:296|148:296|208:324|312:316,1,180,8|0,0:0|0:0,0:0:0:0:
432,224,89680,1,0,0:0:0:0:
432,224,89830,6,0,B|360:248|360:248|300:220|196:228,1,180,8|0,0:0|0:0,0:0:0:0:
76,320,90130,5,0,0:0:0:0:
76,320,90280,1,8,0:0:0:0:
416,104,90430,1,0,0:0:0:0:
444,336,90580,1,0,0:0:0:0:
100,300,90730,1,2,0:0:0:0:
104,295,90805,1,2,0:0:0:0:
109,291,90880,1,2,0:0:0:0:
114,287,90955,1,2,0:0:0:0:
119,283,91030,1,2,0:0:0:0:
124,279,91105,1,2,0:0:0:0:
129,274,91180,1,2,0:0:0:0:
134,270,91255,1,2,0:0:0:0:
168,240,91330,5,6,0:0:0:0:
264,56,91480,1,0,0:0:0:0:
92,88,91630,5,0,0:0:0:0:
276,168,91780,1,0,0:0:0:0:
164,40,91930,5,8,0:0:0:0:
68,184,92080,1,0,0:0:0:0:
188,152,92230,1,0,0:0:0:0:
259,253,92380,1,0,0:0:0:0:
472,256,92530,6,0,P|428:192|392:180,1,90
272,56,92830,2,0,P|280:176|348:240,1,180
376,316,93130,6,0,L|252:352,1,90,8|0,0:0|0:0,0:0:0:0:
40,316,93430,2,0,L|212:264,1,180
460,184,93730,5,8,0:0:0:0:
52,184,93880,1,0,0:0:0:0:
52,184,94030,1,0,0:0:0:0:
460,132,94180,5,8,0:0:0:0:
52,132,94330,1,0,0:0:0:0:
52,132,94480,1,0,0:0:0:0:
460,88,94630,5,8,0:0:0:0:
48,88,94780,1,0,0:0:0:0:
48,88,94930,1,0,0:0:0:0:
460,28,95080,5,8,0:0:0:0:
48,28,95230,1,0,0:0:0:0:
82,31,95380,6,2,P|130:39|186:75,1,90
224,112,95530,2,2,P|272:216|272:248,1,90
320,316,95680,1,2,0:0:0:0:
300,246,95755,1,2,0:0:0:0:
307,175,95830,1,2,0:0:0:0:
339,111,95905,1,2,0:0:0:0:
391,62,95980,1,2,0:0:0:0:
456,28,96055,1,2,0:0:0:0:
456,28,96130,6,0,P|392:64|252:60,1,180,4|0,0:0|0:0,0:0:0:0:
52,124,96730,2,0,P|56:180|100:220,1,90,8|0,0:0|0:0,0:0:0:0:
264,264,97030,2,0,L|168:304,1,90
136,36,97330,5,8,0:0:0:0:
392,208,97480,1,0,0:0:0:0:
72,340,97630,1,0,0:0:0:0:
80,308,97780,1,0,0:0:0:0:
428,76,97930,1,8,0:0:0:0:
373,277,98080,2,0,L|348:364,1,90
40,152,98530,6,0,B|124:112|128:160|220:120,1,180
428,76,98980,1,0,0:0:0:0:
359,33,99130,2,0,B|316:52|314:28|272:48,1,90,8|0,0:0|0:0,0:0:0:0:
128,64,99430,1,0,0:0:0:0:
276,248,99580,1,0,0:0:0:0:
200,12,99730,5,8,0:0:0:0:
244,340,99880,1,0,0:0:0:0:
500,232,100030,1,0,0:0:0:0:
172,276,100180,1,0,0:0:0:0:
244,340,100330,1,2,0:0:0:0:
261,312,100405,1,2,0:0:0:0:
268,281,100480,1,2,0:0:0:0:
264,249,100555,1,2,0:0:0:0:
251,220,100630,1,2,0:0:0:0:
229,197,100705,1,2,0:0:0:0:
200,183,100780,1,2,0:0:0:0:
169,178,100855,1,2,0:0:0:0:
124,164,100930,6,0,B|68:152|68:152|144:136|188:56,1,180
404,22,101530,2,0,L|343:89,1,90,8|0,0:0|0:0,0:0:0:0:
267,280,101830,2,0,L|328:213,1,90
156,28,102130,5,8,0:0:0:0:
76,336,102280,1,0,0:0:0:0:
388,335,102430,2,0,B|408:344|436:316|436:316|468:336,1,90
180,92,102730,1,8,0:0:0:0:
188,364,102880,1,0,0:0:0:0:
388,336,103030,1,8,0:0:0:0:
48,56,103330,6,0,B|60:180|60:180|84:140|116:116,1,180
180,92,103780,1,0,0:0:0:0:
223,181,103930,2,0,L|144:224,1,90,8|0,0:0|0:0,0:0:0:0:
308,378,104230,2,0,L|387:335,1,90
176,336,104530,5,8,0:0:0:0:
308,378,104680,1,0,0:0:0:0:
40,356,104830,1,8,0:0:0:0:
444,358,104980,1,0,0:0:0:0:
71,326,105130,5,8,0:0:0:0:
78,315,105205,1,2,0:0:0:0:
84,303,105280,1,2,0:0:0:0:
88,291,105355,1,2,0:0:0:0:
91,278,105430,1,2,0:0:0:0:
92,266,105505,1,2,0:0:0:0:
91,253,105580,1,2,0:0:0:0:
88,240,105655,1,2,0:0:0:0:
80,208,105730,6,0,P|124:240|196:236,1,90
432,176,106030,2,0,P|388:144|316:148,1,90
202,289,106330,2,0,P|211:333|240:368,1,90,8|0,0:0|0:0,0:0:0:0:
309,94,106630,2,0,P|300:50|272:16,1,90
44,336,106930,6,0,L|148:352,1,90,8|0,0:0|0:0,0:0:0:0:
336,376,107230,1,0,0:0:0:0:
336,376,107380,1,0,0:0:0:0:
464,248,107530,1,8,0:0:0:0:
464,248,107680,1,0,0:0:0:0:
260,217,107830,2,0,L|172:204,1,90,8|0,0:0|0:0,0:0:0:0:
241,93,108130,6,0,P|243:49|272:16,1,90,8|0,0:0|0:0,0:0:0:0:
338,206,108430,2,0,P|336:250|308:284,1,90
340,96,108730,1,8,0:0:0:0:
444,224,108880,1,0,0:0:0:0:
172,288,109030,1,0,0:0:0:0:
68,160,109180,1,0,0:0:0:0:
362,247,109330,5,8,0:0:0:0:
77,330,109480,1,0,0:0:0:0:
119,36,109630,1,0,0:0:0:0:
329,268,109780,1,0,0:0:0:0:
148,348,109930,5,2,0:0:0:0:
185,314,110005,1,2,0:0:0:0:
212,271,110080,1,2,0:0:0:0:
227,223,110155,1,2,0:0:0:0:
228,172,110230,1,2,0:0:0:0:
215,123,110305,1,2,0:0:0:0:
190,80,110380,1,2,0:0:0:0:
154,44,110455,1,2,0:0:0:0:
109,20,110530,5,4,0:0:0:0:
147,347,110680,1,0,0:0:0:0:
118,314,110830,1,0,0:0:0:0:
111,271,110980,1,0,0:0:0:0:
420,40,111130,5,8,0:0:0:0:
32,208,111280,1,0,0:0:0:0:
88,173,111430,1,0,0:0:0:0:
154,182,111580,1,0,0:0:0:0:
316,328,111730,5,4,0:0:0:0:
480,176,111880,1,0,0:0:0:0:
423,210,112030,1,0,0:0:0:0:
357,201,112180,1,0,0:0:0:0:
196,56,112330,5,8,0:0:0:0:
52,364,112480,1,0,0:0:0:0:
96,356,112630,1,0,0:0:0:0:
140,348,112780,1,0,0:0:0:0:
352,360,112930,5,4,0:0:0:0:
462,321,113080,1,0,0:0:0:0:
423,210,113230,1,0,0:0:0:0:
313,248,113380,1,0,0:0:0:0:
372,352,113530,5,8,0:0:0:0:
454,173,113680,1,0,0:0:0:0:
275,87,113830,1,0,0:0:0:0:
189,264,113980,1,0,0:0:0:0:
459,346,114130,5,2,0:0:0:0:
443,306,114205,1,2,0:0:0:0:
416,273,114280,1,2,0:0:0:0:
380,250,114355,1,2,0:0:0:0:
338,239,114430,1,2,0:0:0:0:
299,223,114505,1,2,0:0:0:0:
264,198,114580,1,2,0:0:0:0:
231,171,114655,1,2,0:0:0:0:
212,119,114730,1,2,0:0:0:0:
231,58,114805,1,2,0:0:0:0:
300,33,114880,1,2,0:0:0:0:
349,87,114955,1,2,0:0:0:0:
363,164,115030,1,2,0:0:0:0:
338,239,115105,1,2,0:0:0:0:
282,292,115180,1,2,0:0:0:0:
207,312,115255,1,2,0:0:0:0:
132,293,115330,6,0,B|54:265|54:265|100:256|158:192,1,180,4|0,0:0|0:0,0:0:0:0:
212,119,115630,1,8,0:0:0:0:
454,368,115930,1,0,0:0:0:0:
300,33,116080,1,0,0:0:0:0:
414,287,116230,2,0,L|330:103,1,180,8|0,0:0|0:0,0:0:0:0:
32,218,116680,5,0,0:0:0:0:
69,305,116830,1,8,0:0:0:0:
114,92,116980,1,0,0:0:0:0:
82,333,117130,1,0,0:0:0:0:
263,218,117280,2,0,B|320:251|373:262|373:262|242:300,1,180,0|8,0:0|0:0,0:0:0:0:
486,360,117730,5,0,0:0:0:0:
217,336,117880,1,0,0:0:0:0:
429,44,118030,2,0,L|449:236,1,180,8|0,0:0|0:0,0:0:0:0:
462,355,118330,1,0,0:0:0:0:
83,222,118480,1,0,0:0:0:0:
316,52,118630,1,8,0:0:0:0:
316,340,118780,1,0,0:0:0:0:
38,332,119080,6,0,B|172:302|135:358|292:325,1,180,0|8,0:0|0:0,0:0:0:0:
402,343,119380,2,0,P|433:250|351:306,1,180,0|2,0:0|0:0,0:0:0:0:
349,262,119605,1,2,0:0:0:0:
298,271,119680,1,2,0:0:0:0:
248,261,119755,1,2,0:0:0:0:
205,234,119830,1,2,0:0:0:0:
174,193,119905,1,2,0:0:0:0:
160,144,119980,1,2,0:0:0:0:
165,93,120055,1,0,0:0:0:0:
189,47,120130,5,2,0:0:0:0:
464,170,120280,1,0,0:0:0:0:
251,352,120430,1,8,0:0:0:0:
251,352,120580,1,0,0:0:0:0:
355,45,120880,1,0,0:0:0:0:
458,366,121030,1,8,0:0:0:0:
69,332,121180,1,0,0:0:0:0:
369,0,121480,5,0,0:0:0:0:
397,335,121630,1,8,0:0:0:0:
25,215,121780,1,0,0:0:0:0:
123,186,121930,2,0,P|189:114|177:25,1,180
88,84,122230,1,8,0:0:0:0:
424,84,122530,5,0,0:0:0:0:
268,124,122680,1,0,0:0:0:0:
111,156,122830,1,8,0:0:0:0:
123,186,122980,5,0,0:0:0:0:
251,197,123130,1,0,0:0:0:0:
379,206,123280,1,8,0:0:0:0:
475,299,123430,5,0,0:0:0:0:
269,317,123580,1,2,0:0:0:0:
64,326,123730,5,8,0:0:0:0:
133,142,123880,2,0,L|107:242,1,90,0|0,0:0|0:0,0:0:0:0:
83,325,124180,1,8,0:0:0:0:
269,317,124330,1,2,0:0:0:0:
251,308,124405,1,2,0:0:0:0:
236,297,124480,1,2,0:0:0:0:
222,283,124555,1,2,0:0:0:0:
211,267,124630,1,2,0:0:0:0:
203,250,124705,1,2,0:0:0:0:
197,231,124780,1,2,0:0:0:0:
195,212,124855,1,2,0:0:0:0:
199,176,124930,6,0,P|220:99|246:70,1,90,4|0,0:0|0:0,0:0:0:0:
354,21,125230,2,0,P|333:98|307:127,1,90,8|0,0:0|0:0,0:0:0:0:
199,176,125530,1,8,0:0:0:0:
312,213,125680,1,8,0:0:0:0:
358,323,125830,1,8,0:0:0:0:
358,323,125980,1,8,0:0:0:0:
26,16,126280,5,0,0:0:0:0:
262,93,126430,1,0,0:0:0:0:
358,323,126580,1,0,0:0:0:0:
358,323,126730,1,8,0:0:0:0:
56,252,126880,2,0,L|182:249,2,90
456,132,127330,6,0,L|330:135,1,90
168,101,127630,1,8,0:0:0:0:
344,283,127780,1,0,0:0:0:0:
76,165,127930,5,8,0:0:0:0:
436,219,128080,1,0,0:0:0:0:
67,334,128230,5,8,0:0:0:0:
445,50,128380,1,0,0:0:0:0:
462,331,128680,2,0,P|461:287|440:248,1,90,0|8,0:0|0:0,0:0:0:0:
462,331,128980,6,0,P|352:296|252:324,1,180,0|2,0:0|0:0,0:0:0:0:
233,334,129205,1,0,0:0:0:0:
290,306,129280,1,2,0:0:0:0:
331,257,129355,1,2,0:0:0:0:
347,196,129430,1,2,0:0:0:0:
336,133,129505,1,2,0:0:0:0:
299,81,129580,1,2,0:0:0:0:
244,49,129655,1,0,0:0:0:0:
180,44,129730,6,0,P|146:131|218:270,1,180,12|0,0:0|0:0,0:0:0:0:
164,212,130030,1,0,0:0:0:0:
164,212,130180,1,0,0:0:0:0:
103,333,130330,6,0,P|42:240|140:234,1,180,8|0,0:0|0:0,0:0:0:0:
164,212,130630,1,0,0:0:0:0:
164,212,130780,1,0,0:0:0:0:
409,333,130930,6,0,P|470:240|372:234,1,180,8|0,0:0|0:0,0:0:0:0:
347,212,131230,1,0,0:0:0:0:
347,212,131380,1,0,0:0:0:0:
339,42,131530,6,0,P|255:64|166:40,1,180,8|0,0:0|0:0,0:0:0:0:
166,40,131830,1,0,0:0:0:0:
166,40,131980,1,0,0:0:0:0:
12,221,132130,5,8,0:0:0:0:
134,344,132280,1,0,0:0:0:0:
121,117,132430,5,8,0:0:0:0:
223,316,132580,1,0,0:0:0:0:
254,55,132730,5,8,0:0:0:0:
314,318,132880,1,0,0:0:0:0:
396,29,133030,5,8,0:0:0:0:
400,342,133180,1,0,0:0:0:0:
482,308,133330,5,0,0:0:0:0:
466,282,133405,1,0,0:0:0:0:
442,264,133480,1,0,0:0:0:0:
413,256,133555,1,0,0:0:0:0:
376,251,133630,1,0,0:0:0:0:
323,243,133705,1,0,0:0:0:0:
282,209,133780,1,0,0:0:0:0:
265,158,133855,1,0,0:0:0:0:
278,107,133930,1,0,0:0:0:0:
316,69,134005,1,0,0:0:0:0:
400,68,134080,2,0,P|446:125|422:172,1,90
445,209,134230,2,0,P|411:263|342:290,1,90
285,324,134380,2,0,P|243:339|156:314,1,90
79,322,134530,6,0,P|121:282|126:244,1,90,4|0,0:0|0:0,0:0:0:0:
69,176,135130,6,0,B|18:145|18:145|133:141|190:70,1,180,8|0,0:0|0:0,0:0:0:0:
296,31,135580,1,0,0:0:0:0:
287,235,135730,1,0,0:0:0:0:
287,235,135805,1,0,0:0:0:0:
287,235,135880,1,0,0:0:0:0:
296,31,136030,1,8,0:0:0:0:
430,304,136330,5,0,0:0:0:0:
417,279,136405,1,0,0:0:0:0:
404,257,136480,1,0,0:0:0:0:
309,56,136630,1,8,0:0:0:0:
65,316,136930,5,0,0:0:0:0:
485,300,137080,1,8,0:0:0:0:
167,314,137230,1,0,0:0:0:0:
167,314,137530,2,0,P|217:249|139:227,1,180,8|0,0:0|0:0,0:0:0:0:
444,56,137980,5,8,0:0:0:0:
60,272,138130,1,0,0:0:0:0:
342,303,138280,1,0,0:0:0:0:
162,25,138430,1,8,0:0:0:0:
40,304,138580,5,0,0:0:0:0:
40,304,138655,1,0,0:0:0:0:
40,304,138730,5,8,0:0:0:0:
467,230,138880,1,8,0:0:0:0:
219,70,139030,5,0,0:0:0:0:
194,349,139180,1,8,0:0:0:0:
444,298,139330,6,0,P|403:192|465:159,1,180,4|0,0:0|0:0,0:0:0:0:
485,104,139930,2,0,P|369:145|286:87,1,180,8|0,0:0|0:0,0:0:0:0:
71,30,140380,6,0,B|128:156|56:300|56:300|116:252|200:276,1,360,8|0,0:0|0:0,0:0:0:0:
296,108,140830,1,8,0:0:0:0:
406,310,140980,5,0,0:0:0:0:
384,302,141055,1,0,0:0:0:0:
361,296,141130,1,8,0:0:0:0:
144,256,141280,1,0,0:0:0:0:
228,52,141430,1,8,0:0:0:0:
383,209,141580,1,8,0:0:0:0:
341,128,141730,6,0,P|477:197|361:296,1,360
122,330,142330,1,8,0:0:0:0:
193,15,142480,1,0,0:0:0:0:
16,201,142780,5,2,0:0:0:0:
283,300,143080,5,0,0:0:0:0:
385,338,143230,1,8,0:0:0:0:
403,252,143380,1,0,0:0:0:0:
422,144,143530,5,8,0:0:0:0:
283,161,143680,1,8,0:0:0:0:
149,178,143830,1,0,0:0:0:0:
16,201,143980,1,8,0:0:0:0:
105,318,144130,6,0,P|219:187|184:17,1,360,4|0,0:0|0:0,0:0:0:0:
495,267,144730,2,0,B|416:236|416:236|261:293,1,180,8|0,0:0|0:0,0:0:0:0:
105,318,145180,5,8,0:0:0:0:
122,99,145330,1,0,0:0:0:0:
328,213,145480,1,0,0:0:0:0:
328,213,145555,1,0,0:0:0:0:
328,213,145630,1,8,0:0:0:0:
461,111,145930,5,0,0:0:0:0:
3,203,146080,1,0,0:0:0:0:
3,203,146155,1,0,0:0:0:0:
3,203,146230,1,8,0:0:0:0:
367,58,146530,5,0,0:0:0:0:
455,326,146680,1,8,0:0:0:0:
175,273,146830,1,0,0:0:0:0:
175,273,147130,2,0,B|314:302|314:302|268:250,1,180,8|0,0:0|0:0,0:0:0:0:
214,138,147580,6,0,B|75:109|75:109|121:161,1,180,8|0,0:0|0:0,0:0:0:0:
175,273,147880,1,0,0:0:0:0:
387,136,148030,1,8,0:0:0:0:
157,34,148180,1,0,0:0:0:0:
157,34,148255,1,0,0:0:0:0:
157,34,148330,1,8,0:0:0:0:
338,359,148480,1,0,0:0:0:0:
355,34,148630,1,8,0:0:0:0:
174,359,148780,1,8,0:0:0:0:
481,270,148930,6,0,P|338:215|357:31,1,360,4|0,0:0|0:0,0:0:0:0:
445,136,149530,1,8,0:0:0:0:
90,97,149680,1,0,0:0:0:0:
470,159,149980,5,8,0:0:0:0:
85,208,150130,1,0,0:0:0:0:
486,198,150280,5,0,0:0:0:0:
115,321,150430,1,8,0:0:0:0:
171,31,150580,5,0,0:0:0:0:
171,31,150655,1,0,0:0:0:0:
171,31,150730,1,8,0:0:0:0:
462,251,150880,1,0,0:0:0:0:
97,245,151030,1,8,0:0:0:0:
396,35,151180,1,8,0:0:0:0:
278,381,151330,6,0,P|316:122|424:70,1,360
227,77,151930,2,0,L|48:79,1,180,8|0,0:0|0:0,0:0:0:0:
120,350,152380,6,2,B|220:285|220:285|338:374|494:334,1,360
386,81,152830,1,0,0:0:0:0:
32,185,152980,1,0,0:0:0:0:
446,343,153130,1,0,0:0:0:0:
404,325,153205,1,0,0:0:0:0:
370,296,153280,1,0,0:0:0:0:
345,259,153355,1,0,0:0:0:0:
332,216,153430,1,0,0:0:0:0:
331,171,153505,1,0,0:0:0:0:
343,128,153580,1,0,0:0:0:0:
367,90,153655,1,0,0:0:0:0:
401,60,153730,6,0,L|460:145,1,90,4|0,0:0|0:0,0:0:0:0:
111,324,154330,2,0,L|52:239,1,90
135,201,154930,2,0,L|128:106,1,90
383,111,155530,1,0,0:0:0:0:
380,156,155605,1,0,0:0:0:0:
377,201,155680,1,0,0:0:0:0:
401,324,155830,1,8,0:0:0:0:
256,192,156130,12,4,158530,0:0:0:0:
