osu file format v14

[General]
AudioFilename: audio.mp3
AudioLeadIn: 0
PreviewTime: 134387
Countdown: 1
SampleSet: None
StackLeniency: 0.2
Mode: 0
LetterboxInBreaks: 0
WidescreenStoryboard: 0

[Editor]
Bookmarks: 8537,19337,28937,38537,56537,57737,67337,72137,76937,86537,96137,110537,115337,134537,153737,156137,158537
DistanceSpacing: 1.1
BeatDivisor: 4
GridSize: 4
TimelineZoom: 2

[Metadata]
Title:Catastrophe
TitleUnicode:Catastrophe
Artist:MuryokuP
ArtistUnicode:無力P
Creator:Hysteria
Version:Calamity
Source:
Tags:
BeatmapID:1521079
BeatmapSetID:720447

[Difficulty]
HPDrainRate:5
CircleSize:4
OverallDifficulty:9
ApproachRate:9.6
SliderMultiplier:2.1
SliderTickRate:1

[Events]
//Background and Video events
0,0,"BG_Catastrophe.jpg",0,0
//Break Periods
2,57937,66828
//Storyboard Layer 0 (Background)
//Storyboard Layer 1 (Fail)
//Storyboard Layer 2 (Pass)
//Storyboard Layer 3 (Foreground)
//Storyboard Sound Samples

[TimingPoints]
137,300,4,3,0,45,1,0
137,-133.333333333333,4,3,0,45,0,0
1337,-133.333333333333,4,3,0,45,0,0
4937,-100,4,3,0,45,0,0
8837,-128.205128205128,4,3,0,45,0,0
19337,-100,4,3,0,45,0,0
26537,-100,4,3,0,45,0,1
28337,-100,4,3,0,45,0,0
36137,-100,4,3,0,45,0,1
37937,-100,4,3,0,45,0,0
38537,-100,4,3,0,45,0,1
38837,-80,4,3,0,45,0,1
39587,-75.7575757575758,4,3,0,45,0,1
39887,-80,4,3,0,45,0,1
41987,-75.7575757575758,4,3,0,45,0,1
42287,-80,4,3,0,45,0,1
42737,-95.2380952380952,4,3,0,45,0,1
43337,-80,4,3,0,45,0,1
44387,-75.7575757575758,4,3,0,45,0,1
44687,-80,4,3,0,45,0,1
45737,-161.290322580645,4,3,0,45,0,1
46187,-107.52688172043,4,3,0,45,0,1
46637,-80,4,3,0,45,0,1
47087,-80,4,3,0,45,0,1
47537,-53.475935828877,4,3,0,45,0,1
47837,-50,4,3,0,45,0,1
48137,-80,4,3,0,45,0,1
49187,-75.7575757575758,4,3,0,45,0,1
49487,-80,4,3,0,45,0,1
51587,-75.7575757575758,4,3,0,45,0,1
51887,-80,4,3,0,45,0,1
52337,-95.2380952380952,4,3,0,45,0,1
52937,-66.6666666666667,4,3,0,45,0,1
53237,-133.333333333333,4,3,0,45,0,1
53537,-66.6666666666667,4,3,0,45,0,1
53837,-133.333333333333,4,3,0,45,0,1
54137,-66.6666666666667,4,3,0,45,0,1
54437,-133.333333333333,4,3,0,45,0,1
54737,-66.6666666666667,4,3,0,45,0,1
55037,-133.333333333333,4,3,0,45,0,1
55337,-80,4,3,0,45,0,1
57737,-133.333333333333,4,3,0,45,0,0
68537,-80,4,3,0,45,0,0
72137,-100,4,3,0,45,0,0
74537,-80,4,3,0,45,0,0
76937,-100,4,3,0,45,0,0
77237,-100,4,3,0,45,0,0
84137,-100,4,3,0,45,0,1
85937,-100,4,3,0,45,0,0
93737,-100,4,3,0,45,0,1
95537,-100,4,3,0,45,0,0
115337,-100,4,3,0,45,0,1
115637,-80,4,3,0,45,0,1
116387,-75.7575757575758,4,3,0,45,0,1
116687,-80,4,3,0,45,0,1
118787,-75.7575757575758,4,3,0,45,0,1
119087,-80,4,3,0,45,0,1
119537,-95.2380952380952,4,3,0,45,0,1
120137,-80,4,3,0,45,0,1
121187,-75.7575757575758,4,3,0,45,0,1
121487,-80,4,3,0,45,0,1
122537,-200,4,3,0,45,0,1
122987,-114.942528735632,4,3,0,45,0,1
123437,-80,4,3,0,45,0,1
123887,-100,4,3,0,45,0,1
124337,-80,4,3,0,45,0,1
125987,-75.7575757575758,4,3,0,45,0,1
126287,-80,4,3,0,45,0,1
128387,-75.7575757575758,4,3,0,45,0,1
128687,-80,4,3,0,45,0,1
129737,-66.6666666666667,4,3,0,45,0,1
130037,-133.333333333333,4,3,0,45,0,1
130337,-66.6666666666667,4,3,0,45,0,1
130637,-133.333333333333,4,3,0,45,0,1
130937,-66.6666666666667,4,3,0,45,0,1
131237,-133.333333333333,4,3,0,45,0,1
131537,-66.6666666666667,4,3,0,45,0,1
131837,-133.333333333333,4,3,0,45,0,1
132137,-80,4,3,0,45,0,1
134462,-80,4,3,0,45,0,0
134537,-66.6666666666667,4,3,0,45,0,1
136937,-57.1428571428571,4,3,0,45,0,1
139337,-50,4,3,0,45,0,1
141737,-57.1428571428571,4,3,0,45,0,1
142937,-66.6666666666667,4,3,0,45,0,1
144137,-75.0187546886722,4,3,0,45,0,1
146537,-60.00024000096,4,3,0,45,0,1
148937,-50,4,3,0,45,0,1
151337,-59.8802395209581,4,3,0,45,0,1
152537,-75.187969924812,4,3,0,45,0,1
153737,-100,4,3,0,45,0,0

[Colours]
Combo1 : 106,106,106
Combo2 : 199,120,120
Combo3 : 199,159,120
Combo4 : 199,199,120
Combo5 : 120,120,199
Combo6 : 159,120,199
Combo7 : 199,120,199
Combo8 : 212,212,212

[HitObjects]
136,68,137,6,0,L|124:252,1,157.500006008148
376,68,737,2,0,L|388:252,1,157.500006008148
148,88,1337,6,0,L|136:272,1,157.500006008148
364,88,1937,2,0,L|376:272,1,157.500006008148
160,108,2537,6,0,L|148:292,1,157.500006008148
352,108,3137,2,0,L|364:292,1,157.500006008148
172,128,3737,6,0,L|160:312,1,157.500006008148
340,128,4337,2,0,L|352:312,1,157.500006008148
209,367,4787,1,0,0:0:0:0:
303,367,4937,5,0,0:0:0:0:
256,128,5237,1,0,0:0:0:0:
256,285,5537,1,0,0:0:0:0:
209,46,5837,1,0,0:0:0:0:
303,367,6137,5,0,0:0:0:0:
303,46,6437,1,0,0:0:0:0:
209,367,6737,1,0,0:0:0:0:
256,128,7037,1,0,0:0:0:0:
256,207,7187,1,0,0:0:0:0:
256,285,7337,37,0,0:0:0:0:
325,168,7637,1,0,3:0:0:0:
189,246,7937,1,0,0:0:0:0:
393,208,8237,1,0,3:0:0:0:
121,207,8537,1,0,0:0:0:0:
393,208,9137,5,0,3:0:0:0:
364,178,9212,1,0,0:0:0:0:
325,168,9287,1,0,0:0:0:0:
286,178,9362,1,0,0:0:0:0:
256,206,9437,1,0,0:0:0:0:
227,235,9512,1,0,0:0:0:0:
188,245,9587,1,0,0:0:0:0:
149,235,9662,1,0,0:0:0:0:
121,207,9737,5,0,0:0:0:0:
393,208,9887,1,0,3:0:0:0:
257,71,12137,5,0,0:0:0:0:
256,343,12287,1,0,3:0:0:0:
257,278,14537,5,0,3:0:0:0:
189,208,14837,1,0,0:0:0:0:
259,140,15137,1,0,0:0:0:0:
327,210,15437,1,0,3:0:0:0:
163,302,15737,5,0,3:0:0:0:
166,114,16037,1,0,0:0:0:0:
354,117,16337,1,0,0:0:0:0:
350,304,16637,1,0,3:0:0:0:
83,206,16937,37,0,0:0:0:0:
260,34,17237,1,0,0:0:0:0:
432,211,17537,1,0,3:0:0:0:
255,383,17837,1,0,3:0:0:0:
252,215,18137,5,0,3:0:0:0:
252,203,18212,1,0,0:0:0:0:
264,203,18287,1,0,0:0:0:0:
263,215,18362,1,0,3:0:0:0:
243,216,18437,5,0,3:0:0:0:
249,194,18512,1,0,0:0:0:0:
272,200,18587,1,0,0:0:0:0:
265,223,18662,1,0,3:0:0:0:
225,216,18737,5,0,3:0:0:0:
249,176,18812,1,0,0:0:0:0:
290,201,18887,1,0,0:0:0:0:
266,240,18962,1,0,3:0:0:0:
207,208,19037,5,0,3:0:0:0:
258,158,19112,1,0,0:0:0:0:
307,209,19187,1,0,0:0:0:0:
257,257,19262,1,0,3:0:0:0:
185,188,19337,6,0,B|173:138|173:138|185:84,1,105
329,229,19637,2,0,B|341:280|341:280|329:333,1,105
237,278,19937,1,0,3:0:0:0:
237,278,20087,1,0,3:0:0:0:
277,135,20237,1,0,0:0:0:0:
381,242,20387,1,0,3:0:0:0:
315,97,20537,38,0,L|210:87,1,105,0|0,3:0|3:0,3:0:0:0:
99,180,20837,1,0,0:0:0:0:
203,171,20987,1,0,0:0:0:0:
315,263,21137,2,0,L|210:253,1,105,0|0,3:0|3:0,3:0:0:0:
382,345,21437,2,0,B|392:293|392:293|381:242,1,105
274,342,21737,6,0,B|326:361|366:337|366:337|382:345|382:345|418:321|474:340,1,210
366,337,22187,1,0,0:0:0:0:
328,195,22337,1,0,0:0:0:0:
328,195,22487,1,0,0:0:0:0:
469,231,22637,1,0,0:0:0:0:
382,345,22787,1,0,0:0:0:0:
482,222,22937,6,0,B|492:170|492:170|481:119,1,105
313,188,23237,1,0,0:0:0:0:
393,171,23387,1,0,0:0:0:0:
233,205,23537,5,0,0:0:0:0:
212,253,23612,1,0,0:0:0:0:
212,305,23687,1,0,0:0:0:0:
235,351,23762,1,0,0:0:0:0:
255,315,23837,5,0,0:0:0:0:
243,292,23912,1,0,0:0:0:0:
243,266,23987,1,0,0:0:0:0:
254,242,24062,1,0,0:0:0:0:
288,266,24137,6,0,B|338:277|338:277|391:265,1,105
339,111,24437,2,0,B|288:100|288:100|236:112,1,105
367,248,24737,1,0,0:0:0:0:
367,248,24887,1,0,0:0:0:0:
258,127,25037,1,0,3:0:0:0:
393,171,25187,1,0,0:0:0:0:
233,205,25337,38,0,L|128:195,1,105,0|0,3:0|3:0,3:0:0:0:
0,127,25637,1,0,0:0:0:0:
104,117,25787,1,0,0:0:0:0:
233,49,25937,2,0,L|128:39,1,105,0|0,3:0|3:0,3:0:0:0:
105,274,26237,1,0,0:0:0:0:
104,117,26387,1,0,0:0:0:0:
129,352,26537,5,0,0:0:0:0:
105,274,26687,1,0,0:0:0:0:
184,292,26837,1,0,0:0:0:0:
129,39,26987,5,0,0:0:0:0:
104,117,27137,1,0,0:0:0:0:
49,56,27287,1,0,0:0:0:0:
123,375,27437,5,0,0:0:0:0:
87,258,27587,1,0,0:0:0:0:
206,285,27737,1,0,0:0:0:0:
146,23,27887,5,0,0:0:0:0:
110,140,28037,1,0,0:0:0:0:
26,48,28187,1,0,0:0:0:0:
139,305,28337,5,0,0:0:0:0:
166,316,28412,1,0,0:0:0:0:
195,316,28487,1,0,0:0:0:0:
221,304,28562,1,0,0:0:0:0:
252,262,28637,37,0,0:0:0:0:
206,285,28712,1,0,0:0:0:0:
154,285,28787,1,0,0:0:0:0:
106,264,28862,1,0,0:0:0:0:
33,206,28937,6,0,B|22:156|22:156|34:103,1,105
173,6,29237,2,0,B|184:56|184:56|172:109,1,105
31,72,29537,1,0,0:0:0:0:
31,72,29687,1,0,0:0:0:0:
175,140,29837,1,0,0:0:0:0:
34,103,29987,1,0,0:0:0:0:
172,108,30137,38,0,L|277:98,1,105,0|0,3:0|3:0,3:0:0:0:
293,278,30437,1,0,0:0:0:0:
232,192,30587,1,0,0:0:0:0:
380,88,30737,2,0,L|336:183,1,105,0|0,3:0|3:0,3:0:0:0:
87,289,31037,2,0,B|137:300|137:300|190:288,1,105
91,181,31337,6,0,B|71:237|95:273|95:273|87:289|87:289|111:329|92:381,1,210
95,273,31787,1,0,0:0:0:0:
232,192,31937,1,0,0:0:0:0:
232,192,32087,1,0,0:0:0:0:
233,351,32237,1,0,0:0:0:0:
87,289,32387,1,0,0:0:0:0:
251,350,32537,38,0,B|301:361|301:361|354:349,1,105
223,177,32837,1,0,0:0:0:0:
237,263,32987,1,0,0:0:0:0:
209,91,33137,5,0,0:0:0:0:
161,70,33212,1,0,0:0:0:0:
109,70,33287,1,0,0:0:0:0:
63,93,33362,1,0,0:0:0:0:
99,117,33437,5,0,0:0:0:0:
122,105,33512,1,0,0:0:0:0:
148,105,33587,1,0,0:0:0:0:
172,116,33662,1,0,0:0:0:0:
142,147,33737,6,0,B|131:197|131:197|143:250,1,105
305,208,34037,2,0,B|316:158|316:158|304:105,1,105,0|0,3:0|3:0,3:0:0:0:
155,232,34337,1,0,3:0:0:0:
155,232,34487,1,0,3:0:0:0:
291,122,34637,1,0,3:0:0:0:
237,263,34787,1,0,0:0:0:0:
209,91,34937,6,0,L|104:81,1,105,0|0,3:0|3:0,3:0:0:0:
304,105,35237,1,0,0:0:0:0:
364,19,35387,1,0,0:0:0:0:
245,181,35537,2,0,L|288:276,1,105,0|0,3:0|3:0,3:0:0:0:
408,113,35837,1,0,0:0:0:0:
183,266,35987,1,0,0:0:0:0:
164,0,36137,5,0,0:0:0:0:
209,91,36287,1,0,0:0:0:0:
105,81,36437,1,0,0:0:0:0:
408,113,36587,37,0,0:0:0:0:
304,105,36737,1,0,0:0:0:0:
364,19,36887,1,0,0:0:0:0:
183,266,37037,5,0,0:0:0:0:
245,181,37187,1,0,0:0:0:0:
289,277,37337,1,0,0:0:0:0:
159,57,37487,5,0,0:0:0:0:
358,78,37637,1,0,0:0:0:0:
238,241,37787,1,0,0:0:0:0:
252,125,37937,5,0,0:0:0:0:
265,120,38012,1,0,0:0:0:0:
250,140,38087,1,0,0:0:0:0:
240,117,38162,1,0,0:0:0:0:
257,82,38237,5,0,0:0:0:0:
297,119,38312,1,0,0:0:0:0:
275,167,38387,1,0,0:0:0:0:
223,160,38462,1,0,0:0:0:0:
109,110,38537,6,0,B|162:98|162:98|212:109,1,105
339,225,38837,2,0,B|352:288|352:288|340:360,1,131.25
117,357,39137,1,0,3:0:0:0:
115,227,39287,1,0,0:0:0:0:
228,291,39437,1,0,0:0:0:0:
25,232,39587,38,0,B|25:205|40:180|40:180|24:138|24:138|24:130|24:130|8:87|8:87|23:65|23:36,1,207.89999936554
8,87,39887,5,0,0:0:0:0:
194,131,40037,2,0,B|260:142|260:142|323:129,1,131.25
257,18,40337,1,0,0:0:0:0:
257,18,40487,1,0,0:0:0:0:
192,152,40637,2,0,B|258:163|258:163|321:150,1,131.25
190,173,40937,6,0,B|186:197|194:225|194:225|186:253|186:253|194:285|189:302,1,131.25
43,237,41237,1,0,0:0:0:0:
191,323,41387,1,0,0:0:0:0:
141,237,41537,1,0,0:0:0:0:
92,322,41687,1,0,0:0:0:0:
290,324,41837,1,0,0:0:0:0:
192,152,41987,38,0,B|165:152|140:167|140:167|98:151|98:151|90:151|90:151|47:135|47:135|25:150|-4:150,1,207.89999936554
47,135,42287,37,0,0:0:0:0:
92,322,42437,1,0,0:0:0:0:
140,167,42587,1,0,0:0:0:0:
191,355,42737,5,0,0:0:0:0:
245,354,42812,1,0,0:0:0:0:
290,324,42887,1,0,0:0:0:0:
311,274,42962,1,0,0:0:0:0:
302,221,43037,37,0,0:0:0:0:
353,239,43112,1,0,0:0:0:0:
405,226,43187,1,0,0:0:0:0:
442,185,43262,1,0,0:0:0:0:
452,133,43337,6,0,B|457:116|449:84|449:84|457:56|457:56|449:28|453:4,1,131.25
306,68,43637,1,0,0:0:0:0:
473,134,43787,2,0,B|478:117|470:85|470:85|478:57|478:57|470:29|474:5,1,131.25
326,69,44087,1,0,0:0:0:0:
453,4,44237,1,0,0:0:0:0:
315,85,44387,38,0,B|288:85|263:70|263:70|221:86|221:86|213:86|213:86|170:102|170:102|148:87|119:87,1,207.89999936554
170,102,44687,5,0,0:0:0:0:
326,69,44837,2,0,B|339:132|339:132|327:198,1,131.25
197,263,45137,1,0,0:0:0:0:
197,263,45287,1,0,0:0:0:0:
430,277,45437,2,0,B|378:234|378:234|317:214,1,131.25,0|0,3:0|3:0,3:0:0:0:
460,278,45737,6,0,B|465:261|457:229|457:229|465:201|465:201|457:173|462:147,1,130.199994834595
451,116,46187,2,0,B|445:152|454:201|454:201|446:229|446:229|457:284|449:309,1,195.300006109085
438,342,46637,2,0,B|447:269|436:229|436:229|444:202|444:202|435:161|440:82,1,262.5
431,148,47087,2,0,B|427:172|435:200|435:200|427:228|427:228|435:260|430:277,2,131.25
287,188,47537,37,0,0:0:0:0:
316,258,47612,1,0,0:0:0:0:
361,197,47687,1,0,0:0:0:0:
310,188,47762,37,0,0:0:0:0:
303,238,47837,1,0,0:0:0:0:
350,218,47912,1,0,0:0:0:0:
324,200,47987,5,0,0:0:0:0:
308,221,48062,1,0,0:0:0:0:
333,224,48137,6,0,B|345:158|345:158|332:95,1,131.25
219,31,48437,1,0,0:0:0:0:
221,160,48587,1,0,0:0:0:0:
443,30,48737,1,0,0:0:0:0:
444,287,48887,1,0,0:0:0:0:
463,31,49037,1,0,0:0:0:0:
231,142,49187,6,0,B|231:169|246:194|246:194|230:236|230:236|230:244|230:244|214:287|214:287|229:309|229:338,1,207.89999936554
214,287,49487,6,0,B|231:292|263:284|263:284|291:292|291:292|319:284|343:288,1,131.25
407,380,49787,1,0,0:0:0:0:
279,196,49937,1,0,0:0:0:0:
343,288,50087,1,0,0:0:0:0:
391,187,50237,1,0,0:0:0:0:
231,297,50387,1,0,0:0:0:0:
455,279,50537,5,0,0:0:0:0:
455,279,50687,1,0,0:0:0:0:
279,196,50837,1,0,0:0:0:0:
407,380,50987,1,0,0:0:0:0:
391,187,51137,1,0,0:0:0:0:
297,383,51287,1,0,0:0:0:0:
502,177,51437,1,0,0:0:0:0:
222,103,51587,38,0,B|195:103|170:118|170:118|128:102|128:102|120:102|120:102|77:86|77:86|55:101|26:101,1,207.89999936554
78,86,51887,1,0,0:0:0:0:
123,272,52037,1,0,0:0:0:0:
170,118,52187,1,0,0:0:0:0:
31,304,52337,5,0,0:0:0:0:
61,348,52412,1,0,0:0:0:0:
111,370,52487,1,0,0:0:0:0:
165,360,52562,1,0,0:0:0:0:
235,320,52637,5,0,0:0:0:0:
182,369,52712,1,0,0:0:0:0:
110,382,52787,1,0,0:0:0:0:
43,353,52862,1,0,0:0:0:0:
4,295,52937,6,0,L|14:137,1,157.500006008148
35,124,53237,2,0,L|29:202,1,78.7500030040742
265,294,53537,6,0,L|254:136,1,157.500006008148
233,122,53837,2,0,L|239:200,1,78.7500030040742
25,281,54137,6,0,L|35:123,1,157.500006008148
56,110,54437,2,0,L|50:188,1,78.7500030040742
244,279,54662,1,0,0:0:0:0:
244,279,54737,38,0,L|233:121,1,157.500006008148
212,107,55037,2,0,L|218:185,1,78.7500030040742
318,93,55337,6,0,B|255:80|255:80|189:92,1,131.25
387,158,55637,2,0,B|400:94|400:94|388:29,1,131.25
322,227,55937,2,0,B|385:240|385:240|451:228,1,131.25
253,162,56237,2,0,B|240:225|240:225|252:291,1,131.25
328,159,56537,5,0,0:0:0:0:
319,151,56612,1,0,0:0:0:0:
311,160,56687,1,0,0:0:0:0:
320,168,56762,1,0,0:0:0:0:
334,167,56837,5,0,0:0:0:0:
327,144,56912,1,0,0:0:0:0:
304,151,56987,1,0,0:0:0:0:
311,174,57062,1,0,0:0:0:0:
337,188,57137,5,0,0:0:0:0:
348,142,57212,1,0,0:0:0:0:
301,131,57287,1,0,0:0:0:0:
291,177,57362,1,0,0:0:0:0:
322,227,57437,5,0,0:0:0:0:
387,158,57512,1,0,0:0:0:0:
318,93,57587,1,0,0:0:0:0:
253,162,57662,1,0,0:0:0:0:
252,291,57737,37,0,0:0:0:0:
252,291,67337,5,0,0:0:0:0:
220,191,67487,1,0,0:0:0:0:
189,92,67637,1,0,0:0:0:0:
189,92,67787,1,0,0:0:0:0:
451,228,67937,5,0,0:0:0:0:
351,259,68087,1,0,0:0:0:0:
252,291,68237,1,0,0:0:0:0:
252,291,68387,1,0,0:0:0:0:
388,29,68537,5,0,0:0:0:0:
419,128,68687,1,0,0:0:0:0:
451,228,68837,1,0,0:0:0:0:
451,228,68987,1,0,0:0:0:0:
189,92,69137,5,0,0:0:0:0:
288,60,69287,1,0,0:0:0:0:
388,29,69437,1,0,0:0:0:0:
388,29,69587,1,0,0:0:0:0:
322,227,69737,5,0,0:0:0:0:
253,162,69887,1,0,0:0:0:0:
318,93,70037,1,0,0:0:0:0:
387,158,70187,1,0,0:0:0:0:
291,177,70337,37,0,0:0:0:0:
301,131,70487,1,0,0:0:0:0:
348,142,70637,1,0,0:0:0:0:
337,188,70787,1,0,0:0:0:0:
319,159,70937,5,0,0:0:0:0:
348,142,71087,1,0,0:0:0:0:
291,177,71237,1,0,0:0:0:0:
387,158,71387,1,0,0:0:0:0:
253,162,71537,5,0,0:0:0:0:
424,188,71687,1,0,0:0:0:0:
216,132,71837,1,0,0:0:0:0:
451,228,71987,1,0,0:0:0:0:
189,92,72137,5,0,0:0:0:0:
388,29,72437,1,0,0:0:0:0:
451,228,72737,1,0,0:0:0:0:
252,291,73037,1,0,0:0:0:0:
275,19,73337,5,0,0:0:0:0:
460,115,73637,1,0,0:0:0:0:
364,300,73937,1,0,0:0:0:0:
179,204,74237,1,0,0:0:0:0:
142,204,74312,1,0,0:0:0:0:
180,242,74387,1,0,0:0:0:0:
217,204,74462,1,0,0:0:0:0:
180,167,74537,6,0,B|163:162|131:170|131:170|103:162|103:162|75:170|51:166,1,131.25
188,324,74987,1,0,0:0:0:0:
188,324,75062,1,0,0:0:0:0:
188,324,75137,2,0,B|212:328|240:320|240:320|268:328|268:328|300:320|317:325,1,131.25
385,127,75437,37,0,3:0:0:0:
352,226,75587,1,0,3:0:0:0:
122,126,75737,5,0,3:0:0:0:
155,225,75887,1,0,3:0:0:0:
401,78,76037,37,0,3:0:0:0:
335,274,76187,1,0,3:0:0:0:
105,76,76337,5,0,3:0:0:0:
122,126,76412,1,0,0:0:0:0:
138,175,76487,1,0,0:0:0:0:
155,225,76562,1,0,0:0:0:0:
171,274,76637,37,0,3:0:0:0:
222,215,76712,1,0,0:0:0:0:
198,141,76787,1,0,0:0:0:0:
122,126,76862,1,0,0:0:0:0:
71,185,76937,6,0,B|69:213|52:233|52:233|76:237|96:259,1,105
61,384,77237,2,0,B|63:355|80:336|80:336|55:331|36:310,1,105
187,323,77537,1,0,3:0:0:0:
187,323,77687,1,0,3:0:0:0:
52,233,77837,1,0,0:0:0:0:
203,246,77987,1,0,0:0:0:0:
68,156,78137,38,0,L|58:51,1,105,0|0,3:0|3:0,3:0:0:0:
212,147,78437,1,0,0:0:0:0:
127,208,78587,1,0,0:0:0:0:
133,27,78737,2,0,L|228:70,1,105,0|0,3:0|3:0,3:0:0:0:
287,267,79037,2,0,B|277:215|277:215|288:164,1,105
395,264,79337,6,0,B|343:283|303:259|303:259|287:267|287:267|251:243|195:263,1,210
303,259,79787,1,0,0:0:0:0:
305,88,79937,1,0,0:0:0:0:
305,88,80087,1,0,0:0:0:0:
156,172,80237,1,0,3:0:0:0:
287,267,80387,1,0,0:0:0:0:
157,154,80537,38,0,B|147:102|147:102|158:51,1,105
319,97,80837,1,0,0:0:0:0:
241,103,80987,1,0,0:0:0:0:
397,91,81137,5,0,0:0:0:0:
418,139,81212,1,0,0:0:0:0:
418,191,81287,1,0,0:0:0:0:
395,237,81362,1,0,0:0:0:0:
382,201,81437,5,0,0:0:0:0:
394,178,81512,1,0,0:0:0:0:
394,152,81587,1,0,0:0:0:0:
383,128,81662,1,0,0:0:0:0:
364,161,81737,6,0,B|315:176|315:176|261:168,1,105
274,33,82037,2,0,B|322:17|322:17|376:25,1,105
286,167,82337,1,0,0:0:0:0:
286,167,82487,1,0,0:0:0:0:
352,27,82637,1,0,0:0:0:0:
241,103,82787,1,0,0:0:0:0:
396,90,82937,6,0,L|501:100,1,105,0|0,3:0|3:0,3:0:0:0:
435,221,83237,1,0,0:0:0:0:
330,230,83387,1,0,0:0:0:0:
396,352,83537,2,0,L|501:362,1,105,0|0,3:0|3:0,3:0:0:0:
402,113,83837,1,0,0:0:0:0:
402,329,83987,1,0,0:0:0:0:
495,77,84137,5,0,0:0:0:0:
396,90,84287,1,0,0:0:0:0:
396,90,84437,1,0,0:0:0:0:
495,384,84587,37,0,0:0:0:0:
396,352,84737,1,0,0:0:0:0:
396,352,84887,1,0,0:0:0:0:
501,100,85037,5,0,0:0:0:0:
402,113,85187,1,0,0:0:0:0:
402,113,85337,1,0,0:0:0:0:
501,362,85487,5,0,0:0:0:0:
402,329,85637,1,0,0:0:0:0:
402,329,85787,1,0,0:0:0:0:
440,20,85937,5,0,0:0:0:0:
413,9,86012,1,0,0:0:0:0:
384,9,86087,1,0,0:0:0:0:
358,21,86162,1,0,0:0:0:0:
327,63,86237,5,0,0:0:0:0:
373,40,86312,1,0,0:0:0:0:
425,40,86387,1,0,0:0:0:0:
473,61,86462,1,0,0:0:0:0:
503,157,86537,6,0,B|514:207|514:207|502:260,1,105
310,164,86837,2,0,B|307:112|307:112|328:62,1,105
405,128,87137,1,0,0:0:0:0:
405,128,87287,1,0,0:0:0:0:
214,199,87437,1,0,0:0:0:0:
413,206,87587,1,0,0:0:0:0:
222,122,87737,38,0,L|117:112,1,105,0|0,3:0|3:0,3:0:0:0:
6,217,88037,1,0,0:0:0:0:
110,208,88187,1,0,0:0:0:0:
223,314,88337,2,0,L|118:304,1,105,0|0,3:0|3:0,3:0:0:0:
229,293,88637,2,0,B|282:281|282:281|332:292,1,105
328,384,88937,6,0,B|308:328|332:292|332:292|324:276|324:276|348:235|329:184,1,210
324,276,89387,1,0,0:0:0:0:
461,357,89537,1,0,0:0:0:0:
461,357,89687,1,0,0:0:0:0:
462,198,89837,1,0,0:0:0:0:
332,292,89987,1,0,0:0:0:0:
471,183,90137,6,0,B|482:133|482:133|470:80,1,105,0|0,3:0|3:0,3:0:0:0:
302,149,90437,1,0,0:0:0:0:
382,132,90587,1,0,0:0:0:0:
222,166,90737,5,0,0:0:0:0:
201,214,90812,1,0,0:0:0:0:
201,266,90887,1,0,0:0:0:0:
224,312,90962,1,0,0:0:0:0:
244,276,91037,5,0,0:0:0:0:
232,253,91112,1,0,0:0:0:0:
232,227,91187,1,0,0:0:0:0:
243,203,91262,1,0,0:0:0:0:
277,227,91337,6,0,B|327:238|327:238|380:226,1,105
328,72,91637,2,0,B|277:61|277:61|225:73,1,105
356,209,91937,1,0,0:0:0:0:
356,209,92087,1,0,0:0:0:0:
247,88,92237,1,0,3:0:0:0:
382,132,92387,1,0,0:0:0:0:
222,166,92537,38,0,L|117:156,1,105,0|0,3:0|3:0,3:0:0:0:
101,337,92837,1,0,0:0:0:0:
161,251,92987,1,0,0:0:0:0:
13,146,93137,2,0,L|56:241,1,105,0|0,3:0|3:0,3:0:0:0:
205,345,93437,1,0,0:0:0:0:
0,329,93587,1,0,0:0:0:0:
118,156,93737,5,0,0:0:0:0:
106,277,93887,1,0,0:0:0:0:
106,277,94037,1,0,0:0:0:0:
394,156,94187,5,0,0:0:0:0:
406,277,94337,1,0,0:0:0:0:
406,277,94487,1,0,0:0:0:0:
98,158,94637,5,0,0:0:0:0:
86,279,94787,1,0,0:0:0:0:
86,279,94937,1,0,0:0:0:0:
414,158,95087,5,0,0:0:0:0:
426,279,95237,1,0,0:0:0:0:
426,279,95387,1,0,0:0:0:0:
257,219,95537,5,0,0:0:0:0:
244,227,95612,1,0,0:0:0:0:
270,226,95687,1,0,0:0:0:0:
257,204,95762,1,0,0:0:0:0:
214,206,95837,37,0,0:0:0:0:
232,256,95912,1,0,0:0:0:0:
284,255,95987,1,0,0:0:0:0:
299,204,96062,1,0,0:0:0:0:
255,96,96137,6,0,B|244:122|222:135|222:135|243:147|255:174,1,105
180,67,96437,2,0,B|192:39|214:27|214:27|191:14|179:-12,1,105
324,134,96737,1,0,0:0:0:0:
324,134,96887,1,0,0:0:0:0:
113,28,97037,1,0,0:0:0:0:
255,96,97187,1,0,0:0:0:0:
180,67,97337,5,0,0:0:0:0:
282,71,97487,1,0,0:0:0:0:
152,91,97637,1,0,0:0:0:0:
322,1,97787,1,0,0:0:0:0:
114,164,97937,1,0,0:0:0:0:
114,164,98087,1,0,0:0:0:0:
360,263,98237,2,0,L|465:253,1,105,0|0,3:0|3:0,3:0:0:0:
264,142,98537,6,0,B|253:193|253:193|263:245,1,105
167,124,98837,2,0,L|62:114,1,105,0|0,3:0|3:0,3:0:0:0:
165,226,99137,1,0,0:0:0:0:
165,226,99287,1,0,0:0:0:0:
206,24,99437,1,0,0:0:0:0:
361,160,99587,1,0,0:0:0:0:
245,137,99737,5,0,0:0:0:0:
322,47,99887,1,0,0:0:0:0:
282,249,100037,1,0,0:0:0:0:
127,112,100187,1,0,0:0:0:0:
303,149,100337,5,0,0:0:0:0:
264,194,100412,1,0,0:0:0:0:
205,181,100487,1,0,0:0:0:0:
187,126,100562,1,0,0:0:0:0:
225,80,100637,1,0,0:0:0:0:
285,92,100712,1,0,0:0:0:0:
273,142,100787,1,0,0:0:0:0:
224,158,100862,1,0,0:0:0:0:
234,108,100937,38,0,B|286:98|286:98|337:108,1,105
464,261,101237,2,0,B|423:226|423:226|399:180,1,105
340,376,101537,2,0,B|341:323|341:323|362:275,1,105
172,352,101837,2,0,B|213:319|213:319|264:306,1,105
84,206,102137,6,0,B|135:218|135:218|177:248,1,105
144,46,102437,2,0,B|166:94|166:94|167:146,1,105
307,0,102737,2,0,B|282:47|282:47|242:80,1,105
450,95,103037,2,0,B|398:105|398:105|347:94,1,105
454,3,103337,6,0,B|474:59|450:95|450:95|458:111|458:111|434:151|453:203,1,210
458,111,103787,1,0,0:0:0:0:
343,187,103937,1,0,0:0:0:0:
343,187,104087,1,0,0:0:0:0:
448,297,104237,1,0,0:0:0:0:
453,204,104387,1,0,0:0:0:0:
338,280,104537,5,0,0:0:0:0:
316,159,104687,1,0,0:0:0:0:
474,324,104837,1,0,0:0:0:0:
481,185,104987,1,0,0:0:0:0:
309,299,105137,5,0,0:0:0:0:
277,312,105212,1,0,0:0:0:0:
242,312,105287,1,0,0:0:0:0:
211,297,105362,1,0,0:0:0:0:
173,247,105437,5,0,0:0:0:0:
229,275,105512,1,0,0:0:0:0:
291,275,105587,1,0,0:0:0:0:
349,249,105662,1,0,0:0:0:0:
398,172,105737,38,0,B|411:120|411:120|396:48,1,105
441,253,106037,2,0,B|428:305|428:305|442:376,1,105
490,176,106337,1,0,0:0:0:0:
490,176,106487,1,0,0:0:0:0:
349,249,106637,1,0,0:0:0:0:
441,253,106787,1,0,0:0:0:0:
398,172,106937,5,0,0:0:0:0:
391,330,107087,1,0,0:0:0:0:
448,95,107237,1,0,0:0:0:0:
483,334,107387,1,0,0:0:0:0:
356,91,107537,1,0,0:0:0:0:
356,91,107687,1,0,0:0:0:0:
299,326,107837,2,0,B|309:274|309:274|298:223,1,105
106,286,108137,6,0,L|211:276,1,105,0|0,3:0|3:0,3:0:0:0:
16,235,108437,2,0,B|6:287|6:287|17:338,1,105
166,371,108737,1,0,0:0:0:0:
166,371,108887,1,0,0:0:0:0:
150,191,109037,1,0,0:0:0:0:
106,286,109187,1,0,0:0:0:0:
211,276,109337,5,0,0:0:0:0:
45,201,109487,1,0,0:0:0:0:
255,181,109637,1,0,0:0:0:0:
63,381,109787,1,0,0:0:0:0:
270,362,109937,1,0,0:0:0:0:
157,268,110087,5,0,0:0:0:0:
144,278,110162,1,0,0:0:0:0:
152,292,110237,1,0,0:0:0:0:
167,290,110312,1,0,0:0:0:0:
170,275,110387,5,0,0:0:0:0:
153,228,110462,1,0,0:0:0:0:
106,286,110537,1,0,0:0:0:0:
163,333,110612,1,0,0:0:0:0:
211,276,110687,1,0,0:0:0:0:
125,321,110987,37,0,0:0:0:0:
163,333,111062,1,0,0:0:0:0:
198,314,111137,1,0,0:0:0:0:
106,286,111587,1,0,0:0:0:0:
211,276,111887,1,0,0:0:0:0:
117,246,112187,37,0,0:0:0:0:
153,228,112262,1,0,0:0:0:0:
191,241,112337,1,0,0:0:0:0:
163,333,112487,1,0,0:0:0:0:
156,256,112637,1,0,0:0:0:0:
150,180,112787,1,0,0:0:0:0:
80,263,112937,5,0,0:0:0:0:
233,250,113087,1,0,0:0:0:0:
74,187,113237,5,0,0:0:0:0:
227,174,113387,1,0,0:0:0:0:
87,340,113537,37,0,0:0:0:0:
240,327,113687,1,0,0:0:0:0:
12,231,113837,5,0,0:0:0:0:
295,206,113987,1,0,0:0:0:0:
16,307,114137,37,0,0:0:0:0:
87,340,114237,5,0,0:0:0:0:
151,295,114337,37,0,0:0:0:0:
144,217,114437,5,0,0:0:0:0:
74,187,114537,5,0,0:0:0:0:
12,231,114637,5,0,0:0:0:0:
66,280,114737,5,0,0:3:0:0:
63,248,114812,1,0,0:3:0:0:
95,245,114887,1,0,0:3:0:0:
98,277,114962,1,0,0:3:0:0:
55,307,115037,5,0,0:0:0:0:
31,252,115112,1,0,0:0:0:0:
76,213,115187,1,0,0:0:0:0:
126,244,115262,1,0,0:0:0:0:
114,380,115337,38,0,B|101:352|80:340|80:340|102:327|113:301,1,105
312,338,115637,2,0,B|249:351|249:351|177:339,1,131.25
172,132,115937,1,0,3:0:0:0:
246,227,116087,1,0,0:0:0:0:
126,244,116237,1,0,0:0:0:0:
169,43,116387,38,0,B|196:43|221:58|221:58|263:42|263:42|271:42|271:42|314:26|314:26|336:41|365:41,1,207.89999936554
314,26,116687,5,0,0:0:0:0:
158,59,116837,2,0,B|147:124|147:124|160:188,1,131.25
335,234,117137,1,0,0:0:0:0:
335,234,117287,1,0,0:0:0:0:
177,60,117437,2,0,B|166:126|166:126|179:189,1,131.25
400,123,117737,6,0,B|376:119|348:127|348:127|320:119|320:119|288:127|271:122,1,131.25
325,256,118037,1,0,0:0:0:0:
248,124,118187,1,0,0:0:0:0:
324,167,118337,1,0,2:0:0:0:
249,212,118487,1,0,2:0:0:0:
247,36,118637,1,0,0:0:0:0:
400,123,118787,38,0,B|400:152|385:174|385:174|401:216|401:216|401:225|401:225|417:267|417:267|402:292|402:319,1,207.89999936554
417,267,119087,1,0,0:0:0:0:
249,212,119237,1,0,0:0:0:0:
385,174,119387,1,0,0:0:0:0:
221,119,119537,5,0,0:0:0:0:
175,149,119612,1,0,0:0:0:0:
153,198,119687,1,0,0:0:0:0:
161,252,119762,1,0,0:0:0:0:
196,293,119837,5,0,0:0:0:0:
161,252,119912,1,0,0:0:0:0:
110,236,119987,1,0,0:0:0:0:
57,249,120062,1,0,0:0:0:0:
20,288,120137,6,0,B|25:271|17:239|17:239|25:211|25:211|17:183|21:159,1,131.25
143,230,120437,1,0,0:0:0:0:
0,289,120587,2,0,B|5:272|-3:240|-3:240|5:212|5:212|-3:184|1:160,1,131.25
154,198,120887,1,0,0:0:0:0:
21,159,121037,1,0,0:0:0:0:
176,223,121187,6,0,B|205:223|227:208|227:208|270:224|270:224|278:224|278:224|320:240|320:240|345:225|372:225,1,207.89999936554
320,240,121487,5,0,0:0:0:0:
165,211,121637,2,0,B|152:148|152:148|164:82,1,131.25
294,17,121937,1,0,0:0:0:0:
294,17,122087,1,0,0:0:0:0:
61,3,122237,2,0,B|113:46|113:46|174:66,1,131.25,0|0,3:0|3:0,3:0:0:0:
255,178,122537,38,0,B|243:150|223:138|223:138|243:126|255:98,1,105
257,71,122987,38,0,B|238:118|198:138|198:138|238:158|258:206,1,182.700001533279,0|0,0:0|0:0,2:0:0:0:
260,234,123437,6,0,B|232:162|176:138|176:138|232:114|260:42,1,262.5
188,99,123887,6,0,B|177:125|155:138|155:138|176:150|189:178,2,105
39,60,124337,37,0,0:0:0:0:
68,130,124412,1,0,0:0:0:0:
113,69,124487,1,0,0:0:0:0:
62,60,124562,5,0,0:0:0:0:
55,110,124637,1,0,0:0:0:0:
102,90,124712,1,0,0:0:0:0:
76,72,124787,5,0,0:0:0:0:
60,93,124862,1,0,0:0:0:0:
85,96,124937,6,0,B|151:84|151:84|214:97,1,131.25
276,208,125237,1,0,0:0:0:0:
147,207,125387,1,0,0:0:0:0:
343,98,125537,1,0,0:0:0:0:
339,321,125687,1,0,0:0:0:0:
357,81,125837,1,0,0:0:0:0:
324,337,125987,6,0,B|295:337|273:322|273:322|230:338|230:338|222:338|222:338|180:354|180:354|155:339|128:339,1,207.89999936554
180,354,126287,6,0,B|185:337|177:305|177:305|185:277|185:277|177:249|181:225,1,131.25
276,208,126587,1,0,0:0:0:0:
86,242,126737,1,0,0:0:0:0:
181,225,126887,1,0,0:0:0:0:
119,152,127037,1,0,0:0:0:0:
148,316,127187,1,0,0:0:0:0:
214,135,127337,37,0,0:0:0:0:
214,135,127487,1,0,0:0:0:0:
243,299,127637,1,0,0:0:0:0:
86,242,127787,1,0,0:0:0:0:
323,199,127937,1,0,0:0:0:0:
87,115,128087,1,0,0:0:0:0:
131,361,128237,1,0,0:0:0:0:
405,204,128387,6,0,B|405:175|390:153|390:153|406:110|406:110|406:102|406:102|422:60|422:60|407:35|407:8,1,207.89999936554
422,60,128687,5,0,0:0:0:0:
236,105,128837,1,0,0:0:0:0:
390,153,128987,1,0,0:0:0:0:
201,199,129137,5,0,0:0:0:0:
157,169,129212,1,0,0:0:0:0:
135,119,129287,1,0,0:0:0:0:
145,65,129362,1,0,0:0:0:0:
191,0,129437,5,0,0:0:0:0:
136,48,129512,1,0,0:0:0:0:
123,120,129587,1,0,0:0:0:0:
152,187,129662,1,0,0:0:0:0:
213,227,129737,6,0,L|371:217,1,157.500006008148
384,200,130037,2,0,L|306:206,1,78.7500030040742
191,0,130337,38,0,L|349:10,1,157.500006008148
362,27,130637,2,0,L|284:21,1,78.7500030040742
227,210,130937,6,0,L|385:200,1,157.500006008148
398,183,131237,2,0,L|320:189,1,78.7500030040742
205,17,131462,1,0,0:0:0:0:
205,17,131537,38,0,L|363:27,1,157.500006008148
376,44,131837,2,0,L|298:38,1,78.7500030040742
382,152,132137,6,0,B|395:89|395:89|383:23,1,131.25
183,20,132437,2,0,B|171:86|171:86|184:149,1,131.25
415,235,132737,2,0,B|450:181|450:181|464:115,1,131.25
101,112,133037,2,0,B|114:177|114:177|150:231,1,131.25
290,220,133337,37,0,0:0:0:0:
281,212,133412,1,0,0:0:0:0:
273,221,133487,1,0,0:0:0:0:
282,229,133562,1,0,0:0:0:0:
296,228,133637,5,0,0:0:0:0:
289,205,133712,1,0,0:0:0:0:
266,212,133787,1,0,0:0:0:0:
273,235,133862,1,0,0:0:0:0:
299,249,133937,5,0,0:0:0:0:
310,203,134012,1,0,0:0:0:0:
263,192,134087,1,0,0:0:0:0:
253,238,134162,1,0,0:0:0:0:
284,288,134237,5,0,0:0:0:0:
349,219,134312,1,0,0:0:0:0:
280,154,134387,1,0,0:0:0:0:
215,223,134462,1,0,0:0:0:0:
214,352,134537,6,0,B|283:356|283:356|339:344|339:344|395:360|395:360|451:348|451:348|523:352,1,315
298,32,135137,6,0,B|228:28|228:28|172:40|172:40|116:24|116:24|60:36|60:36|-11:32,1,315
452,348,135737,2,0,B|456:278|456:278|444:222|444:222|460:166|460:166|448:110|448:110|452:39,1,315
61,36,136337,2,0,B|57:105|57:105|69:161|69:161|53:217|53:217|65:273|65:273|61:345,1,315
131,12,136937,38,0,B|169:4|197:16|197:16|221:4|249:4|249:4|289:24|289:24|321:0|321:0|361:20|361:20|389:20|413:8|413:8|437:20|475:12,1,367.500003504753
381,372,137537,2,0,B|343:380|315:368|315:368|291:380|263:380|263:380|223:360|223:360|191:384|191:384|151:364|151:364|123:364|99:376|99:376|75:364|37:372,1,367.500003504753
475,12,138137,2,0,B|482:50|470:74|470:74|482:98|482:126|482:126|462:166|462:166|486:198|486:198|466:238|466:238|466:266|478:290|478:290|466:318|474:356,1,367.500003504753
37,372,138737,2,0,B|29:333|41:309|41:309|29:285|29:257|29:257|49:217|49:217|25:185|25:185|45:145|45:145|45:117|33:93|33:93|45:65|37:27,1,367.500003504753
130,384,139337,6,0,B|164:395|196:379|196:379|240:391|240:391|288:371|288:371|320:391|320:391|328:375|328:375|356:395|356:395|404:375|404:375|448:387|448:387|476:370|512:382,1,420
386,0,139937,2,0,B|351:-11|319:4|319:4|275:-7|275:-7|227:12|227:12|195:-7|195:-7|187:8|187:8|159:-11|159:-11|111:8|111:8|67:-3|67:-3|39:13|-2:0,1,420
512,382,140537,2,0,B|523:347|507:315|507:315|519:271|519:271|499:223|499:223|519:191|519:191|503:183|503:183|523:155|523:155|503:107|503:107|515:63|515:63|498:35|510:-1,1,420
0,1,141137,2,0,B|-11:35|4:67|4:67|-7:111|-7:111|12:159|12:159|-7:191|-7:191|8:199|8:199|-11:227|-11:227|8:275|8:275|-3:319|-3:319|13:347|1:383,1,420
441,365,141737,6,0,B|449:326|437:302|437:302|449:278|449:250|449:250|429:210|429:210|453:178|453:178|433:138|433:138|433:110|445:86|445:86|433:58|441:20,1,367.500003504753
71,365,142337,2,0,B|63:326|75:302|75:302|63:278|63:250|63:250|83:210|83:210|59:178|59:178|79:138|79:138|79:110|67:86|67:86|79:58|71:20,1,367.500003504753
369,39,142937,6,0,B|365:110|365:110|377:166|377:166|361:222|361:222|373:278|373:278|369:348,1,315
143,39,143537,2,0,B|147:110|147:110|135:166|135:166|151:222|151:222|139:278|139:278|143:348,1,315
65,104,144137,6,0,B|111:95|136:107|136:107|184:95|184:95|195:107|195:107|203:103|203:103|216:111|216:111|260:99|260:99|287:111|335:103,1,279.930006108092
447,280,144737,2,0,B|400:288|375:276|375:276|327:288|327:288|316:276|316:276|308:280|308:280|295:272|295:272|251:284|251:284|224:272|176:280,1,279.930006108092
64,84,145337,2,0,B|110:75|135:87|135:87|183:75|183:75|194:87|194:87|202:83|202:83|215:91|215:91|259:79|259:79|286:91|334:83,1,279.930006108092
448,300,145937,2,0,B|401:308|376:296|376:296|328:308|328:308|317:296|317:296|309:300|309:300|296:292|296:292|252:304|252:304|225:292|177:300,1,279.930006108092
402,62,146537,6,0,B|405:79|397:99|397:99|409:115|409:131|409:131|409:159|389:175|389:175|409:211|409:211|393:227|393:227|413:259|413:259|393:275|393:299|393:299|393:315|405:331|405:331|397:355|401:377,1,349.99859810437
110,322,147137,2,0,B|106:304|114:284|114:284|102:268|102:252|102:252|102:224|122:208|122:208|102:172|102:172|118:156|118:156|98:124|98:124|118:108|118:84|118:84|118:68|106:52|106:52|114:28|110:6,1,349.99859810437
424,64,147737,2,0,B|427:81|419:101|419:101|431:117|431:133|431:133|431:161|411:177|411:177|431:213|431:213|415:229|415:229|435:261|435:261|415:277|415:301|415:301|415:317|427:333|427:333|419:357|423:379,1,349.99859810437
88,320,148337,2,0,B|84:302|92:282|92:282|80:266|80:250|80:250|80:222|100:206|100:206|80:170|80:170|96:154|96:154|76:122|76:122|96:106|96:82|96:82|96:66|84:50|84:50|92:26|88:4,1,349.99859810437
512,364,148937,38,0,B|499:367|483:359|483:359|451:371|451:371|431:375|403:351|403:351|371:375|335:375|335:375|327:363|327:363|319:363|319:363|311:351|311:351|275:351|243:375|243:375|219:351|199:355|199:355|163:367|163:367|147:359|132:363,1,420
0,20,149537,2,0,B|12:16|28:24|28:24|60:12|60:12|80:8|108:32|108:32|140:8|176:8|176:8|184:20|184:20|192:20|192:20|200:32|200:32|236:32|268:8|268:8|292:32|312:28|312:28|348:16|348:16|364:24|379:20,1,420
512,384,150137,2,0,B|499:387|483:379|483:379|451:391|451:391|431:395|403:371|403:371|371:395|335:395|335:395|327:383|327:383|319:383|319:383|311:371|311:371|275:371|243:395|243:395|219:371|199:375|199:375|163:387|163:387|147:379|132:383,1,420
0,0,150737,2,0,B|12:-3|28:4|28:4|60:-7|60:-7|80:-11|108:12|108:12|140:-11|176:-11|176:-11|184:0|184:0|192:0|192:0|200:12|200:12|236:12|268:-11|268:-11|292:12|312:8|312:8|348:-3|348:-3|364:4|379:0,1,420
480,316,151337,6,0,B|462:319|442:311|442:311|426:323|410:323|410:323|382:323|366:303|366:303|330:323|330:323|314:307|314:307|282:327|282:327|266:307|242:307|242:307|226:307|210:319|210:319|186:311|164:315,1,349.99859810437
480,296,151937,2,0,B|462:299|442:291|442:291|426:303|410:303|410:303|382:303|366:283|366:283|330:303|330:303|314:287|314:287|282:307|282:307|266:287|242:287|242:287|226:287|210:299|210:299|186:291|164:295,1,349.99859810437
52,140,152537,6,0,B|98:131|123:143|123:143|171:131|171:131|182:143|182:143|190:139|190:139|203:147|203:147|247:135|247:135|274:147|322:139,1,279.930006108092
52,160,153137,2,0,B|98:151|123:163|123:163|171:151|171:151|182:163|182:163|190:159|190:159|203:167|203:167|247:155|247:155|274:167|322:159,1,279.930006108092
167,295,153737,5,0,0:0:0:0:
318,160,154337,1,0,0:0:0:0:
243,228,154937,1,0,0:0:0:0:
243,228,155537,5,0,0:0:0:0:
212,251,155612,1,0,0:0:0:0:
232,188,155687,1,0,0:0:0:0:
276,237,155762,1,0,0:0:0:0:
234,244,155837,5,0,0:0:0:0:
227,212,155912,1,0,0:0:0:0:
259,222,155987,1,0,0:0:0:0:
242,235,156062,37,0,0:0:0:0:
231,223,156137,1,0,0:0:0:0:
247,219,156212,1,0,0:0:0:0:
256,192,156437,12,0,158537,0:0:0:0:
