osu file format v14

[General]
AudioFilename: audio.mp3
AudioLeadIn: 0
PreviewTime: 19183
Countdown: 1
SampleSet: Normal
StackLeniency: 0.7
Mode: 0
LetterboxInBreaks: 0
WidescreenStoryboard: 0

[Editor]
Bookmarks: 156250
DistanceSpacing: 0.9
BeatDivisor: 4
GridSize: 8
TimelineZoom: 1

[Metadata]
Title:Catastrophe
TitleUnicode:Catastrophe
Artist:MuryokuP
ArtistUnicode:無力P
Creator:[-Crissaegrim-]
Version:Calamity
Source:
Tags:
BeatmapID:1036644
BeatmapSetID:486136

[Difficulty]
HPDrainRate:8
CircleSize:4
OverallDifficulty:8.5
ApproachRate:9.5
SliderMultiplier:1.6
SliderTickRate:1

[Events]
//Background and Video events
0,0,"1446459356665.jpg",0,0
//Break Periods
2,57933,66808
//Storyboard Layer 0 (Background)
//Storyboard Layer 1 (Fail)
//Storyboard Layer 2 (Pass)
//Storyboard Layer 3 (Foreground)
//Storyboard Sound Samples

[TimingPoints]
133,300,4,1,0,60,1,8
38533,-100,4,1,0,70,0,1
38633,-100,4,1,0,70,0,1
57808,-100,4,1,0,70,0,0
115333,-100,4,1,0,70,0,1
134458,-100,4,1,0,70,0,0

[HitObjects]
176,232,9133,5,0,0:0:0:0:
184,224,9208,1,0,0:0:0:0:
192,216,9283,1,0,0:0:0:0:
200,208,9358,1,0,0:0:0:0:
208,200,9433,1,0,0:0:0:0:
216,192,9508,1,0,0:0:0:0:
224,184,9583,1,0,0:0:0:0:
232,176,9658,1,0,0:0:0:0:
240,168,9733,1,0,0:0:0:0:
256,192,12133,5,0,0:0:0:0:
48,120,14533,5,0,0:0:0:0:
288,0,14833,1,0,0:0:0:0:
224,296,15134,1,0,0:0:0:0:
456,160,15434,1,0,0:0:0:0:
200,56,15734,1,0,0:0:0:0:
96,336,16033,1,0,0:0:0:0:
440,120,16333,1,0,0:0:0:0:
168,208,16634,1,0,0:0:0:0:
256,192,16933,12,0,19033,0:0:0:0:
144,184,19333,6,0,B|128:144|128:144|160:120,1,80
344,32,19634,1,0,0:0:0:0:
392,248,19783,2,0,B|352:272|352:272|320:248,1,80
200,144,20084,1,0,0:0:0:0:
120,288,20234,1,0,0:0:0:0:
88,80,20383,6,0,B|104:40|104:40|144:40,1,80
360,56,20683,1,0,0:0:0:0:
256,240,20833,1,0,0:0:0:0:
472,96,20983,1,0,0:0:0:0:
424,304,21133,1,0,0:0:0:0:
328,160,21283,2,0,B|336:120|336:120|296:104,1,80
144,32,21584,1,0,0:0:0:0:
144,248,21733,6,0,B|168:216|224:224|224:224|192:176|216:128,1,160
240,24,22183,2,0,B|288:16|288:16|320:48,1,80
480,152,22484,1,0,0:0:0:0:
360,336,22634,1,0,0:0:0:0:
312,168,22783,2,0,B|312:128|312:128|264:104,1,80
104,32,23084,1,0,0:0:0:0:
24,264,23234,1,0,0:0:0:0:
256,256,23384,1,0,0:0:0:0:
256,80,23533,5,0,0:0:0:0:
256,88,23608,1,0,0:0:0:0:
256,96,23683,1,0,0:0:0:0:
256,104,23758,1,0,0:0:0:0:
256,112,23833,1,0,0:0:0:0:
256,120,23908,1,0,0:0:0:0:
256,128,23983,1,0,0:0:0:0:
256,136,24058,1,0,0:0:0:0:
256,144,24133,6,0,B|224:176|224:176|288:208|288:208|248:240,1,160
120,312,24584,1,0,0:0:0:0:
96,128,24733,2,0,B|136:104|136:104|176:128,1,80
320,208,25034,1,0,0:0:0:0:
448,120,25183,2,0,B|432:72|432:72|392:48,1,80
248,16,25484,1,0,0:0:0:0:
312,256,25634,1,0,0:0:0:0:
144,128,25783,1,0,0:0:0:0:
352,48,25933,2,0,B|370:95|409:104|409:104|384:135|386:175,1,160
96,320,26533,6,0,B|63:295|63:295|71:256,1,80
120,88,26833,1,0,0:0:0:0:
240,264,26983,6,0,B|280:272|280:272|304:240,1,80
376,96,27283,1,0,0:0:0:0:
320,272,27433,5,0,0:0:0:0:
200,88,27583,1,0,0:0:0:0:
128,320,27733,1,0,0:0:0:0:
56,176,27883,6,0,B|45:136|45:136|75:110,1,80
200,8,28183,1,0,0:0:0:0:
344,80,28333,5,0,0:0:0:0:
344,88,28408,1,0,0:0:0:0:
344,96,28483,1,0,0:0:0:0:
344,104,28558,1,0,0:0:0:0:
344,112,28633,1,0,0:0:0:0:
344,120,28708,1,0,0:0:0:0:
344,128,28783,1,0,0:0:0:0:
344,136,28858,1,0,0:0:0:0:
344,144,28933,6,0,B|344:192|344:192|328:224,1,80
184,344,29233,1,0,0:0:0:0:
232,144,29383,1,0,0:0:0:0:
24,184,29533,2,0,B|40:144|40:144|80:112,1,80
248,24,29833,1,0,0:0:0:0:
416,96,29983,6,0,B|416:144|416:144|392:176,1,80
224,272,30283,1,0,0:0:0:0:
264,56,30433,1,0,0:0:0:0:
448,200,30583,1,0,0:0:0:0:
416,16,30733,2,0,B|416:64|416:64|392:96,1,80
240,200,31033,1,0,0:0:0:0:
88,72,31183,1,0,0:0:0:0:
96,336,31333,6,0,B|128:264|128:264|96:232|120:176,1,160
256,48,31783,1,0,0:0:0:0:
312,288,31933,2,0,B|264:296|264:296|224:272,1,80
40,168,32233,1,0,0:0:0:0:
256,56,32383,2,0,B|304:72|304:72|320:120,1,80
352,296,32683,1,0,0:0:0:0:
200,64,32833,1,0,0:0:0:0:
56,264,32983,1,0,0:0:0:0:
248,232,33133,5,0,0:0:0:0:
256,224,33208,1,0,0:0:0:0:
264,216,33283,1,0,0:0:0:0:
272,208,33358,1,0,0:0:0:0:
280,200,33433,1,0,0:0:0:0:
272,192,33508,1,0,0:0:0:0:
264,184,33583,1,0,0:0:0:0:
256,176,33658,1,0,0:0:0:0:
248,168,33733,6,0,B|232:128|232:128|264:104,1,80
408,16,34033,1,0,0:0:0:0:
456,200,34183,1,0,0:0:0:0:
256,128,34333,1,0,0:0:0:0:
88,280,34483,1,0,0:0:0:0:
288,176,34633,2,0,B|240:176|240:176|200:128,1,80
112,40,34933,5,0,0:0:0:0:
224,288,35083,1,0,0:0:0:0:
0,224,35233,1,0,0:0:0:0:
208,168,35383,6,0,B|256:168|256:168|304:120,1,80
408,32,35683,1,0,0:0:0:0:
336,256,35833,1,0,0:0:0:0:
248,24,35983,1,0,0:0:0:0:
104,176,36133,6,0,B|128:144|128:144|168:120,1,80
320,48,36433,1,0,0:0:0:0:
368,288,36583,6,0,B|320:272|320:272|280:240,1,80
184,112,36883,1,0,0:0:0:0:
208,320,37033,6,0,B|232:272|232:272|240:232,1,80
264,64,37333,1,0,0:0:0:0:
400,304,37483,6,0,B|408:256|408:256|400:200,1,80
376,80,37783,1,0,0:0:0:0:
256,248,37933,5,0,0:0:0:0:
248,240,38008,1,0,0:0:0:0:
240,232,38083,1,0,0:0:0:0:
232,224,38158,1,0,0:0:0:0:
224,216,38233,1,0,0:0:0:0:
232,208,38308,1,0,0:0:0:0:
240,200,38383,1,0,0:0:0:0:
248,192,38458,1,0,0:0:0:0:
256,184,38533,6,0,B|224:152|224:152|288:120|288:120|248:88,1,160
112,24,39133,1,0,0:0:0:0:
184,240,39283,1,0,0:0:0:0:
376,88,39433,1,0,0:0:0:0:
400,320,39583,1,0,0:0:0:0:
152,160,39883,2,0,L|72:160,2,80
424,200,40483,1,0,0:0:0:0:
304,320,40633,2,0,B|256:304|224:328|224:328|216:288|184:264,1,160
88,48,41083,6,0,B|105:83|105:83|144:109,1,80
376,280,41533,1,0,0:0:0:0:
408,88,41683,2,0,B|368:56|328:64|328:64|304:32|248:32,1,160
64,24,42133,2,0,B|48:72|48:72|72:128,1,80
160,304,42433,1,0,0:0:0:0:
224,64,42583,1,0,0:0:0:0:
312,240,42733,5,0,0:0:0:0:
312,232,42808,1,0,0:0:0:0:
312,224,42883,1,0,0:0:0:0:
312,216,42958,1,0,0:0:0:0:
312,208,43033,1,0,0:0:0:0:
312,200,43108,1,0,0:0:0:0:
312,192,43183,1,0,0:0:0:0:
312,184,43258,1,0,0:0:0:0:
312,176,43333,5,0,0:0:0:0:
432,32,43483,2,0,B|416:48|416:48|416:88|368:96,1,80
232,152,43783,1,0,0:0:0:0:
64,344,44083,6,0,B|62:321|62:321|31:295|56:253,1,80
88,152,44383,1,0,0:0:0:0:
264,40,44683,6,0,B|280:56|280:56|280:96|328:104,1,80
432,224,44983,2,0,B|404:186|358:192|358:192|312:199|277:158,1,160,0|0,2:0|2:0,2:0:0:0:
176,72,45433,2,0,B|171:118|128:136|128:136|86:154|77:207,1,160
80,328,45883,5,0,0:0:0:0:
208,136,46033,1,0,0:0:0:0:
248,304,46183,2,0,B|280:336|280:336|320:304,1,80
464,120,46483,1,0,0:0:0:0:
400,328,46633,1,0,0:0:0:0:
344,144,46783,2,0,B|312:104|312:104|264:96,1,80
120,48,47083,1,0,0:0:0:0:
128,304,47233,1,0,0:0:0:0:
312,88,47383,1,0,0:0:0:0:
280,240,47533,5,0,0:0:0:0:
288,232,47608,1,0,0:0:0:0:
296,224,47683,1,0,0:0:0:0:
304,216,47758,1,0,0:0:0:0:
304,208,47833,1,0,0:0:0:0:
296,200,47908,1,0,0:0:0:0:
288,192,47983,1,0,0:0:0:0:
280,184,48058,1,0,0:0:0:0:
272,176,48133,6,0,B|272:136|272:136|312:104,1,80
456,16,48433,1,0,0:0:0:0:
384,240,48733,1,0,0:0:0:0:
168,336,48883,1,0,0:0:0:0:
48,144,49033,2,0,B|32:104|32:104|72:80,1,80
336,32,49483,5,0,0:0:0:0:
464,112,49633,2,0,B|448:160|448:160|400:168,1,80
264,160,49933,1,0,0:0:0:0:
288,320,50083,1,0,0:0:0:0:
112,224,50233,2,0,B|70:211|70:211|88:163,1,80
160,32,50533,5,0,0:0:0:0:
368,128,50683,1,0,0:0:0:0:
144,256,50833,1,0,0:0:0:0:
304,72,50983,1,0,0:0:0:0:
320,280,51133,2,0,B|312:328|312:328|264:312,1,80
128,264,51433,2,0,B|80:248|80:248|88:192,1,80
128,32,51733,5,0,0:0:0:0:
176,184,51883,1,0,0:0:0:0:
312,32,52033,1,0,0:0:0:0:
272,304,52183,1,0,0:0:0:0:
320,144,52333,1,0,0:0:0:0:
336,152,52408,1,0,0:0:0:0:
352,160,52483,1,0,0:0:0:0:
368,168,52558,1,0,0:0:0:0:
376,176,52633,1,0,0:0:0:0:
384,192,52708,1,0,0:0:0:0:
392,208,52783,1,0,0:0:0:0:
392,224,52858,1,0,0:0:0:0:
392,240,52933,6,0,B|384:280|384:280|328:256,1,80
152,168,53233,1,0,0:0:0:0:
104,360,53383,1,0,0:0:0:0:
280,288,53533,6,0,B|288:232|288:232|312:200,1,80
440,64,53833,1,0,0:0:0:0:
432,248,53983,1,0,0:0:0:0:
296,80,54133,6,0,B|264:56|264:56|232:80,1,80
96,216,54433,1,0,0:0:0:0:
184,48,54583,1,0,0:0:0:0:
256,248,54733,6,0,B|288:280|288:280|320:248,1,80
432,128,55033,1,0,0:0:0:0:
408,304,55183,1,0,0:0:0:0:
304,24,55333,5,0,0:0:0:0:
184,336,55633,1,0,0:0:0:0:
96,104,55933,1,0,0:0:0:0:
424,272,56233,1,0,0:0:0:0:
408,64,56383,1,0,0:0:0:0:
48,192,56683,1,0,0:0:0:0:
168,32,56833,1,0,0:0:0:0:
264,288,56983,1,0,0:0:0:0:
224,72,57133,5,0,0:0:0:0:
232,80,57208,1,0,0:0:0:0:
240,88,57283,1,0,0:0:0:0:
248,96,57358,1,0,0:0:0:0:
256,104,57433,1,0,0:0:0:0:
264,112,57508,1,0,0:0:0:0:
272,120,57583,1,0,0:0:0:0:
280,128,57658,1,0,0:0:0:0:
288,136,57733,1,0,0:0:0:0:
264,48,67333,5,0,0:0:0:0:
8,232,67783,1,0,0:0:0:0:
232,224,68083,2,0,P|264:192|296:184,2,80
344,328,68533,1,0,0:0:0:0:
432,16,68983,1,0,0:0:0:0:
328,176,69283,2,0,P|296:152|248:160,2,80
280,40,69733,1,0,0:0:0:0:
216,216,69883,1,0,0:0:0:0:
24,24,70183,1,0,0:0:0:0:
144,312,70483,1,0,0:0:0:0:
200,136,70633,6,0,P|240:152|272:136,1,80
360,264,70933,1,0,0:0:0:0:
328,0,71233,1,0,0:0:0:0:
456,144,71383,1,0,0:0:0:0:
152,88,71683,1,0,0:0:0:0:
280,280,71833,1,0,0:0:0:0:
64,144,72133,5,0,0:0:0:0:
216,376,72433,1,0,0:0:0:0:
240,32,72733,1,0,0:0:0:0:
400,288,73033,1,0,0:0:0:0:
448,24,73333,1,0,0:0:0:0:
256,216,73633,1,0,0:0:0:0:
72,96,73933,1,0,0:0:0:0:
192,320,74233,1,0,0:0:0:0:
200,312,74308,1,0,0:0:0:0:
208,304,74383,1,0,0:0:0:0:
216,296,74458,1,0,0:0:0:0:
224,288,74533,6,0,P|264:264|296:264,1,80
400,264,74983,1,0,0:0:0:0:
408,256,75058,1,0,0:0:0:0:
416,248,75133,2,0,B|424:208|424:208|384:184,1,80
248,112,75433,1,0,0:0:0:0:
160,288,75583,1,0,0:0:0:0:
72,64,75733,1,0,0:0:0:0:
248,224,75883,1,0,0:0:0:0:
408,32,76033,1,0,0:0:0:0:
392,232,76183,1,0,0:0:0:0:
296,168,76333,5,0,0:0:0:0:
272,144,76408,1,0,0:0:0:0:
240,136,76483,1,0,0:0:0:0:
208,144,76558,1,0,0:0:0:0:
184,168,76633,1,0,0:0:0:0:
176,200,76708,1,0,0:0:0:0:
184,232,76783,1,0,0:0:0:0:
208,256,76858,1,0,0:0:0:0:
240,272,76933,6,0,B|280:288|280:288|328:256,1,80
456,128,77233,1,0,0:0:0:0:
392,280,77383,1,0,0:0:0:0:
320,48,77533,1,0,0:0:0:0:
208,200,77683,1,0,0:0:0:0:
64,104,77833,6,0,B|112:112|112:112|160:96,1,80
304,24,78133,1,0,0:0:0:0:
248,296,78283,1,0,0:0:0:0:
368,144,78433,1,0,0:0:0:0:
128,136,78583,2,0,B|152:96|152:96|208:72,1,80
320,48,78883,1,0,0:0:0:0:
288,256,79033,1,0,0:0:0:0:
432,120,79183,1,0,0:0:0:0:
432,336,79333,6,0,B|384:320|384:320|359:297,1,80
248,184,79633,1,0,0:0:0:0:
184,56,79783,1,0,0:0:0:0:
152,272,79933,1,0,0:0:0:0:
40,80,80083,2,0,B|72:120|72:120|112:136,1,80
296,176,80383,1,0,0:0:0:0:
368,304,80533,1,0,0:0:0:0:
368,72,80683,5,0,0:0:0:0:
280,288,80833,1,0,0:0:0:0:
200,80,80983,1,0,0:0:0:0:
416,304,81133,5,0,0:0:0:0:
440,280,81208,1,0,0:0:0:0:
448,256,81283,1,0,0:0:0:0:
440,232,81358,1,0,0:0:0:0:
416,208,81433,1,0,0:0:0:0:
384,192,81508,1,0,0:0:0:0:
368,168,81583,1,0,0:0:0:0:
368,136,81658,1,0,0:0:0:0:
376,112,81733,6,0,B|328:88|328:88|280:88,1,80
112,112,82033,1,0,0:0:0:0:
272,32,82183,1,0,0:0:0:0:
152,272,82333,1,0,0:0:0:0:
336,144,82483,1,0,0:0:0:0:
312,328,82633,1,0,0:0:0:0:
456,224,82783,6,0,P|488:192|480:144,1,80
416,56,83083,1,0,0:0:0:0:
256,280,83233,1,0,0:0:0:0:
392,168,83383,1,0,0:0:0:0:
200,56,83533,1,0,0:0:0:0:
152,304,83683,2,0,B|104:272|104:272|104:249,1,80
112,72,83983,1,0,0:0:0:0:
88,296,84133,6,0,B|137:282|137:282|154:220,1,80
160,72,84433,1,0,0:0:0:0:
336,320,84583,6,0,B|286:306|286:306|269:244,1,80
256,56,84883,1,0,0:0:0:0:
112,256,85033,6,0,B|136:216|136:216|176:208,1,80
384,176,85333,1,0,0:0:0:0:
312,336,85483,6,0,B|280:368|280:368|248:344,1,80
144,128,85783,1,0,0:0:0:0:
248,264,85934,5,0,0:0:0:0:
261,252,86009,1,0,0:0:0:0:
275,241,86084,1,0,0:0:0:0:
288,228,86159,1,0,0:0:0:0:
301,217,86234,1,0,0:0:0:0:
315,205,86309,1,0,0:0:0:0:
328,193,86384,1,0,0:0:0:0:
341,181,86459,1,0,0:0:0:0:
352,168,86533,6,0,B|344:120|344:120|320:96,1,80
200,16,86834,1,0,0:0:0:0:
216,208,86984,1,0,0:0:0:0:
104,96,87134,1,0,0:0:0:0:
208,304,87284,1,0,0:0:0:0:
272,112,87434,1,0,0:0:0:0:
144,48,87583,2,0,B|96:40|96:40|96:88,1,80
80,216,87884,1,0,0:0:0:0:
216,344,88034,5,0,0:0:0:0:
152,88,88184,1,0,0:0:0:0:
312,216,88334,1,0,0:0:0:0:
376,40,88484,1,0,0:0:0:0:
192,168,88634,1,0,0:0:0:0:
408,288,88784,1,0,0:0:0:0:
400,144,88933,6,0,B|372:111|329:106|329:106|301:73|251:65,1,160
64,96,89383,2,0,B|48:144|48:144|72:176,1,80
176,272,89684,1,0,0:0:0:0:
208,40,89834,1,0,0:0:0:0:
328,144,89983,2,0,B|328:192|328:192|304:216,1,80
192,328,90284,1,0,0:0:0:0:
216,80,90434,1,0,0:0:0:0:
392,256,90584,1,0,0:0:0:0:
256,256,90734,5,0,0:0:0:0:
232,232,90809,1,0,0:0:0:0:
256,216,90884,1,0,0:0:0:0:
232,192,90959,1,0,0:0:0:0:
256,176,91034,1,0,0:0:0:0:
232,152,91109,1,0,0:0:0:0:
256,136,91184,1,0,0:0:0:0:
232,112,91259,1,0,0:0:0:0:
248,96,91333,6,0,B|248:48|248:48|200:48,1,80
48,48,91634,1,0,0:0:0:0:
128,264,91784,1,0,0:0:0:0:
224,32,91934,1,0,0:0:0:0:
352,168,92084,1,0,0:0:0:0:
248,328,92234,1,0,0:0:0:0:
440,176,92383,2,0,B|424:224|424:224|384:240,1,80
216,296,92684,5,0,0:0:0:0:
8,208,92834,1,0,0:0:0:0:
192,56,92984,1,0,0:0:0:0:
112,296,93134,1,0,0:0:0:0:
304,184,93284,1,0,0:0:0:0:
80,56,93434,1,0,0:0:0:0:
352,0,93584,1,0,0:0:0:0:
288,168,93733,6,0,B|248:192|248:192|200:152,1,80
96,32,94034,1,0,0:0:0:0:
80,232,94183,6,0,B|96:272|96:272|144:256,1,80
352,152,94484,1,0,0:0:0:0:
304,328,94633,6,0,B|264:352|264:352|224:312,1,80
160,144,94934,1,0,0:0:0:0:
48,296,95083,6,0,B|80:328|80:328|136:296,1,80
280,168,95384,1,0,0:0:0:0:
360,320,95534,5,0,0:0:0:0:
383,328,95609,1,0,0:0:0:0:
412,330,95684,1,0,0:0:0:0:
439,321,95759,1,0,0:0:0:0:
454,302,95834,1,0,0:0:0:0:
463,278,95909,1,0,0:0:0:0:
459,245,95984,1,0,0:0:0:0:
438,219,96059,1,0,0:0:0:0:
416,200,96133,6,0,B|394:162|336:168|336:168|337:118|294:95,1,160
224,32,96584,1,0,0:0:0:0:
120,248,96734,1,0,0:0:0:0:
64,64,96884,1,0,0:0:0:0:
272,208,97034,1,0,0:0:0:0:
400,72,97184,1,0,0:0:0:0:
216,16,97334,1,0,0:0:0:0:
64,168,97484,1,0,0:0:0:0:
352,232,97634,5,0,0:0:0:0:
296,48,97784,1,0,0:0:0:0:
288,312,97934,1,0,0:0:0:0:
192,88,98084,1,0,0:0:0:0:
112,288,98234,1,0,0:0:0:0:
368,208,98384,1,0,0:0:0:0:
240,240,98534,6,0,P|232:208|248:160,1,80
376,48,98834,1,0,0:0:0:0:
176,0,98984,1,0,0:0:0:0:
96,184,99134,1,0,0:0:0:0:
320,136,99284,1,0,0:0:0:0:
464,280,99434,1,0,0:0:0:0:
432,32,99584,1,0,0:0:0:0:
368,224,99734,1,0,0:0:0:0:
248,48,99884,5,0,0:0:0:0:
128,232,100034,1,0,0:0:0:0:
320,320,100184,1,0,0:0:0:0:
408,264,100334,1,0,0:0:0:0:
408,256,100409,1,0,0:0:0:0:
408,248,100484,1,0,0:0:0:0:
408,240,100559,1,0,0:0:0:0:
416,232,100634,1,0,0:0:0:0:
416,224,100709,1,0,0:0:0:0:
416,216,100784,1,0,0:0:0:0:
416,208,100859,1,0,0:0:0:0:
416,200,100933,6,0,B|376:152|376:152|384:104|384:104|320:112,1,160
184,128,101384,1,0,0:0:0:0:
64,256,101534,1,0,0:0:0:0:
280,224,101684,1,0,0:0:0:0:
160,368,101834,1,0,0:0:0:0:
120,128,101984,5,0,0:0:0:0:
336,16,102134,1,0,0:0:0:0:
280,160,102284,1,0,0:0:0:0:
440,160,102434,1,0,0:0:0:0:
368,320,102584,1,0,0:0:0:0:
256,192,102734,5,0,0:0:0:0:
112,304,102884,1,0,0:0:0:0:
160,96,103034,1,0,0:0:0:0:
272,272,103184,1,0,0:0:0:0:
264,56,103333,6,0,B|352:80|352:80|320:152,1,160
216,336,103784,1,0,0:0:0:0:
136,168,103934,1,0,0:0:0:0:
328,240,104084,1,0,0:0:0:0:
232,56,104234,1,0,0:0:0:0:
392,120,104384,1,0,0:0:0:0:
496,24,104534,5,0,0:0:0:0:
304,128,104684,1,0,0:0:0:0:
448,248,104834,1,0,0:0:0:0:
240,336,104984,1,0,0:0:0:0:
136,144,105134,5,0,0:0:0:0:
136,176,105209,1,0,0:0:0:0:
160,200,105284,1,0,0:0:0:0:
192,208,105359,1,0,0:0:0:0:
216,232,105434,1,0,0:0:0:0:
208,264,105509,1,0,0:0:0:0:
176,280,105584,1,0,0:0:0:0:
144,272,105659,1,0,0:0:0:0:
120,256,105733,6,0,B|56:208|56:208|104:136,1,160
192,32,106184,1,0,0:0:0:0:
416,48,106334,1,0,0:0:0:0:
240,160,106484,1,0,0:0:0:0:
408,240,106634,1,0,0:0:0:0:
248,320,106784,1,0,0:0:0:0:
256,80,106934,1,0,0:0:0:0:
104,200,107084,1,0,0:0:0:0:
288,224,107234,5,0,0:0:0:0:
128,88,107384,1,0,0:0:0:0:
288,16,107534,1,0,0:0:0:0:
352,320,107684,1,0,0:0:0:0:
448,128,107834,1,0,0:0:0:0:
176,200,107984,1,0,0:0:0:0:
320,208,108133,2,0,B|312:160|312:160|280:128,1,80
160,56,108434,5,0,0:0:0:0:
224,256,108584,1,0,0:0:0:0:
96,176,108734,1,0,0:0:0:0:
96,344,108884,1,0,0:0:0:0:
264,344,109034,1,0,0:0:0:0:
264,176,109184,1,0,0:0:0:0:
192,56,109334,1,0,0:0:0:0:
192,264,109484,1,0,0:0:0:0:
416,264,109634,1,0,0:0:0:0:
416,56,109784,1,0,0:0:0:0:
256,80,109934,5,0,0:0:0:0:
248,88,110009,1,0,0:0:0:0:
240,104,110084,1,0,0:0:0:0:
240,120,110159,1,0,0:0:0:0:
248,136,110234,1,0,0:0:0:0:
256,144,110309,1,0,0:0:0:0:
264,152,110384,1,0,0:0:0:0:
264,160,110459,1,0,0:0:0:0:
264,168,110533,6,0,B|232:216|232:216|256:264|256:264|208:304,1,160
112,120,110984,1,0,0:0:0:0:
128,104,111059,1,0,0:0:0:0:
144,88,111134,1,0,0:0:0:0:
248,32,111283,2,0,B|296:24|296:24|320:56,1,80
392,160,111584,1,0,0:0:0:0:
432,336,111734,1,0,0:0:0:0:
208,264,111884,2,0,B|200:240|200:240|216:216|216:216|216:184,1,80
216,56,112184,1,0,0:0:0:0:
336,216,112334,1,0,0:0:0:0:
136,40,112483,6,0,B|80:40|80:40|64:88,1,80
40,208,112784,1,0,0:0:0:0:
128,368,112934,1,0,0:0:0:0:
200,144,113083,2,0,B|240:128|240:128|264:168,1,80
328,312,113384,1,0,0:0:0:0:
456,176,113534,1,0,0:0:0:0:
296,88,113684,1,0,0:0:0:0:
480,40,113834,1,0,0:0:0:0:
440,336,113984,1,0,0:0:0:0:
272,336,114134,5,0,0:0:0:0:
272,320,114209,1,0,0:0:0:0:
272,304,114284,1,0,0:0:0:0:
272,288,114359,1,0,0:0:0:0:
256,272,114434,1,0,0:0:0:0:
256,256,114509,1,0,0:0:0:0:
256,240,114584,1,0,0:0:0:0:
256,224,114659,1,0,0:0:0:0:
240,208,114734,5,0,0:0:0:0:
240,192,114809,1,0,0:0:0:0:
240,176,114884,1,0,0:0:0:0:
240,160,114959,1,0,0:0:0:0:
224,144,115034,5,0,0:0:0:0:
224,128,115109,1,0,0:0:0:0:
224,112,115184,1,0,0:0:0:0:
224,96,115259,1,0,0:0:0:0:
216,80,115334,6,0,P|280:40|352:80,1,160
272,288,115934,1,0,0:0:0:0:
424,120,116083,2,0,B|448:168|448:168|424:224,1,80
368,376,116384,1,0,0:0:0:0:
64,288,116684,2,0,P|40:256|48:216,2,80
432,88,117283,2,0,B|400:51|400:51|359:77,1,80,0|0,2:2|2:2,2:2:0:0:
112,272,117734,5,0,0:0:0:0:
64,56,117883,2,0,B|87:58|87:58|113:89|155:64,1,80
424,40,118333,1,0,0:0:0:0:
408,192,118483,2,0,B|368:160|328:168|328:168|304:136|248:136,1,160
72,72,118933,2,0,B|48:112|48:112|64:144,1,80
200,304,119233,1,0,0:0:0:0:
208,48,119384,1,0,0:0:0:0:
48,176,119534,5,0,0:0:0:0:
48,192,119609,1,0,0:0:0:0:
48,208,119684,1,0,0:0:0:0:
48,224,119759,1,0,0:0:0:0:
64,240,119834,1,0,0:0:0:0:
64,256,119909,1,0,0:0:0:0:
64,272,119984,1,0,0:0:0:0:
64,288,120059,1,0,0:0:0:0:
72,304,120134,5,0,0:0:0:0:
192,336,120283,2,0,B|224:360|224:360|280:336,1,80
456,224,120584,1,0,0:0:0:0:
416,64,120883,2,0,B|392:24|392:24|344:24,1,80
136,40,121184,1,0,0:0:0:0:
384,264,121483,2,0,B|360:304|360:304|304:312,1,80
104,336,121784,1,0,0:0:0:0:
248,208,121934,1,0,0:0:0:0:
104,96,122084,1,0,0:0:0:0:
296,32,122234,1,0,0:0:0:0:
464,264,122533,6,0,B|424:288|424:288|376:296,1,80
208,320,122834,1,0,0:0:0:0:
56,144,122983,6,0,B|32:104|32:104|72:64,1,80
240,8,123284,1,0,0:0:0:0:
448,144,123433,6,0,B|464:192|464:192|432:248,1,80
336,360,123734,1,0,0:0:0:0:
80,144,123883,6,0,B|48:184|48:184|88:232,1,80
200,320,124184,1,0,0:0:0:0:
256,64,124334,1,0,0:0:0:0:
256,72,124409,1,0,0:0:0:0:
256,80,124484,1,0,0:0:0:0:
256,88,124559,1,0,0:0:0:0:
256,96,124634,1,0,0:0:0:0:
256,104,124709,1,0,0:0:0:0:
256,112,124784,1,0,0:0:0:0:
256,120,124859,1,0,0:0:0:0:
256,128,124933,6,0,B|256:160|256:160|272:184|272:184|272:224,1,80
112,304,125234,1,0,0:0:0:0:
424,56,125534,1,0,0:0:0:0:
464,168,125683,2,0,B|488:216|488:216|448:248,1,80
256,344,125984,1,0,0:0:0:0:
48,104,126284,2,0,P|64:64|96:40,2,80
160,304,126884,1,0,0:0:0:0:
248,32,127034,1,0,0:0:0:0:
472,296,127334,5,0,0:0:0:0:
408,72,127483,2,0,B|432:112|432:112|424:152,1,80
304,344,127933,2,0,B|269:364|269:364|241:326,1,80
176,48,128233,2,0,B|192:96|192:96|176:128,1,80
32,304,128533,2,0,B|80:288|80:288|112:256,1,80
224,144,128834,1,0,0:0:0:0:
392,256,128984,1,0,0:0:0:0:
400,72,129134,5,0,0:0:0:0:
400,80,129209,1,0,0:0:0:0:
400,88,129284,1,0,0:0:0:0:
400,96,129359,1,0,0:0:0:0:
400,104,129434,1,0,0:0:0:0:
400,112,129509,1,0,0:0:0:0:
400,120,129584,1,0,0:0:0:0:
400,128,129659,1,0,0:0:0:0:
400,136,129733,6,0,B|400:184|400:184|368:208,1,80
184,352,130034,1,0,0:0:0:0:
256,136,130184,1,0,0:0:0:0:
72,64,130333,2,0,B|112:88|112:88|152:96,1,80
320,104,130634,1,0,0:0:0:0:
224,304,130784,1,0,0:0:0:0:
480,200,130933,6,0,B|440:224|440:224|408:208,1,80
232,128,131234,1,0,0:0:0:0:
376,304,131384,1,0,0:0:0:0:
136,320,131533,2,0,B|176:296|176:296|176:256,1,80
288,40,131834,1,0,0:0:0:0:
136,192,131984,1,0,0:0:0:0:
400,176,132134,5,0,0:0:0:0:
160,368,132434,5,0,0:0:0:0:
72,128,132734,5,0,0:0:0:0:
336,16,133034,5,0,0:0:0:0:
184,104,133184,1,0,0:0:0:0:
160,136,133259,1,0,0:0:0:0:
152,176,133334,1,0,0:0:0:0:
160,208,133409,1,0,0:0:0:0:
184,240,133484,1,0,0:0:0:0:
216,256,133559,1,0,0:0:0:0:
256,264,133634,1,0,0:0:0:0:
296,256,133709,1,0,0:0:0:0:
328,240,133784,1,0,0:0:0:0:
352,216,133859,1,0,0:0:0:0:
368,184,133934,1,0,0:0:0:0:
368,152,134009,1,0,0:0:0:0:
352,112,134084,1,0,0:0:0:0:
336,88,134159,1,0,0:0:0:0:
304,64,134234,1,0,0:0:0:0:
272,56,134309,1,0,0:0:0:0:
232,56,134384,1,0,0:0:0:0:
200,64,134458,1,0,0:0:0:0:
168,88,134533,6,0,B|128:128|128:128|184:152|184:152|184:200,1,160
200,376,135134,1,0,0:0:0:0:
320,272,135283,2,0,B|296:240|296:240|328:208,1,80
456,104,135584,1,0,0:0:0:0:
400,288,135734,1,0,0:0:0:0:
312,56,135884,1,0,0:0:0:0:
192,304,136034,1,0,0:0:0:0:
168,32,136184,1,0,0:0:0:0:
64,200,136334,1,0,0:0:0:0:
272,120,136484,5,0,0:0:0:0:
288,128,136559,1,0,0:0:0:0:
304,136,136634,1,0,0:0:0:0:
464,304,136933,2,0,B|424:336|424:336|376:304,1,80
272,152,137234,1,0,0:0:0:0:
176,344,137384,1,0,0:0:0:0:
104,56,137534,1,0,0:0:0:0:
40,232,137684,1,0,0:0:0:0:
232,128,137834,1,0,0:0:0:0:
272,320,137984,5,0,0:0:0:0:
448,192,138134,1,0,0:0:0:0:
344,56,138284,1,0,0:0:0:0:
352,240,138434,1,0,0:0:0:0:
200,72,138584,1,0,0:0:0:0:
176,88,138659,1,0,0:0:0:0:
152,104,138734,1,0,0:0:0:0:
256,208,138884,5,0,0:0:0:0:
184,32,139033,2,0,B|136:40|136:40|136:72,1,80
152,224,139334,1,0,0:0:0:0:
448,336,139634,5,0,0:0:0:0:
432,56,139933,2,0,B|440:96|440:96|416:128,1,80
288,256,140234,1,0,0:0:0:0:
248,64,140383,2,0,B|208:32|208:32|152:64,1,80
64,144,140684,1,0,0:0:0:0:
152,336,140834,1,0,0:0:0:0:
280,136,140984,1,0,0:0:0:0:
288,152,141059,1,0,0:0:0:0:
296,168,141134,1,0,0:0:0:0:
408,328,141284,1,0,0:0:0:0:
440,96,141434,1,0,0:0:0:0:
240,248,141584,1,0,0:0:0:0:
328,48,141733,6,0,B|256:48|256:48|192:24|152:64,1,160
88,152,142333,2,0,B|42:184|42:184|64:228,1,80
160,352,142634,1,0,0:0:0:0:
336,296,142783,2,0,B|384:280|384:280|424:232,1,80
496,128,143083,5,0,0:0:0:0:
240,288,143233,1,0,0:0:0:0:
352,32,143383,1,0,0:0:0:0:
464,288,143533,1,0,0:0:0:0:
224,128,143683,1,0,0:0:0:0:
480,208,143834,1,0,0:0:0:0:
288,344,143984,1,0,0:0:0:0:
328,152,144133,6,0,B|272:192|272:192|264:136|264:136|224:144,1,160
16,176,144734,1,0,0:0:0:0:
208,16,144883,2,0,B|160:24|160:24|152:56,1,80
56,280,145183,2,0,B|104:272|104:272|112:240,1,80
136,64,145484,1,0,0:0:0:0:
224,288,145634,1,0,0:0:0:0:
352,88,145784,1,0,0:0:0:0:
104,216,145934,1,0,0:0:0:0:
288,40,146084,1,0,0:0:0:0:
392,240,146234,1,0,0:0:0:0:
456,8,146384,1,0,0:0:0:0:
416,168,146533,6,0,B|384:200|384:200|432:256|432:256|392:280,1,160
160,352,147134,1,0,0:0:0:0:
16,200,147283,2,0,B|32:160|32:160|64:136,1,80
192,80,147584,1,0,0:0:0:0:
112,256,147734,1,0,0:0:0:0:
360,168,147884,1,0,0:0:0:0:
512,328,148034,1,0,0:0:0:0:
312,272,148184,5,0,0:0:0:0:
328,272,148259,1,0,0:0:0:0:
344,272,148334,1,0,0:0:0:0:
448,80,148484,1,0,0:0:0:0:
216,240,148634,1,0,0:0:0:0:
320,16,148784,1,0,0:0:0:0:
128,88,148933,6,0,B|40:96|40:96|72:120|72:120|72:168,1,160
64,336,149534,1,0,0:0:0:0:
168,184,149683,2,0,B|208:160|208:160|248:168,1,80
432,208,149984,1,0,0:0:0:0:
256,336,150134,1,0,0:0:0:0:
352,88,150284,1,0,0:0:0:0:
160,224,150434,1,0,0:0:0:0:
184,32,150584,1,0,0:0:0:0:
56,152,150734,5,0,0:0:0:0:
304,88,150884,1,0,0:0:0:0:
192,344,151034,1,0,0:0:0:0:
384,192,151184,1,0,0:0:0:0:
456,264,151334,2,0,P|496:192|464:128,1,160
240,0,151934,1,0,0:0:0:0:
80,64,152083,2,0,B|64:112|64:112|80:144,1,80
168,256,152384,1,0,0:0:0:0:
272,80,152684,5,0,0:0:0:0:
304,80,152759,1,0,0:0:0:0:
336,80,152834,1,0,0:0:0:0:
248,312,152984,1,0,0:0:0:0:
416,224,153134,5,0,0:0:0:0:
400,208,153209,1,0,0:0:0:0:
384,192,153284,1,0,0:0:0:0:
368,176,153359,1,0,0:0:0:0:
352,160,153434,1,0,0:0:0:0:
336,144,153509,1,0,0:0:0:0:
320,128,153584,1,0,0:0:0:0:
304,112,153659,1,0,0:0:0:0:
280,96,153733,6,0,B|216:40|216:40|232:160|144:80|144:80|152:192|152:192,1,320
176,328,154633,1,0,0:0:0:0:
240,64,154934,1,0,0:0:0:0:
384,280,155084,1,0,0:0:0:0:
456,88,155234,1,0,0:0:0:0:
216,264,155384,1,0,0:0:0:0:
112,112,155534,5,0,0:0:0:0:
112,120,155609,1,0,0:0:0:0:
112,128,155684,1,0,0:0:0:0:
112,136,155759,1,0,0:0:0:0:
112,144,155834,1,0,0:0:0:0:
112,152,155909,1,0,0:0:0:0:
112,160,155984,1,0,0:0:0:0:
112,168,156059,1,0,0:0:0:0:
112,176,156134,1,0,0:0:0:0:
256,192,156209,12,0,158534,0:0:0:0:
