osu file format v14

[General]
AudioFilename: audio.mp3
AudioLeadIn: 0
PreviewTime: -1
Countdown: 1
SampleSet: Soft
StackLeniency: 0.7
Mode: 3
LetterboxInBreaks: 0
SpecialStyle: 0
WidescreenStoryboard: 1

[Editor]
DistanceSpacing: 0.5
BeatDivisor: 4
GridSize: 32
TimelineZoom: 2

[Metadata]
Title:Aspirin
TitleUnicode:Aspirin
Artist:MuryokuP
ArtistUnicode:MuryokuP
Creator:Grifanych
Version:Acidum
Source:
Tags:
BeatmapID:1534473
BeatmapSetID:726770

[Difficulty]
HPDrainRate:7
CircleSize:7
OverallDifficulty:8
ApproachRate:5
SliderMultiplier:1.4
SliderTickRate:1

[Events]
//Background and Video events
0,0,"Headache.jpg",0,0
//Break Periods
//Storyboard Layer 0 (Background)
//Storyboard Layer 1 (Fail)
//Storyboard Layer 2 (Pass)
//Storyboard Layer 3 (Foreground)
//Storyboard Sound Samples

[TimingPoints]
80,315.789473684211,4,2,1,100,1,0

[HitObjects]
256,192,1343,5,0,0:0:0:0:
109,192,1343,1,0,0:0:0:0:
36,192,1343,1,0,0:0:0:0:
182,192,3711,1,0,0:0:0:0:
36,192,3711,1,0,0:0:0:0:
256,192,4974,1,0,0:0:0:0:
329,192,4974,1,0,0:0:0:0:
182,192,6395,1,0,0:0:0:0:
475,192,6395,1,0,0:0:0:0:
402,192,6395,1,0,0:0:0:0:
256,192,8764,1,0,0:0:0:0:
182,192,8764,1,0,0:0:0:0:
329,192,10027,1,0,0:0:0:0:
109,192,10027,1,0,0:0:0:0:
256,192,11448,1,0,0:0:0:0:
329,192,11448,1,0,0:0:0:0:
182,192,11448,1,0,0:0:0:0:
329,192,13816,1,0,0:0:0:0:
475,192,13816,1,0,0:0:0:0:
329,192,15080,1,0,0:0:0:0:
109,192,15080,1,0,0:0:0:0:
256,192,16501,1,0,0:0:0:0:
329,192,16501,1,0,0:0:0:0:
402,192,16501,1,0,0:0:0:0:
256,192,18869,1,0,0:0:0:0:
36,192,18869,1,0,0:0:0:0:
402,192,20132,1,0,0:0:0:0:
182,192,20132,1,0,0:0:0:0:
329,192,21553,1,0,0:0:0:0:
109,192,21553,1,0,0:0:0:0:
36,192,21553,1,0,0:0:0:0:
402,192,21553,1,0,0:0:0:0:
256,192,21869,1,0,0:0:0:0:
182,192,21869,1,0,0:0:0:0:
475,192,22185,1,0,0:0:0:0:
329,192,22185,1,0,0:0:0:0:
109,192,22185,1,0,0:0:0:0:
256,192,22501,1,0,0:0:0:0:
109,192,22658,1,0,0:0:0:0:
36,192,22658,1,0,0:0:0:0:
182,192,22816,1,0,0:0:0:0:
256,192,22974,1,0,0:0:0:0:
475,192,23132,1,0,0:0:0:0:
329,192,23132,1,0,0:0:0:0:
256,192,23290,1,0,0:0:0:0:
329,192,23448,1,0,0:0:0:0:
36,192,23448,1,0,0:0:0:0:
109,192,23448,1,0,0:0:0:0:
182,192,23606,1,0,0:0:0:0:
329,192,23922,1,0,0:0:0:0:
402,192,23922,1,0,0:0:0:0:
182,192,24237,1,0,0:0:0:0:
256,192,24395,1,0,0:0:0:0:
36,192,24395,1,0,0:0:0:0:
182,192,24553,1,0,0:0:0:0:
256,192,24711,1,0,0:0:0:0:
475,192,24711,1,0,0:0:0:0:
402,192,24711,1,0,0:0:0:0:
109,192,25027,1,0,0:0:0:0:
256,192,25185,1,0,0:0:0:0:
182,192,25185,1,0,0:0:0:0:
109,192,25343,1,0,0:0:0:0:
402,192,25501,1,0,0:0:0:0:
329,192,25501,1,0,0:0:0:0:
256,192,25658,1,0,0:0:0:0:
109,192,25816,1,0,0:0:0:0:
182,192,25816,1,0,0:0:0:0:
402,192,25895,1,0,0:0:0:0:
475,192,25895,1,0,0:0:0:0:
256,192,25974,1,0,0:0:0:0:
182,192,25974,1,0,0:0:0:0:
36,192,25974,1,0,0:0:0:0:
329,192,26132,1,0,0:0:0:0:
182,192,26290,1,0,0:0:0:0:
256,192,26290,1,0,0:0:0:0:
402,192,26369,1,0,0:0:0:0:
475,192,26369,1,0,0:0:0:0:
109,192,26448,1,0,0:0:0:0:
36,192,26448,1,0,0:0:0:0:
329,192,26527,1,0,0:0:0:0:
256,192,26527,1,0,0:0:0:0:
182,192,26606,1,0,0:0:0:0:
109,192,26606,1,0,0:0:0:0:
36,192,26606,1,0,0:0:0:0:
402,192,26922,1,0,0:0:0:0:
329,192,26922,1,0,0:0:0:0:
256,192,27080,1,0,0:0:0:0:
475,192,27237,1,0,0:0:0:0:
329,192,27237,1,0,0:0:0:0:
182,192,27237,1,0,0:0:0:0:
36,192,27553,1,0,0:0:0:0:
182,192,27711,1,0,0:0:0:0:
109,192,27711,1,0,0:0:0:0:
329,192,27869,1,0,0:0:0:0:
182,192,28027,1,0,0:0:0:0:
475,192,28185,1,0,0:0:0:0:
256,192,28185,1,0,0:0:0:0:
402,192,28264,1,0,0:0:0:0:
182,192,28264,1,0,0:0:0:0:
109,192,28343,1,0,0:0:0:0:
329,192,28343,1,0,0:0:0:0:
36,192,28422,1,0,0:0:0:0:
256,192,28422,1,0,0:0:0:0:
475,192,28501,1,0,0:0:0:0:
402,192,28501,1,0,0:0:0:0:
182,192,28501,1,0,0:0:0:0:
329,192,28816,1,0,0:0:0:0:
256,192,28816,1,0,0:0:0:0:
182,192,28816,1,0,0:0:0:0:
109,192,28974,1,0,0:0:0:0:
36,192,28974,1,0,0:0:0:0:
182,192,29132,1,0,0:0:0:0:
256,192,29290,1,0,0:0:0:0:
402,192,29448,1,0,0:0:0:0:
329,192,29448,1,0,0:0:0:0:
109,192,29606,1,0,0:0:0:0:
329,192,29764,1,0,0:0:0:0:
182,192,29764,1,0,0:0:0:0:
36,192,29764,1,0,0:0:0:0:
475,192,30080,1,0,0:0:0:0:
402,192,30237,1,0,0:0:0:0:
182,192,30237,1,0,0:0:0:0:
256,192,30395,1,0,0:0:0:0:
182,192,30553,1,0,0:0:0:0:
109,192,30593,1,0,0:0:0:0:
256,192,30632,1,0,0:0:0:0:
329,192,30672,1,0,0:0:0:0:
402,192,30869,1,0,0:0:0:0:
329,192,30869,1,0,0:0:0:0:
182,192,31027,1,0,0:0:0:0:
109,192,31027,1,0,0:0:0:0:
36,192,31027,1,0,0:0:0:0:
475,192,31185,1,0,0:0:0:0:
256,192,31343,1,0,0:0:0:0:
329,192,31382,1,0,0:0:0:0:
402,192,31422,1,0,0:0:0:0:
475,192,31461,1,0,0:0:0:0:
36,192,31501,1,0,0:0:0:0:
109,192,31540,1,0,0:0:0:0:
182,192,31580,1,0,0:0:0:0:
256,192,31619,1,0,0:0:0:0:
329,192,31658,1,0,0:0:0:0:
475,192,31658,1,0,0:0:0:0:
402,192,31658,1,0,0:0:0:0:
256,192,31974,1,0,0:0:0:0:
182,192,31974,1,0,0:0:0:0:
329,192,32132,1,0,0:0:0:0:
475,192,32290,1,0,0:0:0:0:
402,192,32290,1,0,0:0:0:0:
109,192,32290,1,0,0:0:0:0:
109,192,32606,1,0,0:0:0:0:
256,192,32764,1,0,0:0:0:0:
36,192,32764,1,0,0:0:0:0:
182,192,32922,1,0,0:0:0:0:
109,192,33080,1,0,0:0:0:0:
402,192,33237,1,0,0:0:0:0:
329,192,33237,1,0,0:0:0:0:
475,192,33395,1,0,0:0:0:0:
256,192,33553,1,0,0:0:0:0:
182,192,33553,1,0,0:0:0:0:
109,192,33553,1,0,0:0:0:0:
329,192,33711,1,0,0:0:0:0:
256,192,33869,1,0,0:0:0:0:
475,192,34027,1,0,0:0:0:0:
402,192,34027,1,0,0:0:0:0:
256,192,34343,1,0,0:0:0:0:
182,192,34501,1,0,0:0:0:0:
402,192,34501,1,0,0:0:0:0:
109,192,34658,1,0,0:0:0:0:
329,192,34816,1,0,0:0:0:0:
256,192,34816,1,0,0:0:0:0:
36,192,34816,1,0,0:0:0:0:
256,192,35132,1,0,0:0:0:0:
475,192,35290,1,0,0:0:0:0:
402,192,35290,1,0,0:0:0:0:
329,192,35448,1,0,0:0:0:0:
256,192,35606,1,0,0:0:0:0:
109,192,35606,1,0,0:0:0:0:
182,192,35922,1,0,0:0:0:0:
329,192,35922,1,0,0:0:0:0:
402,192,36001,1,0,0:0:0:0:
109,192,36001,1,0,0:0:0:0:
256,192,36080,1,0,0:0:0:0:
475,192,36080,1,0,0:0:0:0:
36,192,36080,1,0,0:0:0:0:
182,192,36237,1,0,0:0:0:0:
402,192,36395,1,0,0:0:0:0:
329,192,36395,1,0,0:0:0:0:
182,192,36474,1,0,0:0:0:0:
109,192,36474,1,0,0:0:0:0:
402,192,36553,1,0,0:0:0:0:
329,192,36553,1,0,0:0:0:0:
182,192,36632,1,0,0:0:0:0:
109,192,36632,1,0,0:0:0:0:
256,192,36711,1,0,0:0:0:0:
329,192,36711,1,0,0:0:0:0:
475,192,36711,1,0,0:0:0:0:
402,192,36711,1,0,0:0:0:0:
36,192,37027,1,0,0:0:0:0:
329,192,37027,1,0,0:0:0:0:
402,192,37185,1,0,0:0:0:0:
256,192,37343,1,0,0:0:0:0:
182,192,37343,1,0,0:0:0:0:
109,192,37343,1,0,0:0:0:0:
329,192,37501,1,0,0:0:0:0:
256,192,37658,1,0,0:0:0:0:
475,192,39237,1,0,0:0:0:0:
402,192,39237,1,0,0:0:0:0:
256,192,39237,1,0,0:0:0:0:
109,192,39237,1,0,0:0:0:0:
36,192,39395,1,0,0:0:0:0:
182,192,39395,1,0,0:0:0:0:
256,192,39553,1,0,0:0:0:0:
182,192,39711,1,0,0:0:0:0:
329,192,39711,1,0,0:0:0:0:
475,192,39790,1,0,0:0:0:0:
402,192,39790,1,0,0:0:0:0:
329,192,39869,1,0,0:0:0:0:
182,192,39869,1,0,0:0:0:0:
109,192,39869,1,0,0:0:0:0:
36,192,40027,1,0,0:0:0:0:
256,192,40027,1,0,0:0:0:0:
182,192,40185,1,0,0:0:0:0:
475,192,40343,1,0,0:0:0:0:
402,192,40343,1,0,0:0:0:0:
109,192,40343,1,0,0:0:0:0:
329,192,40658,1,0,0:0:0:0:
182,192,40658,1,0,0:0:0:0:
402,192,40816,1,0,0:0:0:0:
109,192,40974,1,0,0:0:0:0:
182,192,40974,1,0,0:0:0:0:
475,192,41132,1,0,0:0:0:0:
36,192,41132,1,0,0:0:0:0:
256,192,41132,1,0,0:0:0:0:
329,192,41290,1,0,0:0:0:0:
182,192,41290,1,0,0:0:0:0:
109,192,41448,1,0,0:0:0:0:
475,192,41606,1,0,0:0:0:0:
402,192,41606,1,0,0:0:0:0:
329,192,41685,1,0,0:0:0:0:
182,192,41685,1,0,0:0:0:0:
109,192,41922,1,0,0:0:0:0:
182,192,41922,1,0,0:0:0:0:
256,192,42080,1,0,0:0:0:0:
402,192,42237,1,0,0:0:0:0:
329,192,42237,1,0,0:0:0:0:
109,192,42395,1,0,0:0:0:0:
36,192,42395,1,0,0:0:0:0:
402,192,42395,1,0,0:0:0:0:
475,192,42553,1,0,0:0:0:0:
329,192,42553,1,0,0:0:0:0:
182,192,42711,1,0,0:0:0:0:
329,192,42869,1,0,0:0:0:0:
36,192,42869,1,0,0:0:0:0:
182,192,43185,1,0,0:0:0:0:
475,192,43185,1,0,0:0:0:0:
109,192,43343,1,0,0:0:0:0:
402,192,43501,1,0,0:0:0:0:
36,192,43501,1,0,0:0:0:0:
109,192,43580,1,0,0:0:0:0:
182,192,43580,1,0,0:0:0:0:
475,192,43658,1,0,0:0:0:0:
256,192,43658,1,0,0:0:0:0:
329,192,43658,1,0,0:0:0:0:
402,192,43816,1,0,0:0:0:0:
329,192,43816,1,0,0:0:0:0:
36,192,43895,1,0,0:0:0:0:
182,192,43895,1,0,0:0:0:0:
256,192,43974,1,0,0:0:0:0:
329,192,43974,1,0,0:0:0:0:
475,192,43974,1,0,0:0:0:0:
402,192,44132,1,0,0:0:0:0:
329,192,44132,1,0,0:0:0:0:
109,192,44132,1,0,0:0:0:0:
36,192,44132,1,0,0:0:0:0:
182,192,44448,1,0,0:0:0:0:
109,192,44448,1,0,0:0:0:0:
402,192,44527,1,0,0:0:0:0:
329,192,44527,1,0,0:0:0:0:
256,192,44606,1,0,0:0:0:0:
36,192,44764,1,0,0:0:0:0:
109,192,44764,1,0,0:0:0:0:
475,192,44843,1,0,0:0:0:0:
402,192,44843,1,0,0:0:0:0:
329,192,44922,1,0,0:0:0:0:
256,192,44922,1,0,0:0:0:0:
182,192,44922,1,0,0:0:0:0:
109,192,45080,1,0,0:0:0:0:
475,192,45080,1,0,0:0:0:0:
182,192,45237,1,0,0:0:0:0:
402,192,45395,1,0,0:0:0:0:
256,192,45395,1,0,0:0:0:0:
182,192,45711,1,0,0:0:0:0:
36,192,45711,1,0,0:0:0:0:
256,192,45869,1,0,0:0:0:0:
475,192,46027,1,0,0:0:0:0:
329,192,46027,1,0,0:0:0:0:
109,192,46185,1,0,0:0:0:0:
36,192,46185,1,0,0:0:0:0:
402,192,46185,1,0,0:0:0:0:
256,192,46343,1,0,0:0:0:0:
182,192,46343,1,0,0:0:0:0:
329,192,46501,1,0,0:0:0:0:
475,192,46658,1,0,0:0:0:0:
36,192,46658,1,0,0:0:0:0:
109,192,46737,1,0,0:0:0:0:
402,192,46737,1,0,0:0:0:0:
402,192,46974,1,0,0:0:0:0:
256,192,46974,1,0,0:0:0:0:
182,192,47132,1,0,0:0:0:0:
256,192,47290,1,0,0:0:0:0:
109,192,47290,1,0,0:0:0:0:
475,192,47448,1,0,0:0:0:0:
36,192,47448,1,0,0:0:0:0:
402,192,47606,1,0,0:0:0:0:
256,192,47606,1,0,0:0:0:0:
329,192,47764,1,0,0:0:0:0:
109,192,47922,1,0,0:0:0:0:
402,192,47922,1,0,0:0:0:0:
475,192,48237,1,0,0:0:0:0:
329,192,48237,1,0,0:0:0:0:
402,192,48395,1,0,0:0:0:0:
256,192,48553,1,0,0:0:0:0:
109,192,48553,1,0,0:0:0:0:
475,192,48632,1,0,0:0:0:0:
402,192,48632,1,0,0:0:0:0:
109,192,48711,1,0,0:0:0:0:
182,192,48711,1,0,0:0:0:0:
36,192,48711,1,0,0:0:0:0:
256,192,48869,1,0,0:0:0:0:
475,192,48869,1,0,0:0:0:0:
182,192,48948,1,0,0:0:0:0:
329,192,48948,1,0,0:0:0:0:
109,192,49027,1,0,0:0:0:0:
36,192,49027,1,0,0:0:0:0:
402,192,49027,1,0,0:0:0:0:
329,192,49106,1,0,0:0:0:0:
256,192,49185,1,0,0:0:0:0:
182,192,49264,1,0,0:0:0:0:
475,192,49343,1,0,0:0:0:0:
109,192,49343,1,0,0:0:0:0:
329,192,49343,1,0,0:0:0:0:
402,192,49343,1,0,0:0:0:0:
182,192,49501,1,0,0:0:0:0:
256,192,49501,1,0,0:0:0:0:
329,192,49816,1,0,0:0:0:0:
256,192,49816,1,0,0:0:0:0:
182,192,49974,1,0,0:0:0:0:
36,192,49974,1,0,0:0:0:0:
402,192,49974,1,0,0:0:0:0:
109,192,50132,1,0,0:0:0:0:
256,192,50290,1,0,0:0:0:0:
475,192,50290,1,0,0:0:0:0:
36,192,50448,1,0,0:0:0:0:
402,192,50448,1,0,0:0:0:0:
329,192,50448,1,0,0:0:0:0:
109,192,50606,1,0,0:0:0:0:
256,192,50764,1,0,0:0:0:0:
182,192,50764,1,0,0:0:0:0:
329,192,50922,1,0,0:0:0:0:
475,192,50922,1,0,0:0:0:0:
36,192,50922,1,0,0:0:0:0:
109,192,51237,1,0,0:0:0:0:
329,192,51237,1,0,0:0:0:0:
402,192,51395,1,0,0:0:0:0:
182,192,51395,1,0,0:0:0:0:
329,192,51553,1,0,0:0:0:0:
475,192,51711,1,0,0:0:0:0:
36,192,51711,1,0,0:0:0:0:
256,192,51711,1,0,0:0:0:0:
402,192,51869,1,0,0:0:0:0:
36,192,51869,1,0,0:0:0:0:
109,192,51869,1,0,0:0:0:0:
182,192,51869,1,0,0:0:0:0:
182,192,52027,1,0,0:0:0:0:
256,192,52027,1,0,0:0:0:0:
329,192,52185,1,0,0:0:0:0:
475,192,52343,1,0,0:0:0:0:
402,192,52343,1,0,0:0:0:0:
402,192,52501,1,0,0:0:0:0:
36,192,52501,1,0,0:0:0:0:
182,192,52501,1,0,0:0:0:0:
256,192,52658,1,0,0:0:0:0:
329,192,52816,1,0,0:0:0:0:
182,192,52816,1,0,0:0:0:0:
402,192,52974,1,0,0:0:0:0:
109,192,52974,1,0,0:0:0:0:
329,192,53290,1,0,0:0:0:0:
256,192,53290,1,0,0:0:0:0:
475,192,53448,1,0,0:0:0:0:
182,192,53448,1,0,0:0:0:0:
256,192,53606,1,0,0:0:0:0:
402,192,53764,1,0,0:0:0:0:
182,192,53764,1,0,0:0:0:0:
36,192,53764,1,0,0:0:0:0:
329,192,53922,1,0,0:0:0:0:
256,192,53922,1,0,0:0:0:0:
182,192,54080,1,0,0:0:0:0:
402,192,54080,1,0,0:0:0:0:
475,192,54080,1,0,0:0:0:0:
329,192,54237,1,0,0:0:0:0:
36,192,54237,1,0,0:0:0:0:
109,192,54316,1,0,0:0:0:0:
402,192,54316,1,0,0:0:0:0:
475,192,54395,1,0,0:0:0:0:
182,192,54395,1,0,0:0:0:0:
256,192,54395,1,0,0:0:0:0:
329,192,54395,1,0,0:0:0:0:
475,192,54553,1,0,0:0:0:0:
402,192,54553,1,0,0:0:0:0:
329,192,54711,1,0,0:0:0:0:
256,192,54869,1,0,0:0:0:0:
182,192,54869,1,0,0:0:0:0:
182,192,55027,1,0,0:0:0:0:
36,192,55027,1,0,0:0:0:0:
402,192,55027,1,0,0:0:0:0:
475,192,55343,1,0,0:0:0:0:
182,192,55343,1,0,0:0:0:0:
402,192,55501,1,0,0:0:0:0:
329,192,55501,1,0,0:0:0:0:
109,192,55658,1,0,0:0:0:0:
256,192,55816,1,0,0:0:0:0:
182,192,55816,1,0,0:0:0:0:
475,192,55974,1,0,0:0:0:0:
182,192,55974,1,0,0:0:0:0:
36,192,55974,1,0,0:0:0:0:
329,192,56132,1,0,0:0:0:0:
402,192,56290,1,0,0:0:0:0:
256,192,56290,1,0,0:0:0:0:
182,192,56448,1,0,0:0:0:0:
109,192,56448,1,0,0:0:0:0:
475,192,56527,1,0,0:0:0:0:
402,192,56527,1,0,0:0:0:0:
329,192,56606,1,0,0:0:0:0:
256,192,56606,1,0,0:0:0:0:
109,192,56606,1,0,0:0:0:0:
36,192,56764,1,0,0:0:0:0:
109,192,56764,1,0,0:0:0:0:
475,192,56922,1,0,0:0:0:0:
329,192,56922,1,0,0:0:0:0:
182,192,56922,1,0,0:0:0:0:
402,192,56922,1,0,0:0:0:0:
182,192,57080,1,0,0:0:0:0:
256,192,57080,1,0,0:0:0:0:
475,192,57395,1,0,0:0:0:0:
402,192,57395,1,0,0:0:0:0:
329,192,57474,1,0,0:0:0:0:
36,192,57474,1,0,0:0:0:0:
256,192,57553,1,0,0:0:0:0:
182,192,57553,1,0,0:0:0:0:
109,192,57553,1,0,0:0:0:0:
475,192,57711,1,0,0:0:0:0:
329,192,57711,1,0,0:0:0:0:
182,192,57869,1,0,0:0:0:0:
256,192,58027,1,0,0:0:0:0:
109,192,58027,1,0,0:0:0:0:
402,192,58185,1,0,0:0:0:0:
329,192,58343,1,0,0:0:0:0:
256,192,58343,1,0,0:0:0:0:
182,192,58501,1,0,0:0:0:0:
475,192,58501,1,0,0:0:0:0:
36,192,58501,1,0,0:0:0:0:
36,192,58658,1,0,0:0:0:0:
329,192,58658,1,0,0:0:0:0:
109,192,58737,1,0,0:0:0:0:
402,192,58737,1,0,0:0:0:0:
182,192,58816,1,0,0:0:0:0:
329,192,58816,1,0,0:0:0:0:
402,192,58895,1,0,0:0:0:0:
109,192,58895,1,0,0:0:0:0:
475,192,58974,1,0,0:0:0:0:
36,192,58974,1,0,0:0:0:0:
402,192,59053,1,0,0:0:0:0:
109,192,59053,1,0,0:0:0:0:
329,192,59132,1,0,0:0:0:0:
182,192,59132,1,0,0:0:0:0:
256,192,59211,1,0,0:0:0:0:
36,192,59290,1,0,0:0:0:0:
109,192,59369,1,0,0:0:0:0:
475,192,59448,1,0,0:0:0:0:
182,192,59448,1,0,0:0:0:0:
402,192,59448,1,0,0:0:0:0:
329,192,59606,1,0,0:0:0:0:
256,192,59606,1,0,0:0:0:0:
109,192,59922,1,0,0:0:0:0:
36,192,59922,1,0,0:0:0:0:
475,192,60080,1,0,0:0:0:0:
256,192,60080,1,0,0:0:0:0:
329,192,60080,1,0,0:0:0:0:
402,192,60395,1,0,0:0:0:0:
329,192,60395,1,0,0:0:0:0:
329,192,60553,1,0,0:0:0:0:
36,192,60553,1,0,0:0:0:0:
109,192,60553,1,0,0:0:0:0:
182,192,60711,1,0,0:0:0:0:
475,192,60869,1,0,0:0:0:0:
256,192,60869,1,0,0:0:0:0:
475,192,61027,1,0,0:0:0:0:
182,192,61027,1,0,0:0:0:0:
329,192,61027,1,0,0:0:0:0:
182,192,61343,1,0,0:0:0:0:
256,192,61343,1,0,0:0:0:0:
36,192,61501,1,0,0:0:0:0:
109,192,61501,1,0,0:0:0:0:
256,192,61658,1,0,0:0:0:0:
475,192,61816,1,0,0:0:0:0:
182,192,61816,1,0,0:0:0:0:
402,192,61816,1,0,0:0:0:0:
329,192,61974,1,0,0:0:0:0:
256,192,61974,1,0,0:0:0:0:
109,192,61974,1,0,0:0:0:0:
256,192,62132,1,0,0:0:0:0:
329,192,62132,1,0,0:0:0:0:
109,192,62448,1,0,0:0:0:0:
402,192,62448,1,0,0:0:0:0:
329,192,62606,1,0,0:0:0:0:
256,192,62606,1,0,0:0:0:0:
182,192,62606,1,0,0:0:0:0:
475,192,62922,1,0,0:0:0:0:
256,192,62922,1,0,0:0:0:0:
402,192,63080,1,0,0:0:0:0:
182,192,63080,1,0,0:0:0:0:
109,192,63237,1,0,0:0:0:0:
182,192,63395,1,0,0:0:0:0:
256,192,63395,1,0,0:0:0:0:
329,192,63553,1,0,0:0:0:0:
256,192,63553,1,0,0:0:0:0:
475,192,63869,1,0,0:0:0:0:
256,192,63869,1,0,0:0:0:0:
109,192,63869,1,0,0:0:0:0:
36,192,64027,1,0,0:0:0:0:
109,192,64027,1,0,0:0:0:0:
109,192,64185,1,0,0:0:0:0:
256,192,64185,1,0,0:0:0:0:
475,192,64185,1,0,0:0:0:0:
402,192,64343,1,0,0:0:0:0:
329,192,64343,1,0,0:0:0:0:
109,192,64422,1,0,0:0:0:0:
182,192,64422,1,0,0:0:0:0:
329,192,64501,1,0,0:0:0:0:
402,192,64501,1,0,0:0:0:0:
256,192,64580,1,0,0:0:0:0:
475,192,64580,1,0,0:0:0:0:
402,192,64658,1,0,0:0:0:0:
182,192,64658,1,0,0:0:0:0:
329,192,64737,1,0,0:0:0:0:
109,192,64737,1,0,0:0:0:0:
36,192,64816,1,0,0:0:0:0:
256,192,64816,1,0,0:0:0:0:
182,192,64895,1,0,0:0:0:0:
475,192,64895,1,0,0:0:0:0:
109,192,64974,1,0,0:0:0:0:
402,192,64974,1,0,0:0:0:0:
36,192,65053,1,0,0:0:0:0:
329,192,65053,1,0,0:0:0:0:
402,192,65132,1,0,0:0:0:0:
182,192,65132,1,0,0:0:0:0:
109,192,65132,1,0,0:0:0:0:
475,192,65132,1,0,0:0:0:0:
329,192,65290,1,0,0:0:0:0:
256,192,65290,1,0,0:0:0:0:
256,192,65606,1,0,0:0:0:0:
109,192,65606,1,0,0:0:0:0:
475,192,65764,1,0,0:0:0:0:
329,192,65922,1,0,0:0:0:0:
256,192,65922,1,0,0:0:0:0:
256,192,66080,1,0,0:0:0:0:
109,192,66080,1,0,0:0:0:0:
182,192,66080,1,0,0:0:0:0:
36,192,66237,1,0,0:0:0:0:
329,192,66237,1,0,0:0:0:0:
475,192,66395,1,0,0:0:0:0:
402,192,66395,1,0,0:0:0:0:
329,192,66395,1,0,0:0:0:0:
256,192,66553,1,0,0:0:0:0:
182,192,66553,1,0,0:0:0:0:
36,192,66632,1,0,0:0:0:0:
329,192,66632,1,0,0:0:0:0:
475,192,66711,1,0,0:0:0:0:
109,192,66711,1,0,0:0:0:0:
256,192,66711,1,0,0:0:0:0:
402,192,66869,1,0,0:0:0:0:
329,192,66948,1,0,0:0:0:0:
182,192,67027,1,0,0:0:0:0:
475,192,67027,1,0,0:0:0:0:
402,192,67027,1,0,0:0:0:0:
329,192,67185,1,0,0:0:0:0:
256,192,67185,1,0,0:0:0:0:
36,192,67343,1,0,0:0:0:0:
109,192,67343,1,0,0:0:0:0:
475,192,67343,1,0,0:0:0:0:
182,192,67501,1,0,0:0:0:0:
256,192,67501,1,0,0:0:0:0:
182,192,67658,1,0,0:0:0:0:
36,192,67658,1,0,0:0:0:0:
329,192,67658,1,0,0:0:0:0:
475,192,67816,1,0,0:0:0:0:
256,192,67816,1,0,0:0:0:0:
402,192,67974,1,0,0:0:0:0:
329,192,67974,1,0,0:0:0:0:
109,192,67974,1,0,0:0:0:0:
256,192,68132,1,0,0:0:0:0:
182,192,68132,1,0,0:0:0:0:
475,192,68290,1,0,0:0:0:0:
329,192,68448,1,0,0:0:0:0:
256,192,68448,1,0,0:0:0:0:
402,192,68606,1,0,0:0:0:0:
256,192,68606,1,0,0:0:0:0:
109,192,68606,1,0,0:0:0:0:
109,192,68764,1,0,0:0:0:0:
182,192,68764,1,0,0:0:0:0:
475,192,68922,1,0,0:0:0:0:
329,192,68922,1,0,0:0:0:0:
182,192,68922,1,0,0:0:0:0:
36,192,69080,1,0,0:0:0:0:
256,192,69080,1,0,0:0:0:0:
402,192,69080,1,0,0:0:0:0:
256,192,69237,1,0,0:0:0:0:
109,192,69237,1,0,0:0:0:0:
182,192,69237,1,0,0:0:0:0:
329,192,69316,1,0,0:0:0:0:
402,192,69395,1,0,0:0:0:0:
329,192,69474,1,0,0:0:0:0:
182,192,69553,1,0,0:0:0:0:
36,192,69553,1,0,0:0:0:0:
475,192,69553,1,0,0:0:0:0:
256,192,69553,1,0,0:0:0:0:
256,192,70185,1,0,0:0:0:0:
256,192,70501,1,0,0:0:0:0:
329,192,70501,1,0,0:0:0:0:
475,192,70658,1,0,0:0:0:0:
402,192,70658,1,0,0:0:0:0:
109,192,71132,1,0,0:0:0:0:
402,192,71132,1,0,0:0:0:0:
329,192,71290,1,0,0:0:0:0:
109,192,71448,1,0,0:0:0:0:
402,192,71606,1,0,0:0:0:0:
475,192,71764,1,0,0:0:0:0:
329,192,71764,1,0,0:0:0:0:
256,192,71922,1,0,0:0:0:0:
182,192,71922,1,0,0:0:0:0:
36,192,72080,1,0,0:0:0:0:
402,192,72395,1,0,0:0:0:0:
329,192,72553,1,0,0:0:0:0:
36,192,72711,1,0,0:0:0:0:
182,192,72869,1,0,0:0:0:0:
256,192,73027,1,0,0:0:0:0:
329,192,73027,1,0,0:0:0:0:
475,192,73185,1,0,0:0:0:0:
402,192,73185,1,0,0:0:0:0:
109,192,73658,1,0,0:0:0:0:
402,192,73658,1,0,0:0:0:0:
329,192,73816,1,0,0:0:0:0:
36,192,73974,1,0,0:0:0:0:
256,192,74132,1,0,0:0:0:0:
402,192,74290,1,0,0:0:0:0:
329,192,74290,1,0,0:0:0:0:
402,192,74448,1,0,0:0:0:0:
475,192,74448,1,0,0:0:0:0:
256,192,74606,1,0,0:0:0:0:
182,192,74606,1,0,0:0:0:0:
329,192,74606,1,0,0:0:0:0:
36,192,74606,1,0,0:0:0:0:
329,192,74922,1,0,0:0:0:0:
402,192,74922,1,0,0:0:0:0:
109,192,74922,1,0,0:0:0:0:
329,192,75237,1,0,0:0:0:0:
256,192,75237,1,0,0:0:0:0:
402,192,75395,1,0,0:0:0:0:
329,192,75395,1,0,0:0:0:0:
256,192,75553,1,0,0:0:0:0:
36,192,75553,1,0,0:0:0:0:
109,192,75553,1,0,0:0:0:0:
329,192,75711,1,0,0:0:0:0:
475,192,75711,1,0,0:0:0:0:
402,192,75869,1,0,0:0:0:0:
329,192,76027,1,0,0:0:0:0:
109,192,76027,1,0,0:0:0:0:
256,192,76185,1,0,0:0:0:0:
475,192,76185,1,0,0:0:0:0:
36,192,76185,1,0,0:0:0:0:
329,192,76343,1,0,0:0:0:0:
402,192,76343,1,0,0:0:0:0:
182,192,76501,1,0,0:0:0:0:
402,192,76658,1,0,0:0:0:0:
329,192,76658,1,0,0:0:0:0:
256,192,76816,1,0,0:0:0:0:
36,192,76816,1,0,0:0:0:0:
475,192,76816,1,0,0:0:0:0:
182,192,76974,1,0,0:0:0:0:
329,192,76974,1,0,0:0:0:0:
475,192,77132,1,0,0:0:0:0:
402,192,77290,1,0,0:0:0:0:
329,192,77290,1,0,0:0:0:0:
182,192,77369,1,0,0:0:0:0:
109,192,77369,1,0,0:0:0:0:
256,192,77448,1,0,0:0:0:0:
475,192,77448,1,0,0:0:0:0:
402,192,77448,1,0,0:0:0:0:
36,192,77764,1,0,0:0:0:0:
109,192,77764,1,0,0:0:0:0:
109,192,77922,1,0,0:0:0:0:
256,192,77922,1,0,0:0:0:0:
475,192,78080,1,0,0:0:0:0:
402,192,78080,1,0,0:0:0:0:
256,192,78080,1,0,0:0:0:0:
182,192,78237,1,0,0:0:0:0:
109,192,78237,1,0,0:0:0:0:
402,192,78395,1,0,0:0:0:0:
329,192,78553,1,0,0:0:0:0:
256,192,78553,1,0,0:0:0:0:
182,192,78711,1,0,0:0:0:0:
36,192,78711,1,0,0:0:0:0:
475,192,78711,1,0,0:0:0:0:
402,192,78869,1,0,0:0:0:0:
329,192,78869,1,0,0:0:0:0:
475,192,79027,1,0,0:0:0:0:
182,192,79185,1,0,0:0:0:0:
256,192,79185,1,0,0:0:0:0:
182,192,79343,1,0,0:0:0:0:
329,192,79343,1,0,0:0:0:0:
256,192,79501,1,0,0:0:0:0:
475,192,79501,1,0,0:0:0:0:
36,192,79501,1,0,0:0:0:0:
329,192,79501,1,0,0:0:0:0:
182,192,79658,1,0,0:0:0:0:
109,192,79658,1,0,0:0:0:0:
402,192,79974,1,0,0:0:0:0:
329,192,79974,1,0,0:0:0:0:
256,192,79974,1,0,0:0:0:0:
182,192,80290,1,0,0:0:0:0:
256,192,80290,1,0,0:0:0:0:
182,192,80448,1,0,0:0:0:0:
256,192,80448,1,0,0:0:0:0:
109,192,80606,1,0,0:0:0:0:
475,192,80606,1,0,0:0:0:0:
402,192,80606,1,0,0:0:0:0:
36,192,80764,1,0,0:0:0:0:
109,192,80764,1,0,0:0:0:0:
182,192,80922,1,0,0:0:0:0:
329,192,81080,1,0,0:0:0:0:
402,192,81080,1,0,0:0:0:0:
256,192,81237,1,0,0:0:0:0:
475,192,81237,1,0,0:0:0:0:
109,192,81237,1,0,0:0:0:0:
402,192,81553,1,0,0:0:0:0:
475,192,81553,1,0,0:0:0:0:
182,192,81711,1,0,0:0:0:0:
36,192,81711,1,0,0:0:0:0:
475,192,81869,1,0,0:0:0:0:
329,192,81869,1,0,0:0:0:0:
256,192,81869,1,0,0:0:0:0:
182,192,82027,1,0,0:0:0:0:
109,192,82027,1,0,0:0:0:0:
256,192,82185,1,0,0:0:0:0:
402,192,82343,1,0,0:0:0:0:
329,192,82343,1,0,0:0:0:0:
256,192,82501,1,0,0:0:0:0:
36,192,82501,1,0,0:0:0:0:
475,192,82501,1,0,0:0:0:0:
36,192,82816,1,0,0:0:0:0:
109,192,82816,1,0,0:0:0:0:
475,192,82974,1,0,0:0:0:0:
256,192,82974,1,0,0:0:0:0:
402,192,83132,1,0,0:0:0:0:
182,192,83132,1,0,0:0:0:0:
329,192,83132,1,0,0:0:0:0:
109,192,83290,1,0,0:0:0:0:
256,192,83290,1,0,0:0:0:0:
329,192,83448,1,0,0:0:0:0:
402,192,83527,1,0,0:0:0:0:
329,192,83606,1,0,0:0:0:0:
256,192,83685,1,0,0:0:0:0:
182,192,83724,1,0,0:0:0:0:
109,192,83764,1,0,0:0:0:0:
329,192,83843,1,0,0:0:0:0:
402,192,83882,1,0,0:0:0:0:
475,192,83922,1,0,0:0:0:0:
256,192,84001,1,0,0:0:0:0:
182,192,84080,1,0,0:0:0:0:
109,192,84158,1,0,0:0:0:0:
36,192,84237,1,0,0:0:0:0:
109,192,84316,1,0,0:0:0:0:
329,192,84395,1,0,0:0:0:0:
182,192,84395,1,0,0:0:0:0:
402,192,84474,1,0,0:0:0:0:
109,192,84474,1,0,0:0:0:0:
329,192,84553,1,0,0:0:0:0:
182,192,84553,1,0,0:0:0:0:
402,192,84632,1,0,0:0:0:0:
109,192,84632,1,0,0:0:0:0:
329,192,84711,1,0,0:0:0:0:
475,192,84711,1,0,0:0:0:0:
36,192,84711,1,0,0:0:0:0:
109,192,84869,1,0,0:0:0:0:
402,192,85027,1,0,0:0:0:0:
182,192,85027,1,0,0:0:0:0:
329,192,85027,1,0,0:0:0:0:
36,192,85185,1,0,0:0:0:0:
182,192,85343,1,0,0:0:0:0:
256,192,85343,1,0,0:0:0:0:
36,192,85501,1,0,0:0:0:0:
329,192,85501,1,0,0:0:0:0:
109,192,85658,1,0,0:0:0:0:
182,192,85658,1,0,0:0:0:0:
256,192,85658,1,0,0:0:0:0:
402,192,85816,1,0,0:0:0:0:
329,192,85816,1,0,0:0:0:0:
475,192,85974,1,0,0:0:0:0:
182,192,86132,1,0,0:0:0:0:
256,192,86132,1,0,0:0:0:0:
109,192,86290,1,0,0:0:0:0:
402,192,86290,1,0,0:0:0:0:
36,192,86290,1,0,0:0:0:0:
475,192,86448,1,0,0:0:0:0:
329,192,86606,1,0,0:0:0:0:
182,192,86606,1,0,0:0:0:0:
329,192,86764,1,0,0:0:0:0:
182,192,86764,1,0,0:0:0:0:
256,192,86922,1,0,0:0:0:0:
36,192,86922,1,0,0:0:0:0:
109,192,86922,1,0,0:0:0:0:
402,192,87080,1,0,0:0:0:0:
329,192,87080,1,0,0:0:0:0:
475,192,87237,1,0,0:0:0:0:
109,192,87395,1,0,0:0:0:0:
329,192,87395,1,0,0:0:0:0:
182,192,87474,1,0,0:0:0:0:
256,192,87474,1,0,0:0:0:0:
109,192,87553,1,0,0:0:0:0:
36,192,87553,1,0,0:0:0:0:
329,192,87553,1,0,0:0:0:0:
256,192,87711,1,0,0:0:0:0:
475,192,87869,1,0,0:0:0:0:
329,192,87869,1,0,0:0:0:0:
109,192,88027,1,0,0:0:0:0:
182,192,88027,1,0,0:0:0:0:
402,192,88185,1,0,0:0:0:0:
329,192,88185,1,0,0:0:0:0:
256,192,88185,1,0,0:0:0:0:
36,192,88343,1,0,0:0:0:0:
182,192,88343,1,0,0:0:0:0:
256,192,88501,1,0,0:0:0:0:
475,192,88658,1,0,0:0:0:0:
402,192,88658,1,0,0:0:0:0:
36,192,88816,1,0,0:0:0:0:
256,192,88816,1,0,0:0:0:0:
182,192,88816,1,0,0:0:0:0:
329,192,88974,1,0,0:0:0:0:
402,192,89053,1,0,0:0:0:0:
475,192,89132,1,0,0:0:0:0:
182,192,89132,1,0,0:0:0:0:
109,192,89211,1,0,0:0:0:0:
182,192,89290,1,0,0:0:0:0:
256,192,89369,1,0,0:0:0:0:
36,192,89448,1,0,0:0:0:0:
329,192,89448,1,0,0:0:0:0:
256,192,89527,1,0,0:0:0:0:
109,192,89527,1,0,0:0:0:0:
182,192,89606,1,0,0:0:0:0:
329,192,89606,1,0,0:0:0:0:
109,192,89685,1,0,0:0:0:0:
402,192,89685,1,0,0:0:0:0:
36,192,89764,1,0,0:0:0:0:
256,192,89764,1,0,0:0:0:0:
475,192,89764,1,0,0:0:0:0:
329,192,89764,1,0,0:0:0:0:
329,192,90080,1,0,0:0:0:0:
182,192,90080,1,0,0:0:0:0:
109,192,90080,1,0,0:0:0:0:
256,192,90237,1,0,0:0:0:0:
475,192,90395,1,0,0:0:0:0:
402,192,90395,1,0,0:0:0:0:
109,192,90553,1,0,0:0:0:0:
256,192,90553,1,0,0:0:0:0:
329,192,90711,1,0,0:0:0:0:
36,192,90711,1,0,0:0:0:0:
182,192,90711,1,0,0:0:0:0:
402,192,90869,1,0,0:0:0:0:
475,192,90869,1,0,0:0:0:0:
329,192,91027,1,0,0:0:0:0:
256,192,91185,1,0,0:0:0:0:
182,192,91185,1,0,0:0:0:0:
109,192,91343,1,0,0:0:0:0:
402,192,91343,1,0,0:0:0:0:
329,192,91343,1,0,0:0:0:0:
36,192,91501,1,0,0:0:0:0:
256,192,91501,1,0,0:0:0:0:
182,192,91658,1,0,0:0:0:0:
402,192,91658,1,0,0:0:0:0:
475,192,91658,1,0,0:0:0:0:
256,192,91816,1,0,0:0:0:0:
329,192,91816,1,0,0:0:0:0:
109,192,91974,1,0,0:0:0:0:
36,192,91974,1,0,0:0:0:0:
182,192,91974,1,0,0:0:0:0:
475,192,92053,1,0,0:0:0:0:
402,192,92053,1,0,0:0:0:0:
329,192,92053,1,0,0:0:0:0:
256,192,92132,1,0,0:0:0:0:
182,192,92132,1,0,0:0:0:0:
402,192,92290,1,0,0:0:0:0:
329,192,92448,1,0,0:0:0:0:
256,192,92448,1,0,0:0:0:0:
36,192,92606,1,0,0:0:0:0:
182,192,92606,1,0,0:0:0:0:
475,192,92606,1,0,0:0:0:0:
402,192,92764,1,0,0:0:0:0:
329,192,92764,1,0,0:0:0:0:
109,192,92922,1,0,0:0:0:0:
256,192,92922,1,0,0:0:0:0:
402,192,92922,1,0,0:0:0:0:
182,192,93080,1,0,0:0:0:0:
109,192,93080,1,0,0:0:0:0:
475,192,93237,1,0,0:0:0:0:
36,192,93237,1,0,0:0:0:0:
256,192,93237,1,0,0:0:0:0:
402,192,93395,1,0,0:0:0:0:
329,192,93395,1,0,0:0:0:0:
182,192,93553,1,0,0:0:0:0:
256,192,93553,1,0,0:0:0:0:
109,192,93553,1,0,0:0:0:0:
36,192,93711,1,0,0:0:0:0:
109,192,93711,1,0,0:0:0:0:
109,192,93869,1,0,0:0:0:0:
182,192,93869,1,0,0:0:0:0:
36,192,93869,1,0,0:0:0:0:
329,192,93948,1,0,0:0:0:0:
475,192,93948,1,0,0:0:0:0:
402,192,93948,1,0,0:0:0:0:
109,192,94027,1,0,0:0:0:0:
182,192,94027,1,0,0:0:0:0:
256,192,94106,1,0,0:0:0:0:
329,192,94106,1,0,0:0:0:0:
36,192,94185,1,0,0:0:0:0:
475,192,94185,1,0,0:0:0:0:
109,192,94264,1,0,0:0:0:0:
402,192,94264,1,0,0:0:0:0:
182,192,94343,1,0,0:0:0:0:
329,192,94343,1,0,0:0:0:0:
402,192,94422,1,0,0:0:0:0:
109,192,94422,1,0,0:0:0:0:
36,192,94501,1,0,0:0:0:0:
475,192,94501,1,0,0:0:0:0:
329,192,94580,1,0,0:0:0:0:
182,192,94580,1,0,0:0:0:0:
402,192,94658,1,0,0:0:0:0:
109,192,94658,1,0,0:0:0:0:
182,192,94737,1,0,0:0:0:0:
329,192,94737,1,0,0:0:0:0:
36,192,94816,1,0,0:0:0:0:
475,192,94816,1,0,0:0:0:0:
402,192,94816,1,0,0:0:0:0:
109,192,94816,1,0,0:0:0:0:
256,192,94974,1,0,0:0:0:0:
475,192,95132,1,0,0:0:0:0:
182,192,95132,1,0,0:0:0:0:
109,192,95132,1,0,0:0:0:0:
402,192,95290,1,0,0:0:0:0:
182,192,95448,1,0,0:0:0:0:
109,192,95448,1,0,0:0:0:0:
475,192,95606,1,0,0:0:0:0:
329,192,95606,1,0,0:0:0:0:
256,192,95764,1,0,0:0:0:0:
36,192,95764,1,0,0:0:0:0:
402,192,95764,1,0,0:0:0:0:
109,192,95922,1,0,0:0:0:0:
182,192,95922,1,0,0:0:0:0:
329,192,95922,1,0,0:0:0:0:
475,192,95922,1,0,0:0:0:0:
256,192,96080,1,0,0:0:0:0:
402,192,96237,1,0,0:0:0:0:
329,192,96237,1,0,0:0:0:0:
256,192,96395,1,0,0:0:0:0:
36,192,96395,1,0,0:0:0:0:
475,192,96395,1,0,0:0:0:0:
182,192,96553,1,0,0:0:0:0:
256,192,96711,1,0,0:0:0:0:
402,192,96869,1,0,0:0:0:0:
329,192,96869,1,0,0:0:0:0:
475,192,97027,1,0,0:0:0:0:
182,192,97027,1,0,0:0:0:0:
109,192,97027,1,0,0:0:0:0:
402,192,97185,1,0,0:0:0:0:
256,192,97185,1,0,0:0:0:0:
109,192,97185,1,0,0:0:0:0:
36,192,97185,1,0,0:0:0:0:
329,192,97343,1,0,0:0:0:0:
256,192,97501,1,0,0:0:0:0:
182,192,97501,1,0,0:0:0:0:
475,192,97658,1,0,0:0:0:0:
402,192,97658,1,0,0:0:0:0:
36,192,97658,1,0,0:0:0:0:
109,192,97816,1,0,0:0:0:0:
329,192,97974,1,0,0:0:0:0:
402,192,97974,1,0,0:0:0:0:
182,192,97974,1,0,0:0:0:0:
109,192,98132,1,0,0:0:0:0:
182,192,98132,1,0,0:0:0:0:
36,192,98290,1,0,0:0:0:0:
256,192,98290,1,0,0:0:0:0:
402,192,98290,1,0,0:0:0:0:
475,192,98448,1,0,0:0:0:0:
329,192,98448,1,0,0:0:0:0:
256,192,98448,1,0,0:0:0:0:
182,192,98448,1,0,0:0:0:0:
36,192,98606,1,0,0:0:0:0:
402,192,98764,1,0,0:0:0:0:
475,192,98764,1,0,0:0:0:0:
256,192,98922,1,0,0:0:0:0:
109,192,98922,1,0,0:0:0:0:
36,192,98922,1,0,0:0:0:0:
329,192,99080,1,0,0:0:0:0:
256,192,99158,1,0,0:0:0:0:
109,192,99158,1,0,0:0:0:0:
475,192,99237,1,0,0:0:0:0:
402,192,99237,1,0,0:0:0:0:
329,192,99316,1,0,0:0:0:0:
182,192,99316,1,0,0:0:0:0:
109,192,99316,1,0,0:0:0:0:
402,192,99553,1,0,0:0:0:0:
109,192,99553,1,0,0:0:0:0:
182,192,99553,1,0,0:0:0:0:
329,192,99711,1,0,0:0:0:0:
256,192,99711,1,0,0:0:0:0:
36,192,99790,1,0,0:0:0:0:
475,192,99790,1,0,0:0:0:0:
402,192,99869,1,0,0:0:0:0:
329,192,99869,1,0,0:0:0:0:
182,192,99869,1,0,0:0:0:0:
109,192,99869,1,0,0:0:0:0:
182,192,100027,1,0,0:0:0:0:
402,192,100185,1,0,0:0:0:0:
256,192,100185,1,0,0:0:0:0:
109,192,100185,1,0,0:0:0:0:
329,192,100343,1,0,0:0:0:0:
475,192,100501,1,0,0:0:0:0:
402,192,100501,1,0,0:0:0:0:
256,192,100658,1,0,0:0:0:0:
182,192,100658,1,0,0:0:0:0:
36,192,100816,1,0,0:0:0:0:
109,192,100816,1,0,0:0:0:0:
402,192,100816,1,0,0:0:0:0:
329,192,100816,1,0,0:0:0:0:
475,192,100974,1,0,0:0:0:0:
329,192,100974,1,0,0:0:0:0:
182,192,100974,1,0,0:0:0:0:
109,192,100974,1,0,0:0:0:0:
402,192,101132,1,0,0:0:0:0:
329,192,101290,1,0,0:0:0:0:
256,192,101290,1,0,0:0:0:0:
182,192,101448,1,0,0:0:0:0:
36,192,101448,1,0,0:0:0:0:
402,192,101448,1,0,0:0:0:0:
329,192,101606,1,0,0:0:0:0:
402,192,101606,1,0,0:0:0:0:
256,192,101685,1,0,0:0:0:0:
109,192,101685,1,0,0:0:0:0:
475,192,101685,1,0,0:0:0:0:
402,192,101764,1,0,0:0:0:0:
329,192,101764,1,0,0:0:0:0:
256,192,101922,1,0,0:0:0:0:
36,192,101922,1,0,0:0:0:0:
109,192,102001,1,0,0:0:0:0:
329,192,102001,1,0,0:0:0:0:
182,192,102080,1,0,0:0:0:0:
402,192,102080,1,0,0:0:0:0:
109,192,102158,1,0,0:0:0:0:
475,192,102158,1,0,0:0:0:0:
402,192,102237,1,0,0:0:0:0:
182,192,102237,1,0,0:0:0:0:
329,192,102316,5,0,0:0:0:0:
256,192,102316,1,0,0:0:0:0:
36,192,102395,5,0,0:0:0:0:
182,192,102395,1,0,0:0:0:0:
402,192,102395,1,0,0:0:0:0:
475,192,102395,1,0,0:0:0:0:
402,192,102553,1,0,0:0:0:0:
475,192,102553,1,0,0:0:0:0:
182,192,102553,1,0,0:0:0:0:
256,192,102869,1,0,0:0:0:0:
182,192,102869,1,0,0:0:0:0:
36,192,102948,1,0,0:0:0:0:
109,192,102948,1,0,0:0:0:0:
402,192,103027,1,0,0:0:0:0:
182,192,103027,1,0,0:0:0:0:
329,192,103027,1,0,0:0:0:0:
475,192,103185,1,0,0:0:0:0:
402,192,103185,1,0,0:0:0:0:
182,192,103343,1,0,0:0:0:0:
402,192,103501,5,0,0:0:0:0:
256,192,103501,1,0,0:0:0:0:
109,192,103501,1,0,0:0:0:0:
36,192,103501,1,0,0:0:0:0:
182,192,103658,1,0,0:0:0:0:
256,192,103816,1,0,0:0:0:0:
329,192,103816,1,0,0:0:0:0:
182,192,103974,1,0,0:0:0:0:
36,192,103974,1,0,0:0:0:0:
109,192,103974,1,0,0:0:0:0:
329,192,104132,1,0,0:0:0:0:
256,192,104290,5,0,0:0:0:0:
475,192,104290,1,0,0:0:0:0:
402,192,104290,1,0,0:0:0:0:
182,192,104310,1,0,0:0:0:0:
109,192,104330,1,0,0:0:0:0:
36,192,104349,1,0,0:0:0:0:
329,192,104408,1,0,0:0:0:0:
402,192,104448,1,0,0:0:0:0:
475,192,104487,1,0,0:0:0:0:
329,192,104527,1,0,0:0:0:0:
256,192,104566,1,0,0:0:0:0:
182,192,104606,1,0,0:0:0:0:
109,192,104645,1,0,0:0:0:0:
36,192,104685,1,0,0:0:0:0:
256,192,104764,1,0,0:0:0:0:
182,192,104843,1,0,0:0:0:0:
402,192,104922,1,0,0:0:0:0:
329,192,104922,1,0,0:0:0:0:
475,192,104922,1,0,0:0:0:0:
109,192,104922,1,0,0:0:0:0:
256,192,105080,1,0,0:0:0:0:
402,192,105237,1,0,0:0:0:0:
329,192,105237,1,0,0:0:0:0:
182,192,105237,1,0,0:0:0:0:
475,192,105395,1,0,0:0:0:0:
182,192,105553,1,0,0:0:0:0:
109,192,105553,1,0,0:0:0:0:
329,192,105711,1,0,0:0:0:0:
402,192,105711,1,0,0:0:0:0:
256,192,105869,1,0,0:0:0:0:
36,192,105869,1,0,0:0:0:0:
182,192,105869,1,0,0:0:0:0:
475,192,106027,1,0,0:0:0:0:
402,192,106027,1,0,0:0:0:0:
329,192,106027,1,0,0:0:0:0:
109,192,106027,1,0,0:0:0:0:
182,192,106185,1,0,0:0:0:0:
256,192,106343,1,0,0:0:0:0:
329,192,106343,1,0,0:0:0:0:
329,192,106501,1,0,0:0:0:0:
182,192,106501,1,0,0:0:0:0:
36,192,106501,1,0,0:0:0:0:
475,192,106658,1,0,0:0:0:0:
402,192,106658,1,0,0:0:0:0:
182,192,106737,1,0,0:0:0:0:
109,192,106737,1,0,0:0:0:0:
256,192,106737,1,0,0:0:0:0:
329,192,106816,1,0,0:0:0:0:
402,192,106816,1,0,0:0:0:0:
256,192,106974,1,0,0:0:0:0:
182,192,106974,1,0,0:0:0:0:
475,192,107132,1,0,0:0:0:0:
402,192,107132,1,0,0:0:0:0:
109,192,107132,1,0,0:0:0:0:
475,192,107290,1,0,0:0:0:0:
329,192,107290,1,0,0:0:0:0:
182,192,107290,1,0,0:0:0:0:
36,192,107290,1,0,0:0:0:0:
256,192,107448,1,0,0:0:0:0:
475,192,107606,1,0,0:0:0:0:
402,192,107606,1,0,0:0:0:0:
256,192,107764,1,0,0:0:0:0:
109,192,107764,1,0,0:0:0:0:
36,192,107764,1,0,0:0:0:0:
329,192,107922,1,0,0:0:0:0:
256,192,108080,1,0,0:0:0:0:
182,192,108080,1,0,0:0:0:0:
475,192,108080,1,0,0:0:0:0:
402,192,108237,1,0,0:0:0:0:
329,192,108237,1,0,0:0:0:0:
256,192,108395,1,0,0:0:0:0:
109,192,108395,1,0,0:0:0:0:
36,192,108395,1,0,0:0:0:0:
475,192,108553,1,0,0:0:0:0:
402,192,108553,1,0,0:0:0:0:
256,192,108553,1,0,0:0:0:0:
182,192,108553,1,0,0:0:0:0:
329,192,108711,1,0,0:0:0:0:
182,192,108869,1,0,0:0:0:0:
109,192,108869,1,0,0:0:0:0:
475,192,109027,1,0,0:0:0:0:
329,192,109027,1,0,0:0:0:0:
36,192,109027,1,0,0:0:0:0:
256,192,109185,1,0,0:0:0:0:
329,192,109264,1,0,0:0:0:0:
402,192,109264,1,0,0:0:0:0:
109,192,109264,1,0,0:0:0:0:
182,192,109343,1,0,0:0:0:0:
256,192,109343,1,0,0:0:0:0:
475,192,109422,1,0,0:0:0:0:
36,192,109422,1,0,0:0:0:0:
402,192,109422,1,0,0:0:0:0:
109,192,109501,1,0,0:0:0:0:
475,192,109658,1,0,0:0:0:0:
182,192,109658,1,0,0:0:0:0:
36,192,109658,1,0,0:0:0:0:
256,192,109816,1,0,0:0:0:0:
402,192,109816,1,0,0:0:0:0:
402,192,109974,1,0,0:0:0:0:
329,192,109974,1,0,0:0:0:0:
182,192,109974,1,0,0:0:0:0:
109,192,109974,1,0,0:0:0:0:
182,192,110132,1,0,0:0:0:0:
109,192,110132,1,0,0:0:0:0:
402,192,110290,1,0,0:0:0:0:
329,192,110448,1,0,0:0:0:0:
256,192,110448,1,0,0:0:0:0:
36,192,110527,1,0,0:0:0:0:
109,192,110527,1,0,0:0:0:0:
475,192,110606,1,0,0:0:0:0:
402,192,110606,1,0,0:0:0:0:
256,192,110606,1,0,0:0:0:0:
182,192,110764,1,0,0:0:0:0:
109,192,110764,1,0,0:0:0:0:
36,192,110922,1,0,0:0:0:0:
402,192,111080,1,0,0:0:0:0:
109,192,111080,1,0,0:0:0:0:
475,192,111080,1,0,0:0:0:0:
256,192,111080,1,0,0:0:0:0:
329,192,111237,1,0,0:0:0:0:
256,192,111395,1,0,0:0:0:0:
36,192,111395,1,0,0:0:0:0:
402,192,111553,1,0,0:0:0:0:
329,192,111553,1,0,0:0:0:0:
182,192,111553,1,0,0:0:0:0:
475,192,111711,1,0,0:0:0:0:
402,192,111711,1,0,0:0:0:0:
329,192,111869,1,0,0:0:0:0:
256,192,111869,1,0,0:0:0:0:
109,192,111869,1,0,0:0:0:0:
402,192,112027,1,0,0:0:0:0:
475,192,112027,1,0,0:0:0:0:
256,192,112185,1,0,0:0:0:0:
182,192,112185,1,0,0:0:0:0:
36,192,112185,1,0,0:0:0:0:
329,192,112343,1,0,0:0:0:0:
475,192,112343,1,0,0:0:0:0:
402,192,112501,1,0,0:0:0:0:
256,192,112501,1,0,0:0:0:0:
36,192,112501,1,0,0:0:0:0:
182,192,112501,1,0,0:0:0:0:
402,192,112658,1,0,0:0:0:0:
329,192,112816,1,0,0:0:0:0:
256,192,112816,1,0,0:0:0:0:
329,192,113132,1,0,0:0:0:0:
256,192,113132,1,0,0:0:0:0:
329,192,113448,1,0,0:0:0:0:
256,192,113448,1,0,0:0:0:0:
329,192,113606,1,0,0:0:0:0:
182,192,113764,1,0,0:0:0:0:
109,192,113764,1,0,0:0:0:0:
182,192,114080,1,0,0:0:0:0:
109,192,114080,1,0,0:0:0:0:
182,192,114395,1,0,0:0:0:0:
109,192,114395,1,0,0:0:0:0:
182,192,114711,1,0,0:0:0:0:
109,192,114711,1,0,0:0:0:0:
182,192,115027,1,0,0:0:0:0:
109,192,115027,1,0,0:0:0:0:
182,192,115185,1,0,0:0:0:0:
475,192,115343,1,0,0:0:0:0:
402,192,115343,1,0,0:0:0:0:
402,192,115658,1,0,0:0:0:0:
475,192,115658,1,0,0:0:0:0:
402,192,115974,1,0,0:0:0:0:
475,192,115974,1,0,0:0:0:0:
402,192,116132,1,0,0:0:0:0:
36,192,116290,1,0,0:0:0:0:
256,192,116290,1,0,0:0:0:0:
256,192,116606,1,0,0:0:0:0:
36,192,116606,1,0,0:0:0:0:
256,192,116922,1,0,0:0:0:0:
36,192,116922,1,0,0:0:0:0:
256,192,117237,1,0,0:0:0:0:
36,192,117237,1,0,0:0:0:0:
256,192,117553,1,0,0:0:0:0:
36,192,117553,1,0,0:0:0:0:
36,192,117711,1,0,0:0:0:0:
182,192,117869,1,0,0:0:0:0:
402,192,117869,1,0,0:0:0:0:
256,192,118027,1,0,0:0:0:0:
402,192,118185,1,0,0:0:0:0:
182,192,118185,1,0,0:0:0:0:
256,192,118343,1,0,0:0:0:0:
182,192,118501,1,0,0:0:0:0:
402,192,118501,1,0,0:0:0:0:
256,192,118658,1,0,0:0:0:0:
402,192,118658,1,0,0:0:0:0:
475,192,118816,1,0,0:0:0:0:
36,192,118816,1,0,0:0:0:0:
329,192,118974,1,0,0:0:0:0:
182,192,118974,1,0,0:0:0:0:
475,192,119132,1,0,0:0:0:0:
36,192,119132,1,0,0:0:0:0:
182,192,119290,1,0,0:0:0:0:
329,192,119290,1,0,0:0:0:0:
475,192,119448,1,0,0:0:0:0:
36,192,119448,1,0,0:0:0:0:
329,192,119606,1,0,0:0:0:0:
182,192,119606,1,0,0:0:0:0:
475,192,119764,1,0,0:0:0:0:
36,192,119764,1,0,0:0:0:0:
182,192,119922,1,0,0:0:0:0:
329,192,119922,1,0,0:0:0:0:
475,192,120080,1,0,0:0:0:0:
36,192,120080,1,0,0:0:0:0:
36,192,120237,1,0,0:0:0:0:
256,192,120395,1,0,0:0:0:0:
475,192,120395,1,0,0:0:0:0:
402,192,120553,1,0,0:0:0:0:
109,192,120553,1,0,0:0:0:0:
256,192,120711,1,0,0:0:0:0:
475,192,120711,1,0,0:0:0:0:
109,192,120869,1,0,0:0:0:0:
402,192,120869,1,0,0:0:0:0:
475,192,121027,1,0,0:0:0:0:
256,192,121027,1,0,0:0:0:0:
109,192,121185,1,0,0:0:0:0:
402,192,121185,1,0,0:0:0:0:
475,192,121185,1,0,0:0:0:0:
256,192,121343,1,0,0:0:0:0:
36,192,121343,1,0,0:0:0:0:
109,192,121501,1,0,0:0:0:0:
402,192,121501,1,0,0:0:0:0:
256,192,121658,1,0,0:0:0:0:
475,192,121658,1,0,0:0:0:0:
36,192,121658,1,0,0:0:0:0:
109,192,121816,1,0,0:0:0:0:
402,192,121816,1,0,0:0:0:0:
36,192,121974,1,0,0:0:0:0:
256,192,121974,1,0,0:0:0:0:
109,192,122053,1,0,0:0:0:0:
329,192,122053,1,0,0:0:0:0:
402,192,122132,1,0,0:0:0:0:
182,192,122132,1,0,0:0:0:0:
256,192,122211,1,0,0:0:0:0:
475,192,122211,1,0,0:0:0:0:
36,192,122290,1,0,0:0:0:0:
329,192,122290,1,0,0:0:0:0:
109,192,122290,1,0,0:0:0:0:
256,192,122369,1,0,0:0:0:0:
329,192,122448,1,0,0:0:0:0:
256,192,122527,1,0,0:0:0:0:
329,192,122606,1,0,0:0:0:0:
475,192,122606,1,0,0:0:0:0:
109,192,122606,1,0,0:0:0:0:
36,192,122606,1,0,0:0:0:0:
256,192,122764,1,0,0:0:0:0:
182,192,122764,1,0,0:0:0:0:
402,192,123080,1,0,0:0:0:0:
329,192,123080,1,0,0:0:0:0:
36,192,123158,1,0,0:0:0:0:
109,192,123158,1,0,0:0:0:0:
475,192,123237,1,0,0:0:0:0:
256,192,123237,1,0,0:0:0:0:
182,192,123237,1,0,0:0:0:0:
256,192,123395,1,0,0:0:0:0:
475,192,123395,1,0,0:0:0:0:
182,192,123395,1,0,0:0:0:0:
182,192,123711,1,0,0:0:0:0:
109,192,123711,1,0,0:0:0:0:
475,192,123869,1,0,0:0:0:0:
182,192,124027,1,0,0:0:0:0:
329,192,124027,1,0,0:0:0:0:
256,192,124106,1,0,0:0:0:0:
402,192,124106,1,0,0:0:0:0:
109,192,124343,1,0,0:0:0:0:
36,192,124343,1,0,0:0:0:0:
402,192,124501,1,0,0:0:0:0:
329,192,124501,1,0,0:0:0:0:
182,192,124501,1,0,0:0:0:0:
475,192,124658,1,0,0:0:0:0:
402,192,124658,1,0,0:0:0:0:
36,192,124816,1,0,0:0:0:0:
36,192,124974,1,0,0:0:0:0:
256,192,125132,1,0,0:0:0:0:
182,192,125132,1,0,0:0:0:0:
475,192,125132,1,0,0:0:0:0:
402,192,125290,1,0,0:0:0:0:
329,192,125290,1,0,0:0:0:0:
182,192,125606,1,0,0:0:0:0:
256,192,125606,1,0,0:0:0:0:
329,192,125685,1,0,0:0:0:0:
109,192,125685,1,0,0:0:0:0:
475,192,125764,1,0,0:0:0:0:
402,192,125764,1,0,0:0:0:0:
36,192,125764,1,0,0:0:0:0:
329,192,125922,1,0,0:0:0:0:
256,192,125922,1,0,0:0:0:0:
182,192,126237,1,0,0:0:0:0:
109,192,126237,1,0,0:0:0:0:
475,192,126395,1,0,0:0:0:0:
109,192,126553,1,0,0:0:0:0:
36,192,126553,1,0,0:0:0:0:
182,192,126632,1,0,0:0:0:0:
256,192,126632,1,0,0:0:0:0:
329,192,126869,1,0,0:0:0:0:
256,192,126869,1,0,0:0:0:0:
475,192,127027,1,0,0:0:0:0:
182,192,127027,1,0,0:0:0:0:
109,192,127027,1,0,0:0:0:0:
329,192,127185,1,0,0:0:0:0:
256,192,127185,1,0,0:0:0:0:
182,192,127264,1,0,0:0:0:0:
402,192,127264,1,0,0:0:0:0:
329,192,127343,1,0,0:0:0:0:
475,192,127343,1,0,0:0:0:0:
109,192,127343,1,0,0:0:0:0:
182,192,127422,1,0,0:0:0:0:
256,192,127501,1,0,0:0:0:0:
109,192,127501,1,0,0:0:0:0:
329,192,127580,1,0,0:0:0:0:
182,192,127580,1,0,0:0:0:0:
475,192,127658,1,0,0:0:0:0:
402,192,127658,1,0,0:0:0:0:
36,192,127658,1,0,0:0:0:0:
256,192,127658,1,0,0:0:0:0:
402,192,127816,1,0,0:0:0:0:
475,192,127816,1,0,0:0:0:0:
329,192,128132,1,0,0:0:0:0:
256,192,128132,1,0,0:0:0:0:
182,192,128211,1,0,0:0:0:0:
109,192,128211,1,0,0:0:0:0:
475,192,128290,1,0,0:0:0:0:
36,192,128290,1,0,0:0:0:0:
329,192,128290,1,0,0:0:0:0:
182,192,128448,1,0,0:0:0:0:
256,192,128448,1,0,0:0:0:0:
402,192,128764,1,0,0:0:0:0:
329,192,128764,1,0,0:0:0:0:
475,192,128922,1,0,0:0:0:0:
256,192,129080,1,0,0:0:0:0:
182,192,129080,1,0,0:0:0:0:
109,192,129158,1,0,0:0:0:0:
402,192,129158,1,0,0:0:0:0:
256,192,129395,1,0,0:0:0:0:
329,192,129395,1,0,0:0:0:0:
475,192,129553,1,0,0:0:0:0:
256,192,129553,1,0,0:0:0:0:
36,192,129553,1,0,0:0:0:0:
109,192,129711,1,0,0:0:0:0:
182,192,129711,1,0,0:0:0:0:
475,192,129869,1,0,0:0:0:0:
475,192,130027,1,0,0:0:0:0:
402,192,130185,1,0,0:0:0:0:
329,192,130185,1,0,0:0:0:0:
109,192,130264,1,0,0:0:0:0:
182,192,130264,1,0,0:0:0:0:
329,192,130343,1,0,0:0:0:0:
402,192,130343,1,0,0:0:0:0:
182,192,130422,1,0,0:0:0:0:
109,192,130422,1,0,0:0:0:0:
475,192,130501,1,0,0:0:0:0:
402,192,130501,1,0,0:0:0:0:
36,192,130580,1,0,0:0:0:0:
109,192,130580,1,0,0:0:0:0:
402,192,130658,1,0,0:0:0:0:
475,192,130658,1,0,0:0:0:0:
109,192,130737,1,0,0:0:0:0:
36,192,130737,1,0,0:0:0:0:
182,192,130816,1,0,0:0:0:0:
329,192,130816,1,0,0:0:0:0:
402,192,130816,1,0,0:0:0:0:
256,192,130816,1,0,0:0:0:0:
475,192,130974,1,0,0:0:0:0:
402,192,130974,1,0,0:0:0:0:
329,192,131132,1,0,0:0:0:0:
256,192,131132,1,0,0:0:0:0:
182,192,131132,1,0,0:0:0:0:
109,192,131290,1,0,0:0:0:0:
36,192,131290,1,0,0:0:0:0:
402,192,131448,1,0,0:0:0:0:
329,192,131606,1,0,0:0:0:0:
256,192,131606,1,0,0:0:0:0:
109,192,131685,1,0,0:0:0:0:
182,192,131685,1,0,0:0:0:0:
475,192,131764,1,0,0:0:0:0:
402,192,131764,1,0,0:0:0:0:
329,192,131764,1,0,0:0:0:0:
36,192,131922,1,0,0:0:0:0:
256,192,131922,1,0,0:0:0:0:
109,192,132001,1,0,0:0:0:0:
329,192,132001,1,0,0:0:0:0:
402,192,132080,1,0,0:0:0:0:
475,192,132080,1,0,0:0:0:0:
182,192,132080,1,0,0:0:0:0:
329,192,132237,1,0,0:0:0:0:
36,192,132237,1,0,0:0:0:0:
109,192,132316,1,0,0:0:0:0:
256,192,132316,1,0,0:0:0:0:
182,192,132395,1,0,0:0:0:0:
402,192,132395,1,0,0:0:0:0:
475,192,132395,1,0,0:0:0:0:
329,192,132474,1,0,0:0:0:0:
256,192,132553,1,0,0:0:0:0:
329,192,132632,1,0,0:0:0:0:
182,192,132711,1,0,0:0:0:0:
109,192,132711,1,0,0:0:0:0:
475,192,132711,1,0,0:0:0:0:
36,192,132711,1,0,0:0:0:0:
256,192,132790,1,0,0:0:0:0:
329,192,132869,1,0,0:0:0:0:
402,192,132948,1,0,0:0:0:0:
475,192,133027,1,0,0:0:0:0:
182,192,133027,1,0,0:0:0:0:
36,192,133027,1,0,0:0:0:0:
256,192,133106,1,0,0:0:0:0:
329,192,133185,1,0,0:0:0:0:
402,192,133264,1,0,0:0:0:0:
475,192,133343,1,0,0:0:0:0:
109,192,133343,1,0,0:0:0:0:
402,192,133422,1,0,0:0:0:0:
475,192,133501,1,0,0:0:0:0:
109,192,133501,1,0,0:0:0:0:
329,192,133580,1,0,0:0:0:0:
256,192,133619,1,0,0:0:0:0:
182,192,133658,1,0,0:0:0:0:
36,192,133658,1,0,0:0:0:0:
475,192,133737,1,0,0:0:0:0:
402,192,133777,1,0,0:0:0:0:
329,192,133816,1,0,0:0:0:0:
256,192,133856,1,0,0:0:0:0:
182,192,133895,1,0,0:0:0:0:
109,192,133935,1,0,0:0:0:0:
36,192,133974,1,0,0:0:0:0:
402,192,133974,1,0,0:0:0:0:
329,192,134132,1,0,0:0:0:0:
402,192,134211,1,0,0:0:0:0:
475,192,134290,1,0,0:0:0:0:
329,192,134448,1,0,0:0:0:0:
182,192,134606,1,0,0:0:0:0:
36,192,134764,1,0,0:0:0:0:
109,192,134803,1,0,0:0:0:0:
182,192,134843,1,0,0:0:0:0:
256,192,134882,1,0,0:0:0:0:
329,192,134922,1,0,0:0:0:0:
402,192,134961,1,0,0:0:0:0:
475,192,135001,1,0,0:0:0:0:
402,192,135040,1,0,0:0:0:0:
329,192,135080,1,0,0:0:0:0:
256,192,135119,1,0,0:0:0:0:
182,192,135158,1,0,0:0:0:0:
109,192,135198,1,0,0:0:0:0:
36,192,135237,1,0,0:0:0:0:
402,192,135376,1,0,0:0:0:0:
329,192,135395,1,0,0:0:0:0:
182,192,135553,1,0,0:0:0:0:
256,192,135632,1,0,0:0:0:0:
402,192,135790,1,0,0:0:0:0:
329,192,135948,1,0,0:0:0:0:
109,192,136106,1,0,0:0:0:0:
182,192,136264,1,0,0:0:0:0:
256,192,136343,1,0,0:0:0:0:
329,192,136422,1,0,0:0:0:0:
402,192,136501,1,0,0:0:0:0:
475,192,136501,1,0,0:0:0:0:
182,192,136698,1,0,0:0:0:0:
329,192,136737,1,0,0:0:0:0:
256,192,136737,1,0,0:0:0:0:
109,192,136935,1,0,0:0:0:0:
182,192,136974,1,0,0:0:0:0:
256,192,136974,1,0,0:0:0:0:
475,192,137211,1,0,0:0:0:0:
402,192,137211,1,0,0:0:0:0:
329,192,137290,1,0,0:0:0:0:
256,192,137290,1,0,0:0:0:0:
182,192,137606,1,0,0:0:0:0:
109,192,137606,1,0,0:0:0:0:
329,192,137685,1,0,0:0:0:0:
402,192,137685,1,0,0:0:0:0:
256,192,138060,1,0,0:0:0:0:
182,192,138080,1,0,0:0:0:0:
475,192,138237,1,0,0:0:0:0:
329,192,138316,1,0,0:0:0:0:
256,192,138474,1,0,0:0:0:0:
36,192,138533,1,0,0:0:0:0:
109,192,138553,1,0,0:0:0:0:
329,192,138632,1,0,0:0:0:0:
475,192,138711,1,0,0:0:0:0:
256,192,138869,1,0,0:0:0:0:
109,192,138948,1,0,0:0:0:0:
329,192,139027,1,0,0:0:0:0:
475,192,139027,1,0,0:0:0:0:
256,192,139185,1,0,0:0:0:0:
329,192,139264,1,0,0:0:0:0:
182,192,139264,1,0,0:0:0:0:
109,192,139501,1,0,0:0:0:0:
36,192,139501,1,0,0:0:0:0:
329,192,139658,1,0,0:0:0:0:
256,192,139764,1,0,0:0:0:0:
182,192,139869,1,0,0:0:0:0:
256,192,139974,1,0,0:0:0:0:
329,192,140080,1,0,0:0:0:0:
402,192,140185,1,0,0:0:0:0:
475,192,140290,1,0,0:0:0:0:
109,192,140290,1,0,0:0:0:0:
182,192,140665,1,0,0:0:0:0:
109,192,140685,1,0,0:0:0:0:
36,192,140705,1,0,0:0:0:0:
475,192,140724,1,0,0:0:0:0:
402,192,140744,1,0,0:0:0:0:
329,192,140764,1,0,0:0:0:0:
256,192,140764,1,0,0:0:0:0:
182,192,141080,1,0,0:0:0:0:
329,192,141356,1,0,0:0:0:0:
402,192,141376,1,0,0:0:0:0:
475,192,141395,1,0,0:0:0:0:
182,192,141435,1,0,0:0:0:0:
256,192,141474,1,0,0:0:0:0:
329,192,141514,1,0,0:0:0:0:
36,192,141553,1,0,0:0:0:0:
109,192,141593,1,0,0:0:0:0:
182,192,141632,1,0,0:0:0:0:
402,192,141672,1,0,0:0:0:0:
329,192,141711,1,0,0:0:0:0:
256,192,141751,1,0,0:0:0:0:
182,192,141790,1,0,0:0:0:0:
36,192,141830,1,0,0:0:0:0:
109,192,141869,1,0,0:0:0:0:
182,192,141908,1,0,0:0:0:0:
256,192,141948,1,0,0:0:0:0:
329,192,141987,1,0,0:0:0:0:
402,192,142027,1,0,0:0:0:0:
36,192,142066,1,0,0:0:0:0:
109,192,142106,1,0,0:0:0:0:
182,192,142145,1,0,0:0:0:0:
402,192,142185,1,0,0:0:0:0:
329,192,142224,1,0,0:0:0:0:
256,192,142264,1,0,0:0:0:0:
182,192,142303,1,0,0:0:0:0:
109,192,142343,1,0,0:0:0:0:
475,192,142382,1,0,0:0:0:0:
402,192,142422,1,0,0:0:0:0:
329,192,142461,1,0,0:0:0:0:
109,192,142501,1,0,0:0:0:0:
182,192,142540,1,0,0:0:0:0:
256,192,142580,1,0,0:0:0:0:
329,192,142619,1,0,0:0:0:0:
36,192,142658,1,0,0:0:0:0:
109,192,142698,1,0,0:0:0:0:
182,192,142737,1,0,0:0:0:0:
256,192,142777,1,0,0:0:0:0:
329,192,142816,1,0,0:0:0:0:
402,192,142816,1,0,0:0:0:0:
475,192,142816,1,0,0:0:0:0:
329,192,143251,1,0,0:0:0:0:
256,192,143290,1,0,0:0:0:0:
182,192,143290,1,0,0:0:0:0:
182,192,143606,1,0,0:0:0:0:
109,192,143764,1,0,0:0:0:0:
36,192,143764,1,0,0:0:0:0:
402,192,144237,1,0,0:0:0:0:
256,192,144237,1,0,0:0:0:0:
402,192,144237,1,0,0:0:0:0:
475,192,144237,1,0,0:0:0:0:
329,192,144711,1,0,0:0:0:0:
182,192,144711,1,0,0:0:0:0:
109,192,144711,1,0,0:0:0:0:
475,192,144869,1,0,0:0:0:0:
256,192,144869,1,0,0:0:0:0:
402,192,144869,1,0,0:0:0:0:
329,192,145185,1,0,0:0:0:0:
182,192,145185,1,0,0:0:0:0:
36,192,145185,1,0,0:0:0:0:
109,192,145448,1,0,0:0:0:0:
182,192,145553,1,0,0:0:0:0:
256,192,145658,1,0,0:0:0:0:
182,192,145764,1,0,0:0:0:0:
36,192,145869,1,0,0:0:0:0:
109,192,145974,1,0,0:0:0:0:
182,192,146080,1,0,0:0:0:0:
256,192,146185,1,0,0:0:0:0:
329,192,146290,1,0,0:0:0:0:
182,192,146395,1,0,0:0:0:0:
402,192,146501,1,0,0:0:0:0:
475,192,146606,1,0,0:0:0:0:
402,192,146685,1,0,0:0:0:0:
329,192,146764,1,0,0:0:0:0:
402,192,146843,1,0,0:0:0:0:
256,192,146922,1,0,0:0:0:0:
329,192,147001,1,0,0:0:0:0:
182,192,147080,1,0,0:0:0:0:
256,192,147158,1,0,0:0:0:0:
182,192,147237,1,0,0:0:0:0:
109,192,147316,1,0,0:0:0:0:
256,192,147395,1,0,0:0:0:0:
36,192,147395,1,0,0:0:0:0:
329,192,147395,1,0,0:0:0:0:
475,192,147711,1,0,0:0:0:0:
109,192,147948,1,0,0:0:0:0:
36,192,147948,1,0,0:0:0:0:
256,192,148106,1,0,0:0:0:0:
182,192,148185,1,0,0:0:0:0:
36,192,148185,1,0,0:0:0:0:
109,192,148422,1,0,0:0:0:0:
182,192,148422,1,0,0:0:0:0:
256,192,148658,1,0,0:0:0:0:
182,192,148658,1,0,0:0:0:0:
256,192,148895,1,0,0:0:0:0:
402,192,148895,1,0,0:0:0:0:
475,192,149132,1,0,0:0:0:0:
402,192,149132,1,0,0:0:0:0:
182,192,149369,1,0,0:0:0:0:
329,192,149369,1,0,0:0:0:0:
256,192,149685,1,0,0:0:0:0:
182,192,149724,1,0,0:0:0:0:
402,192,149764,1,0,0:0:0:0:
109,192,149764,1,0,0:0:0:0:
329,192,149922,1,0,0:0:0:0:
182,192,150080,1,0,0:0:0:0:
475,192,150080,1,0,0:0:0:0:
402,192,150132,1,0,0:0:0:0:
329,192,150185,1,0,0:0:0:0:
36,192,150237,1,0,0:0:0:0:
109,192,150290,1,0,0:0:0:0:
182,192,150343,1,0,0:0:0:0:
475,192,150395,1,0,0:0:0:0:
256,192,150395,1,0,0:0:0:0:
256,192,150764,1,0,0:0:0:0:
329,192,150816,1,0,0:0:0:0:
402,192,150869,1,0,0:0:0:0:
475,192,150922,1,0,0:0:0:0:
109,192,150974,1,0,0:0:0:0:
182,192,151027,1,0,0:0:0:0:
256,192,151080,1,0,0:0:0:0:
329,192,151132,1,0,0:0:0:0:
402,192,151185,1,0,0:0:0:0:
36,192,151185,1,0,0:0:0:0:
182,192,151185,1,0,0:0:0:0:
256,192,151501,1,0,0:0:0:0:
182,192,151658,1,0,0:0:0:0:
109,192,151856,1,0,0:0:0:0:
36,192,152053,1,0,0:0:0:0:
182,192,152290,1,0,0:0:0:0:
402,192,152290,1,0,0:0:0:0:
109,192,152369,1,0,0:0:0:0:
182,192,152448,1,0,0:0:0:0:
256,192,152527,1,0,0:0:0:0:
329,192,152527,1,0,0:0:0:0:
182,192,152606,1,0,0:0:0:0:
109,192,152685,1,0,0:0:0:0:
475,192,152764,1,0,0:0:0:0:
36,192,152764,1,0,0:0:0:0:
402,192,152803,1,0,0:0:0:0:
329,192,152843,1,0,0:0:0:0:
256,192,152882,1,0,0:0:0:0:
182,192,152922,1,0,0:0:0:0:
109,192,152922,1,0,0:0:0:0:
475,192,153395,1,0,0:0:0:0:
256,192,153395,1,0,0:0:0:0:
182,192,153869,1,0,0:0:0:0:
256,192,154343,1,0,0:0:0:0:
182,192,154658,1,0,0:0:0:0:
36,192,154816,1,0,0:0:0:0:
402,192,154816,1,0,0:0:0:0:
256,192,154974,1,0,0:0:0:0:
402,192,155290,1,0,0:0:0:0:
256,192,155290,1,0,0:0:0:0:
182,192,155290,1,0,0:0:0:0:
329,192,155606,1,0,0:0:0:0:
182,192,155764,1,0,0:0:0:0:
256,192,155922,1,0,0:0:0:0:
402,192,156237,1,0,0:0:0:0:
36,192,156553,1,0,0:0:0:0:
182,192,156869,1,0,0:0:0:0:
402,192,157027,1,0,0:0:0:0:
256,192,157027,1,0,0:0:0:0:
475,192,157027,1,0,0:0:0:0:
109,192,157185,1,0,0:0:0:0:
329,192,157501,1,0,0:0:0:0:
256,192,157658,1,0,0:0:0:0:
402,192,157816,1,0,0:0:0:0:
329,192,157935,1,0,0:0:0:0:
256,192,157955,1,0,0:0:0:0:
475,192,157974,1,0,0:0:0:0:
182,192,157974,1,0,0:0:0:0:
329,192,158290,1,0,0:0:0:0:
402,192,158448,1,0,0:0:0:0:
36,192,158448,1,0,0:0:0:0:
109,192,158764,1,0,0:0:0:0:
182,192,159080,1,0,0:0:0:0:
475,192,159080,1,0,0:0:0:0:
256,192,159395,1,0,0:0:0:0:
182,192,159553,1,0,0:0:0:0:
329,192,159711,1,0,0:0:0:0:
36,192,160027,1,0,0:0:0:0:
182,192,160343,1,0,0:0:0:0:
329,192,160461,1,0,0:0:0:0:
256,192,160481,1,0,0:0:0:0:
182,192,160501,1,0,0:0:0:0:
36,192,160501,1,0,0:0:0:0:
109,192,160658,1,0,0:0:0:0:
36,192,160816,1,0,0:0:0:0:
256,192,160935,1,0,0:0:0:0:
329,192,160955,1,0,0:0:0:0:
402,192,160974,1,0,0:0:0:0:
109,192,160974,1,0,0:0:0:0:
182,192,161408,1,0,0:0:0:0:
109,192,161428,1,0,0:0:0:0:
36,192,161448,1,0,0:0:0:0:
475,192,161448,1,0,0:0:0:0:
256,192,161606,1,0,0:0:0:0:
329,192,161764,1,0,0:0:0:0:
109,192,161922,1,0,0:0:0:0:
182,192,162080,1,0,0:0:0:0:
36,192,162237,1,0,0:0:0:0:
402,192,162376,1,0,0:0:0:0:
475,192,162395,1,0,0:0:0:0:
329,192,162501,1,0,0:0:0:0:
256,192,162606,1,0,0:0:0:0:
182,192,162711,1,0,0:0:0:0:
109,192,162816,1,0,0:0:0:0:
182,192,162922,1,0,0:0:0:0:
36,192,163027,1,0,0:0:0:0:
402,192,163027,1,0,0:0:0:0:
329,192,163027,1,0,0:0:0:0:
256,192,163343,1,0,0:0:0:0:
475,192,163343,1,0,0:0:0:0:
182,192,163501,1,0,0:0:0:0:
329,192,163501,1,0,0:0:0:0:
402,192,163658,1,0,0:0:0:0:
109,192,163658,1,0,0:0:0:0:
256,192,163974,1,0,0:0:0:0:
36,192,163974,1,0,0:0:0:0:
329,192,164132,1,0,0:0:0:0:
256,192,164290,1,0,0:0:0:0:
182,192,164290,1,0,0:0:0:0:
109,192,164448,1,0,0:0:0:0:
36,192,164448,1,0,0:0:0:0:
402,192,164606,1,0,0:0:0:0:
256,192,164606,1,0,0:0:0:0:
329,192,164764,1,0,0:0:0:0:
475,192,164922,1,0,0:0:0:0:
402,192,164922,1,0,0:0:0:0:
329,192,165080,1,0,0:0:0:0:
256,192,165080,1,0,0:0:0:0:
182,192,165237,1,0,0:0:0:0:
256,192,165395,1,0,0:0:0:0:
36,192,165395,1,0,0:0:0:0:
329,192,165448,1,0,0:0:0:0:
402,192,165501,1,0,0:0:0:0:
475,192,165553,1,0,0:0:0:0:
109,192,165553,1,0,0:0:0:0:
182,192,165711,1,0,0:0:0:0:
36,192,165869,1,0,0:0:0:0:
329,192,165869,1,0,0:0:0:0:
475,192,166027,1,0,0:0:0:0:
256,192,166185,1,0,0:0:0:0:
329,192,166185,1,0,0:0:0:0:
182,192,166237,1,0,0:0:0:0:
109,192,166290,1,0,0:0:0:0:
36,192,166343,1,0,0:0:0:0:
402,192,166395,1,0,0:0:0:0:
329,192,166448,1,0,0:0:0:0:
256,192,166501,1,0,0:0:0:0:
182,192,166501,1,0,0:0:0:0:
329,192,166658,1,0,0:0:0:0:
475,192,166658,1,0,0:0:0:0:
182,192,166816,1,0,0:0:0:0:
109,192,166816,1,0,0:0:0:0:
256,192,166974,1,0,0:0:0:0:
402,192,167132,1,0,0:0:0:0:
329,192,167132,1,0,0:0:0:0:
256,192,167290,1,0,0:0:0:0:
402,192,167448,1,0,0:0:0:0:
182,192,167448,1,0,0:0:0:0:
256,192,167606,1,0,0:0:0:0:
182,192,167764,1,0,0:0:0:0:
36,192,167764,1,0,0:0:0:0:
256,192,167816,1,0,0:0:0:0:
329,192,167869,1,0,0:0:0:0:
256,192,167922,1,0,0:0:0:0:
329,192,167974,1,0,0:0:0:0:
402,192,168027,1,0,0:0:0:0:
475,192,168080,1,0,0:0:0:0:
182,192,168080,1,0,0:0:0:0:
109,192,168132,1,0,0:0:0:0:
36,192,168185,1,0,0:0:0:0:
402,192,168237,1,0,0:0:0:0:
329,192,168290,1,0,0:0:0:0:
256,192,168343,1,0,0:0:0:0:
182,192,168395,1,0,0:0:0:0:
109,192,168395,1,0,0:0:0:0:
475,192,168553,1,0,0:0:0:0:
402,192,168711,1,0,0:0:0:0:
256,192,168711,1,0,0:0:0:0:
329,192,168869,1,0,0:0:0:0:
182,192,169027,1,0,0:0:0:0:
109,192,169027,1,0,0:0:0:0:
256,192,169185,1,0,0:0:0:0:
329,192,169185,1,0,0:0:0:0:
475,192,169185,1,0,0:0:0:0:
475,192,170606,1,0,0:0:0:0:
182,192,170606,1,0,0:0:0:0:
109,192,170606,1,0,0:0:0:0:
329,192,170606,1,0,0:0:0:0:
402,192,170764,1,0,0:0:0:0:
475,192,170922,1,0,0:0:0:0:
256,192,170922,1,0,0:0:0:0:
109,192,170922,1,0,0:0:0:0:
329,192,171080,1,0,0:0:0:0:
109,192,171237,1,0,0:0:0:0:
36,192,171237,1,0,0:0:0:0:
109,192,171395,1,0,0:0:0:0:
182,192,171395,1,0,0:0:0:0:
36,192,171553,1,0,0:0:0:0:
402,192,171553,1,0,0:0:0:0:
329,192,171553,1,0,0:0:0:0:
475,192,171711,1,0,0:0:0:0:
329,192,171711,1,0,0:0:0:0:
256,192,171711,1,0,0:0:0:0:
109,192,171711,1,0,0:0:0:0:
329,192,172027,1,0,0:0:0:0:
182,192,172027,1,0,0:0:0:0:
256,192,172185,1,0,0:0:0:0:
475,192,172185,1,0,0:0:0:0:
402,192,172185,1,0,0:0:0:0:
182,192,172343,1,0,0:0:0:0:
36,192,172343,1,0,0:0:0:0:
329,192,172422,1,0,0:0:0:0:
109,192,172422,1,0,0:0:0:0:
256,192,172422,1,0,0:0:0:0:
475,192,172501,1,0,0:0:0:0:
402,192,172501,1,0,0:0:0:0:
402,192,172658,1,0,0:0:0:0:
109,192,172658,1,0,0:0:0:0:
329,192,172816,1,0,0:0:0:0:
256,192,172816,1,0,0:0:0:0:
182,192,172816,1,0,0:0:0:0:
402,192,172974,1,0,0:0:0:0:
475,192,172974,1,0,0:0:0:0:
109,192,172974,1,0,0:0:0:0:
36,192,172974,1,0,0:0:0:0:
329,192,173290,1,0,0:0:0:0:
182,192,173290,1,0,0:0:0:0:
475,192,173448,1,0,0:0:0:0:
402,192,173448,1,0,0:0:0:0:
109,192,173448,1,0,0:0:0:0:
256,192,173606,1,0,0:0:0:0:
329,192,173606,1,0,0:0:0:0:
329,192,173764,1,0,0:0:0:0:
182,192,173764,1,0,0:0:0:0:
36,192,173764,1,0,0:0:0:0:
256,192,173922,1,0,0:0:0:0:
109,192,173922,1,0,0:0:0:0:
256,192,174080,1,0,0:0:0:0:
402,192,174080,1,0,0:0:0:0:
475,192,174080,1,0,0:0:0:0:
475,192,174237,1,0,0:0:0:0:
329,192,174237,1,0,0:0:0:0:
182,192,174237,1,0,0:0:0:0:
109,192,174237,1,0,0:0:0:0:
329,192,174553,1,0,0:0:0:0:
256,192,174553,1,0,0:0:0:0:
182,192,174711,1,0,0:0:0:0:
36,192,174711,1,0,0:0:0:0:
402,192,174711,1,0,0:0:0:0:
256,192,174869,1,0,0:0:0:0:
109,192,174948,1,0,0:0:0:0:
402,192,174948,1,0,0:0:0:0:
475,192,175027,1,0,0:0:0:0:
36,192,175027,1,0,0:0:0:0:
182,192,175106,1,0,0:0:0:0:
256,192,175106,1,0,0:0:0:0:
402,192,175106,1,0,0:0:0:0:
329,192,175185,1,0,0:0:0:0:
109,192,175185,1,0,0:0:0:0:
402,192,175343,1,0,0:0:0:0:
256,192,175343,1,0,0:0:0:0:
36,192,175343,1,0,0:0:0:0:
329,192,175501,1,0,0:0:0:0:
256,192,175580,1,0,0:0:0:0:
402,192,175658,1,0,0:0:0:0:
182,192,175658,1,0,0:0:0:0:
109,192,175658,1,0,0:0:0:0:
36,192,175658,1,0,0:0:0:0:
256,192,175816,1,0,0:0:0:0:
182,192,175816,1,0,0:0:0:0:
475,192,175974,1,0,0:0:0:0:
329,192,175974,1,0,0:0:0:0:
109,192,175974,1,0,0:0:0:0:
256,192,176290,1,0,0:0:0:0:
182,192,176290,1,0,0:0:0:0:
182,192,176448,1,0,0:0:0:0:
329,192,176448,1,0,0:0:0:0:
256,192,176606,1,0,0:0:0:0:
36,192,176606,1,0,0:0:0:0:
109,192,176606,1,0,0:0:0:0:
475,192,176764,1,0,0:0:0:0:
329,192,176764,1,0,0:0:0:0:
182,192,176764,1,0,0:0:0:0:
402,192,176764,1,0,0:0:0:0:
475,192,177080,1,0,0:0:0:0:
402,192,177080,1,0,0:0:0:0:
256,192,177237,1,0,0:0:0:0:
36,192,177237,1,0,0:0:0:0:
329,192,177237,1,0,0:0:0:0:
109,192,177474,1,0,0:0:0:0:
402,192,177474,1,0,0:0:0:0:
256,192,177474,1,0,0:0:0:0:
329,192,177553,1,0,0:0:0:0:
36,192,177553,1,0,0:0:0:0:
256,192,177711,1,0,0:0:0:0:
182,192,177711,1,0,0:0:0:0:
329,192,177790,1,0,0:0:0:0:
402,192,177790,1,0,0:0:0:0:
109,192,177869,1,0,0:0:0:0:
36,192,177869,1,0,0:0:0:0:
475,192,177948,1,0,0:0:0:0:
402,192,177948,1,0,0:0:0:0:
109,192,178027,1,0,0:0:0:0:
182,192,178027,1,0,0:0:0:0:
329,192,178106,1,0,0:0:0:0:
402,192,178106,1,0,0:0:0:0:
182,192,178185,1,0,0:0:0:0:
109,192,178185,1,0,0:0:0:0:
256,192,178185,1,0,0:0:0:0:
36,192,178185,1,0,0:0:0:0:
182,192,178343,1,0,0:0:0:0:
109,192,178343,1,0,0:0:0:0:
329,192,178658,1,0,0:0:0:0:
402,192,178658,1,0,0:0:0:0:
36,192,178737,1,0,0:0:0:0:
109,192,178737,1,0,0:0:0:0:
182,192,178816,1,0,0:0:0:0:
475,192,178816,1,0,0:0:0:0:
329,192,178816,1,0,0:0:0:0:
256,192,178974,1,0,0:0:0:0:
182,192,178974,1,0,0:0:0:0:
402,192,179290,1,0,0:0:0:0:
256,192,179290,1,0,0:0:0:0:
182,192,179290,1,0,0:0:0:0:
329,192,179290,1,0,0:0:0:0:
109,192,179606,1,0,0:0:0:0:
402,192,179606,1,0,0:0:0:0:
256,192,179764,1,0,0:0:0:0:
109,192,179764,1,0,0:0:0:0:
36,192,179764,1,0,0:0:0:0:
329,192,179922,1,0,0:0:0:0:
402,192,179922,1,0,0:0:0:0:
329,192,180080,1,0,0:0:0:0:
109,192,180080,1,0,0:0:0:0:
475,192,180080,1,0,0:0:0:0:
182,192,180119,1,0,0:0:0:0:
256,192,180158,1,0,0:0:0:0:
329,192,180198,1,0,0:0:0:0:
36,192,180237,1,0,0:0:0:0:
402,192,180237,1,0,0:0:0:0:
109,192,180277,1,0,0:0:0:0:
182,192,180316,1,0,0:0:0:0:
475,192,180316,1,0,0:0:0:0:
402,192,180356,1,0,0:0:0:0:
329,192,180395,1,0,0:0:0:0:
36,192,180395,1,0,0:0:0:0:
109,192,180435,1,0,0:0:0:0:
182,192,180474,1,0,0:0:0:0:
475,192,180514,1,0,0:0:0:0:
402,192,180553,1,0,0:0:0:0:
36,192,180553,1,0,0:0:0:0:
109,192,180593,1,0,0:0:0:0:
182,192,180632,1,0,0:0:0:0:
256,192,180672,1,0,0:0:0:0:
402,192,180711,1,0,0:0:0:0:
329,192,180711,1,0,0:0:0:0:
36,192,180711,1,0,0:0:0:0:
475,192,180711,1,0,0:0:0:0:
256,192,181027,1,0,0:0:0:0:
329,192,181027,1,0,0:0:0:0:
475,192,181027,1,0,0:0:0:0:
182,192,181343,1,0,0:0:0:0:
109,192,181343,1,0,0:0:0:0:
182,192,181501,1,0,0:0:0:0:
256,192,181501,1,0,0:0:0:0:
402,192,181658,1,0,0:0:0:0:
36,192,181658,1,0,0:0:0:0:
329,192,181658,1,0,0:0:0:0:
475,192,181816,1,0,0:0:0:0:
256,192,181816,1,0,0:0:0:0:
182,192,181816,1,0,0:0:0:0:
109,192,181816,1,0,0:0:0:0:
402,192,182132,1,0,0:0:0:0:
329,192,182132,1,0,0:0:0:0:
256,192,182290,1,0,0:0:0:0:
36,192,182290,1,0,0:0:0:0:
402,192,182290,1,0,0:0:0:0:
475,192,182527,1,0,0:0:0:0:
329,192,182527,1,0,0:0:0:0:
109,192,182527,1,0,0:0:0:0:
402,192,182606,1,0,0:0:0:0:
256,192,182606,1,0,0:0:0:0:
182,192,182764,1,0,0:0:0:0:
109,192,182764,1,0,0:0:0:0:
256,192,182922,1,0,0:0:0:0:
475,192,182922,1,0,0:0:0:0:
329,192,182922,1,0,0:0:0:0:
402,192,183080,1,0,0:0:0:0:
36,192,183080,1,0,0:0:0:0:
109,192,183080,1,0,0:0:0:0:
256,192,183080,1,0,0:0:0:0:
475,192,183395,1,0,0:0:0:0:
329,192,183395,1,0,0:0:0:0:
256,192,183553,1,0,0:0:0:0:
36,192,183553,1,0,0:0:0:0:
402,192,183553,1,0,0:0:0:0:
182,192,183711,1,0,0:0:0:0:
475,192,183711,1,0,0:0:0:0:
256,192,183869,1,0,0:0:0:0:
109,192,183869,1,0,0:0:0:0:
329,192,183869,1,0,0:0:0:0:
475,192,184027,1,0,0:0:0:0:
402,192,184027,1,0,0:0:0:0:
256,192,184185,1,0,0:0:0:0:
36,192,184185,1,0,0:0:0:0:
182,192,184185,1,0,0:0:0:0:
475,192,184343,1,0,0:0:0:0:
329,192,184343,1,0,0:0:0:0:
109,192,184343,1,0,0:0:0:0:
256,192,184343,1,0,0:0:0:0:
329,192,184658,1,0,0:0:0:0:
109,192,184658,1,0,0:0:0:0:
475,192,184816,1,0,0:0:0:0:
402,192,184816,1,0,0:0:0:0:
36,192,184816,1,0,0:0:0:0:
329,192,184974,1,0,0:0:0:0:
109,192,184974,1,0,0:0:0:0:
402,192,185132,1,0,0:0:0:0:
182,192,185132,1,0,0:0:0:0:
329,192,185211,1,0,0:0:0:0:
109,192,185211,1,0,0:0:0:0:
256,192,185211,1,0,0:0:0:0:
475,192,185290,1,0,0:0:0:0:
402,192,185290,1,0,0:0:0:0:
256,192,185448,1,0,0:0:0:0:
109,192,185448,1,0,0:0:0:0:
36,192,185448,1,0,0:0:0:0:
256,192,185606,1,0,0:0:0:0:
182,192,185606,1,0,0:0:0:0:
329,192,185764,1,0,0:0:0:0:
36,192,185764,1,0,0:0:0:0:
402,192,185764,1,0,0:0:0:0:
475,192,185764,1,0,0:0:0:0:
329,192,185922,1,0,0:0:0:0:
256,192,185922,1,0,0:0:0:0:
475,192,186237,1,0,0:0:0:0:
182,192,186237,1,0,0:0:0:0:
256,192,186316,1,0,0:0:0:0:
402,192,186316,1,0,0:0:0:0:
329,192,186395,1,0,0:0:0:0:
182,192,186395,1,0,0:0:0:0:
109,192,186395,1,0,0:0:0:0:
36,192,186553,1,0,0:0:0:0:
329,192,186553,1,0,0:0:0:0:
402,192,186869,1,0,0:0:0:0:
329,192,186869,1,0,0:0:0:0:
36,192,186869,1,0,0:0:0:0:
182,192,186869,1,0,0:0:0:0:
475,192,187185,1,0,0:0:0:0:
402,192,187185,1,0,0:0:0:0:
109,192,187343,1,0,0:0:0:0:
329,192,187343,1,0,0:0:0:0:
256,192,187343,1,0,0:0:0:0:
182,192,187501,1,0,0:0:0:0:
256,192,187501,1,0,0:0:0:0:
475,192,187658,1,0,0:0:0:0:
109,192,187658,1,0,0:0:0:0:
329,192,187658,1,0,0:0:0:0:
182,192,187816,1,0,0:0:0:0:
36,192,187816,1,0,0:0:0:0:
109,192,187816,1,0,0:0:0:0:
475,192,187895,1,0,0:0:0:0:
402,192,187895,1,0,0:0:0:0:
256,192,187895,1,0,0:0:0:0:
182,192,187974,1,0,0:0:0:0:
109,192,187974,1,0,0:0:0:0:
329,192,187974,1,0,0:0:0:0:
36,192,188132,1,0,0:0:0:0:
402,192,188132,1,0,0:0:0:0:
256,192,188132,1,0,0:0:0:0:
109,192,188211,1,0,0:0:0:0:
329,192,188211,1,0,0:0:0:0:
182,192,188211,1,0,0:0:0:0:
256,192,188290,1,0,0:0:0:0:
475,192,188290,1,0,0:0:0:0:
36,192,188290,1,0,0:0:0:0:
402,192,188290,1,0,0:0:0:0:
182,192,188448,1,0,0:0:0:0:
329,192,188448,1,0,0:0:0:0:
256,192,188606,1,0,0:0:0:0:
329,192,188764,1,0,0:0:0:0:
402,192,188764,1,0,0:0:0:0:
36,192,188843,1,0,0:0:0:0:
182,192,188843,1,0,0:0:0:0:
475,192,188922,1,0,0:0:0:0:
329,192,188922,1,0,0:0:0:0:
256,192,188922,1,0,0:0:0:0:
36,192,189080,1,0,0:0:0:0:
109,192,189080,1,0,0:0:0:0:
402,192,189237,1,0,0:0:0:0:
475,192,189395,1,0,0:0:0:0:
109,192,189395,1,0,0:0:0:0:
182,192,189395,1,0,0:0:0:0:
182,192,189711,1,0,0:0:0:0:
402,192,189711,1,0,0:0:0:0:
256,192,189869,1,0,0:0:0:0:
329,192,190027,1,0,0:0:0:0:
36,192,190027,1,0,0:0:0:0:
109,192,190185,1,0,0:0:0:0:
182,192,190185,1,0,0:0:0:0:
475,192,190185,1,0,0:0:0:0:
256,192,190343,1,0,0:0:0:0:
329,192,190343,1,0,0:0:0:0:
402,192,190501,1,0,0:0:0:0:
182,192,190658,1,0,0:0:0:0:
475,192,190658,1,0,0:0:0:0:
402,192,190737,1,0,0:0:0:0:
256,192,190737,1,0,0:0:0:0:
182,192,190974,1,0,0:0:0:0:
109,192,190974,1,0,0:0:0:0:
256,192,191132,1,0,0:0:0:0:
329,192,191290,1,0,0:0:0:0:
475,192,191290,1,0,0:0:0:0:
256,192,191448,1,0,0:0:0:0:
109,192,191448,1,0,0:0:0:0:
402,192,191448,1,0,0:0:0:0:
36,192,191606,1,0,0:0:0:0:
329,192,191606,1,0,0:0:0:0:
402,192,191764,1,0,0:0:0:0:
475,192,191922,1,0,0:0:0:0:
256,192,191922,1,0,0:0:0:0:
182,192,192237,1,0,0:0:0:0:
109,192,192237,1,0,0:0:0:0:
256,192,192395,1,0,0:0:0:0:
329,192,192553,1,0,0:0:0:0:
475,192,192553,1,0,0:0:0:0:
182,192,192632,1,0,0:0:0:0:
36,192,192632,1,0,0:0:0:0:
402,192,192711,1,0,0:0:0:0:
329,192,192711,1,0,0:0:0:0:
475,192,192711,1,0,0:0:0:0:
256,192,192869,1,0,0:0:0:0:
182,192,192869,1,0,0:0:0:0:
109,192,192948,1,0,0:0:0:0:
329,192,192948,1,0,0:0:0:0:
402,192,193027,1,0,0:0:0:0:
36,192,193027,1,0,0:0:0:0:
256,192,193027,1,0,0:0:0:0:
475,192,193027,1,0,0:0:0:0:
182,192,193185,1,0,0:0:0:0:
329,192,193185,1,0,0:0:0:0:
182,192,193501,1,0,0:0:0:0:
109,192,193501,1,0,0:0:0:0:
475,192,193580,1,0,0:0:0:0:
402,192,193580,1,0,0:0:0:0:
256,192,193658,1,0,0:0:0:0:
329,192,193816,1,0,0:0:0:0:
109,192,193816,1,0,0:0:0:0:
182,192,193895,1,0,0:0:0:0:
402,192,193895,1,0,0:0:0:0:
256,192,193974,1,0,0:0:0:0:
475,192,193974,1,0,0:0:0:0:
329,192,193974,1,0,0:0:0:0:
36,192,194132,1,0,0:0:0:0:
109,192,194132,1,0,0:0:0:0:
402,192,194290,1,0,0:0:0:0:
475,192,194448,1,0,0:0:0:0:
256,192,194448,1,0,0:0:0:0:
182,192,194764,1,0,0:0:0:0:
402,192,194764,1,0,0:0:0:0:
256,192,194922,1,0,0:0:0:0:
329,192,195080,1,0,0:0:0:0:
109,192,195080,1,0,0:0:0:0:
475,192,195237,1,0,0:0:0:0:
182,192,195237,1,0,0:0:0:0:
36,192,195237,1,0,0:0:0:0:
256,192,195395,1,0,0:0:0:0:
329,192,195395,1,0,0:0:0:0:
402,192,195553,1,0,0:0:0:0:
182,192,195711,1,0,0:0:0:0:
256,192,195711,1,0,0:0:0:0:
329,192,195790,1,0,0:0:0:0:
402,192,195790,1,0,0:0:0:0:
182,192,196027,1,0,0:0:0:0:
475,192,196027,1,0,0:0:0:0:
256,192,196185,1,0,0:0:0:0:
329,192,196343,1,0,0:0:0:0:
109,192,196343,1,0,0:0:0:0:
182,192,196501,1,0,0:0:0:0:
256,192,196501,1,0,0:0:0:0:
402,192,196501,1,0,0:0:0:0:
36,192,196658,1,0,0:0:0:0:
329,192,196658,1,0,0:0:0:0:
402,192,196816,1,0,0:0:0:0:
475,192,196974,1,0,0:0:0:0:
256,192,196974,1,0,0:0:0:0:
182,192,197290,1,0,0:0:0:0:
36,192,197290,1,0,0:0:0:0:
256,192,197448,1,0,0:0:0:0:
329,192,197606,1,0,0:0:0:0:
109,192,197606,1,0,0:0:0:0:
182,192,197685,1,0,0:0:0:0:
402,192,197685,1,0,0:0:0:0:
256,192,197764,1,0,0:0:0:0:
329,192,197764,1,0,0:0:0:0:
475,192,197764,1,0,0:0:0:0:
256,192,197922,1,0,0:0:0:0:
36,192,197922,1,0,0:0:0:0:
109,192,198001,1,0,0:0:0:0:
329,192,198001,1,0,0:0:0:0:
402,192,198080,1,0,0:0:0:0:
182,192,198080,1,0,0:0:0:0:
256,192,198080,1,0,0:0:0:0:
182,192,198237,1,0,0:0:0:0:
402,192,198237,1,0,0:0:0:0:
