osu file format v14

[General]
AudioFilename: audio.mp3
AudioLeadIn: 0
PreviewTime: 124317
Countdown: 0
SampleSet: Soft
StackLeniency: 0.2
Mode: 0
LetterboxInBreaks: 0
WidescreenStoryboard: 1

[Editor]
Bookmarks: 4814,5459,23523,33833,44168,51897,54491,72556,90620,95781,105930,106104,126749,144814,162865,173201
DistanceSpacing: 1
BeatDivisor: 6
GridSize: 32
TimelineZoom: 1.7

[Metadata]
Title:A tree without a branch
TitleUnicode:A tree without a branch
Artist:MuryokuP
ArtistUnicode:無力P
Creator:Melwoine
Version:Solros
Source:
Tags:Axarious Mun keeVY 無力P Resonance Vocaloid Japanese jrock Rock Electronica Megurine Luka 巡音ルカ Metal Powerless Decision AO
BeatmapID:2169775
BeatmapSetID:1037902

[Difficulty]
HPDrainRate:5
CircleSize:4
OverallDifficulty:9
ApproachRate:9.3
SliderMultiplier:1.8
SliderTickRate:1

[Events]
//Background and Video events
0,0,"66406050_p0_master1200.jpg",0,0
//Break Periods
2,44403,51230
2,106339,123649
2,178597,183004
//Storyboard Layer 0 (Background)
//Storyboard Layer 1 (Fail)
//Storyboard Layer 2 (Pass)
//Storyboard Layer 3 (Foreground)
//Storyboard Layer 4 (Overlay)
//Storyboard Sound Samples

[TimingPoints]
333,322.58064516129,4,2,1,70,1,0
4768,-100,4,2,1,5,0,0
4849,-71.4285714285714,4,2,1,70,0,0
5010,-166.666666666667,4,2,1,70,0,0
5413,-166.666666666667,4,2,1,5,0,0
5494,-166.666666666667,4,2,1,70,0,0
6300,-100,4,2,1,70,0,0
6541,-100,4,2,1,5,0,0
6623,-100,4,2,1,70,0,0
6864,-100,4,2,1,5,0,0
6945,-100,4,2,1,70,0,0
7993,-100,4,2,1,5,0,0
8074,-100,4,2,1,70,0,0
9203,-111.111111111111,4,2,1,70,0,0
12025,-111.111111111111,4,2,1,5,0,0
12107,-111.111111111111,4,2,1,70,0,0
12670,-111.111111111111,4,2,1,5,0,0
12752,-111.111111111111,4,2,1,70,0,0
15010,-111.111111111111,4,2,1,70,0,0
15494,-111.111111111111,4,2,1,70,0,0
16057,-111.111111111111,4,2,1,5,0,0
16139,-111.111111111111,4,2,1,70,0,0
16623,-83.3333333333333,4,2,1,70,0,0
16864,-83.3333333333333,4,2,1,5,0,0
16945,-83.3333333333333,4,2,1,70,0,0
17186,-83.3333333333333,4,2,1,5,0,0
17268,-83.3333333333333,4,2,1,70,0,0
18074,-83.3333333333333,4,2,1,70,0,0
18397,-83.3333333333333,4,2,1,70,0,0
20412,-83.3333333333333,4,2,1,70,0,0
20816,-83.3333333333333,4,2,1,70,0,0
22348,-83.3333333333333,4,2,1,5,0,0
22429,-83.3333333333333,4,2,1,70,0,0
23236,-83.3333333333333,4,2,1,70,0,0
23558,-83.3333333333333,4,2,1,55,0,0
24203,-125,4,2,1,55,0,0
33397,-250,4,2,1,55,0,0
33800,-250,4,2,1,5,0,0
33881,-100,4,2,1,60,0,0
44203,-100,4,2,1,35,0,0
51784,-100,4,2,1,50,0,0
51945,-166.666666666667,4,2,1,70,0,0
52186,-166.666666666667,4,2,1,5,0,0
52268,-166.666666666667,4,2,1,70,0,0
53881,-500,4,2,1,70,0,0
54526,-500,4,2,1,75,0,1
54687,-76.9230769230769,4,2,1,75,0,1
55332,-83.3333333333333,4,2,1,75,0,1
59042,-83.3333333333333,4,2,1,75,0,1
59687,-83.3333333333333,4,2,1,75,0,1
63397,-58.8235294117647,4,2,1,75,0,1
64042,-76.9230769230769,4,2,1,75,0,1
64849,-76.9230769230769,4,2,1,75,0,1
65978,-90.9090909090909,4,2,1,75,0,1
68558,-66.6666666666667,4,2,1,75,0,1
69365,-66.6666666666667,4,2,1,75,0,1
70011,-66.6666666666667,4,2,1,75,0,1
71380,-66.6666666666667,4,2,1,5,0,1
71462,-66.6666666666667,4,2,1,75,0,1
72591,-66.6666666666667,4,2,1,70,0,0
72752,-100,4,2,1,70,0,0
72993,-100,4,2,1,5,0,0
73074,-100,4,2,1,70,0,0
73638,-100,4,2,1,5,0,0
73720,-76.9230769230769,4,2,1,70,0,0
74123,-76.9230769230769,4,2,1,5,0,0
74203,-76.9230769230769,4,2,1,70,0,0
82107,-76.9230769230769,4,2,1,70,0,0
82591,-76.9230769230769,4,2,1,70,0,0
85171,-76.9230769230769,4,2,1,70,0,0
85494,-76.9230769230769,4,2,1,70,0,0
87510,-76.9230769230769,4,2,1,70,0,0
87913,-76.9230769230769,4,2,1,70,0,0
90171,-142.857142857143,4,2,1,70,0,0
90332,-142.857142857143,4,2,1,70,0,0
90655,-142.857142857143,4,3,1,70,0,0
94849,-142.857142857143,4,3,1,70,0,0
95494,-47.6190476190476,4,3,1,70,0,1
95735,-47.6190476190476,4,3,1,5,0,1
95816,-47.6190476190476,4,2,1,75,0,1
96300,-47.6190476190476,4,2,1,75,0,0
96623,-90.9090909090909,4,2,1,75,0,0
96864,-90.9090909090909,4,2,1,5,0,0
96945,-52.6315789473684,4,2,1,75,0,0
101945,-125,4,2,1,75,0,0
102913,-76.9230769230769,4,2,1,75,0,0
103558,-76.9230769230769,4,2,1,80,0,1
103720,-76.9230769230769,4,2,1,80,0,1
103962,-76.9230769230769,4,2,1,80,0,1
104042,-76.9230769230769,4,2,1,80,0,1
104123,-76.9230769230769,4,2,1,80,0,1
104365,-76.9230769230769,4,2,1,80,0,1
105171,-52.6315789473684,4,2,1,80,0,1
106139,-52.6315789473684,4,2,1,35,0,0
124203,-52.6315789473684,4,2,1,50,0,0
126703,-52.6315789473684,4,2,1,5,0,0
126784,-41.6666666666667,4,1,1,80,0,1
127671,-41.6666666666667,4,2,1,5,0,1
127752,-41.6666666666667,4,1,1,80,0,1
127913,-50,4,1,1,80,0,1
128397,-50,4,1,1,80,0,1
129123,-50,4,2,1,5,0,1
129203,-50,4,1,1,80,0,1
130655,-71.4285714285714,4,1,1,80,0,1
131138,-71.4285714285714,4,1,1,80,0,1
131945,-71.4285714285714,4,1,1,80,0,0
132348,-71.4285714285714,4,2,1,5,0,0
132429,-71.4285714285714,4,1,1,80,0,0
133074,-55.5555555555556,4,1,1,80,0,0
133315,-55.5555555555556,4,2,1,5,0,0
133397,-100,4,1,1,80,0,0
133638,-100,4,2,1,5,0,0
133720,-100,4,1,1,80,0,0
134526,-62.5,4,1,1,80,0,0
135655,-38.4615384615385,4,1,1,85,0,1
136381,-38.4615384615385,4,1,1,85,0,0
136462,-50,4,1,1,85,0,0
137107,-50,4,1,1,85,0,1
137752,-52.6315789473684,4,1,1,85,0,1
138799,-52.6315789473684,4,1,1,5,0,1
138881,-52.6315789473684,4,1,1,85,0,1
141623,-52.6315789473684,4,1,1,85,0,1
142268,-52.6315789473684,4,1,1,85,0,0
143397,-41.6666666666667,4,1,1,85,0,0
144849,-41.6666666666667,4,2,1,75,0,1
145332,-66.6666666666667,4,2,1,75,0,1
148558,-52.6315789473684,4,2,1,75,0,1
148961,-52.6315789473684,4,2,1,5,0,1
149042,-52.6315789473684,4,2,1,75,0,1
149365,-52.6315789473684,4,2,1,75,0,1
150010,-52.6315789473684,4,2,1,75,0,1
151139,-76.9230769230769,4,2,1,75,0,1
153720,-58.8235294117647,4,2,1,75,0,1
154365,-58.8235294117647,4,2,1,75,0,1
154526,-76.9230769230769,4,2,1,75,0,1
155171,-76.9230769230769,4,2,1,75,0,1
158881,-52.6315789473684,4,2,1,75,0,1
159687,-52.6315789473684,4,2,1,75,0,1
160332,-52.6315789473684,4,2,1,75,0,0
160573,-52.6315789473684,4,2,1,5,0,0
160655,-52.6315789473684,4,2,1,75,0,0
160896,-52.6315789473684,4,2,1,5,0,0
160978,-52.6315789473684,4,2,1,75,0,0
161462,-66.6666666666667,4,2,1,75,0,0
161945,-66.6666666666667,4,2,1,75,0,0
162591,-66.6666666666667,4,2,1,75,0,0
162913,-500,4,2,1,80,0,1
164042,-45.4545454545455,4,2,1,80,0,1
164849,-76.9230769230769,4,2,1,80,0,1
165252,-76.9230769230769,4,2,1,5,0,1
165332,-55.5555555555556,4,2,1,80,0,1
167107,-83.3333333333333,4,2,1,80,0,1
167429,-62.5,4,2,1,80,0,1
167590,-62.5,4,2,1,80,0,1
167913,-62.5,4,2,1,80,0,1
168074,-62.5,4,2,1,80,0,1
168397,-62.5,4,2,1,80,0,1
169203,-45.4545454545455,4,2,1,80,0,1
170010,-52.6315789473684,4,2,1,80,0,1
170251,-52.6315789473684,4,2,1,5,0,1
170332,-52.6315789473684,4,2,1,80,0,1
170735,-52.6315789473684,4,2,1,5,0,1
170816,-52.6315789473684,4,2,1,80,0,1
171784,-43.4782608695652,4,2,1,80,0,1
172268,-52.6315789473684,4,2,1,80,0,1
173236,-52.6315789473684,4,2,1,35,0,0
183558,-52.6315789473684,4,2,1,50,0,0
184203,-52.6315789473684,4,2,1,35,0,0
184526,-52.6315789473684,4,2,1,25,0,0
184849,-52.6315789473684,4,2,1,15,0,0
185171,-52.6315789473684,4,2,1,10,0,0
185655,-52.6315789473684,4,2,1,5,0,0

[Colours]
Combo1 : 86,120,101
Combo2 : 238,166,17
Combo3 : 124,133,92

[HitObjects]
256,192,333,12,0,4768,2:0:0:0:
482,259,4849,6,0,P|485:227|476:197,1,62.9999980773926,12|0,0:0|0:0,0:0:0:0:
350,158,5010,2,0,P|339:219|402:237,1,134.999995880127,12|0,0:0|2:0,0:0:0:0:
459,186,5494,5,6,1:0:0:0:
364,157,5655,1,2,3:2:0:0:
270,282,5816,1,2,0:0:0:0:
173,256,5978,1,10,0:0:0:0:
33,377,6139,1,8,0:1:0:0:
198,372,6300,2,0,P|198:324|175:209,1,135,2|0,3:2|2:0,0:0:0:0:
176,133,6623,6,0,P|117:182|28:187,1,135,2|0,3:1|2:0,0:0:0:0:
0,103,6945,2,0,P|30:107|76:123,1,45,2|0,3:1|0:0,0:0:0:0:
186,151,7107,1,10,0:0:0:0:
234,55,7268,1,2,3:2:0:0:
227,47,7429,1,2,0:2:0:0:
431,103,7591,2,0,P|450:85|462:67,1,45,2|0,3:2|0:0,0:0:0:0:
315,12,7752,6,0,L|304:176,1,135,8|0,0:1|2:0,0:0:0:0:
366,248,8074,5,6,1:0:0:0:
507,174,8236,1,0,3:0:0:0:
512,194,8558,5,2,3:2:0:0:
351,233,8720,1,8,0:0:0:0:
386,156,8881,1,2,3:2:0:0:
512,345,9042,1,8,0:0:0:0:
434,301,9203,6,0,P|427:224|407:126,2,161.999995056153,2|2|0,1:0|1:0|1:0,0:0:0:0:
322,342,10010,1,2,0:0:0:0:
187,283,10171,1,2,3:2:0:0:
293,196,10332,2,0,P|266:212|239:220,1,40.4999987640381,8|0,0:0|0:0,0:0:0:0:
121,226,10494,1,2,0:0:0:0:
0,384,10655,5,6,1:0:0:0:
101,232,10816,1,0,3:0:0:0:
42,173,10978,1,2,0:0:0:0:
9,292,11139,1,2,3:2:0:0:
214,219,11300,1,8,0:1:0:0:
133,144,11462,2,0,P|131:107|134:36,1,80.9999975280763,0|2,3:0|0:0,0:0:0:0:
319,37,11784,6,0,P|282:85|224:87,1,121.499996292114,2|0,3:1|2:0,0:0:0:0:
147,42,12107,1,2,3:1:0:0:
366,110,12268,1,8,1:0:0:0:
305,175,12429,2,0,P|300:212|318:314,1,121.499996292114,0|0,3:0|2:0,0:0:0:0:
331,316,12752,1,2,3:2:0:0:
492,230,12913,2,0,P|457:236|432:247,1,40.4999987640381,4|0,0:0|0:0,0:0:0:0:
353,328,13074,2,0,P|372:332|396:332,1,40.4999987640381,8|0,0:0|0:0,0:0:0:0:
443,155,13236,5,6,1:0:0:0:
501,241,13397,1,0,3:0:0:0:
509,251,13720,5,0,3:0:0:0:
318,283,13881,1,8,0:1:0:0:
270,380,14042,1,0,3:0:0:0:
422,304,14203,1,8,1:2:0:0:
339,187,14365,6,0,P|267:190|197:258,1,161.999995056153,10|10,1:0|0:0,0:0:0:0:
419,220,14849,2,0,P|422:197|420:165,1,40.4999987640381,2|0,3:2|0:0,0:0:0:0:
290,20,15010,5,8,0:0:0:0:
298,69,15091,1,8,0:0:0:0:
306,112,15171,1,8,3:0:0:0:
332,79,15252,1,4,3:0:0:0:
311,81,15332,1,4,1:3:0:0:
288,85,15413,1,4,3:0:0:0:
269,87,15494,1,8,1:3:0:0:
228,62,15574,1,4,3:0:0:0:
175,86,15655,1,8,1:2:0:0:
128,113,15736,1,8,1:2:0:0:
81,118,15816,6,0,L|230:162,1,121.499996292114,14|0,1:0|2:0,0:0:0:0:
381,244,16139,2,0,L|341:247,1,40.4999987640381,2|0,0:1|0:0,0:0:0:0:
263,278,16300,1,8,0:0:0:0:
426,121,16462,2,0,L|421:181,1,40.4999987640381,10|0,1:0|0:0,0:0:0:0:
459,300,16623,2,0,P|480:229|401:139,1,161.999995056153,2|0,3:2|2:0,0:0:0:0:
333,83,16945,6,0,P|291:127|170:108,1,161.999995056153,4|0,1:0|2:0,0:0:0:0:
87,64,17268,2,0,P|116:68|169:49,1,53.9999983520508,8|0,0:0|0:0,0:0:0:0:
290,0,17429,5,10,0:1:0:0:
204,149,17591,1,2,1:0:0:0:
347,95,17752,5,8,0:0:0:0:
251,77,17913,1,2,1:1:0:0:
379,300,18074,1,10,0:3:0:0:
135,259,18236,1,6,0:3:0:0:
293,204,18397,6,0,P|302:270|294:355,1,107.999996704102,14|0,1:0|0:0,0:0:0:0:
211,368,18720,1,10,0:1:0:0:
121,259,18881,1,10,0:0:0:0:
231,128,19042,1,10,0:1:0:0:
300,213,19203,1,10,0:0:0:0:
494,139,19364,1,10,0:1:0:0:
316,322,19526,6,0,P|366:322|400:156,1,215.999993408203,14|10,1:0|0:0,0:0:0:0:
330,58,20010,1,8,1:2:0:0:
274,76,20091,1,8,1:2:0:0:
221,99,20171,1,8,0:3:0:0:
267,105,20252,1,8,0:3:0:0:
308,114,20332,2,0,L|363:123,1,53.9999983520508,8|8,1:2|1:2,0:0:0:0:
496,2,20494,1,8,3:0:0:0:
444,11,20574,1,8,3:0:0:0:
401,21,20655,1,2,3:0:0:0:
425,35,20736,1,4,3:0:0:0:
454,50,20816,1,6,1:3:0:0:
475,59,20897,1,8,1:2:0:0:
496,70,20978,5,14,1:0:0:0:
459,177,21139,1,2,0:0:0:0:
308,114,21300,1,2,0:1:0:0:
420,291,21462,1,0,3:0:0:0:
374,166,21623,1,8,0:1:0:0:
233,278,21784,2,0,P|215:347|218:410,1,107.999996704102,8|2,0:0|0:1,0:0:0:0:
243,142,22107,6,0,P|210:191|116:222,1,161.999995056153,6|0,0:1|2:0,0:0:0:0:
30,151,22429,1,8,0:0:0:0:
59,294,22591,2,0,B|87:295|87:295|96:301|96:301|145:302,1,53.9999983520508,10|0,1:0|0:0,0:0:0:0:
108,205,22752,1,2,3:1:0:0:
160,384,22913,1,8,1:0:0:0:
3,363,23074,1,8,0:1:0:0:
115,221,23236,1,8,0:0:0:0:
221,276,23397,1,2,3:2:0:0:
143,307,23558,5,0,3:0:0:0:
143,307,23881,1,0,3:0:0:0:
304,384,24203,6,0,L|254:158,1,216,10|2,0:1|3:2,0:0:0:0:
257,173,25010,1,0,3:0:0:0:
266,180,25332,1,0,3:0:0:0:
332,39,25494,1,10,0:1:0:0:
332,128,25655,1,0,3:0:0:0:
438,147,25816,2,0,B|504:123|504:123|512:44,1,144,2|2,0:0|3:2,0:0:0:0:
512,50,26462,5,2,3:2:0:0:
398,79,26623,1,2,0:0:0:0:
260,31,26784,2,0,L|333:39,1,72,8|0,0:1|0:0,0:0:0:0:
398,79,27107,1,2,0:0:0:0:
398,79,27268,1,0,3:0:0:0:
257,173,27429,6,0,L|167:162,1,72,2|2,0:0|3:2,0:0:0:0:
135,108,27752,1,2,0:0:0:0:
125,212,27913,1,2,3:2:0:0:
54,152,28074,1,8,0:1:0:0:
125,212,28236,1,2,3:2:0:0:
125,212,28720,6,0,B|203:250|203:250|205:291|205:291|293:337,1,216,2|2,3:1|0:0,0:0:0:0:
456,360,29365,2,0,L|448:264,1,72,8|0,0:1|0:0,0:0:0:0:
436,146,29687,1,2,0:0:0:0:
368,240,29849,1,0,3:0:0:0:
368,240,30171,1,0,3:0:0:0:
272,171,30494,1,0,3:0:0:0:
368,240,30655,1,8,0:1:0:0:
436,146,30816,1,2,3:2:0:0:
346,78,30978,2,0,L|340:0,1,72,2|0,0:0|1:0,0:0:0:0:
415,33,31300,6,0,B|350:39|350:39|296:85|296:85|189:96,1,216,2|2,3:1|0:0,0:0:0:0:
74,47,31945,2,0,L|91:150,1,72,10|2,0:1|0:0,0:0:0:0:
104,211,32268,1,2,0:0:0:0:
109,235,32429,1,0,3:0:0:0:
161,21,32752,1,0,3:0:0:0:
149,13,33074,1,0,3:0:0:0:
181,153,33236,1,8,0:1:0:0:
11,191,33397,6,0,P|-3:240|12:275,1,90,0|0,3:0|2:0,0:0:0:0:
91,318,33881,6,0,P|91:292|82:236,1,45,2|0,3:1|0:0,0:0:0:0:
92,158,34042,2,0,P|81:134|49:87,1,45,2|0,3:1|0:0,0:0:0:0:
181,263,34203,2,0,P|185:313|180:371,1,90,2|0,1:0|1:0,0:0:0:0:
313,360,34526,2,0,P|315:315|312:271,1,90,2|2,1:0|0:0,0:0:0:0:
229,171,34849,2,0,P|246:194|284:220,1,45,2|0,3:1|0:0,0:0:0:0:
329,156,35010,2,0,P|357:152|398:132,1,45,2|0,3:1|0:0,0:0:0:0:
258,37,35171,6,0,P|207:55|162:61,1,90,2|0,1:0|3:0,0:0:0:0:
228,170,35494,2,0,P|272:162|315:147,1,90,2|2,1:0|3:2,0:0:0:0:
396,83,35816,1,2,0:1:0:0:
417,88,35978,1,2,3:1:0:0:
323,65,36139,1,2,1:0:0:0:
437,93,36300,1,2,0:0:0:0:
443,189,36462,6,0,P|425:214|408:231,1,45,2|0,3:1|0:0,0:0:0:0:
302,276,36623,2,0,P|315:303|320:327,1,45,2|0,3:1|0:0,0:0:0:0:
427,384,36784,2,0,P|404:339|392:291,1,90,2|0,1:0|3:0,0:0:0:0:
207,207,37107,2,0,P|175:239|152:278,1,90,2|2,1:0|0:0,0:0:0:0:
43,59,37429,2,0,P|74:66|110:84,1,45,2|0,3:1|0:0,0:0:0:0:
197,81,37591,2,0,P|222:61|259:45,1,45,2|0,3:1|0:0,0:0:0:0:
60,235,37752,6,0,L|94:129,1,90,2|0,1:0|3:0,0:0:0:0:
191,364,38074,2,0,L|275:334,1,90,2|2,1:0|3:2,0:0:0:0:
337,88,38397,1,2,0:1:0:0:
344,113,38558,1,2,3:1:0:0:
316,13,38720,1,2,1:0:0:0:
352,137,38881,1,2,0:0:0:0:
237,65,39042,6,0,P|206:71|177:84,1,45,2|0,3:1|0:0,0:0:0:0:
149,155,39203,2,0,P|133:182|124:213,1,45,2|0,3:1|0:0,0:0:0:0:
315,233,39365,2,0,L|228:207,1,90,2|0,1:0|3:0,0:0:0:0:
415,324,39687,2,0,L|501:349,1,90,2|2,1:0|0:0,0:0:0:0:
436,210,40010,2,0,P|415:235|384:260,1,45,2|0,3:1|0:0,0:0:0:0:
329,364,40171,2,0,P|296:358|259:343,1,45,2|0,3:1|0:0,0:0:0:0:
438,159,40332,6,0,P|426:199|404:246,1,90,2|0,1:0|3:0,0:0:0:0:
319,117,40655,2,0,P|307:157|285:204,1,90,2|2,1:0|3:2,0:0:0:0:
383,55,40978,1,2,0:1:0:0:
512,119,41139,2,0,P|493:81|463:39,1,90,2|10,3:1|1:0,0:0:0:0:
232,127,41462,1,2,0:0:0:0:
383,55,41623,6,0,P|381:32|376:10,1,45,2|0,3:1|0:0,0:0:0:0:
398,182,41784,2,0,P|419:172|437:159,1,45,2|0,3:1|0:0,0:0:0:0:
232,127,41945,2,0,P|195:153|166:188,1,90,2|0,1:0|3:0,0:0:0:0:
136,43,42268,2,0,P|99:69|70:104,1,90,2|2,1:0|0:0,0:0:0:0:
106,263,42591,2,0,P|94:239|79:185,1,45,2|0,3:1|0:0,0:0:0:0:
70,103,42752,2,0,P|92:88|145:68,1,45,2|0,3:1|0:0,0:0:0:0:
309,46,42913,6,0,P|254:34|209:17,1,90,2|0,1:0|3:0,0:0:0:0:
288,168,43236,2,0,P|233:156|188:139,1,90,2|2,1:0|3:2,0:0:0:0:
439,96,43558,1,2,0:1:0:0:
357,123,43720,1,2,3:1:0:0:
430,188,43881,1,2,1:0:0:0:
381,268,44042,1,2,0:0:0:0:
428,78,44203,5,4,0:1:0:0:
44,260,51784,5,0,1:0:0:0:
89,246,51865,1,0,1:0:0:0:
132,264,51945,2,0,P|141:308|141:360,1,80.9999975280763,14|0,1:0|2:0,0:0:0:0:
65,373,52268,5,10,1:2:0:0:
281,332,52429,1,10,1:0:0:0:
300,349,52752,5,10,1:2:0:0:
195,175,52913,1,10,1:0:0:0:
223,270,53074,1,0,1:0:0:0:
398,258,53236,5,0,1:0:0:0:
411,239,53316,1,0,1:0:0:0:
411,210,53397,1,0,1:0:0:0:
388,179,53478,1,0,1:0:0:0:
346,176,53558,1,8,1:0:0:0:
512,152,53720,1,4,1:0:0:0:
376,65,53881,6,0,P|357:72|372:97,1,54,2|2,0:0|0:0,0:0:0:0:
397,89,54526,5,6,1:0:0:0:
224,155,54687,2,0,P|141:132|115:1,1,233.999989288331,10|10,0:2|0:0,0:0:0:0:
0,15,55171,1,10,1:0:0:0:
28,260,55332,2,0,L|13:137,1,107.999996704102,2|2,0:1|0:1,0:0:0:0:
276,244,55655,6,0,P|342:263|421:257,1,107.999996704102,14|0,1:2|0:0,0:0:0:0:
489,190,55978,2,0,P|504:117|495:35,1,107.999996704102,6|0,1:2|0:0,0:0:0:0:
320,30,56300,1,2,3:2:0:0:
221,302,56462,1,10,1:2:0:0:
361,163,56623,2,0,B|268:114|243:204|141:207,1,215.999993408203,2|2,3:2|3:2,0:0:0:0:
130,205,57107,5,6,1:0:0:0:
337,371,57268,2,0,P|385:310|286:242,1,215.999993408203,10|10,0:0|0:1,0:0:0:0:
90,292,57752,5,10,1:0:0:0:
274,312,57913,1,10,0:0:0:0:
172,384,58074,1,8,1:0:0:0:
263,171,58236,6,0,B|288:51|383:81|400:-10,2,215.999993408203,6|2|2,1:0|3:1|1:0,0:0:0:0:
198,260,58962,1,0,1:0:0:0:
192,277,59042,6,0,L|181:202,1,53.9999983520508,10|8,1:0|3:0,0:0:0:0:
267,48,59203,2,0,L|260:102,1,53.9999983520508,4|4,3:0|3:0,0:0:0:0:
124,173,59365,1,8,3:2:0:0:
86,191,59445,1,8,0:0:0:0:
42,160,59526,2,0,L|119:186,1,53.9999983520508,8|8,0:0|0:1,0:0:0:0:
343,360,59687,5,14,1:0:0:0:
330,344,59849,2,0,B|222:294|231:396|119:371,1,215.999993408203,0|0,3:0|3:0,0:0:0:0:
453,266,60332,1,10,1:0:0:0:
347,122,60494,2,0,L|358:244,1,107.999996704102,2|2,0:0|0:0,0:0:0:0:
103,257,60816,6,0,P|24:229|15:84,2,215.999993408203,6|10|2,1:0|0:0|3:2,0:0:0:0:
350,240,61623,1,8,1:0:0:0:
241,357,61784,1,2,3:2:0:0:
228,154,61945,1,8,1:0:0:0:
435,285,62107,1,2,1:2:0:0:
448,290,62187,1,0,1:0:0:0:
461,293,62268,6,0,P|465:266|449:227,1,53.9999983520508,6|0,1:0|0:0,0:0:0:0:
314,65,62429,2,0,B|426:17|405:129|509:118,1,215.999993408203,8|2,0:0|1:1,0:0:0:0:
190,139,62913,1,10,1:0:0:0:
337,166,63074,1,2,3:1:0:0:
129,293,63236,1,6,1:0:0:0:
177,126,63397,6,0,B|237:5|111:-36|43:59|75:155|207:99|239:195|218:302,1,459.00000875473,2|8,1:0|1:0,0:0:0:0:
97,376,63962,1,8,1:0:0:0:
68,380,64042,2,0,P|33:376|4:363,1,58.4999973220826,4|4,3:0|3:0,0:0:0:0:
9,196,64203,1,10,0:0:0:0:
0,220,64284,1,8,1:2:0:0:
0,242,64365,2,0,P|30:249|77:252,1,58.4999973220826,8|4,3:0|3:0,0:0:0:0:
233,146,64526,5,4,3:0:0:0:
239,154,64607,1,4,3:0:0:0:
244,161,64687,2,0,P|244:195|241:225,1,58.4999973220826,8|8,1:2|1:2,0:0:0:0:
111,178,64849,5,14,1:0:0:0:
375,234,65010,2,0,P|385:171|376:84,1,116.999994644165,2|2,3:2|0:1,0:0:0:0:
304,62,65332,1,2,3:2:0:0:
358,322,65494,2,0,P|473:253|465:137,1,233.999989288331,8|0,1:0|0:0,0:0:0:0:
230,99,65978,2,0,P|246:143|245:217,1,99.0000030212403,6|0,1:0|0:0,0:0:0:0:
224,384,66300,2,0,P|191:347|149:323,1,99.0000030212403,6|2,1:2|0:0,0:0:0:0:
11,384,66623,5,2,1:2:0:0:
243,289,66784,1,10,1:2:0:0:
85,82,66945,2,0,P|155:146|141:240,1,198.000006042481,2|0,1:2|3:0,0:0:0:0:
10,129,67429,5,14,1:2:0:0:
258,193,67591,1,2,1:0:0:0:
251,185,67913,5,8,0:0:0:0:
319,379,68074,1,10,1:0:0:0:
189,303,68236,1,2,3:2:0:0:
434,190,68397,1,0,1:0:0:0:
345,297,68558,6,0,B|198:284|254:172|190:97|84:93|14:133|15:237,1,405.000015449525,6|0,1:0|0:0,0:0:0:0:
92,320,69203,5,8,3:0:0:0:
110,332,69284,1,8,3:0:0:0:
133,341,69365,2,0,P|171:347|212:347,1,67.5000025749208,8|8,1:0|1:0,0:0:0:0:
399,290,69526,5,8,1:2:0:0:
371,301,69607,1,8,0:0:0:0:
345,297,69687,2,0,P|310:282|271:245,1,67.5000025749208,8|4,3:0|3:0,0:0:0:0:
130,134,69849,5,8,1:2:0:0:
128,155,69930,1,8,1:0:0:0:
132,180,70011,2,0,P|145:216|166:251,1,67.5000025749208,14|0,1:0|0:0,0:0:0:0:
284,279,70171,5,2,3:1:0:0:
63,246,70332,2,0,P|27:258|-12:287,1,67.5000025749208,10|0,1:0|0:0,0:0:0:0:
228,168,70494,1,0,3:0:0:0:
225,335,70655,6,0,P|253:356|321:360,1,67.5000025749208,10|0,1:0|0:0,0:0:0:0:
439,296,70816,2,0,P|471:282|508:225,1,67.5000025749208,2|0,1:0|0:0,0:0:0:0:
366,142,70978,1,10,1:0:0:0:
159,241,71139,6,0,P|78:200|92:67,1,202.500007724762,14|0,1:0|2:0,0:0:0:0:
134,24,71462,1,2,1:2:0:0:
143,40,71542,1,0,1:0:0:0:
151,58,71623,2,0,P|163:98|165:131,1,67.5000025749208,8|0,1:0|0:0,0:0:0:0:
33,194,71784,5,10,1:0:0:0:
236,169,71945,1,8,0:0:0:0:
148,145,72107,1,10,1:2:0:0:
266,273,72268,1,8,3:2:0:0:
294,99,72429,1,8,1:0:0:0:
311,68,72510,1,8,1:0:0:0:
345,54,72591,6,0,P|381:54|419:77,1,67.5000025749208,6|0,1:0|0:0,0:0:0:0:
484,65,72752,2,0,P|509:141|509:231,1,135,2|0,3:2|2:0,0:0:0:0:
461,273,73074,1,10,0:0:0:0:
364,155,73236,1,8,0:1:0:0:
484,38,73397,2,0,P|509:114|509:204,1,135,2|0,3:2|2:0,0:0:0:0:
461,273,73720,6,0,B|411:206|327:236|327:236|281:320|185:284,1,292.499986610413,2|0,3:1|2:0,0:0:0:0:
193,274,74203,1,10,0:0:0:0:
91,372,74365,2,0,L|109:257,1,116.999994644165,2|2,3:2|0:2,0:0:0:0:
164,5,74687,1,2,3:2:0:0:
136,170,74849,2,0,P|177:129|227:98,1,116.999994644165,8|2,0:1|0:0,0:0:0:0:
35,27,75171,6,0,P|63:21|92:22,1,58.4999973220826,6|0,1:0|0:0,0:0:0:0:
258,197,75332,2,0,P|347:130|302:20,1,233.999989288331,0|2,3:0|3:2,0:0:0:0:
173,75,75816,6,0,P|204:92|244:98,1,58.4999973220826,8|0,0:0|0:0,0:0:0:0:
419,48,75978,1,2,3:2:0:0:
258,197,76139,6,0,P|292:185|350:184,1,58.4999973220826,8|0,0:0|0:0,0:0:0:0:
470,193,76300,2,0,B|545:256|459:352|377:342|359:226|266:282|248:349,1,350.999983932496,2|2,1:0|0:0,0:0:0:0:
181,361,76945,1,0,1:0:0:0:
234,196,77107,1,2,0:0:0:0:
329,366,77268,1,2,3:2:0:0:
158,258,77429,6,0,P|129:269|93:304,1,58.4999973220826,8|0,0:0|0:0,0:0:0:0:
84,364,77591,1,2,0:0:0:0:
4,184,77752,5,6,1:0:0:0:
172,264,77913,2,0,P|228:243|223:79,1,233.999989288331,0|2,3:0|3:2,0:0:0:0:
355,120,78397,1,8,0:1:0:0:
167,163,78558,2,0,P|107:112|116:28,1,116.999994644165,0|2,3:0|0:0,0:0:0:0:
458,115,78881,6,0,B|322:73|366:214|240:209,1,233.999989288331,2|2,3:1|3:1,0:0:0:0:
57,186,79365,1,8,1:0:0:0:
262,196,79526,6,0,B|386:164|351:301|480:290,1,233.999989288331,0|2,3:0|3:2,0:0:0:0:
507,220,80010,1,4,0:0:0:0:
441,102,80171,1,8,0:0:0:0:
217,262,80332,5,6,1:0:0:0:
441,295,80494,1,0,3:0:0:0:
449,305,80816,5,0,3:0:0:0:
255,117,80978,1,8,0:1:0:0:
354,156,81139,1,0,3:0:0:0:
335,321,81300,1,8,1:2:0:0:
148,211,81462,6,0,B|286:164|275:253|389:242,1,233.999989288331,10|10,1:0|0:0,0:0:0:0:
476,122,81945,1,2,3:2:0:0:
353,27,82107,1,8,0:0:0:0:
343,58,82187,1,8,0:0:0:0:
340,90,82268,2,0,P|340:123|353:174,1,58.4999973220826,8|4,3:0|3:0,0:0:0:0:
492,303,82429,2,0,P|468:278|414:251,1,58.4999973220826,4|4,1:3|3:0,0:0:0:0:
238,273,82591,2,0,P|213:297|186:351,1,58.4999973220826,8|4,1:3|3:0,0:0:0:0:
359,366,82752,1,8,1:2:0:0:
371,331,82832,1,8,1:2:0:0:
368,297,82913,6,0,P|327:234|146:190,1,233.999989288331,14|2,1:0|0:1,0:0:0:0:
24,232,83397,1,8,0:0:0:0:
238,273,83558,1,10,1:0:0:0:
130,365,83720,1,2,3:2:0:0:
120,371,84042,6,0,P|109:265|205:192,1,233.999989288331,4|8,1:0|0:0,0:0:0:0:
459,186,84526,2,0,P|406:155|336:92,1,116.999994644165,10|2,0:1|1:0,0:0:0:0:
204,23,84849,1,8,0:0:0:0:
274,154,85010,1,2,1:1:0:0:
96,151,85171,1,10,0:3:0:0:
121,77,85332,1,6,0:3:0:0:
199,206,85494,6,0,P|202:271|204:341,1,116.999994644165,14|0,1:0|0:0,0:0:0:0:
0,382,85816,1,10,0:1:0:0:
123,274,85978,1,10,0:0:0:0:
3,187,86139,1,10,0:1:0:0:
82,47,86300,1,10,0:0:0:0:
18,92,86462,1,10,0:1:0:0:
207,162,86623,6,0,P|212:99|217:26,1,116.999994644165,14|2,1:0|0:3,0:0:0:0:
279,227,86945,1,10,0:0:0:0:
116,142,87107,1,8,1:2:0:0:
122,113,87187,1,8,1:2:0:0:
128,86,87268,2,0,P|126:58|121:27,1,58.4999973220826,8|8,0:3|0:3,0:0:0:0:
0,93,87429,1,8,1:2:0:0:
10,93,87510,1,8,1:2:0:0:
20,94,87591,1,8,3:0:0:0:
33,120,87671,1,8,3:0:0:0:
38,152,87752,1,2,3:0:0:0:
40,183,87832,1,4,3:0:0:0:
41,217,87913,1,6,1:3:0:0:
42,254,87994,1,8,1:2:0:0:
43,290,88074,6,0,P|44:326|40:378,1,58.4999973220826,14|0,1:0|0:0,0:0:0:0:
169,239,88236,2,0,P|190:170|196:102,1,116.999994644165,2|2,0:0|0:1,0:0:0:0:
156,23,88558,1,0,3:0:0:0:
280,164,88720,1,8,0:1:0:0:
384,112,88881,2,0,P|480:135|502:151,1,116.999994644165,8|2,0:0|0:1,0:0:0:0:
433,357,89203,6,0,P|344:357|259:216,1,233.999989288331,6|8,0:1|0:0,0:0:0:0:
190,128,89687,2,0,P|128:170|54:188,1,116.999994644165,10|2,1:0|3:1,0:0:0:0:
297,164,90010,1,8,1:0:0:0:
307,171,90171,2,0,P|342:166|392:149,2,62.9999980773926,8|8|2,0:1|0:0|3:2,0:0:0:0:
106,263,90655,5,2,0:0:0:0:
104,245,90816,1,2,0:0:0:0:
162,330,90978,1,2,0:2:0:0:
160,312,91139,1,2,0:0:0:0:
172,161,91300,1,10,0:2:0:0:
175,207,91461,1,0,0:2:0:0:
89,162,91623,1,8,0:1:0:0:
86,116,91784,1,2,1:0:0:0:
159,57,91945,1,2,0:0:0:0:
181,56,92107,1,2,0:0:0:0:
253,100,92268,1,10,0:2:0:0:
275,99,92430,1,10,0:2:0:0:
351,146,92591,1,10,0:3:0:0:
275,99,92752,1,10,0:3:0:0:
322,23,92913,1,10,0:0:0:0:
398,70,93074,1,2,1:2:0:0:
275,99,93236,5,6,1:0:0:0:
254,184,93397,1,6,0:1:0:0:
255,68,93558,1,2,0:0:0:0:
272,202,93720,1,10,0:1:0:0:
189,116,93881,1,10,0:0:0:0:
340,150,94042,1,10,0:2:0:0:
290,225,94203,1,10,0:0:0:0:
192,203,94364,1,10,0:2:0:0:
152,279,94526,1,2,0:0:0:0:
289,309,94687,1,10,0:1:0:0:
42,229,94849,1,2,0:0:0:0:
55,243,94929,1,0,1:0:0:0:
69,256,95010,1,2,1:0:0:0:
57,193,95091,1,0,1:0:0:0:
40,137,95171,1,0,1:0:0:0:
256,82,95332,1,10,1:2:0:0:
233,87,95413,1,8,1:2:0:0:
210,92,95494,6,0,B|168:100|168:100|158:117|158:117|138:128|138:128|207:120|224:140|224:140|357:125,1,283.499991348267,10|0,1:0|0:0,0:0:0:0:
474,41,95816,6,0,B|321:75|386:152|230:210|230:210|354:205|337:62|476:94,1,566.999982696534,14|8,1:0|0:0,0:0:0:0:
512,168,96462,1,8,0:1:0:0:
288,322,96623,6,0,L|433:290,1,148.50000453186,2|0,0:0|2:0,0:0:0:0:
505,187,96945,2,0,P|402:200|312:256,1,170.999995433807,14|0,0:0|0:0,0:0:0:0:
130,107,97268,2,0,P|185:42|259:0,1,170.999995433807,10|0,0:0|0:0,0:0:0:0:
474,96,97591,1,2,1:2:0:0:
448,96,97671,1,0,1:0:0:0:
426,100,97752,1,8,1:0:0:0:
462,14,97913,1,10,0:0:0:0:
278,175,98074,1,8,0:1:0:0:
308,155,98155,1,8,0:0:0:0:
328,125,98236,1,10,1:2:0:0:
339,91,98316,1,8,1:2:0:0:
336,51,98397,5,10,1:0:0:0:
386,186,98558,2,0,L|405:364,1,170.999995433807,2|0,1:0|0:0,0:0:0:0:
37,251,98881,1,8,0:0:0:0:
278,175,99042,1,10,0:1:0:0:
208,384,99203,1,10,0:0:0:0:
174,147,99365,1,10,0:1:0:0:
40,344,99526,6,0,B|126:368|146:246|272:248|280:373|393:351,1,341.999990867615,14|12,0:0|0:0,0:0:0:0:
512,311,100010,1,0,0:0:0:0:
326,254,100171,1,0,1:0:0:0:
310,213,100252,1,0,1:0:0:0:
296,172,100332,1,8,1:0:0:0:
202,333,100494,1,2,1:0:0:0:
179,82,100655,1,8,0:1:0:0:
37,251,100816,1,0,1:0:0:0:
49,215,100897,1,0,1:0:0:0:
64,174,100978,5,2,1:0:0:0:
55,157,101462,1,2,0:0:0:0:
46,137,101945,2,0,P|214:165|320:16,1,360,2|0,0:0|0:0,0:0:0:0:
271,282,102913,6,0,L|255:337,1,58.4999973220826,10|0,1:0|0:0,0:0:0:0:
236,351,103074,2,0,L|157:341,1,58.4999973220826,8|8,0:1|1:0,0:0:0:0:
429,294,103236,1,8,3:0:0:0:
425,307,103316,1,8,3:0:0:0:
422,318,103397,1,4,3:0:0:0:
419,331,103478,1,8,3:2:0:0:
414,343,103558,5,2,1:0:0:0:
389,301,103639,1,0,1:0:0:0:
387,245,103720,1,0,1:0:0:0:
395,205,103800,1,0,1:0:0:0:
421,164,103881,1,0,1:0:0:0:
438,170,103962,1,8,1:0:0:0:
452,177,104042,5,8,3:0:0:0:
425,137,104123,1,8,1:0:0:0:
381,114,104203,1,8,1:0:0:0:
328,113,104284,1,8,1:2:0:0:
282,132,104365,1,8,3:0:0:0:
284,151,104445,1,8,3:0:0:0:
286,166,104526,5,8,3:0:0:0:
316,135,104607,1,8,0:0:0:0:
301,87,104687,1,8,0:0:0:0:
254,65,104768,1,8,0:0:0:0:
201,77,104849,1,12,1:2:0:0:
164,142,104929,1,12,1:2:0:0:
194,209,105010,1,2,1:0:0:0:
246,229,105091,1,8,0:0:0:0:
279,216,105171,6,0,P|318:221|391:262,1,85.4999977169037,8|0,3:0|0:0,0:0:0:0:
509,327,105332,2,0,P|481:287|437:250,1,85.4999977169037,8|4,3:0|3:0,0:0:0:0:
139,383,105494,1,8,3:0:0:0:
152,362,105574,2,0,P|199:342|307:340,1,85.4999977169037,8|8,1:0|3:0,0:0:0:0:
427,384,105736,1,8,1:2:0:0:
394,357,105816,2,0,P|340:325|266:305,1,85.4999977169037,12|0,1:0|0:0,0:0:0:0:
54,264,105978,2,0,P|116:257|191:270,1,85.4999977169037,4|0,1:0|0:0,0:0:0:0:
292,384,106139,5,12,3:0:0:0:
256,192,124203,5,14,0:3:0:0:
256,192,124244,12,0,126703,2:0:0:0:
162,324,126784,6,0,B|157:360|126:408|2:455|-103:235|109:132|239:228|239:228|435:363|647:80|379:-145|199:-10|193:105,1,1187.99996374512,14|0,0:0|2:0,0:0:0:0:
176,114,127752,1,10,0:0:0:0:
325,125,127913,6,0,B|348:348,2,180,6|0|8,0:0|0:0|0:0,0:0:0:0:
382,6,128316,1,8,0:0:0:0:
362,46,128397,1,8,0:0:0:0:
344,88,128478,1,4,0:3:0:0:
325,125,128558,1,8,0:3:0:0:
339,119,128639,1,8,0:3:0:0:
352,116,128720,6,0,P|433:152|457:213,2,90,10|8|8,0:0|0:0|0:0,0:0:0:0:
165,46,128962,2,0,P|114:63|30:173,1,180,2|0,0:0|2:0,0:0:0:0:
2,281,129203,2,0,P|45:265|90:263,1,90,10|0,0:0|0:0,0:0:0:0:
317,310,129365,6,0,B|223:260|236:361|89:330,1,180,6|10,0:0|0:2,0:0:0:0:
419,357,129687,1,10,0:0:0:0:
387,187,129849,1,10,0:2:0:0:
242,147,130010,1,10,0:0:0:0:
403,204,130172,1,10,0:2:0:0:
473,142,130332,1,10,0:0:0:0:
381,209,130494,1,4,0:0:0:0:
512,309,130655,6,0,P|510:209|494:111,2,188.999994232178,2|0|10,0:0|0:0|0:0,0:0:0:0:
494,327,131220,1,8,0:3:0:0:
445,325,131300,1,10,0:3:0:0:
418,298,131381,1,4,0:3:0:0:
411,271,131462,1,4,0:3:0:0:
418,253,131542,1,4,0:3:0:0:
426,246,131623,1,4,0:3:0:0:
437,243,131703,1,4,0:3:0:0:
446,249,131784,1,8,0:0:0:0:
419,208,131865,1,8,0:0:0:0:
365,215,131945,6,0,P|346:243|331:293,1,62.9999980773926,14|0,0:0|0:0,0:0:0:0:
190,356,132107,2,0,P|197:323|62:237,1,188.999994232178,8|0,0:0|2:0,0:0:0:0:
63,242,132429,1,8,0:2:0:0:
109,110,132591,1,8,0:0:0:0:
4,313,132752,2,0,P|34:325|89:339,1,62.9999980773926
109,364,132913,2,0,P|85:343|63:320,1,62.9999980773926,2|0,0:0|0:0,0:0:0:0:
30,63,133074,6,0,P|18:132|158:246,1,242.999992584229,12|0,0:0|2:0,0:0:0:0:
163,171,133397,2,0,P|249:189|314:178,1,135,2|0,0:0|2:0,0:0:0:0:
292,106,133720,2,0,P|338:100|383:77,1,90,2|8,0:0|0:0,0:0:0:0:
399,2,134042,1,10,0:2:0:0:
512,79,134203,1,8,0:0:0:0:
417,145,134365,1,8,0:2:0:0:
432,166,134445,1,8,0:2:0:0:
443,186,134526,6,0,P|449:221|448:279,1,72,6|0,0:0|0:0,0:0:0:0:
240,381,134687,2,0,P|187:331|299:176,1,288,8|8,0:2|0:2,0:0:0:0:
83,338,135171,1,8,0:0:0:0:
275,282,135332,1,8,0:2:0:0:
134,143,135494,1,8,0:0:0:0:
425,309,135655,6,0,B|455:292|497:213|462:110|264:73|235:244|217:239|228:233|174:380|-135:340|-167:71|26:-99|242:-110|348:77|275:291|97:237|112:136,1,935.999957153322,6|8,0:0|0:3,0:0:0:0:
122,187,136381,1,8,0:3:0:0:
101,187,136462,6,0,P|61:204|-3:215,1,90,8|8,0:3|0:0,0:0:0:0:
104,44,136623,2,0,B|131:64|147:83|147:83|155:136,1,90,8|4,0:3|0:3,0:0:0:0:
236,213,136784,2,0,B|235:177|235:177|254:163|254:163|256:84,1,90,8|8,0:2|0:2,0:0:0:0:
352,31,136945,2,0,B|327:45|327:45|337:53|337:53|318:66|318:66|317:113,1,90,8|8,0:0|0:0,0:0:0:0:
162,271,137107,6,0,P|147:325|119:374,1,90,6|0,0:0|0:0,0:0:0:0:
18,360,137268,1,4,0:3:0:0:
61,325,137349,1,2,0:0:0:0:
111,330,137429,2,0,P|147:343|230:318,1,90,2|0,0:0|0:0,0:0:0:0:
137,190,137591,2,0,P|116:160|109:71,1,90,4|2,0:3|0:0,0:0:0:0:
256,222,137752,2,0,P|289:246|343:270,1,85.4999977169037,8|2,0:0|0:0,0:0:0:0:
481,337,137913,1,0,0:0:0:0:
459,281,137994,1,2,0:0:0:0:
479,243,138074,2,0,P|478:207|442:133,1,85.4999977169037,0|2,0:0|0:0,0:0:0:0:
159,63,138236,2,0,P|193:82|256:101,1,85.4999977169037,6|0,0:1|0:0,0:0:0:0:
393,73,138397,2,0,P|370:112|321:158,1,85.4999977169037,2|0,0:0|0:0,0:0:0:0:
88,99,138558,2,0,B|197:83|218:247|289:281,1,256.499993150711,4|0,0:3|2:0,0:0:0:0:
259,308,138881,2,0,P|217:274|181:188,1,85.4999977169037,6|0,0:3|0:0,0:0:0:0:
239,15,139042,2,0,L|241:107,1,85.4999977169037,10|0,0:0|0:0,0:0:0:0:
113,207,139203,2,0,P|51:232|-19:239,2,113.999996955872,6|2|2,0:3|0:0|0:0,0:3:0:0:
215,45,139526,2,0,P|253:34|309:26,1,85.4999977169037,6|0,0:3|0:0,0:0:0:0:
459,115,139687,1,14,0:0:0:0:
465,174,139768,2,0,P|449:211|376:335,1,170.999995433807,2|0,0:0|0:0,0:0:0:0:
257,158,140010,1,2,0:0:0:0:
272,120,140091,1,2,0:0:0:0:
306,147,140171,2,0,P|335:181|374:237,1,85.4999977169037,6|0,0:3|0:0,0:0:0:0:
187,244,140332,1,10,0:0:0:0:
182,218,140413,1,2,0:0:0:0:
204,215,140494,2,0,P|229:180|274:104,1,85.4999977169037,6|0,0:3|0:0,0:0:0:0:
300,288,140655,2,0,P|323:326|360:375,1,85.4999977169037,10|2,0:0|0:0,0:0:0:0:
83,203,140816,2,0,P|48:176|10:142,1,85.4999977169037,6|0,0:2|0:0,0:0:0:0:
269,210,140978,1,2,0:0:0:0:
282,202,141058,1,2,0:0:0:0:
292,192,141139,2,0,P|290:153|280:90,1,85.4999977169037,6|0,0:3|0:0,0:0:0:0:
148,71,141300,2,0,P|185:120|270:159,1,85.4999977169037,2|0,0:0|0:0,0:0:0:0:
423,187,141462,1,10,0:3:0:0:
397,144,141542,1,8,0:3:0:0:
414,90,141623,2,0,P|378:119|337:141,1,85.4999977169037,10|10,0:0|0:0,0:0:0:0:
75,65,141784,1,10,0:0:0:0:
131,58,141865,1,8,0:2:0:0:
184,76,141945,1,10,0:3:0:0:
207,125,142026,1,8,0:3:0:0:
196,176,142107,1,10,0:0:0:0:
181,163,142187,1,8,0:0:0:0:
168,154,142268,6,0,P|163:202|169:265,1,85.4999977169037,14|0,0:0|0:0,0:0:0:0:
231,319,142429,1,8,0:2:0:0:
344,118,142591,2,0,P|304:145|259:190,1,85.4999977169037,8|0,0:0|0:0,0:0:0:0:
212,312,142752,1,10,0:2:0:0:
453,235,142913,2,0,P|406:221|343:216,1,85.4999977169037,10|0,0:0|0:0,0:0:0:0:
195,305,143074,1,10,0:2:0:0:
433,383,143236,2,0,P|413:338|376:287,1,85.4999977169037,8|0,0:0|0:0,0:0:0:0:
168,145,143397,6,0,P|52:277|240:307,1,431.999986816407,6|8,0:0|0:0,0:0:0:0:
221,244,143800,1,8,0:0:0:0:
182,255,143881,1,10,0:0:0:0:
303,246,144042,1,10,0:0:0:0:
414,107,144203,1,10,0:2:0:0:
374,324,144365,1,10,0:0:0:0:
254,168,144526,1,8,0:2:0:0:
494,254,144687,1,10,0:0:0:0:
494,277,144768,1,8,0:0:0:0:
495,300,144849,5,14,0:1:0:0:
383,186,145010,1,10,0:0:0:0:
512,84,145171,1,8,1:0:0:0:
418,376,145332,2,0,P|307:336|258:301,1,135.000005149842,10|0,0:0|0:0,0:0:0:0:
154,106,145655,1,10,0:0:0:0:
290,215,145816,1,8,1:0:0:0:
49,356,145978,6,0,P|73:246|79:163,1,135.000005149842,14|0,0:0|0:0,0:0:0:0:
143,338,146300,1,0,0:0:0:0:
14,138,146462,1,8,1:0:0:0:
172,106,146623,1,10,0:0:0:0:
83,5,146784,1,2,0:0:0:0:
0,216,146945,1,8,0:0:0:0:
231,207,147107,1,8,1:0:0:0:
191,0,147268,1,12,0:0:0:0:
265,206,147429,6,0,P|290:144|289:77,1,135.000005149842,10|2,1:0|1:0,0:0:0:0:
497,187,147752,2,0,P|455:239|396:271,1,135.000005149842,10|2,0:1|0:0,0:0:0:0:
252,208,148074,1,12,3:0:0:0:
153,105,148236,1,12,3:0:0:0:
312,4,148397,1,8,1:0:0:0:
44,111,148558,6,0,B|37:192|129:231|195:213|194:201|193:191|227:154|333:171|339:272|303:323,1,427.499988584519,6|0,1:0|2:0,0:0:0:0:
277,349,149042,1,10,1:0:0:0:
415,370,149203,1,8,0:0:0:0:
189,301,149365,5,10,1:2:0:0:
190,256,149445,1,0,1:0:0:0:
189,214,149526,2,0,L|188:105,1,85.4999977169037,8|8,3:0|0:0,0:0:0:0:
280,7,149688,1,0,1:0:0:0:
278,29,149768,1,0,1:0:0:0:
277,49,149849,2,0,L|270:154,1,85.4999977169037,10|8,1:2|1:2,0:0:0:0:
357,319,150010,5,14,1:0:0:0:
450,228,150171,1,8,0:0:0:0:
118,324,150332,1,8,1:0:0:0:
302,384,150494,1,10,0:0:0:0:
19,375,150655,1,2,0:0:0:0:
207,150,150816,2,0,P|184:198|158:335,1,170.999995433807,2|8,0:1|1:0,0:0:0:0:
186,132,151139,6,0,P|246:125|309:106,1,116.999994644165,6|0,1:0|0:0,0:0:0:0:
397,51,151462,1,6,1:0:0:0:
355,204,151623,2,0,L|276:226,1,58.4999973220826,8|0,1:0|0:0,0:0:0:0:
76,265,151784,1,10,0:0:0:0:
325,353,151945,2,0,L|345:273,1,58.4999973220826,8|0,1:0|0:0,0:0:0:0:
379,129,152107,1,8,0:0:0:0:
151,324,152268,5,8,1:0:0:0:
200,314,152349,1,8,1:0:0:0:
230,352,152429,1,10,1:2:0:0:
241,317,152510,1,8,3:0:0:0:
223,284,152591,5,14,0:0:0:0:
105,130,152752,1,8,0:0:0:0:
98,148,153074,5,2,1:0:0:0:
304,183,153236,1,8,1:0:0:0:
199,41,153397,1,10,0:0:0:0:
304,294,153558,1,10,0:1:0:0:
418,115,153720,2,0,P|354:95|231:86,1,153.000002918243,14|8,0:0|1:0,0:0:0:0:
435,0,154042,1,8,0:0:0:0:
304,183,154203,1,8,1:0:0:0:
272,213,154284,1,8,1:0:0:0:
233,226,154365,1,8,3:0:0:0:
198,216,154445,1,4,3:0:0:0:
203,202,154526,6,0,P|235:205|281:223,1,58.4999973220826,10|8,0:0|1:0,0:0:0:0:
400,306,154687,1,10,0:0:0:0:
398,293,154768,1,8,3:0:0:0:
404,284,154849,1,8,3:0:0:0:
416,279,154929,1,4,3:0:0:0:
428,279,155010,2,0,P|443:306|449:347,1,58.4999973220826,10|0,1:0|0:0,0:0:0:0:
320,343,155171,5,14,1:0:0:0:
359,122,155332,1,8,0:0:0:0:
227,379,155494,1,8,1:0:0:0:
401,206,155655,2,0,P|322:211|287:189,1,116.999994644165,10|0,0:0|0:0,0:0:0:0:
124,219,155978,1,8,0:0:0:0:
282,171,156139,1,8,1:0:0:0:
28,268,156300,6,0,P|5:190|113:57,1,233.999989288331,14|8,0:0|0:0,0:0:0:0:
243,33,156784,2,0,P|207:84|153:134,1,116.999994644165,8|8,1:0|0:0,0:0:0:0:
348,228,157107,1,2,0:0:0:0:
177,144,157268,1,10,0:0:0:0:
145,381,157429,1,8,1:0:0:0:
235,230,157591,1,10,0:0:0:0:
74,184,157752,5,6,1:0:0:0:
26,371,157913,1,8,0:0:0:0:
201,327,158074,1,8,1:0:0:0:
224,314,158397,5,10,0:0:0:0:
36,273,158558,1,10,0:0:0:0:
383,345,158720,1,8,1:0:0:0:
371,172,158881,6,0,P|196:130|129:277,1,341.999990867615,14|8,0:0|0:0,0:0:0:0:
306,313,159365,1,8,1:0:0:0:
261,216,159526,1,8,0:0:0:0:
123,355,159687,1,8,1:0:0:0:
156,363,159768,1,8,1:0:0:0:
188,371,159849,1,8,0:0:0:0:
186,365,159929,1,8,3:0:0:0:
183,358,160010,1,8,3:0:0:0:
181,352,160091,1,4,3:0:0:0:
179,345,160171,1,8,3:0:0:0:
319,338,160332,6,0,P|434:328|436:158,1,256.499993150711,14|0,1:0|2:0,0:0:0:0:
411,147,160655,2,0,P|496:232|448:343,1,256.499993150711,12|0,0:0|2:0,0:0:0:0:
413,359,160978,5,2,1:0:0:0:
218,168,161139,1,2,0:0:0:0:
388,227,161300,1,8,0:0:0:0:
173,380,161462,6,0,P|163:300|161:217,1,135.000005149842,14|0,1:0|0:0,0:0:0:0:
51,80,161784,1,2,1:0:0:0:
99,84,161865,1,0,1:0:0:0:
133,120,161945,1,8,3:0:0:0:
124,126,162026,1,8,3:0:0:0:
116,131,162107,1,12,3:0:0:0:
108,136,162187,1,4,3:0:0:0:
100,141,162268,1,8,0:0:0:0:
93,147,162349,1,8,0:0:0:0:
85,153,162429,1,2,1:0:0:0:
218,168,162591,5,8,1:0:0:0:
81,0,162752,1,8,1:0:0:0:
308,207,162913,6,0,L|418:221,1,108,14|4,1:0|1:0,0:0:0:0:
512,154,164042,6,0,B|482:103|412:56|381:113|383:232|229:247|316:-31|177:-23|47:37|156:219|17:202|-34:191,1,594.000018127442,14|10,1:0|1:0,0:0:0:0:
5,115,164687,1,2,1:0:0:0:
265,362,164849,2,0,B|394:271|266:125|210:276|345:328,1,292.499986610413,2|0,1:0|2:0,0:0:0:0:
460,336,165332,6,0,P|428:319|393:264,1,80.9999975280763,6|2,1:0|0:0,0:0:0:0:
334,64,165494,2,0,P|312:92|303:157,1,80.9999975280763,2|0,0:1|0:0,0:0:0:0:
448,213,165655,1,8,1:2:0:0:
228,56,165816,1,8,1:2:0:0:
406,132,165978,1,10,1:2:0:0:
122,268,166139,1,8,1:0:0:0:
235,164,166300,1,8,0:0:0:0:
172,0,166462,5,10,1:0:0:0:
0,226,166623,2,0,P|117:218|173:186,1,161.999995056153,12|2,0:0|0:1,0:0:0:0:
265,384,166945,1,8,0:0:0:0:
52,257,167107,2,0,P|130:281|172:286,1,107.999996704102,8|2,1:0|3:1,0:0:0:0:
319,244,167429,2,0,P|331:173|351:104,1,144,12|12,3:0|3:0,0:0:0:0:
223,244,167752,2,0,P|242:313|255:383,1,144,12|8,3:0|1:0,0:0:0:0:
452,328,168074,5,6,1:0:0:0:
406,314,168155,1,0,1:0:0:0:
388,277,168236,1,0,1:0:0:0:
397,233,168316,1,0,1:0:0:0:
436,207,168397,5,6,1:0:0:0:
459,211,168720,1,8,0:0:0:0:
474,217,169042,1,8,1:0:0:0:
320,97,169203,6,0,B|266:54|171:85|148:200|154:207|156:218|87:318|-77:308|-90:64|80:74,1,594.000018127442,6|8,1:0|1:0,0:0:0:0:
242,146,169849,1,8,1:2:0:0:
223,347,170010,2,0,P|164:230|258:109,1,256.499993150711,10|0,0:0|2:0,0:0:0:0:
242,146,170332,1,10,1:0:0:0:
284,277,170494,6,0,P|365:307|524:243,1,256.499993150711,14|0,0:0|2:0,0:0:0:0:
504,237,170816,2,0,P|468:197|495:150,1,85.4999977169037,12|0,3:0|0:0,0:0:0:0:
377,151,170978,2,0,P|393:99|447:99,1,85.4999977169037,12|0,3:0|0:0,0:0:0:0:
393,0,171139,2,0,P|445:-11|472:35,1,85.4999977169037,8|0,0:0|0:0,0:0:0:0:
483,162,171300,5,8,1:0:0:0:
512,72,171462,1,8,0:0:0:0:
369,233,171623,1,8,1:0:0:0:
193,6,171784,6,0,B|308:10|320:90|280:166|269:165|257:165|216:213|240:340|352:339,1,414.000007896424,6|8,1:0|1:0,0:0:0:0:
331,342,172187,1,0,1:0:0:0:
331,342,172268,2,0,P|288:353|232:360,1,85.4999977169037,8|8,1:2|1:2,0:0:0:0:
22,268,172429,1,8,3:0:0:0:
43,284,172510,1,8,3:0:0:0:
71,288,172591,2,0,P|101:265|116:211,1,85.4999977169037,10|8,1:0|0:0,0:0:0:0:
149,63,172752,6,0,P|111:67|55:67,1,85.4999977169037,2|0,1:0|0:0,0:0:0:0:
0,151,172913,2,0,P|42:150|85:146,1,85.4999977169037,10|0,1:0|0:0,0:0:0:0:
278,218,173074,2,0,P|240:222|184:222,1,85.4999977169037,10|0,1:0|0:0,0:0:0:0:
0,23,173236,1,6,1:0:0:0:
256,192,173276,12,2,178397,0:1:0:0:
255,192,183558,5,6,0:1:0:0:
256,192,183599,12,0,185655,0:0:0:0:
