osu file format v14

[General]
AudioFilename: audio.mp3
AudioLeadIn: 0
PreviewTime: 124317
Countdown: 0
SampleSet: Soft
StackLeniency: 0.7
Mode: 0
LetterboxInBreaks: 0
WidescreenStoryboard: 1

[Editor]
Bookmarks: 5459,23523,44168,51897,72556,90620,106104,126749,144814,162865,173188
DistanceSpacing: 1
BeatDivisor: 4
GridSize: 32
TimelineZoom: 1.7

[Metadata]
Title:A tree without a branch
TitleUnicode:A tree without a branch
Artist:MuryokuP
ArtistUnicode:無力P
Creator:Melwoine
Version:Normal
Source:
Tags:Axarious Mun keeVY 無力P Resonance Vocaloid Japanese jrock Rock Electronica Megurine Luka 巡音ルカ Metal Powerless Decision AO
BeatmapID:2274638
BeatmapSetID:1037902

[Difficulty]
HPDrainRate:4
CircleSize:3
OverallDifficulty:5
ApproachRate:6
SliderMultiplier:1
SliderTickRate:1

[Events]
//Background and Video events
0,0,"66406050_p0_master1200.jpg",0,0
//Break Periods
2,44403,50895
2,101178,101863
2,106339,123153
//Storyboard Layer 0 (Background)
//Storyboard Layer 1 (Fail)
//Storyboard Layer 2 (Pass)
//Storyboard Layer 3 (Foreground)
//Storyboard Layer 4 (Overlay)
//Storyboard Sound Samples

[TimingPoints]
333,322.58064516129,4,2,1,70,1,0
4849,-100,4,2,1,70,0,0
5494,-100,4,2,1,70,0,0
15010,-100,4,2,1,70,0,0
15493,-100,4,2,1,70,0,0
18074,-100,4,2,1,70,0,0
18397,-100,4,2,1,70,0,0
23236,-100,4,2,1,70,0,0
23558,-111.111111111111,4,2,1,55,0,0
33881,-100,4,2,1,60,0,0
44203,-100,4,2,1,35,0,0
51945,-90.9090909090909,4,2,1,70,0,0
54526,-90.9090909090909,4,2,1,75,0,1
59042,-90.9090909090909,4,2,1,75,0,1
59687,-90.9090909090909,4,2,1,75,0,1
64203,-90.9090909090909,4,2,1,75,0,1
64849,-90.9090909090909,4,2,1,75,0,1
69365,-90.9090909090909,4,2,1,75,0,1
70010,-90.9090909090909,4,2,1,75,0,1
72591,-100,4,2,1,70,0,0
82107,-100,4,2,1,70,0,0
82590,-100,4,2,1,70,0,0
85171,-100,4,2,1,70,0,0
85494,-100,4,2,1,70,0,0
90655,-100,4,3,1,70,0,0
95010,-100,4,3,1,70,0,0
95654,-100,4,3,1,70,0,0
95816,-100,4,2,1,75,0,0
103558,-100,4,2,1,80,0,0
103880,-100,4,2,1,80,0,0
105171,-100,4,2,1,80,0,0
106139,-100,4,2,1,35,0,0
124203,-100,4,2,1,50,0,0
126784,-83.3333333333333,4,1,1,80,0,0
128396,-83.3333333333333,4,1,1,80,0,0
129042,-83.3333333333333,4,1,1,80,0,0
131139,-83.3333333333333,4,1,1,80,0,0
131945,-83.3333333333333,4,1,1,80,0,0
137107,-83.3333333333333,4,1,1,85,0,0
141622,-83.3333333333333,4,1,1,80,0,0
142268,-83.3333333333333,4,1,1,85,0,0
144849,-83.3333333333333,4,2,1,70,0,0
145010,-90.9090909090909,4,2,1,75,0,0
149365,-90.9090909090909,4,2,1,75,0,0
150010,-90.9090909090909,4,2,1,75,0,0
154526,-90.9090909090909,4,2,1,75,0,0
155171,-90.9090909090909,4,2,1,75,0,0
159687,-90.9090909090909,4,2,1,75,0,0
160332,-90.9090909090909,4,2,1,75,0,0
162107,-90.9090909090909,4,2,1,75,0,0
162590,-90.9090909090909,4,2,1,75,0,0
162913,-83.3333333333333,4,2,1,80,0,0
167591,-83.3333333333333,4,2,1,80,0,0
167913,-83.3333333333333,4,2,1,80,0,0
168074,-83.3333333333333,4,2,1,80,0,0
168396,-83.3333333333333,4,2,1,80,0,0
173236,-83.3333333333333,4,2,1,35,0,0
183558,-83.3333333333333,4,2,1,50,0,0
184203,-83.3333333333333,4,2,1,35,0,0
184526,-83.3333333333333,4,2,1,25,0,0
184849,-83.3333333333333,4,2,1,15,0,0
185171,-83.3333333333333,4,2,1,10,0,0
185655,-83.3333333333333,4,2,1,5,0,0

[Colours]
Combo1 : 86,120,101
Combo2 : 238,166,17
Combo3 : 124,133,92

[HitObjects]
96,136,5494,6,0,P|104:164|107:203,1,50,6|2,1:0|3:2,0:0:0:0:
115,284,5978,2,0,P|90:286|65:281,2,50,10|8|2,0:0|0:1|3:2,0:0:0:0:
195,223,6623,2,0,P|252:241|284:339,1,150,2|10,3:1|0:0,0:0:0:0:
297,363,7268,2,0,L|413:357,1,100,2|2,3:2|3:2,0:0:0:0:
446,354,7752,1,8,0:1:0:0:
501,272,8074,5,6,1:0:0:0:
501,272,8236,1,0,3:0:0:0:
443,197,8558,1,2,3:2:0:0:
443,197,8720,2,0,L|415:47,1,150,8|2,0:0|1:0,0:0:0:0:
323,9,9526,1,2,1:0:0:0:
232,50,9849,1,0,1:0:0:0:
152,102,10171,2,0,L|147:170,1,50,2|8,3:2|0:0,0:0:0:0:
170,254,10655,5,6,1:0:0:0:
170,254,10816,2,0,L|285:237,1,100,0|2,3:0|3:2,0:0:0:0:
313,261,11300,1,8,0:1:0:0:
433,350,11784,2,0,P|473:331|494:269,1,100,2|2,3:1|3:1,0:0:0:0:
473,236,12268,2,0,P|471:193|460:169,1,50,8|0,1:0|3:0,0:0:0:0:
387,127,12752,2,0,L|276:104,1,100,2|8,3:2|0:0,0:0:0:0:
266,61,13236,6,0,P|235:66|193:73,1,50,6|0,1:0|3:0,0:0:0:0:
166,154,13720,1,0,3:0:0:0:
166,154,13881,2,0,P|192:218|193:256,1,100,8|8,0:1|1:2,0:0:0:0:
218,291,14365,1,10,1:0:0:0:
126,330,14687,1,10,0:0:0:0:
41,275,15010,2,0,L|31:219,1,50,8|8,0:0|3:0,0:0:0:0:
23,176,15332,2,0,L|13:120,1,50,4|8,1:3|1:3,0:0:0:0:
5,77,15655,1,8,1:2:0:0:
5,77,15816,6,0,L|117:92,1,100,14|2,1:0|0:1,0:0:0:0:
181,154,16462,2,0,P|202:124|215:101,1,50,10|2,1:0|3:2,0:0:0:0:
257,25,16945,2,0,L|320:17,1,50,4|0,1:0|0:0,0:0:0:0:
355,37,17268,1,8,0:0:0:0:
355,37,17429,1,10,0:1:0:0:
420,112,17752,2,0,L|451:170,1,50,8|2,0:0|1:1,0:0:0:0:
434,205,18074,2,0,L|450:269,1,50,10|6,0:3|0:3,0:0:0:0:
420,296,18397,5,14,1:0:0:0:
338,354,18720,1,10,0:1:0:0:
244,318,19042,1,10,0:1:0:0:
230,218,19365,1,10,0:1:0:0:
230,218,19526,2,0,L|251:108,1,100,14|10,1:0|0:0,0:0:0:0:
233,72,20010,1,8,1:2:0:0:
146,22,20332,2,0,P|101:43|97:153,1,150,8|6,1:2|1:3,0:0:0:0:
126,162,20978,5,14,1:0:0:0:
126,162,21139,1,2,0:0:0:0:
137,261,21462,2,0,L|198:275,2,50,0|8|8,3:0|0:1|0:0,0:0:0:0:
44,299,22107,1,6,0:1:0:0:
5,212,22429,1,8,0:0:0:0:
5,212,22591,1,10,1:0:0:0:
47,139,22913,2,0,L|107:129,1,50,8|8,1:0|0:1,0:0:0:0:
145,120,23236,1,8,0:0:0:0:
225,160,23558,6,0,P|260:185|279:227,1,89.9999972534181,0|0,3:0|3:0,0:0:0:0:
302,313,24203,2,0,L|441:345,1,134.999995880127,10|2,0:1|3:2,0:0:0:0:
496,276,25010,1,0,3:0:0:0:
460,199,25332,1,0,3:0:0:0:
460,199,25494,2,0,P|445:164|422:100,1,89.9999972534181,10|2,0:1|0:0,0:0:0:0:
350,89,26139,6,0,L|305:82,1,44.999998626709,2|2,3:2|0:0,0:0:0:0:
260,78,26462,1,2,3:2:0:0:
181,121,26784,1,8,0:1:0:0:
107,234,27268,2,0,P|112:295|126:325,1,89.9999972534181,0|2,3:0|3:2,0:0:0:0:
212,335,27913,1,2,3:2:0:0:
212,335,28074,2,0,L|265:319,1,44.999998626709,8|2,0:1|3:2,0:0:0:0:
359,235,28720,6,0,P|298:172|314:78,1,179.999994506836,2|8,3:1|0:1,0:0:0:0:
430,27,29849,2,0,L|435:136,1,89.9999972534181,0|0,3:0|3:0,0:0:0:0:
366,176,30494,1,0,3:0:0:0:
366,176,30655,2,0,L|267:205,1,89.9999972534181,8|2,0:1|0:0,0:0:0:0:
193,227,31300,6,0,P|132:317|156:393,1,179.999994506836,2|10,3:1|0:1,0:0:0:0:
280,357,32429,2,0,L|384:364,1,89.9999972534181,0|0,3:0|3:0,0:0:0:0:
427,294,33074,1,0,3:0:0:0:
427,294,33236,2,0,L|453:238,1,44.999998626709,8|0,0:1|3:0,0:0:0:0:
439,113,33881,6,0,L|428:48,1,50,2|2,3:1|3:1,0:0:0:0:
398,25,34203,1,2,1:0:0:0:
305,63,34526,2,0,P|274:62|206:112,1,100,2|2,1:0|3:1,0:0:0:0:
197,144,35010,1,2,3:1:0:0:
197,144,35171,1,2,1:0:0:0:
156,235,35494,1,2,1:0:0:0:
122,329,35816,2,0,P|186:357|270:323,1,150,2|2,0:1|0:0,0:0:0:0:
302,308,36462,6,0,L|365:328,1,50,2|2,3:1|3:1,0:0:0:0:
399,318,36784,1,2,1:0:0:0:
440,226,37107,2,0,P|436:194|406:120,1,100,2|2,1:0|3:1,0:0:0:0:
368,121,37591,1,2,3:1:0:0:
368,121,37752,1,2,1:0:0:0:
283,173,38074,1,2,1:0:0:0:
194,220,38397,2,0,P|131:212|93:127,1,150,2|2,0:1|0:0,0:0:0:0:
78,92,39042,6,0,L|115:33,1,50,2|2,3:1|3:1,0:0:0:0:
140,14,39365,1,2,1:0:0:0:
227,61,39687,1,2,1:0:0:0:
319,102,40010,2,0,L|327:164,1,50,2|2,3:1|3:1,0:0:0:0:
348,194,40332,1,2,1:0:0:0:
434,245,40655,1,2,1:0:0:0:
461,341,40978,2,0,P|419:353|322:303,1,150,2|2,0:1|0:0,0:0:0:0:
282,286,41623,6,0,L|227:299,1,50,2|2,3:1|3:1,0:0:0:0:
185,309,41945,1,2,1:0:0:0:
92,346,42268,2,0,P|56:351|25:340,1,50,2|2,1:0|0:0,0:0:0:0:
18,305,42591,2,0,L|11:235,1,50,2|2,3:1|3:1,0:0:0:0:
7,205,42913,1,2,1:0:0:0:
61,120,43236,1,2,1:0:0:0:
160,128,43558,6,0,L|221:132,1,50,2|2,0:1|3:1,0:0:0:0:
256,112,43881,2,0,P|268:78|252:15,1,100,2|4,1:0|0:1,0:0:0:0:
264,173,51945,6,0,P|225:180|178:241,1,110.000003356934,14|10,1:0|1:2,0:0:0:0:
171,285,52429,1,10,1:0:0:0:
258,352,52752,2,0,L|317:348,1,55.0000016784668,10|10,1:2|1:0,0:0:0:0:
355,366,53074,2,0,P|416:339|423:241,1,165.000005035401,0|8,1:0|1:0,0:0:0:0:
387,211,53720,1,4,1:0:0:0:
214,51,54526,5,6,1:0:0:0:
214,51,54687,2,0,L|344:71,1,110.000003356934,10|10,0:2|0:0,0:0:0:0:
362,105,55171,2,0,L|483:121,1,110.000003356934,10|2,1:0|0:1,0:0:0:0:
479,174,55655,2,0,L|502:292,1,110.000003356934,14|6,1:2|1:2,0:0:0:0:
446,360,56300,2,0,P|419:376|377:384,1,55.0000016784668,2|10,3:2|1:2,0:0:0:0:
344,362,56623,1,2,3:2:0:0:
262,297,56945,1,2,3:2:0:0:
262,297,57107,6,0,P|238:222|293:156,1,165.000005035401,6|10,1:0|0:1,0:0:0:0:
340,147,57752,1,10,1:0:0:0:
301,49,58074,1,8,1:0:0:0:
301,49,58236,2,0,B|221:4|187:97|86:84,1,220.000006713867,6|2,1:0|1:0,0:0:0:0:
39,69,59042,1,10,1:0:0:0:
34,179,59365,1,8,3:2:0:0:
76,280,59687,2,0,P|131:283|239:259,1,165.000005035401,14|0,1:0|3:0,0:0:0:0:
289,278,60332,2,0,L|302:338,1,55.0000016784668,10|2,1:0|0:0,0:0:0:0:
404,368,60816,6,0,P|474:354|507:315,1,110.000003356934,6|10,1:0|0:0,0:0:0:0:
485,223,61462,1,2,3:2:0:0:
485,223,61623,2,0,P|463:169|462:152,1,55.0000016784668,8|2,1:0|3:2,0:0:0:0:
465,117,61945,1,8,1:0:0:0:
392,34,62268,2,0,P|362:41|328:60,1,55.0000016784668,6|8,1:0|0:0,0:0:0:0:
291,152,62752,1,2,1:1:0:0:
291,152,62913,2,0,L|176:133,1,110.000003356934,10|6,1:0|1:0,0:0:0:0:
133,108,63397,6,0,P|98:150|100:276,1,165.000005035401,2|8,1:0|1:0,0:0:0:0:
147,357,64203,1,10,0:0:0:0:
147,357,64365,2,0,L|204:374,2,55.0000016784668,8|4|8,3:0|3:0|1:2,0:0:0:0:
96,355,64849,5,14,1:0:0:0:
96,355,65010,2,0,L|70:227,1,110.000003356934,2|2,3:2|3:2,0:0:0:0:
51,196,65494,2,0,P|106:146|117:97,1,110.000003356934,8|0,1:0|0:0,0:0:0:0:
134,58,65978,2,0,P|191:40|259:47,1,110.000003356934,6|6,1:0|1:2,0:0:0:0:
279,150,66623,1,2,1:2:0:0:
279,150,66784,2,0,L|338:164,1,55.0000016784668,10|2,1:2|1:2,0:0:0:0:
398,258,67268,1,0,3:0:0:0:
398,258,67429,6,0,P|470:251|510:163,1,165.000005035401,14|8,1:2|0:0,0:0:0:0:
503,120,68074,1,10,1:0:0:0:
424,50,68397,1,0,1:0:0:0:
424,50,68558,2,0,B|326:22|329:122|227:144,1,220.000006713867,6|8,1:0|3:0,0:0:0:0:
181,147,69365,2,0,L|174:272,1,110.000003356934,8|8,1:0|3:0,0:0:0:0:
264,320,70010,6,0,L|338:329,1,55.0000016784668,14|2,1:0|3:1,0:0:0:0:
371,342,70332,1,10,1:0:0:0:
461,277,70655,1,10,1:0:0:0:
461,277,70816,1,2,1:0:0:0:
417,175,71139,2,0,L|303:147,1,110.000003356934,14|2,1:0|1:2,0:0:0:0:
203,173,71784,1,10,1:0:0:0:
96,201,72107,1,10,1:2:0:0:
27,123,72429,1,8,1:0:0:0:
27,123,72591,6,0,L|138:79,1,100,6|2,1:0|0:0,0:0:0:0:
219,42,73236,1,8,0:1:0:0:
219,42,73397,1,2,3:2:0:0:
256,134,73720,2,0,L|289:230,1,100,2|2,3:1|3:1,0:0:0:0:
296,277,74203,2,0,L|459:263,1,150,10|2,0:0|3:2,0:0:0:0:
495,259,74849,1,8,0:1:0:0:
468,159,75171,5,6,1:0:0:0:
468,159,75332,2,0,L|441:44,1,100,0|2,3:0|3:2,0:0:0:0:
412,26,75816,1,8,0:0:0:0:
316,39,76139,1,0,0:0:0:0:
316,39,76300,2,0,P|268:99|262:136,1,100,2|2,1:0|1:0,0:0:0:0:
267,220,76945,1,0,1:0:0:0:
265,316,77268,1,2,3:2:0:0:
265,316,77429,2,0,P|236:337|203:344,1,50,8|2,0:0|0:0,0:0:0:0:
169,345,77752,5,6,1:0:0:0:
169,345,77913,1,0,3:0:0:0:
91,281,78236,2,0,L|35:305,2,50,2|8|0,3:2|0:1|3:0,0:0:0:0:
124,186,78881,2,0,L|90:87,1,100,2|2,3:1|3:1,0:0:0:0:
103,45,79365,1,8,1:0:0:0:
103,45,79526,2,0,L|170:58,1,50,0|2,3:0|0:0,0:0:0:0:
227,120,80010,2,0,L|293:110,1,50,4|8,0:0|0:0,0:0:0:0:
314,144,80332,6,0,L|428:162,1,100,6|2,1:0|0:0,0:0:0:0:
471,240,80978,2,0,L|479:299,1,50,8|0,0:1|3:0,0:0:0:0:
463,339,81300,1,8,1:2:0:0:
463,339,81462,2,0,P|416:370|358:348,1,100,10|10,1:0|0:0,0:0:0:0:
296,301,82107,2,0,P|302:283|299:245,1,50,8|8,0:0|3:0,0:0:0:0:
266,216,82429,2,0,P|229:219|196:212,1,50,4|8,1:3|1:3,0:0:0:0:
118,190,82913,5,14,1:0:0:0:
137,91,83236,2,0,P|141:68|145:24,1,50,2|8,0:1|0:0,0:0:0:0:
187,16,83558,1,10,1:0:0:0:
187,16,83720,1,2,3:2:0:0:
253,90,84042,2,0,P|308:95|373:112,1,100,4|8,1:0|0:0,0:0:0:0:
401,112,84526,2,0,P|411:88|417:59,1,50,10|2,0:1|1:0,0:0:0:0:
460,43,84849,1,8,0:0:0:0:
503,132,85171,1,10,0:3:0:0:
504,232,85494,6,0,P|503:290|508:352,1,100,14|10,1:0|0:1,0:0:0:0:
463,355,85978,1,10,0:0:0:0:
463,355,86139,1,10,0:1:0:0:
366,358,86462,1,10,0:1:0:0:
366,358,86623,2,0,P|335:274|322:191,1,150,14|8,1:0|1:2,0:0:0:0:
275,127,87429,2,0,P|221:157|121:186,1,150,8|6,1:2|1:3,0:0:0:0:
94,194,88074,5,14,1:0:0:0:
94,194,88236,1,2,0:0:0:0:
6,314,88720,2,0,P|27:335|46:361,1,50,8|8,0:1|0:0,0:0:0:0:
136,373,89203,2,0,P|185:347|217:310,1,100,6|8,0:1|0:0,0:0:0:0:
256,308,89687,2,0,P|286:310|317:309,1,50,10|2,1:0|3:1,0:0:0:0:
356,309,90010,1,8,1:0:0:0:
236,140,90655,5,2,0:0:0:0:
335,154,90978,2,0,P|372:141|428:90,1,100,2|10,0:2|0:2,0:0:0:0:
434,55,91462,1,0,0:2:0:0:
344,11,91784,2,0,P|301:45|248:66,1,100,2|2,1:0|0:0,0:0:0:0:
164,92,92429,1,10,0:2:0:0:
70,56,92752,1,10,0:3:0:0:
10,135,93074,1,2,1:2:0:0:
10,135,93236,5,6,1:0:0:0:
86,208,93558,1,2,0:0:0:0:
86,208,93720,2,0,P|106:242|116:316,1,100,10|10,0:1|0:2,0:0:0:0:
200,357,94365,2,0,L|302:367,1,100,10|10,0:2|0:1,0:0:0:0:
399,367,95010,1,2,1:0:0:0:
442,277,95332,2,0,L|432:160,1,100,10|10,1:2|1:0,0:0:0:0:
410,132,95816,6,0,B|301:90|240:130|236:193,1,200,14|8,1:0|0:1,0:0:0:0:
236,224,96623,1,2,0:0:0:0:
149,273,96945,1,14,0:0:0:0:
50,257,97268,1,10,0:0:0:0:
12,164,97591,2,0,L|3:42,1,100,2|10,1:2|0:0,0:0:0:0:
40,29,98074,2,0,L|105:24,1,50,8|10,0:1|1:2,0:0:0:0:
140,23,98397,5,10,1:0:0:0:
140,23,98558,1,2,1:0:0:0:
213,90,98881,1,8,0:0:0:0:
213,90,99042,2,0,L|328:118,1,100,10|10,0:1|0:1,0:0:0:0:
356,133,99526,2,0,P|408:209|339:349,1,250,14|8,0:0|1:0,0:0:0:0:
253,368,100655,1,8,0:1:0:0:
219,273,100978,5,2,1:0:0:0:
255,193,102913,5,10,1:0:0:0:
63,250,103558,6,0,P|56:198|77:133,1,100,2|0,1:0|1:0,0:0:0:0:
103,117,104042,2,0,L|215:133,1,100,8|8,3:0|3:0,0:0:0:0:
251,139,104526,1,8,3:0:0:0:
345,187,104849,1,12,1:2:0:0:
345,187,105010,2,0,P|377:153|382:138,1,50,2|8,1:0|3:0,0:0:0:0:
440,72,105494,2,0,P|434:47|424:24,1,50,8|8,3:0|3:0,0:0:0:0:
382,11,105816,1,12,1:0:0:0:
382,11,105978,6,0,L|311:13,1,50,4|12,1:0|3:0,0:0:0:0:
256,192,124203,12,0,125978,0:0:0:0:
428,143,126784,6,0,B|376:101|256:90|251:267|101:262,1,359.999989013672,14|10,0:0|0:0,0:0:0:0:
64,235,127913,2,0,P|78:164|88:44,1,179.999994506836,6|8,0:0|0:0,0:0:0:0:
206,35,128720,2,0,L|326:80,1,119.999996337891,10|8,0:0|0:0,0:0:0:0:
327,140,129203,1,10,0:0:0:0:
327,140,129365,6,0,P|405:171|456:203,1,119.999996337891,6|10,0:0|0:0,0:0:0:0:
504,280,130010,1,10,0:0:0:0:
413,357,130332,1,10,0:0:0:0:
413,357,130494,2,0,P|357:378|291:358,1,119.999996337891,4|10,0:0|0:0,0:0:0:0:
222,279,131139,1,10,0:0:0:0:
222,279,131300,2,0,P|173:305|102:311,1,119.999996337891,10|4,0:3|0:3,0:0:0:0:
31,243,131945,6,0,P|22:185|147:58,1,239.999992675781,14|8,0:0|0:0,0:0:0:0:
224,147,132913,1,2,0:0:0:0:
224,147,133074,2,0,L|349:165,1,119.999996337891,12|2,0:0|0:0,0:0:0:0:
428,249,133720,2,0,P|485:242|513:169,1,119.999996337891,2|10,0:0|0:2,0:0:0:0:
504,132,134203,1,8,0:0:0:0:
466,18,134526,6,0,L|227:43,1,239.999992675781,6|8,0:0|0:0,0:0:0:0:
129,111,135494,1,8,0:0:0:0:
129,111,135655,2,0,B|268:166|129:295|203:380,1,299.999990844727,6|8,0:0|0:3,0:0:0:0:
416,348,137107,6,0,P|451:293|376:142,1,239.999992675781,14|8,0:0|0:0,0:0:0:0:
209,114,138236,1,14,0:0:0:0:
230,231,138558,1,4,0:3:0:0:
168,335,138881,1,6,0:3:0:0:
168,335,139042,2,0,P|102:332|32:236,1,179.999994506836,10|10,0:0|0:2,0:0:0:0:
11,192,139687,5,14,0:0:0:0:
68,86,140010,1,2,0:0:0:0:
183,55,140332,2,0,L|256:91,1,59.9999981689454,10|10,0:0|0:2,0:0:0:0:
254,144,140655,1,10,0:0:0:0:
254,144,140816,2,0,B|336:192|283:281|366:357|457:315,1,299.999990844727,6|10,0:2|0:0,0:0:0:0:
494,79,142268,6,0,L|420:56,1,59.9999981689454,14|8,0:0|0:2,0:0:0:0:
380,38,142591,2,0,L|305:46,1,59.9999981689454,8|10,0:0|0:2,0:0:0:0:
270,77,142913,1,10,0:0:0:0:
253,199,143236,1,8,0:0:0:0:
253,199,143397,2,0,B|199:212|199:212|167:205|163:175|130:165|130:165|71:167,1,179.999994506836,6|10,0:0|0:0,0:0:0:0:
30,159,144042,2,0,B|54:214|-4:293|60:338,1,179.999994506836,10|2,0:0|3:2,0:0:0:0:
176,343,144849,5,14,0:1:0:0:
176,343,145010,2,0,P|221:371|290:370,1,110.000003356934,10|10,0:0|0:0,0:0:0:0:
299,269,145655,2,0,L|283:195,1,55.0000016784668,10|8,0:0|1:0,0:0:0:0:
270,162,145978,1,14,0:0:0:0:
339,76,146300,2,0,P|382:81|411:92,1,55.0000016784668,0|8,0:0|1:0,0:0:0:0:
432,123,146623,2,0,P|428:219|442:294,1,165.000005035401,10|8,0:0|1:0,0:0:0:0:
455,345,147268,1,12,0:0:0:0:
455,345,147429,6,0,P|421:361|388:364,1,55.0000016784668,10|0,1:0|0:0,0:0:0:0:
349,355,147752,1,10,0:1:0:0:
259,290,148074,2,0,P|259:263|265:234,1,55.0000016784668,12|12,3:0|3:0,0:0:0:0:
276,192,148397,1,8,1:0:0:0:
276,192,148558,2,0,P|277:125|193:74,1,165.000005035401,6|10,1:0|1:0,0:0:0:0:
106,129,149365,2,0,L|116:199,1,55.0000016784668,10|8,1:2|3:0,0:0:0:0:
97,236,149687,2,0,L|83:294,1,55.0000016784668,0|10,1:0|1:2,0:0:0:0:
50,332,150010,6,0,P|100:349|171:375,1,110.000003356934,14|8,1:0|1:0,0:0:0:0:
267,374,150655,1,2,0:0:0:0:
267,374,150816,1,2,0:1:0:0:
373,345,151139,2,0,P|412:311|427:252,1,110.000003356934,6|6,1:0|1:0,0:0:0:0:
391,213,151623,2,0,L|372:147,1,55.0000016784668,8|10,1:0|0:0,0:0:0:0:
378,105,151945,1,8,1:0:0:0:
284,47,152268,2,0,L|222:42,1,55.0000016784668,8|10,1:0|1:2,0:0:0:0:
199,88,152591,6,0,P|181:146|39:205,1,220.000006713867,14|8,0:0|1:0,0:0:0:0:
11,107,153558,1,10,0:1:0:0:
11,107,153720,2,0,P|113:94|210:235,1,275.000008392334,14|10,0:0|0:0,0:0:0:0:
244,262,154687,1,10,0:0:0:0:
349,222,155010,1,10,1:0:0:0:
349,222,155171,6,0,L|356:150,1,55.0000016784668,14|8,1:0|0:0,0:0:0:0:
408,71,155655,2,0,P|456:74|515:108,1,110.000003356934,10|8,0:0|0:0,0:0:0:0:
492,211,156300,2,0,P|462:244|424:316,1,110.000003356934,14|8,0:0|0:0,0:0:0:0:
422,355,156784,1,8,1:0:0:0:
321,326,157107,1,2,0:0:0:0:
321,326,157268,2,0,P|299:278|279:207,1,110.000003356934,10|10,0:0|0:0,0:0:0:0:
250,178,157752,6,0,P|177:173|135:205,1,110.000003356934,6|8,1:0|1:0,0:0:0:0:
56,249,158397,1,10,0:0:0:0:
56,249,158558,2,0,P|46:226|37:177,1,55.0000016784668,10|8,0:0|1:0,0:0:0:0:
44,147,158881,2,0,P|94:113|142:20,1,165.000005035401,14|8,0:0|1:0,0:0:0:0:
235,14,159687,2,0,P|260:42|289:59,1,55.0000016784668,8|8,1:0|0:0,0:0:0:0:
319,49,160010,2,0,L|388:41,1,55.0000016784668,8|8,3:0|3:0,0:0:0:0:
425,60,160332,6,0,P|455:130|452:181,1,110.000003356934,14|12,1:0|0:0,0:0:0:0:
376,240,160978,1,2,1:0:0:0:
376,240,161139,2,0,L|310:260,1,55.0000016784668,2|8,0:0|0:0,0:0:0:0:
284,294,161462,1,14,1:0:0:0:
203,368,161784,1,2,1:0:0:0:
95,342,162107,1,12,3:0:0:0:
52,240,162429,2,0,L|61:172,1,55.0000016784668,2|8,1:0|1:0,0:0:0:0:
101,150,162752,1,8,1:0:0:0:
101,150,162913,6,0,P|187:168|279:-7,1,299.999990844727,14|0,1:0|0:0,0:0:0:0:
165,6,164042,2,0,P|153:94|281:249,1,299.999990844727,14|2,1:0|1:0,0:0:0:0:
401,236,165171,1,8,1:0:0:0:
401,236,165332,6,0,P|405:282|385:363,1,119.999996337891,6|8,1:0|1:2,0:0:0:0:
329,358,165816,2,0,L|266:355,1,59.9999981689454,8|10,1:2|1:2,0:0:0:0:
211,338,166139,1,8,1:0:0:0:
116,274,166462,1,10,1:0:0:0:
116,274,166623,2,0,P|90:218|97:103,1,179.999994506836,12|8,0:0|1:0,0:0:0:0:
156,89,167268,2,0,L|186:22,1,59.9999981689454,2|12,3:1|3:0,0:0:0:0:
232,4,167591,1,12,3:0:0:0:
271,122,167913,1,8,1:0:0:0:
271,122,168074,6,0,P|340:116|408:104,1,119.999996337891,6|6,1:0|1:0,0:0:0:0:
496,51,168720,1,8,0:0:0:0:
493,174,169042,1,8,1:0:0:0:
493,174,169203,2,0,P|490:272|319:338,1,299.999990844727,6|10,1:0|0:0,0:0:0:0:
208,321,170332,1,10,1:0:0:0:
208,321,170494,6,0,L|211:239,1,59.9999981689454,14|2,0:0|0:1,0:0:0:0:
246,213,170816,2,0,P|237:173|195:102,1,119.999996337891,12|8,3:0|0:0,0:0:0:0:
133,92,171300,1,8,1:0:0:0:
37,163,171623,1,8,1:0:0:0:
37,163,171784,2,0,P|12:267|109:365,1,239.999992675781,6|8,1:0|3:0,0:0:0:0:
146,332,172591,1,10,1:0:0:0:
262,303,172913,1,10,1:0:0:0:
374,344,173236,5,6,1:0:0:0:
