osu file format v14

[General]
AudioFilename: audio.mp3
AudioLeadIn: 0
PreviewTime: 124317
Countdown: 0
SampleSet: Normal
StackLeniency: 0.7
Mode: 0
LetterboxInBreaks: 0
WidescreenStoryboard: 1

[Editor]
Bookmarks: 4814,5459,23523,33833,44168,51897,54491,72556,90620,95781,105930,106104,126749,144814,162865,173201
DistanceSpacing: 1
BeatDivisor: 4
GridSize: 32
TimelineZoom: 1.7

[Metadata]
Title:A tree without a branch
TitleUnicode:A tree without a branch
Artist:MuryokuP
ArtistUnicode:無力P
Creator:Melwoine
Version:Mun's Extreme
Source:
Tags:Axarious Mun keeVY 無力P Resonance Vocaloid Japanese jrock Rock Electronica Megurine Luka 巡音ルカ Metal Powerless Decision AO
BeatmapID:2171890
BeatmapSetID:1037902

[Difficulty]
HPDrainRate:5
CircleSize:2
OverallDifficulty:9
ApproachRate:9.6
SliderMultiplier:2
SliderTickRate:1

[Events]
//Background and Video events
0,0,"66406050_p0_master1200.jpg",0,0
//Break Periods
2,44403,51275
2,106339,124155
//Storyboard Layer 0 (Background)
//Storyboard Layer 1 (Fail)
//Storyboard Layer 2 (Pass)
//Storyboard Layer 3 (Foreground)
//Storyboard Layer 4 (Overlay)
//Storyboard Sound Samples

[TimingPoints]
333,322.58064516129,4,2,1,70,1,0
4849,-100,4,2,1,70,0,0
5494,-100,4,2,1,70,0,0
5655,-66.6666666666667,4,2,1,70,0,0
5896,-66.6666666666667,4,2,1,5,0,0
5977,-66.6666666666667,4,2,1,70,0,0
6541,-66.6666666666667,4,2,1,5,0,0
6623,-66.6666666666667,4,2,1,70,0,0
6864,-66.6666666666667,4,2,1,5,0,0
6945,-66.6666666666667,4,2,1,70,0,0
7509,-66.6666666666667,4,2,1,5,0,0
7590,-66.6666666666667,4,2,1,70,0,0
7993,-66.6666666666667,4,2,1,5,0,0
8074,-66.6666666666667,4,2,1,70,0,0
8477,-66.6666666666667,4,2,1,5,0,0
8558,-66.6666666666667,4,2,1,70,0,0
9444,-66.6666666666667,4,2,1,5,0,0
9526,-66.6666666666667,4,2,1,70,0,0
9767,-66.6666666666667,4,2,1,5,0,0
9849,-66.6666666666667,4,2,1,70,0,0
10090,-66.6666666666667,4,2,1,5,0,0
10171,-66.6666666666667,4,2,1,70,0,0
10573,-66.6666666666667,4,2,1,5,0,0
10655,-66.6666666666667,4,2,1,70,0,0
11057,-66.6666666666667,4,2,1,5,0,0
11139,-66.6666666666667,4,2,1,70,0,0
11702,-66.6666666666667,4,2,1,5,0,0
11784,-66.6666666666667,4,2,1,70,0,0
12025,-66.6666666666667,4,2,1,5,0,0
12106,-66.6666666666667,4,2,1,70,0,0
12670,-66.6666666666667,4,2,1,5,0,0
12752,-66.6666666666667,4,2,1,70,0,0
13638,-66.6666666666667,4,2,1,5,0,0
13719,-66.6666666666667,4,2,1,70,0,0
14606,-66.6666666666667,4,2,1,5,0,0
14687,-66.6666666666667,4,2,1,70,0,0
15010,-66.6666666666667,4,2,1,70,0,0
15494,-66.6666666666667,4,2,1,70,0,0
16219,-66.6666666666667,4,2,1,5,0,0
16300,-66.6666666666667,4,2,1,70,0,0
16864,-66.6666666666667,4,2,1,5,0,0
16945,-66.6666666666667,4,2,1,70,0,0
17186,-66.6666666666667,4,2,1,5,0,0
17268,-66.6666666666667,4,2,1,70,0,0
18074,-66.6666666666667,4,2,1,70,0,0
18397,-66.6666666666667,4,2,1,70,0,0
18638,-66.6666666666667,4,2,1,5,0,0
18719,-66.6666666666667,4,2,1,70,0,0
19767,-66.6666666666667,4,2,1,5,0,0
19848,-66.6666666666667,4,2,1,70,0,0
20494,-66.6666666666667,4,2,1,70,0,0
20816,-66.6666666666667,4,2,1,70,0,0
21380,-66.6666666666667,4,2,1,5,0,0
21461,-66.6666666666667,4,2,1,70,0,0
22025,-66.6666666666667,4,2,1,5,0,0
22107,-66.6666666666667,4,2,1,70,0,0
22348,-66.6666666666667,4,2,1,5,0,0
22429,-66.6666666666667,4,2,1,70,0,0
23236,-66.6666666666667,4,2,1,70,0,0
23558,-66.6666666666667,4,2,1,55,0,0
24203,-111.111111111111,4,2,1,55,0,0
33881,-90.9090909090908,4,2,1,60,0,0
36380,-90.9090909090908,4,2,1,5,0,0
36462,-90.9090909090908,4,2,1,60,0,0
38961,-90.9090909090908,4,2,1,5,0,0
39042,-90.9090909090908,4,2,1,60,0,0
41541,-90.9090909090908,4,2,1,5,0,0
41623,-90.9090909090908,4,2,1,60,0,0
44122,-90.9090909090908,4,2,1,5,0,0
44203,-90.9090909090908,4,2,1,35,0,0
51784,-90.9090909090908,4,2,1,50,0,0
51945,-50,4,2,1,70,0,0
52186,-50,4,2,1,5,0,0
52268,-50,4,2,1,70,0,0
52670,-50,4,2,1,5,0,0
52752,-50,4,2,1,70,0,0
54526,-50,4,2,1,75,0,0
54687,-66.6666666666667,4,2,1,75,0,0
57509,-66.6666666666667,4,2,1,5,0,0
57591,-66.6666666666667,4,2,1,75,0,0
58477,-66.6666666666667,4,2,1,5,0,0
58558,-66.6666666666667,4,2,1,75,0,0
58799,-66.6666666666667,4,2,1,5,0,0
58881,-66.6666666666667,4,2,1,75,0,0
59042,-66.6666666666667,4,2,1,75,0,0
59687,-66.6666666666667,4,2,1,75,0,0
60090,-66.6666666666667,4,2,1,5,0,0
60171,-66.6666666666667,4,2,1,75,0,0
64042,-66.6666666666667,4,2,1,75,0,0
64849,-66.6666666666667,4,2,1,75,0,0
65251,-66.6666666666667,4,2,1,5,0,0
65332,-66.6666666666667,4,2,1,75,0,0
67186,-66.6666666666667,4,2,1,5,0,0
67268,-66.6666666666667,4,2,1,75,0,0
68799,-66.6666666666667,4,2,1,5,0,0
68881,-66.6666666666667,4,2,1,75,0,0
69122,-66.6666666666667,4,2,1,5,0,0
69203,-66.6666666666667,4,2,1,75,0,0
69365,-66.6666666666667,4,2,1,75,0,0
70010,-66.6666666666667,4,2,1,75,0,0
71380,-66.6666666666667,4,2,1,5,0,0
71462,-66.6666666666667,4,2,1,75,0,0
72591,-66.6666666666667,4,2,1,70,0,0
72993,-66.6666666666667,4,2,1,5,0,0
73074,-66.6666666666667,4,2,1,70,0,0
73638,-66.6666666666667,4,2,1,5,0,0
73720,-66.6666666666667,4,2,1,70,0,0
73961,-66.6666666666667,4,2,1,5,0,0
74042,-66.6666666666667,4,2,1,70,0,0
74606,-66.6666666666667,4,2,1,5,0,0
74687,-66.6666666666667,4,2,1,70,0,0
75090,-66.6666666666667,4,2,1,5,0,0
75171,-66.6666666666667,4,2,1,70,0,0
75573,-66.6666666666667,4,2,1,5,0,0
75655,-66.6666666666667,4,2,1,70,0,0
76541,-66.6666666666667,4,2,1,5,0,0
76623,-66.6666666666667,4,2,1,70,0,0
76864,-66.6666666666667,4,2,1,5,0,0
76945,-66.6666666666667,4,2,1,70,0,0
77186,-66.6666666666667,4,2,1,5,0,0
77268,-66.6666666666667,4,2,1,70,0,0
77670,-66.6666666666667,4,2,1,5,0,0
77752,-66.6666666666667,4,2,1,70,0,0
78154,-66.6666666666667,4,2,1,5,0,0
78236,-66.6666666666667,4,2,1,70,0,0
78799,-66.6666666666667,4,2,1,5,0,0
78881,-66.6666666666667,4,2,1,70,0,0
79122,-66.6666666666667,4,2,1,5,0,0
79203,-66.6666666666667,4,2,1,70,0,0
79767,-66.6666666666667,4,2,1,5,0,0
79849,-66.6666666666667,4,2,1,70,0,0
80735,-66.6666666666667,4,2,1,5,0,0
80816,-66.6666666666667,4,2,1,70,0,0
81703,-66.6666666666667,4,2,1,5,0,0
81784,-66.6666666666667,4,2,1,70,0,0
82107,-66.6666666666667,4,2,1,70,0,0
82591,-66.6666666666667,4,2,1,70,0,0
83315,-66.6666666666667,4,2,1,5,0,0
83397,-66.6666666666667,4,2,1,70,0,0
83961,-66.6666666666667,4,2,1,5,0,0
84042,-66.6666666666667,4,2,1,70,0,0
84283,-66.6666666666667,4,2,1,5,0,0
84365,-66.6666666666667,4,2,1,70,0,0
85171,-66.6666666666667,4,2,1,70,0,0
85494,-66.6666666666667,4,2,1,70,0,0
85735,-66.6666666666667,4,2,1,5,0,0
85816,-66.6666666666667,4,2,1,70,0,0
86864,-66.6666666666667,4,2,1,5,0,0
86945,-66.6666666666667,4,2,1,70,0,0
87591,-66.6666666666667,4,2,1,70,0,0
87913,-66.6666666666667,4,2,1,70,0,0
88477,-66.6666666666667,4,2,1,5,0,0
88558,-66.6666666666667,4,2,1,70,0,0
89122,-66.6666666666667,4,2,1,5,0,0
89203,-66.6666666666667,4,2,1,70,0,0
89444,-66.6666666666667,4,2,1,5,0,0
89526,-66.6666666666667,4,2,1,70,0,0
90332,-66.6666666666667,4,2,1,70,0,0
90655,-66.6666666666667,4,3,1,70,0,0
90978,-125,4,3,1,70,0,0
94849,-125,4,3,1,70,0,0
95655,-125,4,3,1,70,0,0
95816,-125,4,2,1,75,0,0
95978,-166.666666666667,4,2,1,75,0,0
97186,-166.666666666667,4,2,1,5,0,0
97268,-166.666666666667,4,2,1,75,0,0
97509,-166.666666666667,4,2,1,5,0,0
97591,-166.666666666667,4,2,1,75,0,0
97752,-100,4,2,1,75,0,0
98558,-166.666666666667,4,2,1,75,0,0
103558,-166.666666666667,4,2,1,80,0,0
103800,-166.666666666667,4,2,1,80,0,0
103962,-166.666666666667,4,2,1,80,0,0
104042,-166.666666666667,4,2,1,80,0,0
104123,-166.666666666667,4,2,1,80,0,0
104365,-166.666666666667,4,2,1,80,0,0
105171,-166.666666666667,4,2,1,80,0,0
106139,-166.666666666667,4,2,1,35,0,0
124203,-166.666666666667,4,2,1,50,0,0
126784,-50,4,1,1,80,0,0
127348,-50,4,2,1,5,0,0
127429,-250,4,1,1,80,0,0
127670,-250,4,2,1,5,0,0
127752,-66.6666666666667,4,1,1,80,0,0
127913,-50,4,1,1,80,0,0
128154,-50,4,2,1,5,0,0
128236,-50,4,1,1,80,0,0
128397,-50,4,1,1,80,0,0
128881,-100,4,1,1,80,0,0
129042,-66.6666666666667,4,1,1,80,0,0
129365,-50,4,1,1,80,0,0
130251,-50,4,2,1,5,0,0
130332,-50,4,1,1,80,0,0
130735,-50,4,2,1,5,0,0
130816,-100,4,1,1,80,0,0
130978,-100,4,1,1,80,0,0
131945,-50,4,1,1,80,0,0
132107,-250,4,1,1,80,0,0
132348,-250,4,2,1,5,0,0
132429,-250,4,1,1,80,0,0
132591,-50,4,1,1,80,0,0
132832,-50,4,2,1,5,0,0
132913,-100,4,1,1,80,0,0
133074,-66.6666666666667,4,1,1,80,0,0
133315,-66.6666666666667,4,2,1,5,0,0
133397,-66.6666666666667,4,1,1,80,0,0
133638,-66.6666666666667,4,2,1,5,0,0
133720,-100,4,1,1,80,0,0
133881,-50,4,1,1,80,0,0
134526,-66.6666666666667,4,1,1,80,0,0
134928,-66.6666666666667,4,2,1,5,0,0
135010,-100,4,1,1,80,0,0
135171,-50,4,1,1,80,0,0
136462,-50,4,1,1,80,0,0
137107,-50,4,1,1,85,0,0
138236,-33.3333333333333,4,1,1,85,0,0
138397,-50,4,1,1,85,0,0
141139,-100,4,1,1,85,0,0
141623,-100,4,1,1,85,0,0
142268,-50,4,1,1,85,0,0
143397,-41.6666666666667,4,1,1,85,0,0
143638,-41.6666666666667,4,2,1,5,0,0
143720,-41.6666666666667,4,1,1,85,0,0
143881,-50,4,1,1,85,0,0
144849,-50,4,2,1,75,0,0
145010,-58.8235294117647,4,2,1,75,0,0
145573,-58.8235294117647,4,2,1,5,0,0
145655,-58.8235294117647,4,2,1,75,0,0
146219,-58.8235294117647,4,2,1,5,0,0
146300,-58.8235294117647,4,2,1,75,0,0
149365,-58.8235294117647,4,2,1,75,0,0
150010,-47.6190476190476,4,2,1,75,0,0
150494,-66.6666666666667,4,2,1,75,0,0
150735,-66.6666666666667,4,2,1,5,0,0
150816,-66.6666666666667,4,2,1,75,0,0
150978,-47.6190476190476,4,2,1,75,0,0
151139,-58.8235294117647,4,2,1,75,0,0
151380,-58.8235294117647,4,2,1,5,0,0
151462,-58.8235294117647,4,2,1,75,0,0
151945,-47.6190476190476,4,2,1,75,0,0
152752,-66.6666666666667,4,2,1,75,0,0
152993,-66.6666666666667,4,2,1,5,0,0
153074,-66.6666666666667,4,2,1,75,0,0
153236,-47.6190476190476,4,2,1,75,0,0
153961,-47.6190476190476,4,2,1,5,0,0
154042,-47.6190476190476,4,2,1,75,0,0
154365,-47.6190476190476,4,2,1,75,0,0
155171,-47.6190476190476,4,2,1,75,0,0
155332,-58.8235294117647,4,2,1,75,0,0
155896,-58.8235294117647,4,2,1,5,0,0
155978,-58.8235294117647,4,2,1,75,0,0
156139,-45.4545454545455,4,2,1,75,0,0
156541,-45.4545454545455,4,2,1,5,0,0
156623,-76.9230769230769,4,2,1,75,0,0
156784,-47.6190476190476,4,2,1,75,0,0
157268,-58.8235294117647,4,2,1,75,0,0
158315,-58.8235294117647,4,2,1,5,0,0
158397,-58.8235294117647,4,2,1,75,0,0
159365,-47.6190476190476,4,2,1,75,0,0
159687,-47.6190476190476,4,2,1,75,0,0
160332,-47.6190476190476,4,2,1,75,0,0
160573,-47.6190476190476,4,2,1,5,0,0
160655,-47.6190476190476,4,2,1,75,0,0
160896,-47.6190476190476,4,2,1,5,0,0
160978,-47.6190476190476,4,2,1,75,0,0
161219,-47.6190476190476,4,2,1,5,0,0
161300,-47.6190476190476,4,2,1,75,0,0
161703,-47.6190476190476,4,2,1,5,0,0
161784,-47.6190476190476,4,2,1,75,0,0
161945,-47.6190476190476,4,2,1,75,0,0
162591,-47.6190476190476,4,2,1,75,0,0
162913,-47.6190476190476,4,2,1,80,0,0
163154,-47.6190476190476,4,2,1,5,0,0
163236,-47.6190476190476,4,2,1,80,0,0
163477,-47.6190476190476,4,2,1,5,0,0
163558,-47.6190476190476,4,2,1,80,0,0
163799,-47.6190476190476,4,2,1,5,0,0
163881,-47.6190476190476,4,2,1,80,0,0
164283,-47.6190476190476,4,2,1,5,0,0
164365,-47.6190476190476,4,2,1,80,0,0
164526,-41.6666666666667,4,2,1,80,0,0
164849,-47.6190476190476,4,2,1,80,0,0
165090,-47.6190476190476,4,2,1,5,0,0
165171,-41.6666666666667,4,2,1,80,0,0
165332,-58.8235294117647,4,2,1,80,0,0
165573,-58.8235294117647,4,2,1,5,0,0
165655,-58.8235294117647,4,2,1,80,0,0
166139,-41.6666666666667,4,2,1,80,0,0
166623,-50,4,2,1,80,0,0
166864,-50,4,2,1,5,0,0
166945,-50,4,2,1,80,0,0
167348,-50,4,2,1,5,0,0
167429,-50,4,2,1,80,0,0
167591,-50,4,2,1,80,0,0
167913,-50,4,2,1,80,0,0
168074,-50,4,2,1,80,0,0
168397,-50,4,2,1,80,0,0
168638,-50,4,2,1,5,0,0
168720,-50,4,2,1,80,0,0
168961,-50,4,2,1,5,0,0
169042,-41.6666666666667,4,2,1,80,0,0
169203,-47.6190476190476,4,2,1,80,0,0
169444,-47.6190476190476,4,2,1,5,0,0
169526,-47.6190476190476,4,2,1,80,0,0
169687,-41.6666666666667,4,2,1,80,0,0
170251,-41.6666666666667,4,2,1,5,0,0
170332,-41.6666666666667,4,2,1,80,0,0
170735,-41.6666666666667,4,2,1,5,0,0
170816,-41.6666666666667,4,2,1,80,0,0
172025,-41.6666666666667,4,2,1,5,0,0
172107,-41.6666666666667,4,2,1,80,0,0
173236,-41.6666666666667,4,2,1,35,0,0

[Colours]
Combo1 : 86,120,101
Combo2 : 238,166,17
Combo3 : 124,133,92

[HitObjects]
110,132,4849,6,0,L|121:195,1,50,12|0,0:0|0:0,0:0:0:0:
94,126,5010,2,0,L|105:189,1,50,12|0,0:0|0:0,0:0:0:0:
76,119,5494,5,6,1:0:0:0:
268,16,5655,2,0,B|215:39|215:39|190:131|241:235,1,225.000008583069,2|0,3:2|2:0,0:0:0:0:
316,217,5977,1,10,0:0:0:0:
72,236,6139,6,0,P|128:250|187:238,1,75.0000028610231,8|0,0:1|0:0,0:0:0:0:
215,193,6300,2,0,P|171:265|285:345,1,225.000008583069,2|0,3:2|2:0,0:0:0:0:
329,283,6623,2,0,P|216:287|110:322,1,225.000008583069,2|0,3:1|2:0,0:0:0:0:
42,381,6945,1,2,3:1:0:0:
71,61,7107,6,0,P|90:117|111:145,1,75.0000028610231,10|0,0:0|0:0,0:0:0:0:
168,199,7268,2,0,P|153:124|267:13,1,225.000008583069,2|0,3:2|2:0,0:0:0:0:
309,77,7590,1,2,3:2:0:0:
91,263,7752,2,0,B|146:217|193:256|193:261|248:306|338:237,1,225.000008583069,8|0,0:1|2:0,0:0:0:0:
347,178,8074,5,6,1:0:0:0:
445,368,8236,2,0,P|430:291|473:144,1,225.000008583069,0|0,3:0|2:0,0:0:0:0:
511,72,8558,1,2,3:2:0:0:
283,328,8720,6,0,P|345:309|388:309,1,75.0000028610231,8|0,0:0|0:0,0:0:0:0:
445,368,8881,1,2,3:2:0:0:
187,122,9042,6,0,P|230:197|250:215,1,75.0000028610231,8|0,0:0|0:0,0:0:0:0:
312,206,9203,2,0,P|208:248|147:340,1,225.000008583069,2|0,1:0|2:0,0:0:0:0:
40,378,9526,2,0,P|51:281|23:122,1,225.000008583069,2|0,1:0|2:0,0:0:0:0:
0,64,9849,2,0,L|246:83,1,225.000008583069,0|0,1:0|2:0,0:0:0:0:
290,18,10171,1,2,3:2:0:0:
469,237,10332,2,0,B|491:232|505:215|505:215|419:184|285:230,1,225.000008583069,8|0,0:0|2:0,0:0:0:0:
220,257,10655,6,0,P|221:193|236:165,1,75.0000028610231,6|0,1:0|0:0,0:0:0:0:
290,110,10816,2,0,P|199:138|71:96,1,225.000008583069,0|0,3:0|2:0,0:0:0:0:
69,10,11139,1,2,3:2:0:0:
147,238,11300,6,0,P|205:250|240:270,1,75.0000028610231,8|0,0:1|0:0,0:0:0:0:
271,332,11461,2,0,P|260:257|334:104,1,225.000008583069,0|0,3:0|2:0,0:0:0:0:
401,89,11784,6,0,L|176:80,1,225.000008583069,2|0,3:1|2:0,0:0:0:0:
101,28,12106,1,2,3:1:0:0:
204,328,12268,6,0,P|219:278|211:226,1,75.0000028610231,8|0,1:0|0:0,0:0:0:0:
144,188,12429,2,0,P|239:239|374:211,1,225.000008583069,0|0,3:0|2:0,0:0:0:0:
414,149,12752,1,2,3:2:0:0:
443,328,12913,1,4,0:0:0:0:
242,61,13074,2,0,P|271:116|278:176,1,75.0000028610231,8|0,0:0|0:0,0:0:0:0:
427,34,13235,6,0,P|380:66|354:69,1,75.0000028610231,6|0,1:0|0:0,0:0:0:0:
263,149,13397,2,0,B|320:165|334:226|334:226|360:168|456:160,1,225.000008583069,0|0,3:0|2:0,0:0:0:0:
433,182,13719,1,0,3:0:0:0:
220,364,13881,2,0,P|201:310|205:264,1,75.0000028610231,8|0,0:1|0:0,0:0:0:0:
302,253,14042,1,0,3:0:0:0:
179,14,14203,2,0,P|142:58|130:102,1,75.0000028610231,8|0,1:2|0:0,0:0:0:0:
196,169,14365,6,0,P|101:106|-10:145,1,225.000008583069,10|0,1:0|2:0,0:0:0:0:
0,164,14687,2,0,P|14:198|42:223,1,75.0000028610231,10|0,0:0|0:0,0:0:0:0:
126,256,14848,1,2,3:2:0:0:
394,46,15010,1,8,0:0:0:0:
306,24,15091,1,8,0:0:0:0:
243,87,15171,1,8,3:0:0:0:
240,132,15252,1,4,3:0:0:0:
257,164,15332,1,4,1:3:0:0:
282,180,15413,1,4,3:0:0:0:
304,183,15494,5,8,1:3:0:0:
230,170,15574,1,4,3:0:0:0:
155,158,15655,1,8,1:2:0:0:
80,147,15736,1,8,1:2:0:0:
19,190,15816,6,0,P|6:225|0:262,1,75.0000028610231,14|0,1:0|0:0,0:0:0:0:
32,0,15978,2,0,P|79:104|194:182,1,225.000008583069,0|0,3:0|2:0,0:0:0:0:
232,104,16300,1,8,0:0:0:0:
373,316,16462,6,0,P|331:274|324:210,1,75.0000028610231,10|0,1:0|0:0,0:0:0:0:
328,161,16623,2,0,P|283:299|230:373,1,225.000008583069,2|0,3:2|2:0,0:0:0:0:
206,363,16945,2,0,B|177:358|158:336|158:336|242:319|348:355,1,225.000008583069,4|0,1:0|2:0,0:0:0:0:
415,377,17268,1,8,0:0:0:0:
512,188,17429,6,0,P|459:210|408:217,1,75.0000028610231,10|0,0:1|0:0,0:0:0:0:
340,147,17590,1,2,1:0:0:0:
26,89,17752,6,0,P|72:124|104:165,1,75.0000028610231,8|0,0:0|0:0,0:0:0:0:
187,153,17913,2,0,P|180:210|161:258,1,75.0000028610231,2|0,1:1|0:0,0:0:0:0:
12,66,18074,6,0,L|119:62,1,75.0000028610231,10|0,0:3|0:0,0:0:0:0:
182,59,18235,2,0,L|289:55,1,75.0000028610231,6|0,0:3|0:0,0:0:0:0:
356,53,18397,6,0,B|347:140|347:140|309:167|309:167|298:314,1,225.000008583069,14|0,1:0|2:0,0:0:0:0:
315,268,18719,2,0,P|261:292|208:294,1,75.0000028610231,10|0,0:1|0:0,0:0:0:0:
192,373,18881,2,0,P|145:338|116:293,1,75.0000028610231,10|0,0:0|0:0,0:0:0:0:
330,278,19042,2,0,P|337:219|361:172,1,75.0000028610231,10|0,0:1|0:0,0:0:0:0:
301,118,19203,2,0,P|355:94|409:92,1,75.0000028610231,10|0,0:0|0:0,0:0:0:0:
424,15,19365,2,0,P|472:49|501:94,1,75.0000028610231,10|0,0:1|0:0,0:0:0:0:
293,128,19526,6,0,P|198:139|101:22,1,225.000008583069,14|0,1:0|2:0,0:0:0:0:
61,141,19848,1,10,0:0:0:0:
61,141,19929,1,0,0:0:0:0:
142,182,20010,1,8,1:2:0:0:
195,129,20090,1,8,1:2:0:0:
182,71,20171,1,8,0:3:0:0:
144,48,20252,1,8,0:3:0:0:
108,56,20332,1,8,1:2:0:0:
104,71,20413,1,8,1:2:0:0:
110,80,20494,6,0,P|158:100|225:102,1,75.0000028610231,8|8,3:0|3:0,0:0:0:0:
294,171,20655,2,0,P|314:219|316:286,1,75.0000028610231,2|4,3:0|3:0,0:0:0:0:
484,344,20816,1,6,1:3:0:0:
404,297,20897,1,8,1:2:0:0:
326,340,20977,5,14,1:0:0:0:
19,276,21139,2,0,P|89:344|232:332,1,225.000008583069,2|0,0:0|2:0,0:0:0:0:
252,263,21461,1,0,3:0:0:0:
246,55,21623,2,0,P|206:100|171:119,1,75.0000028610231,8|0,0:1|0:0,0:0:0:0:
106,158,21784,2,0,L|363:118,1,225.000008583069,8|0,0:0|2:0,0:0:0:0:
424,184,22107,6,0,B|408:209|367:218|367:218|359:105|446:33,1,225.000008583069,6|0,0:1|2:0,0:0:0:0:
501,55,22429,1,8,0:0:0:0:
266,37,22590,6,0,P|213:22|168:31,1,75.0000028610231,10|0,1:0|0:0,0:0:0:0:
143,99,22752,1,2,3:1:0:0:
147,289,22913,6,0,P|171:228|167:174,1,75.0000028610231,8|0,1:0|0:0,0:0:0:0:
20,165,23074,2,0,P|48:190|68:222,1,75.0000028610231,8|0,0:1|0:0,0:0:0:0:
177,215,23236,1,8,0:0:0:0:
183,210,23397,1,2,3:2:0:0:
0,358,23558,5,0,3:0:0:0:
0,358,23881,1,0,3:0:0:0:
304,307,24203,2,0,P|225:324|123:366,1,179.999994506836,10|2,0:1|0:0,0:0:0:0:
329,321,24687,2,0,P|352:269|370:209,1,89.9999972534181,2|0,3:2|0:0,0:0:0:0:
324,155,25010,1,0,3:0:0:0:
510,18,25332,5,0,3:0:0:0:
208,128,25494,1,10,0:1:0:0:
148,60,25655,2,0,P|172:154|168:244,1,179.999994506836,0|2,3:0|0:0,0:0:0:0:
103,297,26139,1,2,3:2:0:0:
103,297,26462,2,0,P|55:266|1:252,1,89.9999972534181,2|2,3:2|0:0,0:0:0:0:
453,209,26784,2,0,P|363:212|277:187,1,179.999994506836,8|2,0:1|0:0,0:0:0:0:
222,259,27268,6,0,P|231:341|226:383,1,89.9999972534181,0|2,3:0|0:0,0:0:0:0:
159,152,27591,2,0,P|168:70|163:28,1,89.9999972534181,2|2,3:2|0:0,0:0:0:0:
101,1,27913,1,2,3:2:0:0:
368,153,28074,1,8,0:1:0:0:
324,73,28236,2,0,P|388:118|515:130,1,179.999994506836,2|2,3:2|0:0,0:0:0:0:
193,281,28720,6,0,P|261:268|305:268,1,89.9999972534181,2|0,3:1|0:0,0:0:0:0:
338,336,29042,2,0,P|406:349|450:349,1,89.9999972534181,0|2,3:0|0:0,0:0:0:0:
485,281,29365,2,0,P|456:205|448:95,1,179.999994506836,8|2,0:1|0:0,0:0:0:0:
490,28,29849,5,0,3:0:0:0:
490,28,30171,1,0,3:0:0:0:
490,28,30494,1,0,3:0:0:0:
293,164,30655,1,8,0:1:0:0:
175,113,30816,2,0,P|201:178|171:288,1,179.999994506836,2|0,3:2|1:0,0:0:0:0:
98,329,31300,6,0,P|161:325|209:333,1,89.9999972534181,2|2,3:1|0:0,0:0:0:0:
267,370,31623,1,2,3:2:0:0:
501,212,31945,2,0,P|425:262|314:226,1,179.999994506836,10|2,0:1|0:0,0:0:0:0:
323,159,32429,1,0,3:0:0:0:
323,159,32752,5,0,3:0:0:0:
323,159,33074,1,0,3:0:0:0:
85,281,33236,1,8,0:1:0:0:
119,188,33397,2,0,P|175:241|212:364,1,179.999994506836,0|0,3:0|0:0,0:0:0:0:
341,379,33881,6,0,P|329:333|331:301,1,55.0000016784668,2|0,3:1|0:0,0:0:0:0:
349,378,34042,2,0,P|337:332|339:300,1,55.0000016784668,2|0,3:1|0:0,0:0:0:0:
434,121,34203,2,0,L|420:257,1,110.000003356934,2|0,1:0|3:0,0:0:0:0:
336,91,34526,2,0,L|322:227,1,110.000003356934,2|2,1:0|0:0,0:0:0:0:
497,43,34849,6,0,L|443:9,1,55.0000016784668,2|0,3:1|0:0,0:0:0:0:
502,54,35010,2,0,L|448:20,1,55.0000016784668,2|0,3:1|0:0,0:0:0:0:
217,91,35171,2,0,L|362:73,1,110.000003356934,2|0,1:0|3:0,0:0:0:0:
204,202,35494,2,0,L|349:184,1,110.000003356934,2|2,1:0|3:2,0:0:0:0:
392,280,35816,1,2,0:1:0:0:
392,280,35978,1,2,3:1:0:0:
196,219,36139,2,0,B|254:211|254:211|284:260|278:352,1,165.000005035401,2|0,1:0|2:0,0:0:0:0:
266,326,36462,6,0,P|253:363|247:392,1,55.0000016784668,2|0,3:1|0:0,0:0:0:0:
257,326,36623,2,0,P|244:363|238:392,1,55.0000016784668,2|0,3:1|0:0,0:0:0:0:
92,270,36784,2,0,L|122:130,1,110.000003356934,2|0,1:0|3:0,0:0:0:0:
0,242,37107,2,0,L|30:102,1,110.000003356934,2|2,1:0|0:0,0:0:0:0:
236,68,37429,6,0,P|192:76|178:76,1,55.0000016784668,2|0,3:1|0:0,0:0:0:0:
239,77,37591,2,0,P|195:85|181:85,1,55.0000016784668,2|0,3:1|0:0,0:0:0:0:
368,196,37752,2,0,L|340:68,1,110.000003356934,2|0,1:0|3:0,0:0:0:0:
462,160,38074,2,0,L|434:32,1,110.000003356934,2|2,1:0|3:2,0:0:0:0:
350,207,38397,2,0,P|405:267|445:337,1,110.000003356934,2|2,0:1|3:1,0:0:0:0:
118,354,38720,2,0,P|191:307|279:306,1,165.000005035401,2|0,1:0|2:0,0:0:0:0:
281,311,39042,6,0,L|270:381,1,55.0000016784668,2|0,3:1|0:0,0:0:0:0:
291,314,39203,2,0,L|280:384,1,55.0000016784668,2|0,3:1|0:0,0:0:0:0:
149,214,39365,2,0,L|128:75,1,110.000003356934,2|0,1:0|3:0,0:0:0:0:
254,200,39687,2,0,L|233:61,1,110.000003356934,2|2,1:0|0:0,0:0:0:0:
382,13,40010,6,0,L|359:81,1,55.0000016784668,2|0,3:1|0:0,0:0:0:0:
393,11,40171,2,0,L|370:79,1,55.0000016784668,2|0,3:1|0:0,0:0:0:0:
250,209,40332,2,0,L|385:192,1,110.000003356934,2|0,1:0|3:0,0:0:0:0:
271,302,40655,2,0,L|406:285,1,110.000003356934,2|2,1:0|3:2,0:0:0:0:
237,197,40978,1,2,0:1:0:0:
152,366,41139,1,2,3:1:0:0:
70,153,41300,2,0,B|94:198|94:198|42:329,1,165.000005035401,2|0,1:0|2:0,0:0:0:0:
46,319,41623,6,0,L|108:305,1,55.0000016784668,2|0,3:1|0:0,0:0:0:0:
40,334,41784,2,0,L|102:320,1,55.0000016784668,2|0,3:1|0:0,0:0:0:0:
312,263,41945,2,0,L|184:233,1,110.000003356934,2|0,1:0|3:0,0:0:0:0:
314,159,42268,2,0,L|186:129,1,110.000003356934,2|2,1:0|0:0,0:0:0:0:
414,325,42591,6,0,P|430:289|437:253,1,55.0000016784668,2|0,3:1|0:0,0:0:0:0:
422,327,42752,2,0,P|438:291|445:255,1,55.0000016784668,2|0,3:1|0:0,0:0:0:0:
398,20,42913,2,0,L|412:140,1,110.000003356934,2|0,1:0|3:0,0:0:0:0:
301,49,43236,2,0,L|315:169,1,110.000003356934,2|2,1:0|3:2,0:0:0:0:
202,71,43558,1,2,0:1:0:0:
345,249,43720,1,2,3:1:0:0:
261,335,43881,2,0,P|223:267|246:178,1,165.000005035401,2|0,1:0|2:0,0:0:0:0:
253,186,44203,1,4,0:1:0:0:
123,175,51784,5,0,1:0:0:0:
117,191,51865,1,0,1:0:0:0:
110,205,51945,2,0,P|63:120|245:118,1,300,14|0,1:0|2:0,0:0:0:0:
255,143,52268,2,0,P|235:100|170:52,1,100,10|0,1:2|0:0,0:0:0:0:
184,278,52429,6,0,L|516:229,1,300,10|0,1:0|2:0,0:0:0:0:
507,136,52752,1,10,1:2:0:0:
354,376,52913,2,0,P|377:307|377:229,1,100,10|0,1:0|0:0,0:0:0:0:
479,110,53074,2,0,P|430:55|363:16,1,100,0|0,1:0|0:0,0:0:0:0:
179,291,53236,5,0,1:0:0:0:
224,270,53316,1,0,1:0:0:0:
271,217,53397,1,0,1:0:0:0:
283,127,53478,1,0,1:0:0:0:
199,56,53558,2,0,L|83:82,1,100,8|0,1:0|0:0,0:0:0:0:
480,345,53720,1,4,1:0:0:0:
480,345,54526,5,6,1:0:0:0:
316,299,54687,2,0,P|352:204|420:110,1,150.000005722046,10|2,0:2|0:0,0:0:0:0:
486,359,55010,5,10,0:0:0:0:
155,14,55171,2,0,B|223:-2|223:-2|309:88|229:237,1,300.000011444092,10|2,1:0|0:1,0:0:0:0:
498,79,55655,2,0,P|419:118|368:177,1,150.000005722046,14|0,1:2|0:0,0:0:0:0:
263,309,55978,2,0,P|210:256|143:226,1,150.000005722046,6|0,1:2|0:0,0:0:0:0:
1,177,56300,1,2,3:2:0:0:
267,337,56462,5,10,1:2:0:0:
220,70,56623,2,0,B|185:137|185:137|293:120|399:33,1,300.000011444092,2|2,3:2|3:2,0:0:0:0:
90,29,57107,5,6,1:0:0:0:
512,220,57268,2,0,P|401:200|291:219,1,225.000008583069,10|0,0:0|2:0,0:0:0:0:
285,255,57591,1,10,0:1:0:0:
60,324,57752,6,0,P|101:278|112:247,1,75.0000028610231,10|0,1:0|0:0,0:0:0:0:
62,178,57913,1,10,0:0:0:0:
291,219,58074,6,0,P|271:160|250:135,1,75.0000028610231,8|0,1:0|0:0,0:0:0:0:
165,144,58236,2,0,P|258:129|304:12,1,225.000008583069,6|0,1:0|2:0,0:0:0:0:
442,0,58558,2,0,P|410:79|384:228,1,225.000008583069,2|0,3:1|2:0,0:0:0:0:
468,316,58881,1,2,1:0:0:0:
468,316,58962,1,0,1:0:0:0:
389,247,59042,5,10,1:0:0:0:
303,277,59123,1,8,3:0:0:0:
264,340,59203,1,4,3:0:0:0:
206,359,59284,1,4,3:0:0:0:
165,339,59365,1,8,3:2:0:0:
149,313,59445,1,8,0:0:0:0:
148,297,59526,5,8,0:0:0:0:
232,265,59607,1,8,0:1:0:0:
313,302,59687,5,14,1:0:0:0:
31,184,59849,2,0,P|136:194|262:132,1,225.000008583069,0|0,3:0|2:0,0:0:0:0:
237,57,60171,1,0,3:0:0:0:
418,364,60332,2,0,B|357:312|357:312|320:206|404:77,1,300.000011444092,10|2,1:0|0:0,0:0:0:0:
244,310,60816,6,0,P|174:281|118:232,1,150.000005722046,6|0,1:0|0:0,0:0:0:0:
390,102,61139,2,0,P|330:147|260:172,1,150.000005722046,10|2,0:0|0:1,0:0:0:0:
140,73,61462,1,2,3:2:0:0:
244,310,61623,2,0,P|267:274|314:244,1,75.0000028610231,8|0,1:0|0:0,0:0:0:0:
382,250,61784,1,2,3:2:0:0:
187,128,61945,2,0,P|164:92|117:62,1,75.0000028610231,8|0,1:0|0:0,0:0:0:0:
49,68,62106,1,2,1:2:0:0:
63,76,62187,1,0,1:0:0:0:
80,77,62268,5,6,1:0:0:0:
134,212,62429,2,0,P|223:174|444:204,1,300.000011444092,8|2,0:0|1:1,0:0:0:0:
492,43,62913,2,0,P|435:63|392:55,1,75.0000028610231,10|0,1:0|0:0,0:0:0:0:
345,12,63074,1,2,3:1:0:0:
63,192,63236,2,0,P|120:212|163:204,1,75.0000028610231,6|0,1:0|0:0,0:0:0:0:
210,161,63397,2,0,P|250:220|256:251,1,75.0000028610231,2|0,1:0|0:0,0:0:0:0:
182,324,63558,5,8,1:0:0:0:
131,65,63720,1,8,0:0:0:0:
188,345,63881,1,8,1:0:0:0:
260,290,63962,1,8,1:0:0:0:
244,217,64042,1,4,3:0:0:0:
185,201,64123,1,4,3:0:0:0:
146,223,64203,5,10,0:0:0:0:
221,220,64284,1,8,1:2:0:0:
296,218,64365,1,8,3:0:0:0:
370,216,64445,1,4,3:0:0:0:
445,214,64526,2,0,P|457:153|448:115,1,75.0000028610231,4|4,3:0|3:0,0:0:0:0:
337,304,64687,2,0,P|336:341|347:377,1,75.0000028610231,8|8,1:2|1:2,0:0:0:0:
464,122,64849,5,14,1:0:0:0:
131,298,65010,2,0,L|104:73,1,225.000008583069,2|0,3:2|2:0,0:0:0:0:
93,56,65332,1,2,3:2:0:0:
349,22,65494,2,0,B|280:10|280:10|232:90|262:174|350:214,1,300.000011444092,8|0,1:0|0:0,0:0:0:0:
41,269,65978,6,0,P|141:232|225:228,1,150.000005722046,6|0,1:0|0:0,0:0:0:0:
335,331,66300,2,0,P|435:368|519:372,1,150.000005722046,6|2,1:2|0:0,0:0:0:0:
500,268,66623,1,2,1:2:0:0:
205,376,66784,2,0,P|229:332|234:299,1,75.0000028610231,10|0,1:2|0:0,0:0:0:0:
199,223,66945,2,0,P|278:166|399:206,1,225.000008583069,2|0,1:2|2:0,0:0:0:0:
396,231,67268,1,0,3:0:0:0:
108,313,67429,5,14,1:2:0:0:
0,124,67591,2,0,P|96:178|262:90,1,300.000011444092,2|8,1:0|0:0,0:0:0:0:
368,320,68074,2,0,P|354:259|375:207,1,75.0000028610231,10|0,1:0|0:0,0:0:0:0:
442,173,68236,1,2,3:2:0:0:
243,83,68397,6,0,P|288:40|344:32,1,75.0000028610231,0|0,1:0|0:0,0:0:0:0:
407,72,68558,2,0,P|340:39|174:26,1,225.000008583069,6|0,1:0|2:0,0:0:0:0:
103,99,68881,2,0,B|52:136|-3:107|-3:107|56:134|58:197,1,225.000008583069,6|0,0:1|2:0,0:0:0:0:
7,289,69203,1,8,3:0:0:0:
7,289,69284,1,8,3:0:0:0:
83,241,69365,5,8,1:0:0:0:
157,274,69445,1,8,1:0:0:0:
182,336,69526,1,8,1:2:0:0:
238,357,69607,1,8,0:0:0:0:
284,334,69687,1,8,3:0:0:0:
301,292,69768,1,4,3:0:0:0:
285,257,69849,5,8,1:2:0:0:
267,336,69929,1,8,1:0:0:0:
340,374,70010,6,0,P|388:331|406:293,1,75.0000028610231,14|0,1:0|0:0,0:0:0:0:
496,297,70171,2,0,P|482:233|458:199,1,75.0000028610231,2|0,3:1|0:0,0:0:0:0:
323,136,70332,2,0,P|286:131|252:115,1,75.0000028610231,10|0,1:0|0:0,0:0:0:0:
396,61,70494,1,0,3:0:0:0:
173,216,70655,2,0,P|138:232|101:237,1,75.0000028610231,10|0,1:0|0:0,0:0:0:0:
29,162,70817,1,2,1:0:0:0:
334,280,70978,2,0,P|395:300|437:296,1,75.0000028610231,10|0,1:0|0:0,0:0:0:0:
478,225,71139,6,0,B|423:286|442:374|442:374|491:355|501:296,1,225.000008583069,14|0,1:0|2:0,0:0:0:0:
479,309,71462,1,2,1:2:0:0:
455,292,71542,1,0,1:0:0:0:
425,291,71623,2,0,P|378:317|339:313,1,75.0000028610231,8|0,1:0|0:0,0:0:0:0:
270,379,71784,2,0,P|223:353|184:357,1,75.0000028610231,10|0,1:0|0:0,0:0:0:0:
102,263,71945,6,0,P|151:229|169:183,1,75.0000028610231,8|0,0:0|0:0,0:0:0:0:
131,114,72107,1,10,1:2:0:0:
383,209,72268,6,0,P|354:152|317:134,1,75.0000028610231,8|0,3:2|0:0,0:0:0:0:
239,138,72429,1,8,1:0:0:0:
262,113,72510,1,8,1:0:0:0:
272,86,72591,5,6,1:0:0:0:
508,261,72752,2,0,P|396:255|289:287,1,225.000008583069,2|0,3:2|2:0,0:0:0:0:
254,377,73074,1,10,0:0:0:0:
106,88,73236,6,0,P|92:144|104:203,1,75.0000028610231,8|0,0:1|0:0,0:0:0:0:
155,240,73397,2,0,P|83:196|3:310,1,225.000008583069,2|0,3:2|2:0,0:0:0:0:
58,366,73720,2,0,P|28:282|21:130,1,225.000008583069,2|0,3:1|2:0,0:0:0:0:
100,75,74042,1,2,3:1:0:0:
312,78,74203,6,0,P|279:97|253:124,1,75.0000028610231,10|0,0:0|0:0,0:0:0:0:
231,226,74365,2,0,P|277:120|430:66,1,225.000008583069,2|0,3:2|2:0,0:0:0:0:
447,124,74687,1,2,3:2:0:0:
108,244,74849,6,0,B|182:221|182:221|247:269|222:363,1,225.000008583069,8|0,0:1|2:0,0:0:0:0:
208,364,75171,1,6,1:0:0:0:
433,340,75332,2,0,P|364:301|298:161,1,225.000008583069,0|0,3:0|2:0,0:0:0:0:
357,98,75655,1,2,3:2:0:0:
77,100,75816,2,0,P|112:117|165:166,1,75.0000028610231,8|0,0:0|0:0,0:0:0:0:
180,231,75978,1,2,3:2:0:0:
359,85,76139,6,0,P|302:97|267:96,1,75.0000028610231,8|0,0:0|0:0,0:0:0:0:
213,35,76300,2,0,P|279:117|305:254,1,225.000008583069,2|0,1:0|2:0,0:0:0:0:
330,328,76623,2,0,P|359:237|460:151,1,225.000008583069,2|0,1:0|2:0,0:0:0:0:
512,234,76945,2,0,L|255:214,1,225.000008583069,0|0,1:0|2:0,0:0:0:0:
225,146,77268,1,2,3:2:0:0:
64,298,77429,2,0,B|69:320|86:334|86:334|117:248|71:114,1,225.000008583069,8|0,0:0|2:0,0:0:0:0:
70,129,77752,6,0,P|134:128|162:113,1,75.0000028610231,6|0,1:0|0:0,0:0:0:0:
217,59,77913,2,0,P|189:150|231:278,1,225.000008583069,0|0,3:0|2:0,0:0:0:0:
329,274,78236,1,2,3:2:0:0:
21,353,78397,6,0,P|78:334|118:334,1,75.0000028610231,8|0,0:1|0:0,0:0:0:0:
176,373,78558,2,0,P|130:314|117:144,1,225.000008583069,0|0,3:0|2:0,0:0:0:0:
170,80,78881,6,0,L|425:90,1,225.000008583069,2|0,3:1|2:0,0:0:0:0:
422,59,79203,1,2,3:1:0:0:
328,343,79365,2,0,P|313:293|321:241,1,75.0000028610231,8|0,1:0|0:0,0:0:0:0:
387,205,79526,2,0,P|292:256|157:228,1,225.000008583069,0|0,3:0|2:0,0:0:0:0:
157,147,79849,1,2,3:2:0:0:
121,322,80010,1,4,0:0:0:0:
25,125,80171,2,0,P|54:180|61:240,1,75.0000028610231,8|0,0:0|0:0,0:0:0:0:
210,98,80332,6,0,P|163:130|137:133,1,75.0000028610231,6|0,1:0|0:0,0:0:0:0:
46,213,80494,2,0,B|107:227|117:290|117:290|143:232|239:224,1,225.000008583069,0|0,3:0|2:0,0:0:0:0:
216,246,80816,1,0,3:0:0:0:
252,17,80978,2,0,P|233:71|237:117,1,75.0000028610231,8|0,0:1|0:0,0:0:0:0:
334,128,81139,1,0,3:0:0:0:
143,375,81300,2,0,P|124:321|128:275,1,75.0000028610231,8|0,1:2|0:0,0:0:0:0:
223,264,81462,6,0,P|113:290|21:215,1,225.000008583069,10|0,1:0|2:0,0:0:0:0:
41,133,81784,2,0,P|53:180|35:229,1,75.0000028610231,10|0,0:0|0:0,0:0:0:0:
1,293,81945,1,2,3:2:0:0:
123,29,82107,1,8,0:0:0:0:
187,106,82187,1,8,0:0:0:0:
284,96,82268,5,8,3:0:0:0:
252,116,82349,1,4,3:0:0:0:
236,141,82429,1,4,1:3:0:0:
231,163,82510,1,4,3:0:0:0:
232,178,82591,5,8,1:3:0:0:
306,183,82671,1,4,3:0:0:0:
381,188,82752,1,8,1:2:0:0:
455,193,82832,1,8,1:2:0:0:
507,138,82913,6,0,P|495:83|475:43,1,75.0000028610231,14|0,1:0|0:0,0:0:0:0:
364,348,83074,2,0,P|317:244|202:166,1,225.000008583069,0|0,3:0|2:0,0:0:0:0:
164,244,83397,1,8,0:0:0:0:
127,12,83558,6,0,P|169:54|233:61,1,75.0000028610231,10|0,1:0|0:0,0:0:0:0:
282,57,83720,2,0,P|144:102|70:155,1,225.000008583069,2|0,3:2|2:0,0:0:0:0:
24,316,84042,6,0,B|53:242|53:242|9:61,1,225.000008583069,4|0,1:0|2:0,0:0:0:0:
5,2,84365,1,8,0:0:0:0:
154,313,84526,2,0,P|176:260|183:209,1,75.0000028610231,10|0,0:1|0:0,0:0:0:0:
113,141,84687,1,2,1:0:0:0:
332,370,84849,6,0,P|297:324|256:292,1,75.0000028610231,8|0,0:0|0:0,0:0:0:0:
268,209,85010,2,0,P|211:216|163:235,1,75.0000028610231,2|0,1:1|0:0,0:0:0:0:
357,379,85171,6,0,L|361:272,1,75.0000028610231,10|0,0:3|0:0,0:0:0:0:
364,209,85332,2,0,L|368:102,1,75.0000028610231,6|0,0:3|0:0,0:0:0:0:
368,40,85494,6,0,B|281:49|281:49|254:87|254:87|107:98,1,225.000008583069,14|0,1:0|2:0,0:0:0:0:
141,80,85816,2,0,P|165:134|167:187,1,75.0000028610231,10|0,0:1|0:0,0:0:0:0:
246,203,85978,2,0,P|211:250|166:279,1,75.0000028610231,10|0,0:0|0:0,0:0:0:0:
512,183,86139,2,0,P|453:176|406:152,1,75.0000028610231,10|0,0:1|0:0,0:0:0:0:
352,212,86300,2,0,P|328:158|326:104,1,75.0000028610231,10|0,0:0|0:0,0:0:0:0:
249,89,86462,2,0,P|283:41|328:12,1,75.0000028610231,10|0,0:1|0:0,0:0:0:0:
363,240,86623,6,0,P|272:268|156:169,1,225.000008583069,14|0,1:0|2:0,0:0:0:0:
147,99,86945,1,10,0:0:0:0:
147,99,87026,1,0,0:0:0:0:
66,58,87107,5,8,1:2:0:0:
13,111,87187,1,8,1:2:0:0:
26,169,87268,1,8,0:3:0:0:
64,192,87349,1,8,0:3:0:0:
100,184,87429,1,8,1:2:0:0:
155,339,87591,6,0,P|203:319|270:317,1,75.0000028610231,8|8,3:0|3:0,0:0:0:0:
319,234,87752,2,0,P|367:254|434:256,1,75.0000028610231,2|4,3:0|3:0,0:0:0:0:
143,353,87913,1,6,1:3:0:0:
97,274,87994,1,8,1:2:0:0:
139,195,88074,5,14,1:0:0:0:
91,25,88236,2,0,P|161:93|304:81,1,225.000008583069,2|0,0:0|2:0,0:0:0:0:
324,12,88558,1,0,3:0:0:0:
351,258,88720,2,0,P|394:215|431:199,1,75.0000028610231,8|0,0:1|0:0,0:0:0:0:
487,159,88881,2,0,L|230:199,1,225.000008583069,8|0,0:0|2:0,0:0:0:0:
177,300,89203,6,0,B|178:330|209:358|209:358|272:264|233:158,1,225.000008583069,6|0,0:1|2:0,0:0:0:0:
175,150,89526,1,8,0:0:0:0:
375,26,89687,6,0,P|360:79|369:124,1,75.0000028610231,10|0,1:0|0:0,0:0:0:0:
437,149,89849,1,2,3:1:0:0:
321,294,90010,6,0,P|384:267|415:238,1,75.0000028610231,8|0,1:0|0:0,0:0:0:0:
337,102,90172,2,0,P|338:139|329:176,1,75.0000028610231,8|0,0:1|0:0,0:0:0:0:
399,272,90332,1,8,0:0:0:0:
399,272,90494,1,2,3:2:0:0:
119,90,90655,5,2,0:0:0:0:
82,177,90816,1,2,0:0:0:0:
188,288,90978,6,0,P|180:246|176:180,1,80,2|2,0:2|0:0,0:0:0:0:
196,195,91300,1,10,0:2:0:0:
22,96,91462,2,0,P|30:51|43:17,1,80,0|8,0:2|0:1,0:0:0:0:
184,0,91784,6,0,P|148:41|131:72,1,80,2|2,1:0|0:0,0:0:0:0:
33,114,92107,2,0,P|60:143|82:177,1,80,2|10,0:0|0:2,0:0:0:0:
319,82,92429,2,0,P|280:79|241:87,1,80,10|10,0:2|0:3,0:0:0:0:
120,281,92752,2,0,P|81:284|42:277,1,80,10|10,0:3|0:0,0:0:0:0:
30,261,93074,6,0,L|23:210,1,40,2|0,1:2|0:0,0:0:0:0:
253,364,93236,1,6,1:0:0:0:
335,312,93397,1,6,0:1:0:0:
247,381,93558,5,2,0:0:0:0:
356,220,93720,2,0,P|336:156|332:129,1,80,10|10,0:1|0:0,0:0:0:0:
149,77,94042,2,0,P|169:13|173:-14,1,80,10|10,0:2|0:0,0:0:0:0:
512,191,94365,6,0,P|472:185|435:170,1,80,10|2,0:2|0:0,0:0:0:0:
315,124,94687,2,0,P|290:148|273:171,1,40,10|0,0:1|0:0,0:0:0:0:
299,290,94849,1,2,0:0:0:0:
299,290,94929,1,0,1:0:0:0:
299,290,95010,1,2,1:0:0:0:
278,265,95091,1,0,1:0:0:0:
247,255,95171,1,0,1:0:0:0:
191,290,95252,5,8,1:2:0:0:
136,337,95333,1,10,1:2:0:0:
72,337,95414,1,8,1:2:0:0:
21,289,95494,2,0,P|17:236|17:216,1,40,10|8,1:0|1:3,0:0:0:0:
110,79,95655,2,0,L|106:118,1,40,10|8,1:0|1:0,0:0:0:0:
260,242,95816,5,14,1:0:0:0:
154,215,95978,2,0,P|276:220|289:216,1,119.999996337891,0|8,0:0|0:0,0:0:0:0:
470,370,96462,2,0,P|427:339|351:316,1,119.999996337891,8|0,0:1|0:0,0:0:0:0:
345,25,96945,6,0,P|355:100|368:120,1,89.9999972534181,14|0,0:0|2:0,0:0:0:0:
277,209,97268,2,0,P|277:253|260:295,1,89.9999972534181,10|0,0:0|2:0,0:0:0:0:
362,375,97591,1,2,1:2:0:0:
362,375,97671,1,0,1:0:0:0:
362,375,97752,6,0,B|352:365|348:361|343:356|354:302|352:279,1,50,8|0,1:0|0:0,0:0:0:0:
165,348,97913,1,10,0:0:0:0:
362,375,98074,1,8,0:1:0:0:
372,325,98155,1,0,0:0:0:0:
383,276,98236,1,10,1:2:0:0:
394,227,98316,1,8,1:2:0:0:
405,178,98397,6,0,L|366:120,1,50,10|0,1:0|0:0,0:0:0:0:
224,47,98558,2,0,P|253:103|263:163,1,119.999996337891,2|8,1:0|0:0,0:0:0:0:
71,307,99042,5,10,0:1:0:0:
37,218,99203,1,10,0:0:0:0:
253,253,99365,2,0,P|234:249|215:243,1,29.9999990844727,10|0,0:1|0:0,0:0:0:0:
408,366,99526,6,0,P|389:296|397:238,1,119.999996337891,14|12,0:0|0:0,0:0:0:0:
504,59,100010,2,0,P|474:83|442:98,1,59.9999981689454,0|0,0:0|1:0,0:0:0:0:
424,94,100252,1,0,1:0:0:0:
396,82,100332,1,8,1:0:0:0:
336,2,100494,1,2,1:0:0:0:
286,203,100655,1,8,0:1:0:0:
228,57,100816,1,0,1:0:0:0:
252,74,100897,1,0,1:0:0:0:
269,98,100978,1,2,1:0:0:0:
269,98,102913,5,10,1:0:0:0:
319,270,103074,1,8,0:1:0:0:
327,231,103155,1,8,1:0:0:0:
336,192,103236,5,8,3:0:0:0:
356,191,103316,1,8,3:0:0:0:
376,196,103397,1,4,3:0:0:0:
395,204,103478,1,8,3:2:0:0:
407,220,103558,5,2,1:0:0:0:
432,194,103639,1,0,1:0:0:0:
269,314,103800,5,0,1:0:0:0:
266,355,103881,1,0,1:0:0:0:
238,331,103962,1,8,1:0:0:0:
203,321,104042,1,8,3:0:0:0:
167,326,104123,1,8,1:0:0:0:
120,348,104203,1,8,1:0:0:0:
154,313,104284,1,8,1:2:0:0:
156,264,104365,1,8,3:0:0:0:
128,225,104445,1,8,3:0:0:0:
80,217,104526,1,8,3:0:0:0:
62,228,104607,1,8,0:0:0:0:
42,234,104687,1,8,0:0:0:0:
21,229,104768,1,8,0:0:0:0:
5,214,104849,5,12,1:2:0:0:
22,153,104929,1,12,1:2:0:0:
40,92,105010,1,2,1:0:0:0:
89,362,105171,1,8,3:0:0:0:
196,50,105332,1,8,3:0:0:0:
196,50,105413,1,4,3:0:0:0:
196,50,105494,1,8,3:0:0:0:
239,94,105574,1,8,1:0:0:0:
301,100,105655,1,8,3:0:0:0:
361,80,105736,1,8,1:2:0:0:
391,25,105816,5,12,1:0:0:0:
297,255,105978,1,4,1:0:0:0:
391,227,106139,1,12,3:0:0:0:
71,89,126784,6,0,B|176:102|244:56|244:56|260:124|260:124|365:110|508:193|502:316|364:408|266:243,1,700,14|0,0:0|2:0,0:0:0:0:
175,301,127429,2,0,P|175:261|182:227,1,60,6|0,0:0|2:0,0:0:0:0:
189,245,127752,6,0,P|242:211|295:211,1,75.0000028610231,10|0,0:0|0:0,0:0:0:0:
483,179,127913,2,0,B|337:189|304:52|304:52|346:61|362:117,1,300,6|0,0:0|2:0,0:0:0:0:
281,215,128236,1,8,0:0:0:0:
188,250,128316,1,8,0:0:0:0:
120,206,128397,1,8,0:0:0:0:
102,148,128478,1,4,0:3:0:0:
115,110,128558,1,8,0:3:0:0:
149,89,128639,1,8,0:3:0:0:
159,102,128720,5,10,0:0:0:0:
86,162,128800,1,8,0:0:0:0:
0,112,128881,2,0,P|13:86|16:61,1,50,8|2,0:0|0:0,0:0:0:0:
231,83,129042,2,0,P|158:102|129:119,1,75.0000028610231,8|0,0:0|0:0,0:0:0:0:
188,286,129203,2,0,P|194:249|207:214,1,75.0000028610231,10|0,0:0|0:0,0:0:0:0:
433,175,129365,6,0,P|368:198|325:289,1,150,6|0,0:0|0:0,0:0:0:0:
340,298,129526,1,10,0:2:0:0:
198,0,129687,6,0,P|250:44|369:39,1,150,10|0,0:0|0:0,0:0:0:0:
356,32,129848,1,10,0:2:0:0:
164,292,130010,6,0,B|194:216|123:117|123:117|90:166|28:184,1,300,10|0,0:0|2:0,0:0:0:0:
20,175,130332,2,0,P|71:149|106:113,1,100,10|0,0:0|0:0,0:0:0:0:
392,196,130494,6,0,B|431:206|449:229|449:229|357:303|205:205,1,300,4|0,0:0|2:0,0:0:0:0:
218,204,130816,2,0,P|169:232|159:241,1,50,8|0,0:0|0:0,0:0:0:0:
457,78,130978,5,10,0:0:0:0:
375,115,131058,1,8,0:0:0:0:
297,95,131139,1,10,0:0:0:0:
257,36,131220,1,8,0:3:0:0:
200,17,131300,1,10,0:3:0:0:
156,42,131381,1,4,0:3:0:0:
137,88,131462,1,4,0:3:0:0:
146,126,131542,1,4,0:3:0:0:
169,144,131623,1,4,0:3:0:0:
188,145,131703,1,4,0:3:0:0:
204,133,131784,5,8,0:0:0:0:
104,120,131865,1,8,0:0:0:0:
18,169,131945,6,0,P|9:221|32:334,1,133.333333333333,14|0,0:0|0:0,0:0:0:0:
42,331,132107,2,0,P|74:326|101:309,1,60,8|0,0:0|2:0,0:0:0:0:
110,296,132429,1,8,0:2:0:0:
392,289,132591,2,0,B|306:284|241:196|264:129|264:129|347:100,1,300,8|0,0:0|2:0,0:0:0:0:
409,49,132913,2,0,P|435:64|457:67,1,50,2|0,0:0|0:0,0:0:0:0:
245,263,133074,6,0,P|124:231|12:235,1,225.000008583069,12|0,0:0|2:0,0:0:0:0:
327,106,133397,2,0,P|206:138|94:134,1,225.000008583069,2|0,0:0|2:0,0:0:0:0:
94,124,133720,2,0,P|93:96|98:67,1,50,2|0,0:0|0:0,0:0:0:0:
234,236,133881,6,0,P|226:302|238:368,1,133.333333333333,8|0,0:0|0:0,0:0:0:0:
310,380,134042,1,10,0:2:0:0:
453,138,134203,2,0,P|385:169|336:220,1,133.333333333333,8|0,0:0|0:0,0:0:0:0:
355,276,134364,1,8,0:2:0:0:
364,176,134445,1,8,0:2:0:0:
309,91,134526,6,0,P|246:88|191:114,1,100.000003814697,6|0,0:0|0:0,0:0:0:0:
197,119,134687,2,0,B|259:86|322:106|322:106|344:141|396:165,1,225.000008583069,8|0,0:2|2:0,0:0:0:0:
483,125,135010,2,0,P|490:75|489:59,1,50,8|0,0:2|0:0,0:0:0:0:
345,286,135171,6,0,P|389:336|470:357,1,150,8|0,0:0|0:0,0:0:0:0:
495,309,135332,1,8,0:2:0:0:
211,249,135494,2,0,P|255:199|361:172,1,150,8|0,0:0|0:0,0:0:0:0:
372,184,135655,1,6,0:0:0:0:
3,288,135816,2,0,P|47:338|146:354,1,150,8|0,0:0|0:0,0:0:0:0:
162,343,135977,1,8,0:2:0:0:
255,32,136139,5,8,0:0:0:0:
186,105,136220,1,8,0:0:0:0:
204,182,136300,1,8,0:3:0:0:
258,208,136381,1,8,0:3:0:0:
292,188,136462,5,8,0:3:0:0:
198,153,136542,1,8,0:0:0:0:
129,194,136623,1,8,0:3:0:0:
111,250,136703,1,4,0:3:0:0:
79,274,136784,1,8,0:2:0:0:
49,280,136865,1,8,0:2:0:0:
29,275,136945,5,8,0:0:0:0:
129,277,137026,1,8,0:0:0:0:
217,324,137107,6,0,B|269:333|297:351|297:351|328:317|364:289|364:289|392:322|436:351,1,266.666666666667,14|0,0:0|0:0,0:0:0:0:
512,135,137429,1,2,0:0:0:0:
433,180,137537,1,2,0:0:0:0:
351,155,137644,1,2,0:0:0:0:
324,97,137752,6,0,B|357:134|340:215|340:215|310:228|310:228|284:261|275:334,1,266.666666666667,8|0,0:0|0:0,0:0:0:0:
141,256,138074,1,2,0:0:0:0:
178,240,138155,1,2,0:0:0:0:
216,252,138236,2,0,P|106:265|17:254,1,150.000005722046,14|0,0:0|0:0,0:0:0:0:
287,338,138397,6,0,P|173:354|76:384,1,200,2|4,0:0|0:3,0:0:0:0:
203,88,138720,1,2,0:0:0:0:
192,113,138800,1,0,0:0:0:0:
203,138,138881,2,0,P|254:148|340:129,1,100,6|0,0:3|0:0,0:0:0:0:
499,175,139042,6,0,L|368:247,1,100,10|0,0:0|0:0,0:0:0:0:
287,366,139203,1,6,0:3:0:0:
340,301,139311,1,2,0:0:0:0:
305,236,139419,1,2,0:0:0:0:
246,241,139526,2,0,P|315:320|361:350,1,100,6|0,0:3|0:0,0:0:0:0:
64,136,139687,6,0,P|129:20|143:6,1,100,14|2,0:0|0:0,0:0:0:0:
81,303,139849,1,4,0:3:0:0:
81,303,139929,1,0,0:0:0:0:
110,250,140010,2,0,P|46:236|-17:245,1,100,2|2,0:0|0:0,0:0:0:0:
349,136,140171,2,0,P|300:148|251:148,1,100,6|0,0:3|0:0,0:0:0:0:
397,257,140332,5,10,0:0:0:0:
435,238,140413,1,2,0:0:0:0:
446,200,140494,1,6,0:3:0:0:
274,351,140655,2,0,P|285:284|272:226,1,100,10|2,0:0|0:0,0:0:0:0:
308,0,140816,6,0,B|369:59|369:59|321:170|130:146,1,300,6|2,0:2|0:0,0:0:0:0:
181,137,141139,2,0,P|156:110|149:90,1,50,6|0,0:3|0:0,0:0:0:0:
33,266,141300,1,2,0:0:0:0:
33,266,141381,1,0,0:0:0:0:
33,266,141462,1,10,0:3:0:0:
124,226,141542,1,8,0:3:0:0:
195,296,141623,5,10,0:0:0:0:
294,298,141703,1,10,0:0:0:0:
349,240,141784,1,10,0:0:0:0:
345,179,141865,1,8,0:2:0:0:
313,154,141945,1,10,0:3:0:0:
283,157,142026,1,8,0:3:0:0:
271,173,142107,5,10,0:0:0:0:
368,192,142187,1,8,0:0:0:0:
453,140,142268,6,0,P|403:42|358:6,1,133.333333333333,14|0,0:0|0:0,0:0:0:0:
313,21,142429,1,8,0:2:0:0:
335,302,142591,2,0,P|433:351|490:354,1,133.333333333333,8|0,0:0|0:0,0:0:0:0:
503,298,142752,1,10,0:2:0:0:
241,127,142913,2,0,P|132:144|84:175,1,133.333333333333,10|0,0:0|0:0,0:0:0:0:
103,227,143074,1,10,0:2:0:0:
419,213,143236,2,0,P|496:135|517:81,1,133.333333333333,8|0,0:0|0:0,0:0:0:0:
498,79,143397,6,0,B|464:165|495:264|495:264|476:267|476:267|451:363|399:378|399:378|397:315,1,359.999989013672,6|0,0:0|2:0,0:0:0:0:
402,353,143720,1,8,0:0:0:0:
318,299,143800,1,8,0:0:0:0:
223,333,143881,2,0,P|138:354|80:357,1,100,10|0,0:0|0:0,0:0:0:0:
406,220,144042,2,0,P|491:241|549:244,1,100,10|0,0:0|0:0,0:0:0:0:
377,124,144203,5,10,0:2:0:0:
99,132,144365,2,0,P|14:153|-44:156,1,100,10|0,0:0|0:0,0:0:0:0:
128,36,144526,5,8,0:2:0:0:
400,257,144687,1,10,0:0:0:0:
459,166,144768,1,8,0:0:0:0:
436,57,144849,5,14,0:1:0:0:
322,203,145010,2,0,P|347:284|356:369,1,170.000003242493,10|8,0:0|1:0,0:0:0:0:
53,116,145332,2,0,B|154:166|247:155|247:155|234:125|186:99,1,255.000004863739,10|0,0:0|2:0,0:0:0:0:
139,196,145655,2,0,B|116:226|116:226|121:263|153:337,1,85.0000016212464,10|0,0:0|0:0,0:0:0:0:
199,366,145816,1,8,1:0:0:0:
384,124,145978,6,0,B|371:100|332:86|332:86|329:186|445:248,1,255.000004863739,14|0,0:0|2:0,0:0:0:0:
349,321,146300,2,0,P|429:347|486:334,1,85.0000016212464
512,292,146462,1,8,1:0:0:0:
272,247,146623,1,10,0:0:0:0:
143,382,146784,1,2,0:0:0:0:
6,227,146945,2,0,P|105:252|202:310,1,170.000003242493,8|8,0:0|1:0,0:0:0:0:
48,365,147268,1,12,0:0:0:0:
282,116,147429,5,10,1:0:0:0:
193,281,147591,1,2,1:0:0:0:
277,91,147752,2,0,B|328:109|348:164|348:164|310:211|317:285,1,170.000003242493,10|2,0:1|0:0,0:0:0:0:
384,349,148074,5,12,3:0:0:0:
188,45,148236,2,0,P|125:100|43:119,1,170.000003242493,12|8,3:0|1:0,0:0:0:0:
247,321,148558,2,0,B|269:349|320:364|320:364|241:245|69:287,1,340.000006484985,6|8,1:0|0:0,0:0:0:0:
492,246,149042,2,0,P|393:251|351:237,1,113.333335494995,10|0,1:0|0:0,0:0:0:0:
358,189,149203,1,8,0:0:0:0:
228,31,149365,1,10,1:2:0:0:
279,108,149445,1,0,1:0:0:0:
268,184,149526,1,8,3:0:0:0:
225,225,149607,1,8,0:0:0:0:
214,274,149687,1,0,1:0:0:0:
228,314,149768,1,0,1:0:0:0:
255,333,149849,1,10,1:2:0:0:
279,328,149929,1,8,1:2:0:0:
291,316,150010,6,0,P|139:317|109:328,1,139.999995727539,14|0,1:0|0:0,0:0:0:0:
97,367,150171,1,8,0:0:0:0:
185,88,150332,2,0,P|52:163|21:168,1,139.999995727539,8|0,1:0|0:0,0:0:0:0:
31,154,150494,2,0,P|99:145|254:237,1,225.000008583069,10|0,0:0|2:0,0:0:0:0:
230,231,150816,1,2,0:1:0:0:
483,88,150978,2,0,P|401:110|316:87,1,139.999995727539,8|0,1:0|0:0,0:0:0:0:
321,85,151139,6,0,B|311:61|317:33|317:33|394:92|352:233,1,255.000004863739,6|0,1:0|2:0,0:0:0:0:
454,249,151462,2,0,P|416:318|341:381,1,170.000003242493,6|8,1:0|1:0,0:0:0:0:
512,378,151784,1,10,0:0:0:0:
119,240,151945,6,0,P|209:228|279:182,1,139.999995727539,8|0,1:0|0:0,0:0:0:0:
260,127,152107,1,8,0:0:0:0:
0,162,152268,5,8,1:0:0:0:
88,218,152349,1,8,1:0:0:0:
123,293,152429,1,10,1:2:0:0:
100,351,152510,1,8,3:0:0:0:
72,377,152591,6,0,P|182:341|254:357,1,139.999995727539,14|0,0:0|0:0,0:0:0:0:
232,367,152752,2,0,P|335:373|452:299,1,225.000008583069,8|0,0:0|2:0,0:0:0:0:
434,285,153074,1,2,1:0:0:0:
270,64,153236,6,0,P|310:151|321:244,1,139.999995727539,8|0,1:0|0:0,0:0:0:0:
306,270,153397,1,10,0:0:0:0:
482,34,153559,2,0,P|422:65|373:53,1,104.999996795654,10|0,0:1|0:0,0:0:0:0:
23,93,153720,6,0,P|97:82|195:298,1,314.999990386963,14|0,0:0|2:0,0:0:0:0:
109,275,154042,1,8,0:0:0:0:
393,370,154203,1,8,1:0:0:0:
352,284,154284,1,8,1:0:0:0:
366,211,154365,1,8,3:0:0:0:
418,176,154445,1,4,3:0:0:0:
457,190,154526,5,10,0:0:0:0:
384,205,154607,1,8,1:0:0:0:
313,221,154687,1,10,0:0:0:0:
241,237,154768,1,8,3:0:0:0:
170,260,154849,2,0,P|149:325|141:380,1,104.999996795654,8|4,3:0|3:0,0:0:0:0:
258,130,155010,2,0,P|216:76|189:27,1,104.999996795654,10|0,1:0|0:0,0:0:0:0:
492,205,155171,5,14,1:0:0:0:
273,123,155332,2,0,B|293:135|318:141|318:141|346:197|307:306,1,170.000003242493,8|8,0:0|1:0,0:0:0:0:
35,243,155655,6,0,B|21:205|23:175|23:175|66:255|159:322,1,255.000004863739,10|0,0:0|2:0,0:0:0:0:
145,336,155978,2,0,P|242:336|278:310,1,85.0000016212464,8|0,0:0|0:0,0:0:0:0:
277,136,156139,2,0,P|258:187|221:227,1,110.000003356934,8|0,1:0|0:0,0:0:0:0:
468,297,156300,6,0,B|506:284|525:236|525:236|399:184|296:297,1,330.000010070801,14|0,0:0|2:0,0:0:0:0:
320,310,156623,2,0,P|318:390|330:422,1,64.9999970245363,8|0,0:0|0:0,0:0:0:0:
220,227,156784,2,0,P|287:186|335:141,1,139.999995727539,8|0,1:0|0:0,0:0:0:0:
321,67,156945,1,8,0:0:0:0:
497,279,157107,5,2,0:0:0:0:
142,319,157268,2,0,B|113:288|115:240|115:240|154:205|231:229,1,170.000003242493,10|8,0:0|1:0,0:0:0:0:
30,323,157591,1,10,0:0:0:0:
211,232,157752,6,0,P|229:173|217:119,1,85.0000016212464,6|0,1:0|0:0,0:0:0:0:
41,159,157913,2,0,P|100:177|154:165,1,85.0000016212464,8|0,0:0|0:0,0:0:0:0:
334,21,158074,2,0,P|288:63|354:224,1,255.000004863739,8|0,1:0|2:0,0:0:0:0:
363,214,158397,1,10,0:0:0:0:
232,352,158558,2,0,P|343:328|421:329,1,170.000003242493,10|8,0:0|1:0,0:0:0:0:
72,179,158881,6,0,B|21:187|-3:227|-3:227|99:281|263:176,1,340.000006484985,14|8,0:0|0:0,0:0:0:0:
473,80,159365,2,0,P|431:155|429:266,1,139.999995727539,8|0,1:0|0:0,0:0:0:0:
472,266,159526,1,8,0:0:0:0:
236,21,159687,1,8,1:0:0:0:
302,102,159768,1,8,1:0:0:0:
283,195,159849,1,8,0:0:0:0:
206,227,159929,1,8,3:0:0:0:
185,297,160010,1,8,3:0:0:0:
223,347,160091,1,4,3:0:0:0:
274,337,160171,2,0,P|188:341|109:373,1,104.999996795654,8|0,3:0|1:0,0:0:0:0:
464,353,160332,6,0,P|498:229|496:19,1,314.999990386963,14|0,1:0|2:0,0:0:0:0:
153,6,160655,2,0,P|291:82|404:192,1,314.999990386963,12|0,0:0|2:0,0:0:0:0:
117,266,160978,2,0,B|78:258|55:225|55:225|162:141|308:226,1,314.999990386963,2|0,1:0|2:0,0:0:0:0:
268,228,161300,2,0,P|304:292|309:368,1,104.999996795654,8|0,0:0|0:0,0:0:0:0:
512,367,161462,2,0,P|408:250|375:98,1,314.999990386963,14|0,1:0|2:0,0:0:0:0:
464,18,161784,5,2,1:0:0:0:
405,105,161865,1,0,1:0:0:0:
311,95,161945,1,8,3:0:0:0:
264,24,162026,1,8,3:0:0:0:
192,7,162107,1,12,3:0:0:0:
137,38,162187,1,4,3:0:0:0:
120,87,162268,6,0,P|176:106|234:94,1,104.999996795654,8|8,0:0|0:0,0:0:0:0:
42,179,162429,2,0,P|11:137|3:86,1,104.999996795654,2|0,1:0|0:0,0:0:0:0:
93,291,162591,6,0,P|137:252|156:195,1,104.999996795654,8|0,1:0|0:0,0:0:0:0:
292,15,162752,2,0,P|323:57|332:109,1,104.999996795654,8|0,1:0|0:0,0:0:0:0:
224,343,162913,6,0,B|224:292|251:251|251:251|359:340|506:321,1,314.999990386963,14|0,1:0|2:0,0:0:0:0:
409,28,163236,2,0,P|383:162|481:332,1,314.999990386963,4|0,1:0|2:0,0:0:0:0:
235,123,163558,2,0,P|357:168|486:342,1,314.999990386963,4|0,1:0|2:0,0:0:0:0:
488,297,163881,2,0,P|484:241|506:160,1,104.999996795654,4|0,1:0|0:0,0:0:0:0:
135,282,164042,6,0,B|86:287|58:268|58:268|113:163|269:140,1,314.999990386963,14|0,1:0|2:0,0:0:0:0:
260,163,164365,2,0,P|316:200|353:255,1,104.999996795654,8|0,0:0|0:0,0:0:0:0:
400,327,164526,2,0,P|397:236|406:159,1,159.999995117188,10|0,1:0|0:0,0:0:0:0:
472,111,164687,1,2,1:0:0:0:
285,2,164849,6,0,B|345:54|345:54|352:181|181:213,1,314.999990386963,2|0,1:0|2:0,0:0:0:0:
272,341,165171,2,0,P|171:319|69:333,1,159.999995117188,8|0,1:0|0:0,0:0:0:0:
85,344,165332,6,0,P|62:260|74:68,1,255.000004863739,6|0,1:0|2:0,0:0:0:0:
143,38,165655,2,0,P|111:91|67:95,1,85.0000016212464,8|0,1:2|0:0,0:0:0:0:
225,233,165816,2,0,P|195:178|213:138,1,85.0000016212464,8|0,1:2|0:0,0:0:0:0:
286,53,165978,2,0,P|327:60|370:55,1,85.0000016212464,10|0,1:2|0:0,0:0:0:0:
511,197,166139,6,0,P|418:172|323:192,1,159.999995117188,8|0,1:0|0:0,0:0:0:0:
322,261,166300,1,8,0:0:0:0:
133,359,166462,6,0,P|201:290|230:196,1,159.999995117188,10|0,1:0|0:0,0:0:0:0:
200,207,166623,2,0,B|189:236|168:267|168:267|334:212|424:284,1,300,12|0,0:0|2:0,0:0:0:0:
420,360,166945,1,8,0:0:0:0:
440,21,167107,6,0,B|492:4|492:4|520:87|464:176|334:158,1,300,8|0,1:0|2:0,0:0:0:0:
345,141,167429,2,0,P|307:209|314:264,1,100,12|0,3:0|0:0,0:0:0:0:
238,369,167591,2,0,P|229:320|199:280,1,100,12|0,3:0|0:0,0:0:0:0:
417,221,167752,2,0,P|463:237|512:231,1,100,12|0,3:0|0:0,0:0:0:0:
200,261,167913,2,0,P|153:244|104:250,1,100,8|0,1:0|0:0,0:0:0:0:
0,119,168074,5,6,1:0:0:0:
59,126,168155,1,0,1:0:0:0:
118,133,168236,1,0,1:0:0:0:
176,140,168316,1,0,1:0:0:0:
235,148,168397,2,0,P|323:266|471:356,1,300,6|0,1:0|2:0,0:0:0:0:
332,0,168720,2,0,P|349:146|432:298,1,300,8|0,0:0|2:0,0:0:0:0:
499,140,169042,2,0,P|427:165|380:205,1,119.999996337891,8|0,1:0|0:0,0:0:0:0:
0,279,169203,6,0,P|147:294|290:357,1,314.999990386963,6|0,1:0|2:0,0:0:0:0:
203,369,169526,1,10,0:0:0:0:
467,140,169687,6,0,P|323:172|269:170,1,159.999995117188,8|0,1:0|0:0,0:0:0:0:
248,107,169849,1,8,1:2:0:0:
29,76,170010,2,0,P|108:45|166:262,1,359.999989013672,10|0,0:0|2:0,0:0:0:0:
167,268,170332,2,0,P|161:155|177:116,1,119.999996337891,10|0,1:0|0:0,0:0:0:0:
469,318,170494,6,0,P|312:308|87:334,1,359.999989013672,14|0,0:0|2:0,0:0:0:0:
0,378,170816,1,12,3:0:0:0:
71,239,170978,1,12,3:0:0:0:
21,94,171139,1,8,0:0:0:0:
256,38,171300,6,0,P|228:117|249:218,1,159.999995117188,8|0,1:0|0:0,0:0:0:0:
295,259,171462,1,8,0:0:0:0:
499,65,171623,2,0,P|416:80|336:146,1,159.999995117188,8|0,1:0|0:0,0:0:0:0:
355,153,171784,6,0,B|350:113|320:87|320:87|254:151|101:141|20:77,1,359.999989013672,6|0,1:0|2:0,0:0:0:0:
40,0,172107,1,8,1:0:0:0:
0,85,172187,1,0,1:0:0:0:
24,165,172268,1,8,1:2:0:0:
90,195,172349,1,8,1:2:0:0:
114,249,172429,1,8,3:0:0:0:
91,290,172510,1,8,3:0:0:0:
56,297,172591,5,10,1:0:0:0:
143,258,172671,1,8,0:0:0:0:
235,283,172752,1,2,1:0:0:0:
310,100,172913,6,0,P|270:144|220:178,1,119.999996337891,10|0,1:0|0:0,0:0:0:0:
368,0,173074,2,0,P|417:33|457:78,1,119.999996337891,10|0,1:0|0:0,0:0:0:0:
489,360,173236,1,6,1:0:0:0:
