osu file format v14

[General]
AudioFilename: audio.mp3
AudioLeadIn: 0
PreviewTime: 124317
Countdown: 0
SampleSet: Soft
StackLeniency: 0.2
Mode: 0
LetterboxInBreaks: 0
WidescreenStoryboard: 1

[Editor]
Bookmarks: 5459,23523,44168,51897,72556,90620,106104,126749,144814,162865,173188
DistanceSpacing: 1
BeatDivisor: 4
GridSize: 32
TimelineZoom: 1.7

[Metadata]
Title:A tree without a branch
TitleUnicode:A tree without a branch
Artist:MuryokuP
ArtistUnicode:無力P
Creator:Melwoine
Version:Collab Insane
Source:
Tags:Axarious Mun keeVY 無力P Resonance Vocaloid Japanese jrock Rock Electronica Megurine Luka 巡音ルカ Metal Powerless Decision AO
BeatmapID:2173563
BeatmapSetID:1037902

[Difficulty]
HPDrainRate:5
CircleSize:3.4
OverallDifficulty:7.5
ApproachRate:9
SliderMultiplier:1.8
SliderTickRate:1

[Events]
//Background and Video events
0,0,"66406050_p0_master1200.jpg",0,0
//Break Periods
2,44403,51184
2,106339,123603
//Storyboard Layer 0 (Background)
//Storyboard Layer 1 (Fail)
//Storyboard Layer 2 (Pass)
//Storyboard Layer 3 (Foreground)
//Storyboard Layer 4 (Overlay)
//Storyboard Sound Samples

[TimingPoints]
333,322.58064516129,4,2,1,70,1,0
4768,-100,4,2,1,5,0,0
4849,-100,4,2,1,70,0,0
5010,-142.857142857143,4,2,1,70,0,0
5494,-142.857142857143,4,2,1,70,0,0
6623,-100,4,2,1,70,0,0
15010,-100,4,2,1,70,0,0
15494,-100,4,2,1,70,0,0
15816,-83.3333333333333,4,2,1,70,0,0
18074,-83.3333333333333,4,2,1,70,0,0
18397,-83.3333333333333,4,2,1,70,0,0
20413,-83.3333333333333,4,2,1,70,0,0
20816,-83.3333333333333,4,2,1,70,0,0
23236,-83.3333333333333,4,2,1,70,0,0
23558,-83.3333333333333,4,2,1,55,0,0
24203,-142.857142857143,4,2,1,55,0,0
33881,-142.857142857143,4,2,1,60,0,0
34203,-100,4,2,1,60,0,0
36057,-100,4,2,1,5,0,0
36139,-100,4,2,1,60,0,0
36380,-100,4,2,1,5,0,0
36462,-100,4,2,1,60,0,0
38638,-100,4,2,1,5,0,0
38720,-100,4,2,1,60,0,0
38961,-100,4,2,1,5,0,0
39042,-100,4,2,1,60,0,0
44203,-100,4,2,1,35,0,0
51784,-100,4,2,1,50,0,0
51945,-100,4,2,1,70,0,0
54526,-100,4,2,1,75,0,0
54687,-86.9565217391304,4,2,1,75,0,0
59042,-86.9565217391304,4,2,1,75,0,0
59687,-86.9565217391304,4,2,1,75,0,0
64042,-86.9565217391304,4,2,1,75,0,0
64849,-86.9565217391304,4,2,1,75,0,0
69365,-86.9565217391304,4,2,1,75,0,0
70010,-86.9565217391304,4,2,1,75,0,0
72591,-86.9565217391304,4,2,1,70,0,0
72752,-100,4,2,1,70,0,0
77670,-100,4,2,1,5,0,0
77752,-100,4,2,1,70,0,0
82107,-100,4,2,1,70,0,0
82591,-100,4,2,1,70,0,0
83074,-83.3333333333333,4,2,1,70,0,0
85171,-83.3333333333333,4,2,1,70,0,0
85494,-83.3333333333333,4,2,1,70,0,0
87591,-83.3333333333333,4,2,1,70,0,0
87913,-83.3333333333333,4,2,1,70,0,0
90332,-83.3333333333333,4,2,1,70,0,0
90655,-83.3333333333333,4,3,1,70,0,0
94848,-83.3333333333333,4,3,1,70,0,0
95735,-83.3333333333333,4,3,1,70,0,0
95816,-83.3333333333333,4,2,1,75,0,0
96219,-83.3333333333333,4,2,1,5,0,0
96300,-83.3333333333333,4,2,1,75,0,0
103558,-83.3333333333333,4,2,1,80,0,0
103720,-83.3333333333333,4,2,1,80,0,0
103962,-83.3333333333333,4,2,1,80,0,0
104042,-83.3333333333333,4,2,1,80,0,0
104122,-83.3333333333333,4,2,1,80,0,0
104365,-83.3333333333333,4,2,1,80,0,0
105171,-83.3333333333333,4,2,1,80,0,0
106139,-83.3333333333333,4,2,1,35,0,0
124203,-83.3333333333333,4,2,1,50,0,0
126784,-125,4,1,1,80,0,0
127025,-125,4,2,1,5,0,0
127107,-100,4,1,1,80,0,0
127348,-100,4,2,1,5,0,0
127429,-76.9230769230769,4,1,1,80,0,0
127670,-76.9230769230769,4,2,1,5,0,0
127752,-76.9230769230769,4,1,1,80,0,0
128154,-76.9230769230769,4,2,1,5,0,0
128236,-76.9230769230769,4,1,1,80,0,0
128397,-76.9230769230769,4,1,1,80,0,0
129042,-76.9230769230769,4,1,1,80,0,0
130978,-76.9230769230769,4,1,1,80,0,0
131945,-76.9230769230769,4,1,1,80,0,0
133236,-90.9090909090909,4,1,1,80,0,0
136058,-90.9090909090909,4,2,1,5,0,0
136139,-90.9090909090909,4,1,1,80,0,0
136462,-90.9090909090909,4,1,1,80,0,0
137107,-90.9090909090909,4,1,1,85,0,0
138477,-90.9090909090909,4,2,1,5,0,0
138558,-90.9090909090909,4,1,1,85,0,0
141623,-90.9090909090909,4,1,1,85,0,0
142268,-90.9090909090909,4,1,1,85,0,0
144849,-90.9090909090909,4,2,1,75,0,0
145010,-83.3333333333333,4,2,1,75,0,0
145573,-83.3333333333333,4,2,1,5,0,0
145655,-83.3333333333333,4,2,1,75,0,0
147670,-83.3333333333333,4,2,1,5,0,0
147752,-83.3333333333333,4,2,1,75,0,0
149365,-83.3333333333333,4,2,1,75,0,0
150010,-83.3333333333333,4,2,1,75,0,0
152993,-83.3333333333333,4,2,1,5,0,0
153074,-83.3333333333333,4,2,1,75,0,0
154365,-83.3333333333333,4,2,1,75,0,0
155171,-83.3333333333333,4,2,1,75,0,0
155896,-83.3333333333333,4,2,1,5,0,0
155978,-83.3333333333333,4,2,1,75,0,0
159687,-83.3333333333333,4,2,1,75,0,0
160332,-83.3333333333333,4,2,1,75,0,0
160573,-83.3333333333333,4,2,1,5,0,0
160655,-83.3333333333333,4,2,1,75,0,0
160896,-83.3333333333333,4,2,1,5,0,0
160978,-83.3333333333333,4,2,1,75,0,0
161219,-83.3333333333333,4,2,1,5,0,0
161300,-83.3333333333333,4,2,1,75,0,0
161703,-83.3333333333333,4,2,1,5,0,0
161784,-83.3333333333333,4,2,1,75,0,0
161945,-83.3333333333333,4,2,1,75,0,0
162591,-83.3333333333333,4,2,1,75,0,0
162913,-100,4,2,1,80,0,0
163236,-83.3333333333333,4,2,1,80,0,0
163558,-76.9230769230769,4,2,1,80,0,0
167590,-76.9230769230769,4,2,1,80,0,0
167913,-76.9230769230769,4,2,1,80,0,0
168074,-76.9230769230769,4,2,1,80,0,0
168397,-76.9230769230769,4,2,1,80,0,0
168638,-76.9230769230769,4,2,1,5,0,0
168720,-76.9230769230769,4,2,1,80,0,0
168961,-76.9230769230769,4,2,1,5,0,0
169042,-76.9230769230769,4,2,1,80,0,0
173236,-76.9230769230769,4,2,1,35,0,0
183558,-76.9230769230769,4,2,1,50,0,0
184203,-76.9230769230769,4,2,1,35,0,0
184526,-76.9230769230769,4,2,1,25,0,0
184849,-76.9230769230769,4,2,1,15,0,0
185171,-76.9230769230769,4,2,1,10,0,0
185655,-76.9230769230769,4,2,1,5,0,0

[Colours]
Combo1 : 86,120,101
Combo2 : 238,166,17
Combo3 : 124,133,92

[HitObjects]
256,192,333,12,0,4768,2:0:0:0:
397,277,4849,5,12,0:0:0:0:
355,148,5010,2,0,L|215:137,1,125.999996154785,12|0,0:0|0:0,0:0:0:0:
416,38,5494,5,6,1:0:0:0:
370,159,5655,2,0,L|291:180,1,62.9999980773926,2|2,3:2|0:0,0:0:0:0:
192,201,5978,1,10,0:0:0:0:
197,105,6139,1,8,0:1:0:0:
180,218,6300,2,0,L|96:233,1,62.9999980773926,2|0,3:2|0:0,0:0:0:0:
40,326,6623,6,0,P|79:320|131:330,1,90,2|2,3:1|0:0,0:0:0:0:
333,362,6945,1,2,3:1:0:0:
271,288,7107,2,0,L|259:189,2,90,10|2|2,0:0|3:2|0:2,0:0:0:0:
385,248,7591,1,2,3:2:0:0:
301,230,7753,2,0,L|234:155,1,90,8|2,0:1|0:0,0:0:0:0:
113,25,8074,5,6,1:0:0:0:
17,81,8236,2,0,P|44:66|195:97,1,180,0|2,3:0|3:2,0:0:0:0:
340,148,8720,1,8,0:0:0:0:
335,138,8881,1,2,3:2:0:0:
222,171,9042,1,8,0:0:0:0:
269,77,9203,6,0,B|372:74|359:135|456:150,2,180,2|2|0,1:0|1:0|1:0,0:0:0:0:
428,343,10171,1,2,3:2:0:0:
498,229,10332,2,0,P|462:250|396:259,1,90,8|2,0:0|0:0,0:0:0:0:
291,249,10655,5,6,1:0:0:0:
274,138,10816,2,0,P|281:188|281:250,1,90,0|2,3:0|0:0,0:0:0:0:
192,272,11139,1,2,3:2:0:0:
339,347,11300,2,0,P|292:361|238:367,2,90,8|0|2,0:1|3:0|0:0,0:0:0:0:
427,252,11784,6,0,P|370:182|343:176,1,90,2|2,3:1|0:0,0:0:0:0:
218,106,12107,1,2,3:1:0:0:
272,189,12268,2,0,L|278:304,2,90,8|0|2,1:0|3:0|0:0,0:0:0:0:
214,29,12752,1,2,3:2:0:0:
136,116,12913,1,4,0:0:0:0:
49,123,13074,1,8,0:0:0:0:
145,129,13236,5,6,1:0:0:0:
160,221,13397,2,0,P|160:274|157:324,1,90,0|2,3:0|0:0,0:0:0:0:
72,308,13720,1,0,3:0:0:0:
252,354,13881,2,0,P|254:309|253:264,1,90,8|0,0:1|3:0,0:0:0:0:
223,150,14203,1,8,1:2:0:0:
315,97,14365,6,0,P|315:203|314:221,1,90,10|2,1:0|0:0,0:0:0:0:
352,264,14687,1,10,0:0:0:0:
352,264,14849,1,2,3:2:0:0:
435,172,15010,5,8,0:0:0:0:
435,172,15091,1,8,0:0:0:0:
435,172,15171,2,0,L|424:112,3,45,8|4|4|4,3:0|3:0|1:3|3:0,0:0:0:0:
422,268,15494,2,0,L|367:230,1,45,8|4,1:3|3:0,0:0:0:0:
313,154,15655,1,8,1:2:0:0:
313,154,15736,1,8,1:2:0:0:
313,154,15816,6,0,B|249:152|211:83|211:83|165:63|120:65,1,215.999993408203,14|2,1:0|0:1,0:0:0:0:
13,61,16300,2,0,L|27:137,1,53.9999983520508,8|0,0:0|0:0,0:0:0:0:
11,192,16462,2,0,L|1:138,1,53.9999983520508,10|0,1:0|0:0,0:0:0:0:
77,6,16623,1,2,3:2:0:0:
162,318,16945,6,0,B|256:349|306:246|396:334,1,215.999993408203,4|8,1:0|0:0,0:0:0:0:
486,215,17429,2,0,L|478:332,1,107.999996704102,10|2,0:1|1:0,0:0:0:0:
379,112,17752,1,8,0:0:0:0:
403,209,17913,1,2,1:1:0:0:
337,258,18074,1,10,0:3:0:0:
290,253,18236,1,6,0:3:0:0:
353,147,18397,6,0,L|373:40,1,107.999996704102,14|0,1:0|0:0,0:0:0:0:
191,114,18720,1,10,0:1:0:0:
272,171,18881,1,10,0:0:0:0:
180,110,19042,1,10,0:1:0:0:
270,152,19203,1,10,0:0:0:0:
167,105,19365,1,10,0:1:0:0:
343,107,19526,6,0,L|334:-7,1,107.999996704102,14|2,1:0|0:3,0:0:0:0:
431,93,19849,1,10,0:0:0:0:
460,180,20010,2,0,L|519:194,3,53.9999983520508,8|8|8|8,1:2|1:2|0:3|0:3,0:0:0:0:
383,208,20332,1,8,1:2:0:0:
371,242,20413,1,8,1:2:0:0:
374,268,20494,1,8,3:0:0:0:
385,285,20574,1,8,3:0:0:0:
397,293,20655,1,2,3:0:0:0:
405,293,20736,1,4,3:0:0:0:
410,288,20816,2,0,L|418:227,1,53.9999983520508,6|8,1:3|1:2,0:0:0:0:
345,133,20978,6,0,L|331:25,2,107.999996704102,14|2|2,1:0|0:0|0:1,0:0:0:0:
284,228,21462,1,0,3:0:0:0:
185,161,21623,1,8,0:1:0:0:
166,274,21784,1,8,0:0:0:0:
14,0,22107,6,0,B|12:87|90:83|97:178|69:212,1,215.999993408203,6|8,0:1|0:0,0:0:0:0:
7,304,22591,2,0,B|70:342|51:330|122:332,1,107.999996704102,10|2,1:0|3:1,0:0:0:0:
343,316,22913,1,8,1:0:0:0:
260,239,23074,1,8,0:1:0:0:
193,302,23236,1,8,0:0:0:0:
222,376,23397,1,2,3:2:0:0:
207,291,23558,5,0,3:0:0:0:
133,241,23881,1,0,3:0:0:0:
63,191,24203,2,0,P|125:205|187:174,1,125.999996154785,10|2,0:1|0:0,0:0:0:0:
193,96,24687,1,2,3:2:0:0:
181,89,25010,1,0,3:0:0:0:
167,82,25332,1,0,3:0:0:0:
233,215,25494,1,10,0:1:0:0:
280,152,25655,2,0,P|328:150|356:232,1,125.999996154785,0|2,3:0|0:0,0:0:0:0:
351,228,26139,5,2,3:2:0:0:
373,118,26462,1,2,3:2:0:0:
394,7,26784,2,0,P|386:50|440:112,1,125.999996154785,8|2,0:1|0:0,0:0:0:0:
495,203,27268,6,0,P|457:193|428:197,1,62.9999980773926,0|2,3:0|0:0,0:0:0:0:
470,206,27591,2,0,P|432:216|408:234,1,62.9999980773926,2|2,3:2|0:0,0:0:0:0:
454,218,27913,1,2,3:2:0:0:
340,137,28074,1,8,0:1:0:0:
284,200,28236,2,0,L|294:55,1,125.999996154785,2|2,3:2|0:0,0:0:0:0:
199,149,28720,5,2,3:1:0:0:
240,252,29042,1,0,3:0:0:0:
277,353,29365,2,0,P|212:335|138:355,1,125.999996154785,8|2,0:1|0:0,0:0:0:0:
53,241,29849,6,0,P|91:253|124:253,1,62.9999980773926,0|2,3:0|0:0,0:0:0:0:
62,222,30171,2,0,P|91:195|107:166,1,62.9999980773926,0|2,3:0|0:0,0:0:0:0:
62,202,30494,1,0,3:0:0:0:
170,111,30655,1,8,0:1:0:0:
130,39,30816,2,0,P|176:60|252:38,1,125.999996154785,2|0,3:2|1:0,0:0:0:0:
370,7,31300,5,2,3:1:0:0:
346,110,31623,1,2,3:2:0:0:
325,211,31945,2,0,P|368:180|390:93,1,125.999996154785,10|2,0:1|0:0,0:0:0:0:
420,198,32429,6,0,P|469:200|490:194,1,62.9999980773926,0|2,3:0|0:0,0:0:0:0:
426,221,32752,2,0,P|469:198|484:182,1,62.9999980773926,0|0,3:0|0:0,0:0:0:0:
444,241,33074,1,0,3:0:0:0:
306,271,33236,1,8,0:1:0:0:
275,344,33397,2,0,P|282:248|274:209,1,125.999996154785,0|0,3:0|0:0,0:0:0:0:
216,151,33881,5,2,3:1:0:0:
166,225,34042,1,2,3:1:0:0:
228,137,34203,2,0,P|208:99|146:88,1,90,2|0,1:0|3:0,0:0:0:0:
0,147,34526,2,0,P|36:124|95:145,1,90,2|2,1:0|0:0,0:0:0:0:
144,253,34849,5,2,3:1:0:0:
192,162,35010,1,2,3:1:0:0:
135,273,35171,2,0,P|201:297|218:285,1,90,2|0,1:0|3:0,0:0:0:0:
360,318,35494,2,0,P|317:308|283:335,1,90,2|2,1:0|3:2,0:0:0:0:
400,384,35816,2,0,L|409:214,1,135,2|0,0:1|2:0,0:0:0:0:
426,263,36139,2,0,L|417:93,1,135,2|0,1:0|2:0,0:0:0:0:
442,142,36462,5,2,3:1:0:0:
341,179,36623,1,2,3:1:0:0:
460,143,36784,2,0,P|477:94|456:58,1,90,2|0,1:0|3:0,0:0:0:0:
356,1,37107,2,0,P|339:41|357:82,1,90,2|2,1:0|0:0,0:0:0:0:
314,196,37429,5,2,3:1:0:0:
244,109,37591,1,2,3:1:0:0:
326,215,37752,2,0,P|297:252|258:269,1,90,2|0,1:0|3:0,0:0:0:0:
214,384,38074,2,0,P|185:347|146:330,1,90,2|2,1:0|3:2,0:0:0:0:
87,382,38397,2,0,L|96:209,1,135,2|0,0:1|2:0,0:0:0:0:
116,238,38720,2,0,L|107:65,1,135,2|0,1:0|2:0,0:0:0:0:
126,94,39042,5,2,3:1:0:0:
22,77,39203,1,2,3:1:0:0:
148,87,39365,2,0,P|191:114|230:107,1,90,2|0,1:0|3:0,0:0:0:0:
352,192,39687,2,0,P|308:187|272:213,1,90,2|2,1:0|0:0,0:0:0:0:
239,315,40010,5,2,3:1:0:0:
259,205,40171,1,2,3:1:0:0:
221,326,40332,2,0,L|105:340,1,90,2|0,1:0|3:0,0:0:0:0:
324,288,40655,2,0,L|413:298,1,90,2|2,1:0|3:2,0:0:0:0:
509,346,40978,1,2,0:1:0:0:
495,203,41139,2,0,P|456:253|502:358,1,180,2|2,3:1|0:0,0:0:0:0:
352,308,41623,5,2,3:1:0:0:
431,255,41784,1,2,3:1:0:0:
336,321,41945,2,0,P|311:260|320:225,1,90,2|0,1:0|3:0,0:0:0:0:
401,89,42268,2,0,P|402:133|379:171,1,90,2|2,1:0|0:0,0:0:0:0:
210,177,42591,5,2,3:1:0:0:
310,223,42752,1,2,3:1:0:0:
193,172,42913,2,0,P|170:243|179:284,1,90,2|0,1:0|3:0,0:0:0:0:
86,300,43236,2,0,P|109:371|100:412,1,90,2|2,1:0|3:2,0:0:0:0:
212,338,43558,5,2,0:1:0:0:
210,349,43720,2,0,L|404:337,1,180,2|2,3:1|0:0,0:0:0:0:
500,373,44203,1,4,0:1:0:0:
441,258,51784,5,0,1:0:0:0:
441,258,51865,1,0,1:0:0:0:
441,258,51945,1,14,1:0:0:0:
160,255,52268,1,10,1:2:0:0:
240,143,52429,2,0,P|251:236|247:327,1,180,10|10,1:0|1:2,0:0:0:0:
335,349,52913,1,10,1:0:0:0:
338,256,53074,1,0,1:0:0:0:
481,338,53236,5,0,1:0:0:0:
481,338,53316,1,0,1:0:0:0:
481,338,53397,2,0,L|486:278,1,45,0|0,1:0|1:0,0:0:0:0:
455,183,53558,1,8,1:0:0:0:
455,183,53720,1,4,1:0:0:0:
51,93,54526,5,6,1:0:0:0:
147,179,54687,2,0,P|152:227|155:313,1,103.500001974106,10|2,0:2|0:0,0:0:0:0:
43,333,55010,1,10,0:0:0:0:
185,275,55171,2,0,P|240:305|285:356,2,103.500001974106,10|2|2,1:0|0:1|0:1,0:0:0:0:
286,216,55655,6,0,P|331:200|381:162,1,103.500001974106,14|0,1:2|0:0,0:0:0:0:
173,59,55978,2,0,P|209:89|267:114,1,103.500001974106,6|0,1:2|0:0,0:0:0:0:
437,114,56300,1,2,3:2:0:0:
409,31,56462,1,10,1:2:0:0:
512,145,56623,1,2,3:2:0:0:
202,348,56945,5,2,3:2:0:0:
315,268,57107,2,0,P|325:219|327:140,2,103.500001974106,6|10|2,1:0|0:0|0:1,0:0:0:0:
399,299,57591,1,10,0:1:0:0:
234,218,57752,2,0,P|207:169|196:100,1,103.500001974106,10|10,1:0|0:0,0:0:0:0:
237,48,58074,1,8,1:0:0:0:
98,175,58236,6,0,L|-22:212,1,103.500001974106,6|0,1:0|0:0,0:0:0:0:
158,281,58558,2,0,P|210:312|267:316,1,103.500001974106,2|0,3:1|0:0,0:0:0:0:
36,337,58881,2,0,P|53:315|67:287,1,51.7500009870529,2|0,1:0|1:0,0:0:0:0:
33,175,59042,1,10,1:0:0:0:
33,175,59123,1,8,3:0:0:0:
33,175,59203,2,0,L|11:107,3,51.7500009870529,4|4|8|8,3:0|3:0|3:2|0:0,0:0:0:0:
114,21,59526,2,0,P|99:46|82:103,1,51.7500009870529,8|8,0:0|0:1,0:0:0:0:
220,188,59687,2,0,P|188:147|179:97,2,103.500001974106,14|0|2,1:0|3:0|0:0,0:0:0:0:
302,216,60171,1,0,3:0:0:0:
334,36,60332,2,0,P|290:62|266:108,2,103.500001974106,10|2|2,1:0|0:0|0:0,0:0:0:0:
486,80,60816,6,0,L|475:191,1,103.500001974106,6|0,1:0|0:0,0:0:0:0:
417,384,61139,2,0,L|406:281,1,103.500001974106,10|2,0:0|0:1,0:0:0:0:
300,199,61462,1,2,3:2:0:0:
436,182,61623,2,0,L|497:88,1,103.500001974106,8|2,1:0|3:2,0:0:0:0:
488,255,61945,1,8,1:0:0:0:
375,115,62107,1,2,1:2:0:0:
375,115,62187,1,0,1:0:0:0:
375,115,62268,1,6,1:0:0:0:
274,222,62429,2,0,L|380:237,1,103.500001974106,8|2,0:0|0:1,0:0:0:0:
316,338,62752,1,2,1:1:0:0:
189,343,62913,1,10,1:0:0:0:
328,352,63074,1,2,3:1:0:0:
172,319,63236,5,6,1:0:0:0:
155,214,63397,1,2,1:0:0:0:
103,359,63558,2,0,L|0:371,1,103.500001974106,8|8,1:0|0:0,0:0:0:0:
35,174,63881,5,8,1:0:0:0:
35,174,63962,1,8,1:0:0:0:
35,174,64042,2,0,L|24:232,1,51.7500009870529,4|4,3:0|3:0,0:0:0:0:
103,359,64203,1,10,0:0:0:0:
103,359,64284,1,8,1:2:0:0:
103,359,64364,2,0,L|91:301,1,51.7500009870529,8|4,3:0|3:0,0:0:0:0:
155,214,64526,2,0,L|187:153,1,51.7500009870529,4|4,3:0|3:0,0:0:0:0:
251,226,64687,1,8,1:2:0:0:
177,136,64849,6,0,L|146:27,2,103.500001974106,14|2|2,1:0|3:2|0:1,0:0:0:0:
314,159,65332,1,2,3:2:0:0:
332,170,65494,2,0,L|451:181,1,103.500001974106,8|2,1:0|0:0,0:0:0:0:
168,370,65978,6,0,P|162:318|179:227,1,103.500001974106,6|0,1:0|0:0,0:0:0:0:
343,266,66300,2,0,P|348:317|332:409,1,103.500001974106,6|2,1:2|0:0,0:0:0:0:
257,313,66623,1,2,1:2:0:0:
262,163,66784,1,10,1:2:0:0:
265,281,66945,2,0,L|133:294,1,103.500001974106,2|0,1:2|0:0,0:0:0:0:
0,298,67268,1,0,3:0:0:0:
86,356,67429,6,0,L|198:297,2,103.500001974106,14|2|0,1:2|1:0|0:0,0:0:0:0:
107,227,67913,1,8,0:0:0:0:
116,208,68074,2,0,L|97:84,1,103.500001974106,10|2,1:0|3:2,0:0:0:0:
208,12,68397,1,0,1:0:0:0:
202,146,68558,6,0,L|342:186,1,103.500001974106,6|0,1:0|0:0,0:0:0:0:
402,231,68881,2,0,L|522:149,1,103.500001974106,6|0,0:1|0:0,0:0:0:0:
351,23,69203,1,8,3:0:0:0:
351,23,69284,1,8,3:0:0:0:
351,23,69365,2,0,L|369:99,1,51.7500009870529,8|8,1:0|1:0,0:0:0:0:
437,145,69526,2,0,L|520:173,4,51.7500009870529,8|8|8|4|8,1:2|0:0|3:0|3:0|1:2,0:0:0:0:
266,91,70010,5,14,1:0:0:0:
297,222,70171,1,2,3:1:0:0:
148,131,70332,1,10,1:0:0:0:
244,288,70494,1,0,3:0:0:0:
381,243,70655,5,10,1:0:0:0:
193,206,70816,2,0,P|155:264|147:306,1,103.500001974106,2|10,1:0|1:0,0:0:0:0:
2,384,71139,6,0,P|58:374|152:372,1,103.500001974106,14|0,1:0|0:0,0:0:0:0:
249,384,71462,1,2,1:2:0:0:
249,384,71542,1,0,1:0:0:0:
249,384,71623,1,8,1:0:0:0:
326,268,71784,6,0,L|355:149,2,103.500001974106,10|8|10,1:0|0:0|1:2,0:0:0:0:
487,380,72268,2,0,L|424:297,1,103.500001974106,8|8,3:2|1:0,0:0:0:0:
434,271,72510,1,8,1:0:0:0:
434,271,72591,5,6,1:0:0:0:
317,290,72752,2,0,L|284:176,1,90,2|2,3:2|0:0,0:0:0:0:
274,86,73074,1,10,0:0:0:0:
192,195,73236,1,8,0:1:0:0:
282,76,73397,2,0,P|221:74|190:85,1,90,2|0,3:2|0:0,0:0:0:0:
91,36,73720,6,0,P|147:94|154:198,1,180,2|2,3:1|3:1,0:0:0:0:
92,242,74203,2,0,L|210:226,2,90,10|2|2,0:0|3:2|0:2,0:0:0:0:
18,195,74687,1,2,3:2:0:0:
96,297,74849,2,0,P|134:264|176:235,1,90,8|2,0:1|0:0,0:0:0:0:
253,357,75171,5,6,1:0:0:0:
345,294,75332,2,0,P|275:322|169:293,1,180,0|2,3:0|3:2,0:0:0:0:
238,194,75816,1,8,0:0:0:0:
245,205,75978,1,2,3:2:0:0:
115,140,76139,1,8,0:0:0:0:
205,79,76300,6,0,L|13:107,2,180,2|2|0,1:0|1:0|1:0,0:0:0:0:
350,250,77268,1,2,3:2:0:0:
397,176,77429,2,0,P|336:216|244:226,1,135,8|0,0:0|2:0,0:0:0:0:
259,221,77752,5,6,1:0:0:0:
180,154,77913,2,0,L|175:262,1,90,0|2,3:0|0:0,0:0:0:0:
101,91,78236,1,2,3:2:0:0:
150,8,78397,1,8,0:1:0:0:
183,258,78558,2,0,L|204:156,1,90,0|2,3:0|0:0,0:0:0:0:
103,252,78881,6,0,P|164:295|229:401,1,180,2|2,3:1|3:1,0:0:0:0:
272,280,79365,1,8,1:0:0:0:
331,376,79526,2,0,P|381:340|510:328,1,180,0|2,3:0|3:2,0:0:0:0:
505,336,80010,1,4,0:0:0:0:
448,240,80171,1,8,0:0:0:0:
511,118,80332,5,6,1:0:0:0:
393,146,80494,2,0,L|511:152,1,90,0|2,3:0|0:0,0:0:0:0:
339,77,80816,1,0,3:0:0:0:
297,218,80978,2,0,L|322:314,1,90,8|0,0:1|3:0,0:0:0:0:
239,142,81300,1,8,1:2:0:0:
172,227,81462,6,0,B|125:262|82:230|88:222|42:198|-16:240,1,180,10|10,1:0|0:0,0:0:0:0:
8,244,81945,1,2,3:2:0:0:
48,126,82107,1,8,0:0:0:0:
48,126,82187,1,8,0:0:0:0:
48,126,82268,2,0,L|104:142,3,45,8|4|4|4,3:0|3:0|1:3|3:0,0:0:0:0:
154,83,82591,2,0,L|210:68,1,45,8|4,1:3|3:0,0:0:0:0:
232,152,82752,2,0,L|288:168,1,45,8|8,1:2|1:2,0:0:0:0:
300,253,82913,5,14,1:0:0:0:
366,139,83074,2,0,L|344:375,1,215.999993408203,0|8,3:0|0:0,0:0:0:0:
441,305,83558,1,10,1:0:0:0:
344,368,83720,2,0,P|266:365|223:383,1,107.999996704102,2|2,3:2|0:1,0:0:0:0:
54,324,84042,6,0,L|275:359,1,215.999993408203,4|8,1:0|0:0,0:0:0:0:
252,229,84526,2,0,P|238:283|255:347,1,107.999996704102,10|2,0:1|1:0,0:0:0:0:
350,191,84849,1,8,0:0:0:0:
251,199,85010,1,2,1:1:0:0:
196,139,85171,1,10,0:3:0:0:
130,176,85332,1,6,0:3:0:0:
58,139,85494,6,0,P|81:211|74:263,1,107.999996704102,14|0,1:0|0:0,0:0:0:0:
26,333,85816,1,10,0:1:0:0:
153,308,85978,1,10,0:0:0:0:
42,352,86139,1,10,0:1:0:0:
162,303,86300,1,10,0:0:0:0:
68,256,86462,1,10,0:1:0:0:
173,298,86623,6,0,P|189:238|161:53,1,215.999993408203,14|10,1:0|0:0,0:0:0:0:
278,30,87107,2,0,L|291:99,1,53.9999983520508,8|8,1:2|1:2,0:0:0:0:
350,177,87268,2,0,L|360:124,1,53.9999983520508,8|8,0:3|0:3,0:0:0:0:
261,25,87429,1,8,1:2:0:0:
372,109,87591,5,8,3:0:0:0:
412,126,87671,1,8,3:0:0:0:
444,120,87752,1,2,3:0:0:0:
460,106,87832,1,4,3:0:0:0:
466,97,87913,2,0,L|464:36,1,53.9999983520508,6|8,1:3|1:2,0:0:0:0:
405,214,88074,5,14,1:0:0:0:
475,273,88236,2,0,P|410:255|234:286,1,215.999993408203,2|0,0:0|3:0,0:0:0:0:
231,178,88720,1,8,0:1:0:0:
258,283,88881,2,0,P|248:226|279:177,1,107.999996704102,8|2,0:0|0:1,0:0:0:0:
129,336,89203,6,0,P|154:206|111:96,1,215.999993408203,6|8,0:1|0:0,0:0:0:0:
58,174,89687,1,10,1:0:0:0:
46,164,89849,1,2,3:1:0:0:
210,69,90010,1,8,1:0:0:0:
93,23,90171,1,8,0:1:0:0:
225,78,90332,1,8,0:0:0:0:
146,118,90494,1,2,3:2:0:0:
268,171,90655,6,0,L|395:167,1,107.999996704102,2|2,0:0|0:0,0:0:0:0:
311,280,90978,2,0,L|284:392,1,107.999996704102,2|2,0:2|0:0,0:0:0:0:
222,253,91300,1,10,0:2:0:0:
217,266,91462,1,0,0:2:0:0:
337,363,91623,1,8,0:1:0:0:
446,360,91784,2,0,L|330:386,1,107.999996704102,2|2,1:0|0:0,0:0:0:0:
137,374,92107,1,2,0:0:0:0:
223,363,92268,1,10,0:2:0:0:
133,351,92429,1,10,0:2:0:0:
219,340,92590,1,10,0:3:0:0:
76,265,92752,2,0,L|90:138,2,107.999996704102,10|10|2,0:3|0:0|1:2,0:0:0:0:
239,244,93236,5,6,1:0:0:0:
258,141,93397,2,0,P|244:72|218:21,1,107.999996704102,6|2,0:1|0:0,0:0:0:0:
353,242,93720,1,10,0:1:0:0:
469,247,93881,1,10,0:0:0:0:
474,74,94042,1,10,0:2:0:0:
447,167,94203,1,10,0:0:0:0:
347,130,94365,6,0,P|291:117|207:109,1,107.999996704102,10|2,0:2|0:0,0:0:0:0:
11,197,94687,2,0,P|67:184|151:176,1,107.999996704102,10|2,0:1|0:0,0:0:0:0:
198,227,94929,1,0,1:0:0:0:
198,227,95010,1,2,1:0:0:0:
198,227,95091,1,0,1:0:0:0:
198,227,95171,1,0,1:0:0:0:
12,223,95332,1,10,1:2:0:0:
56,232,95413,1,8,1:2:0:0:
90,253,95494,6,0,P|144:321|231:341,1,161.999995056153,10|8,1:0|1:0,0:0:0:0:
297,312,95816,6,0,L|308:259,1,53.9999983520508,14|0,1:0|0:0,0:0:0:0:
393,359,95978,2,0,P|420:367|468:260,1,161.999995056153,0|0,0:0|2:0,0:0:0:0:
407,231,96300,1,8,0:0:0:0:
332,152,96462,1,8,0:1:0:0:
327,38,96623,2,0,L|363:140,1,107.999996704102,2|0,0:0|0:0,0:0:0:0:
226,206,96945,6,0,P|179:204|85:224,1,107.999996704102,14|0,0:0|0:0,0:0:0:0:
239,257,97268,2,0,P|197:235|103:213,1,107.999996704102,10|0,0:0|0:0,0:0:0:0:
13,170,97591,1,2,1:2:0:0:
13,170,97671,1,0,1:0:0:0:
13,170,97752,1,8,1:0:0:0:
139,122,97913,1,10,0:0:0:0:
135,10,98074,1,8,0:1:0:0:
162,134,98236,1,10,1:2:0:0:
191,146,98316,1,8,1:2:0:0:
220,160,98397,5,10,1:0:0:0:
77,252,98558,1,2,1:0:0:0:
68,274,98881,1,8,0:0:0:0:
221,243,99042,1,10,0:1:0:0:
273,313,99203,1,10,0:0:0:0:
131,328,99365,1,10,0:1:0:0:
282,306,99526,6,0,B|436:297|399:382|514:356,1,215.999993408203,14|12,0:0|0:0,0:0:0:0:
416,198,100010,1,0,0:0:0:0:
371,313,100171,1,0,1:0:0:0:
371,313,100252,1,0,1:0:0:0:
371,313,100332,1,8,1:0:0:0:
497,253,100494,1,2,1:0:0:0:
450,113,100655,1,8,0:1:0:0:
384,208,100816,1,0,1:0:0:0:
365,209,100897,1,0,1:0:0:0:
346,212,100978,5,2,1:0:0:0:
301,137,101462,1,2,0:0:0:0:
265,58,101945,1,2,0:0:0:0:
231,45,102913,6,0,L|157:66,1,53.9999983520508,10|0,1:0|0:0,0:0:0:0:
85,108,103074,1,8,0:1:0:0:
85,108,103155,1,8,1:0:0:0:
85,108,103236,2,0,L|145:127,3,53.9999983520508,8|8|4|8,3:0|3:0|3:0|3:2,0:0:0:0:
36,218,103558,5,2,1:0:0:0:
36,218,103639,1,0,1:0:0:0:
36,218,103720,2,0,L|7:295,2,53.9999983520508,0|0|0,1:0|1:0|1:0,0:0:0:0:
138,207,103962,1,8,1:0:0:0:
138,207,104042,2,0,L|219:217,1,53.9999983520508,8|8,3:0|1:0,0:0:0:0:
335,232,104203,1,8,1:0:0:0:
320,243,104284,1,8,1:2:0:0:
310,261,104365,1,8,3:0:0:0:
304,280,104445,1,8,3:0:0:0:
303,300,104526,6,0,L|363:313,1,53.9999983520508,8|8,3:0|0:0,0:0:0:0:
481,331,104687,1,8,0:0:0:0:
481,331,104768,1,8,0:0:0:0:
481,331,104849,6,0,L|479:234,1,53.9999983520508,12|12,1:2|1:2,0:0:0:0:
433,179,105010,2,0,L|431:82,1,53.9999983520508,2|8,1:0|0:0,0:0:0:0:
360,20,105171,1,8,3:0:0:0:
512,120,105332,1,8,3:0:0:0:
356,197,105494,2,0,L|345:119,2,53.9999983520508,8|8|8,3:0|1:0|3:0,0:0:0:0:
281,275,105736,1,8,1:2:0:0:
281,275,105816,2,0,L|199:265,1,53.9999983520508,12|0,1:0|0:0,0:0:0:0:
106,177,105978,2,0,L|177:173,1,53.9999983520508,4|0,1:0|0:0,0:0:0:0:
261,89,106139,5,12,3:0:0:0:
96,283,124203,5,14,0:3:0:0:
256,192,124284,12,0,126462,0:0:0:0:
335,138,126784,6,0,P|323:188|297:241,1,107.999996704102,14|0,0:0|2:0,0:0:0:0:
417,259,127107,2,0,P|336:258|284:292,1,135,6|0,0:0|2:0,0:0:0:0:
203,199,127429,2,0,P|275:291|260:364,1,175.499991966248,6|0,0:0|2:0,0:0:0:0:
243,353,127752,1,10,0:0:0:0:
55,309,127913,6,0,B|61:268|21:214|32:164|77:107,1,175.499991966248,6|0,0:0|2:0,0:0:0:0:
80,126,128236,1,8,0:0:0:0:
81,126,128316,1,8,0:0:0:0:
80,126,128397,2,0,L|161:111,1,58.4999973220826,8|4,0:0|0:3,0:0:0:0:
214,61,128558,2,0,L|200:0,1,58.4999973220826,8|8,0:3|0:3,0:0:0:0:
295,142,128720,5,10,0:0:0:0:
295,142,128800,1,8,0:0:0:0:
295,142,128881,1,8,0:0:0:0:
410,58,129042,1,8,0:0:0:0:
442,188,129203,1,10,0:0:0:0:
295,142,129365,6,0,L|252:266,1,116.999994644165,6|10,0:0|0:2,0:0:0:0:
321,335,129687,1,10,0:0:0:0:
443,310,129849,1,10,0:2:0:0:
322,349,130010,1,10,0:0:0:0:
200,324,130172,1,10,0:2:0:0:
322,366,130332,1,10,0:0:0:0:
350,246,130494,1,4,0:0:0:0:
209,345,130655,6,0,L|68:364,1,116.999994644165,2|8,0:0|0:0,0:0:0:0:
91,190,130978,1,10,0:0:0:0:
102,217,131058,1,8,0:0:0:0:
111,240,131139,1,10,0:0:0:0:
105,251,131220,1,8,0:3:0:0:
101,260,131300,2,0,L|41:281,1,58.4999973220826,10|4,0:3|0:3,0:0:0:0:
206,218,131462,1,4,0:3:0:0:
206,218,131542,1,4,0:3:0:0:
206,218,131623,2,0,L|215:127,1,58.4999973220826,4|4,0:3|0:3,0:0:0:0:
192,84,131784,2,0,L|253:157,1,58.4999973220826,8|8,0:0|0:0,0:0:0:0:
322,161,131945,5,14,0:0:0:0:
361,0,132107,1,8,0:0:0:0:
346,18,132429,5,8,0:2:0:0:
444,136,132591,1,8,0:0:0:0:
420,129,132913,1,2,0:0:0:0:
412,116,133074,1,12,0:0:0:0:
482,230,133236,6,0,L|376:247,1,99.0000030212403,0|2,0:0|0:0,0:0:0:0:
246,271,133558,1,0,0:0:0:0:
247,285,133720,1,2,0:0:0:0:
127,365,133881,1,8,0:0:0:0:
129,252,134042,1,10,0:2:0:0:
24,210,134203,1,8,0:0:0:0:
148,243,134365,1,8,0:2:0:0:
167,235,134445,1,8,0:2:0:0:
185,226,134526,5,6,0:0:0:0:
122,62,134687,1,8,0:2:0:0:
114,68,135010,1,8,0:2:0:0:
286,192,135171,1,8,0:0:0:0:
304,86,135332,1,8,0:2:0:0:
212,20,135494,1,8,0:0:0:0:
323,93,135655,6,0,P|435:153|477:278,1,247.500007553101,6|0,0:0|2:0,0:0:0:0:
414,324,136139,1,8,0:0:0:0:
414,324,136220,1,8,0:0:0:0:
414,324,136300,2,0,L|353:328,1,49.5000015106202,8|8,0:3|0:3,0:0:0:0:
229,337,136462,6,0,L|240:273,1,49.5000015106202,8|8,0:3|0:0,0:0:0:0:
221,274,136623,2,0,L|213:323,1,49.5000015106202,8|4,0:3|0:3,0:0:0:0:
200,310,136784,2,0,L|211:246,1,49.5000015106202,8|8,0:2|0:2,0:0:0:0:
194,245,136945,2,0,L|186:294,1,49.5000015106202,8|8,0:0|0:0,0:0:0:0:
92,346,137107,6,0,L|-19:302,1,99.0000030212403,14|8,0:0|0:2,0:0:0:0:
10,235,137349,1,2,0:0:0:0:
20,219,137429,2,0,L|33:149,1,49.5000015106202,2|0,0:0|0:0,0:0:0:0:
88,37,137591,2,0,L|100:84,1,49.5000015106202,4|2,0:3|0:0,0:0:0:0:
221,148,137752,2,0,P|262:120|291:81,2,99.0000030212403,8|0|0,0:0|0:0|0:0,0:0:0:0:
348,201,138236,6,0,P|413:216|467:281,1,148.50000453186,14|0,0:0|2:0,0:0:0:0:
417,361,138558,2,0,B|379:375|354:351|293:354,1,99.0000030212403,4|2,0:3|0:0,0:0:0:0:
512,345,138881,1,6,0:3:0:0:
459,198,139042,2,0,P|491:120|500:82,1,99.0000030212403,10|10,0:0|0:2,0:0:0:0:
341,15,139365,1,0,0:0:0:0:
367,101,139526,1,6,0:3:0:0:
285,196,139687,6,0,L|199:181,1,49.5000015106202,14|2,0:0|0:0,0:0:0:0:
159,102,139849,2,0,L|73:87,1,49.5000015106202,8|0,0:2|0:0,0:0:0:0:
6,160,140010,2,0,L|141:180,1,99.0000030212403,2|10,0:0|0:2,0:0:0:0:
199,238,140332,1,10,0:0:0:0:
222,268,140413,1,2,0:0:0:0:
208,296,140494,1,6,0:3:0:0:
124,352,140655,1,10,0:0:0:0:
264,383,140816,5,6,0:2:0:0:
349,283,140978,1,2,0:0:0:0:
349,283,141058,1,2,0:0:0:0:
349,283,141139,1,6,0:3:0:0:
446,332,141300,2,0,B|480:335|481:360|519:359,2,49.5000015106202,2|0|10,0:0|0:0|0:2,0:0:0:0:
435,248,141542,1,8,0:3:0:0:
439,224,141623,2,0,L|460:163,1,49.5000015106202,10|10,0:3|0:3,0:0:0:0:
385,84,141784,2,0,L|400:142,1,49.5000015106202,10|8,0:0|0:2,0:0:0:0:
331,195,141945,1,10,0:3:0:0:
317,194,142026,1,8,0:3:0:0:
299,192,142107,1,10,0:0:0:0:
284,190,142187,1,8,0:0:0:0:
266,189,142268,6,0,L|254:65,1,99.0000030212403,14|8,0:0|0:2,0:0:0:0:
214,258,142591,1,8,0:0:0:0:
87,308,142752,1,10,0:2:0:0:
268,330,142913,1,10,0:0:0:0:
211,240,143074,1,10,0:2:0:0:
174,384,143236,1,8,0:0:0:0:
352,365,143397,6,0,P|366:290|365:122,1,198.000006042481,6|8,0:0|0:0,0:0:0:0:
347,151,143800,1,8,0:0:0:0:
347,151,143881,1,10,0:0:0:0:
403,70,144042,1,10,0:0:0:0:
492,121,144203,1,10,0:2:0:0:
444,207,144365,1,10,0:0:0:0:
408,86,144526,1,8,0:2:0:0:
273,95,144687,1,10,0:0:0:0:
273,95,144768,1,8,0:0:0:0:
273,95,144849,5,14,0:1:0:0:
320,202,145010,2,0,P|268:178|186:173,1,107.999996704102,10|8,0:0|1:0,0:0:0:0:
346,194,145332,2,0,P|271:244|235:324,1,161.999995056153,10|0,0:0|2:0,0:0:0:0:
247,334,145655,2,10,P|275:299|304:293,1,53.9999983520508
349,346,145816,1,8,1:0:0:0:
129,332,145978,6,0,P|194:342|242:367,1,107.999996704102,14|0,0:0|0:0,0:0:0:0:
139,299,146300,2,0,P|89:320|36:327,1,107.999996704102,0|8,0:0|1:0,0:0:0:0:
9,247,146623,1,10,0:0:0:0:
153,289,146784,1,2,0:0:0:0:
232,184,146945,2,0,P|243:255|268:283,1,107.999996704102,8|8,0:0|1:0,0:0:0:0:
330,232,147268,1,12,0:0:0:0:
209,170,147429,6,0,P|298:144|371:63,1,161.999995056153,10|0,1:0|2:0,0:0:0:0:
343,74,147752,2,0,P|401:113|431:161,1,107.999996704102,10|2,0:1|0:0,0:0:0:0:
381,213,148074,1,12,3:0:0:0:
324,57,148236,2,0,P|261:87|204:89,1,107.999996704102,12|8,3:0|1:0,0:0:0:0:
197,0,148558,6,0,L|185:215,1,215.999993408203,6|8,1:0|0:0,0:0:0:0:
84,152,149042,2,0,P|143:114|185:118,1,107.999996704102,10|8,1:0|0:0,0:0:0:0:
5,144,149365,1,10,1:2:0:0:
35,170,149445,1,0,1:0:0:0:
53,206,149526,1,8,3:0:0:0:
59,246,149606,1,8,0:0:0:0:
50,285,149687,2,0,L|17:340,1,53.9999983520508,0|0,1:0|1:0,0:0:0:0:
167,269,149849,2,0,L|133:214,1,53.9999983520508,10|8,1:2|1:2,0:0:0:0:
258,307,150010,5,14,1:0:0:0:
258,307,150171,1,8,0:0:0:0:
337,267,150332,2,0,P|325:331|331:389,1,107.999996704102,8|10,1:0|0:0,0:0:0:0:
411,375,150655,1,2,0:0:0:0:
314,251,150816,2,0,P|316:197|304:144,1,107.999996704102,2|8,0:1|1:0,0:0:0:0:
235,69,151139,6,0,B|192:120|192:120|354:81,1,215.999993408203,6|6,1:0|1:0,0:0:0:0:
375,12,151623,1,8,1:0:0:0:
389,24,151784,1,10,0:0:0:0:
384,152,151945,1,8,1:0:0:0:
399,146,152107,1,8,0:0:0:0:
496,86,152268,1,8,1:0:0:0:
487,142,152349,1,8,1:0:0:0:
499,178,152429,1,10,1:2:0:0:
492,198,152510,1,8,3:0:0:0:
497,219,152591,5,14,0:0:0:0:
399,146,152752,2,0,P|377:224|294:308,1,161.999995056153,8|0,0:0|2:0,0:0:0:0:
293,273,153074,1,2,1:0:0:0:
418,357,153236,2,0,P|350:362|272:388,2,107.999996704102,8|10|10,1:0|0:0|0:1,0:0:0:0:
293,273,153720,6,0,P|184:274|85:221,1,215.999993408203,14|8,0:0|0:0,0:0:0:0:
0,132,154203,1,8,1:0:0:0:
46,157,154284,1,8,1:0:0:0:
62,191,154365,1,8,3:0:0:0:
58,213,154445,1,4,3:0:0:0:
48,225,154526,2,0,P|19:230|-6:222,1,53.9999983520508,10|8,0:0|1:0,0:0:0:0:
130,146,154687,2,0,P|179:184|201:218,3,53.9999983520508,10|8|8|4,0:0|3:0|3:0|3:0,0:0:0:0:
188,260,155010,1,10,1:0:0:0:
255,134,155171,5,14,1:0:0:0:
209,251,155332,2,0,P|285:247|352:274,1,107.999996704102,8|8,0:0|1:0,0:0:0:0:
397,186,155655,2,0,P|450:229|460:138,1,161.999995056153,10|0,0:0|2:0,0:0:0:0:
507,150,155978,2,0,P|506:223|521:266,1,107.999996704102,8|8,0:0|1:0,0:0:0:0:
436,384,156300,6,0,L|393:284,1,107.999996704102,14|0,0:0|0:0,0:0:0:0:
410,199,156623,1,8,0:0:0:0:
277,339,156784,2,0,L|306:205,1,107.999996704102,8|8,1:0|0:0,0:0:0:0:
235,173,157107,1,2,0:0:0:0:
109,257,157268,2,0,P|179:252|237:283,1,107.999996704102,10|8,0:0|1:0,0:0:0:0:
249,351,157591,1,10,0:0:0:0:
98,235,157752,5,6,1:0:0:0:
39,332,157913,1,8,0:0:0:0:
83,222,158074,2,0,P|96:152|82:111,1,107.999996704102,8|2,1:0|0:1,0:0:0:0:
12,158,158397,1,10,0:0:0:0:
201,94,158558,2,0,P|143:112|82:102,1,107.999996704102,10|8,0:0|1:0,0:0:0:0:
226,71,158881,6,0,L|214:286,1,215.999993408203,14|8,0:0|0:0,0:0:0:0:
309,246,159365,2,0,P|287:318|289:367,1,107.999996704102,8|8,1:0|0:0,0:0:0:0:
389,216,159687,2,0,L|389:134,1,53.9999983520508,8|8,1:0|1:0,0:0:0:0:
343,87,159849,1,8,0:0:0:0:
360,102,159929,1,8,3:0:0:0:
394,106,160010,1,8,3:0:0:0:
423,80,160091,1,4,3:0:0:0:
470,67,160171,1,8,3:0:0:0:
508,99,160252,1,0,1:0:0:0:
507,162,160332,6,0,P|499:47|512:2,1,161.999995056153,14|0,1:0|2:0,0:0:0:0:
407,81,160655,2,0,P|423:159|411:239,1,161.999995056153,12|0,0:0|2:0,0:0:0:0:
339,278,160978,2,0,L|509:286,1,161.999995056153,2|0,1:0|2:0,0:0:0:0:
511,304,161300,1,8,0:0:0:0:
293,211,161462,6,0,P|205:229|110:217,1,161.999995056153,14|0,1:0|2:0,0:0:0:0:
85,162,161784,1,2,1:0:0:0:
113,211,161865,1,0,1:0:0:0:
102,251,161945,1,8,3:0:0:0:
77,272,162026,1,8,3:0:0:0:
68,293,162107,1,12,3:0:0:0:
74,308,162187,1,4,3:0:0:0:
85,310,162268,6,0,P|53:301|20:301,1,53.9999983520508,8|8,0:0|0:0,0:0:0:0:
160,362,162429,2,0,P|186:359|212:351,1,53.9999983520508,2|0,1:0|0:0,0:0:0:0:
128,212,162591,1,8,1:0:0:0:
218,142,162752,1,8,1:0:0:0:
325,268,162913,6,0,P|421:282|444:295,1,90,14|0,1:0|0:0,0:0:0:0:
227,228,163236,2,0,P|271:251|342:248,1,107.999996704102,4|0,1:0|0:0,0:0:0:0:
477,194,163558,2,0,P|447:140|431:75,1,116.999994644165,4|0,1:0|0:0,0:0:0:0:
472,10,163881,1,4,1:0:0:0:
330,85,164042,6,0,P|239:100|160:-31,1,233.999989288331,14|8,1:0|0:0,0:0:0:0:
259,12,164526,1,10,1:0:0:0:
138,122,164687,1,2,1:0:0:0:
14,5,164849,2,0,P|21:65|30:139,1,116.999994644165,2|0,1:0|0:0,0:0:0:0:
103,211,165171,1,8,1:0:0:0:
51,115,165332,6,0,P|23:157|-3:247,1,116.999994644165,6|2,1:0|0:1,0:0:0:0:
102,296,165655,1,8,1:2:0:0:
203,293,165816,1,8,1:2:0:0:
312,231,165978,1,10,1:2:0:0:
327,89,166139,1,8,1:0:0:0:
333,247,166300,1,8,0:0:0:0:
199,144,166462,2,0,L|287:135,1,58.4999973220826,10|0,1:0|0:0,0:0:0:0:
371,114,166623,6,0,P|355:63|347:-3,1,116.999994644165,12|2,0:0|0:1,0:0:0:0:
440,32,166945,1,8,0:0:0:0:
387,128,167107,2,0,L|246:74,1,116.999994644165,8|2,1:0|3:1,0:0:0:0:
455,232,167429,2,0,P|431:310|408:346,1,116.999994644165,12|12,3:0|3:0,0:0:0:0:
321,353,167752,1,12,3:0:0:0:
331,227,167913,1,8,1:0:0:0:
214,259,168074,5,6,1:0:0:0:
207,284,168155,1,0,1:0:0:0:
218,305,168236,1,0,1:0:0:0:
218,332,168316,1,0,1:0:0:0:
206,347,168397,2,0,P|146:312|143:187,1,175.499991966248,6|0,1:0|2:0,0:0:0:0:
119,119,168720,2,0,P|49:167|42:252,1,175.499991966248,8|0,0:0|2:0,0:0:0:0:
27,276,169042,1,8,1:0:0:0:
42,154,169203,6,0,L|33:22,1,116.999994644165,6|2,1:0|0:0,0:0:0:0:
148,123,169526,1,10,0:0:0:0:
193,25,169687,1,8,1:0:0:0:
165,138,169849,1,8,1:2:0:0:
268,193,170010,2,0,L|386:157,1,116.999994644165,10|0,0:0|0:0,0:0:0:0:
471,179,170332,1,10,1:0:0:0:
322,90,170494,6,0,L|281:218,1,116.999994644165,14|2,0:0|0:1,0:0:0:0:
338,312,170816,1,12,3:0:0:0:
436,290,170978,1,12,3:0:0:0:
326,288,171139,1,8,0:0:0:0:
250,384,171300,1,8,1:0:0:0:
352,288,171462,1,8,0:0:0:0:
349,175,171623,1,8,1:0:0:0:
456,311,171784,6,0,P|372:330|232:222,1,233.999989288331,6|8,1:0|1:0,0:0:0:0:
187,197,172187,1,0,1:0:0:0:
200,159,172268,1,8,1:2:0:0:
187,117,172349,1,8,1:2:0:0:
187,87,172429,1,8,3:0:0:0:
199,57,172510,1,8,3:0:0:0:
223,37,172591,6,0,L|141:72,1,58.4999973220826,10|8,1:0|0:0,0:0:0:0:
135,54,172752,2,0,L|53:89,1,58.4999973220826,2|0,1:0|0:0,0:0:0:0:
16,161,172913,6,0,L|98:196,1,58.4999973220826,10|0,1:0|0:0,0:0:0:0:
104,178,173074,2,0,L|186:213,1,58.4999973220826,10|0,1:0|0:0,0:0:0:0:
202,289,173236,1,6,1:0:0:0:
