osu file format v14

[General]
AudioFilename: audio.mp3
AudioLeadIn: 0
PreviewTime: 144073
Countdown: 0
SampleSet: Normal
StackLeniency: 0.7
Mode: 1
LetterboxInBreaks: 0
WidescreenStoryboard: 1

[Editor]
Bookmarks: 54476,125444,126734
DistanceSpacing: 1.2
BeatDivisor: 4
GridSize: 32
TimelineZoom: 2

[Metadata]
Title:A tree without a branch
TitleUnicode:A tree without a branch
Artist:MuryokuP
ArtistUnicode:無力P
Creator:HEAVENLY MOON
Version:Oni
Source:osu!
Tags:fa featured artist mappers' guild mg mpg vocaloid megurine luka 巡音ルカ metal powerless sound decision ao japanese rock jrock j-rock The Voc@loid M@ster 18 VOM@S master vomas ボーマス18 resonance ginjani
BeatmapID:3006770
BeatmapSetID:1463778

[Difficulty]
HPDrainRate:5
CircleSize:5
OverallDifficulty:5.5
ApproachRate:5
SliderMultiplier:1.4
SliderTickRate:1

[Events]
//Background and Video events
0,0,"treee.jpg",0,0
//Break Periods
//Storyboard Layer 0 (Background)
//Storyboard Layer 1 (Fail)
//Storyboard Layer 2 (Pass)
//Storyboard Layer 3 (Foreground)
//Storyboard Layer 4 (Overlay)
//Storyboard Sound Samples

[TimingPoints]
283,322.58064516129,4,1,0,100,1,0
283,-100,4,1,0,50,0,0
1573,-100,4,1,0,60,0,0
2863,-100,4,1,0,70,0,0
4153,-100,4,1,0,80,0,0
4799,-100,4,1,0,90,0,0
5444,-100,4,1,0,100,0,0
23024,-101.010101010101,4,1,0,100,0,0
23186,-102.040816326531,4,1,0,100,0,0
23347,-103.092783505155,4,1,0,100,0,0
23428,-104.166666666667,4,1,0,100,0,0
23508,-105.263157894737,4,1,0,80,0,0
33831,-102.564102564103,4,1,0,90,0,0
44153,-111.111111111111,4,1,0,60,0,0
51895,-100,4,1,0,80,0,0
54476,-90.9090909090909,4,1,0,100,0,1
71573,-91.743119266055,4,1,0,100,0,1
71734,-92.5925925925926,4,1,0,100,0,1
71895,-93.4579439252336,4,1,0,100,0,1
72057,-94.3396226415094,4,1,0,100,0,1
72137,-95.2380952380952,4,1,0,100,0,1
72218,-96.1538461538461,4,1,0,100,0,1
72299,-97.0873786407767,4,1,0,100,0,1
72379,-98.0392156862745,4,1,0,100,0,1
72460,-99.009900990099,4,1,0,100,0,1
72541,-100,4,1,0,100,0,0
103508,-99.009900990099,4,1,0,100,0,0
103589,-98.0392156862745,4,1,0,100,0,0
103670,-97.0873786407767,4,1,0,100,0,0
103750,-96.1538461538461,4,1,0,100,0,0
103831,-95.2380952380952,4,1,0,100,0,0
104476,-94.3396226415094,4,1,0,100,0,0
104557,-93.4579439252336,4,1,0,100,0,0
104637,-92.5925925925926,4,1,0,100,0,0
104718,-91.743119266055,4,1,0,100,0,0
104799,-90.9090909090909,4,1,0,100,0,0
104960,-91.743119266055,4,1,0,100,0,0
105121,-92.5925925925926,4,1,0,100,0,0
105282,-93.4579439252336,4,1,0,100,0,0
105363,-94.3396226415094,4,1,0,100,0,0
105444,-95.2380952380952,4,1,0,100,0,0
105524,-96.1538461538461,4,1,0,100,0,0
105605,-97.0873786407767,4,1,0,100,0,0
105686,-98.0392156862745,4,1,0,100,0,0
105766,-99.009900990099,4,1,0,100,0,0
105928,-100,4,1,0,100,0,0
106089,-105.263157894737,4,1,0,60,0,0
126734,-100,4,1,0,100,0,0
143831,-99.009900990099,4,1,0,100,0,0
143992,-98.0392156862745,4,1,0,100,0,0
144153,-97.0873786407767,4,1,0,100,0,0
144234,-96.1538461538461,4,1,0,100,0,0
144315,-95.2380952380952,4,1,0,100,0,0
144395,-94.3396226415094,4,1,0,100,0,0
144476,-93.4579439252336,4,1,0,100,0,0
144557,-92.5925925925926,4,1,0,100,0,0
144637,-91.743119266055,4,1,0,100,0,0
144799,-90.9090909090909,4,1,0,100,0,1
162137,-91.743119266055,4,1,0,100,0,1
162218,-92.5925925925926,4,1,0,100,0,1
162299,-93.4579439252336,4,1,0,100,0,1
162379,-94.3396226415094,4,1,0,100,0,1
162460,-95.2380952380952,4,1,0,100,0,1
162541,-96.1538461538461,4,1,0,100,0,1
162621,-97.0873786407767,4,1,0,100,0,1
162702,-98.0392156862745,4,1,0,100,0,1
162782,-99.009900990099,4,1,0,100,0,1
162863,-100,4,1,0,100,0,0
173307,-100,4,1,0,60,0,0
178347,-100,4,1,0,50,0,0

[HitObjects]
256,192,283,12,0,4637,0:0:0:0:
256,192,4799,5,8,0:0:0:0:
256,192,4960,1,8,0:0:0:0:
256,192,5444,1,12,0:0:0:0:
256,192,5766,1,8,0:0:0:0:
256,192,5928,1,0,0:0:0:0:
256,192,6089,1,8,0:0:0:0:
256,192,6250,1,8,0:0:0:0:
256,192,6412,1,0,0:0:0:0:
256,192,6573,1,8,0:0:0:0:
256,192,6895,1,0,0:0:0:0:
256,192,7057,1,8,0:0:0:0:
256,192,7218,1,8,0:0:0:0:
256,192,7379,1,0,0:0:0:0:
256,192,7541,1,0,0:0:0:0:
256,192,7702,1,8,0:0:0:0:
256,192,8024,1,12,0:0:0:0:
256,192,8186,1,0,0:0:0:0:
256,192,8508,1,0,0:0:0:0:
256,192,8670,1,8,0:0:0:0:
256,192,8831,1,8,0:0:0:0:
256,192,8992,1,0,0:0:0:0:
256,192,9153,1,8,0:0:0:0:
256,192,9476,1,8,0:0:0:0:
256,192,9799,1,0,0:0:0:0:
256,192,10121,1,0,0:0:0:0:
256,192,10282,1,8,0:0:0:0:
256,192,10605,1,12,0:0:0:0:
256,192,10766,1,0,0:0:0:0:
256,192,11089,1,0,0:0:0:0:
256,192,11250,1,8,0:0:0:0:
256,192,11412,1,0,0:0:0:0:
256,192,11573,1,8,0:0:0:0:
256,192,11734,1,8,0:0:0:0:
256,192,12057,1,0,0:0:0:0:
256,192,12218,1,8,0:0:0:0:
256,192,12379,1,8,0:0:0:0:
256,192,12541,1,0,0:0:0:0:
256,192,12702,1,0,0:0:0:0:
256,192,13024,1,0,0:0:0:0:
256,192,13186,1,12,0:0:0:0:
256,192,13347,1,0,0:0:0:0:
256,192,13670,1,8,0:0:0:0:
256,192,13831,1,8,0:0:0:0:
256,192,13992,1,0,0:0:0:0:
256,192,14153,1,8,0:0:0:0:
256,192,14315,1,0,0:0:0:0:
256,192,14637,1,8,0:0:0:0:
256,192,14799,1,0,0:0:0:0:
256,192,14960,1,8,0:0:0:0:
256,192,15040,1,8,0:0:0:0:
256,192,15121,1,0,0:0:0:0:
256,192,15282,1,0,0:0:0:0:
256,192,15444,1,8,0:0:0:0:
256,192,15524,1,8,0:0:0:0:
256,192,15605,1,0,0:0:0:0:
256,192,15766,1,12,0:0:0:0:
256,192,15928,1,0,0:0:0:0:
256,192,16250,1,8,0:0:0:0:
256,192,16412,1,8,0:0:0:0:
256,192,16573,1,0,0:0:0:0:
256,192,16734,1,0,0:0:0:0:
256,192,16895,1,8,0:0:0:0:
256,192,17218,1,0,0:0:0:0:
256,192,17379,1,8,0:0:0:0:
256,192,17541,1,0,0:0:0:0:
256,192,17702,1,8,0:0:0:0:
256,192,17863,1,8,0:0:0:0:
256,192,18024,1,0,0:0:0:0:
256,192,18186,1,0,0:0:0:0:
256,192,18347,1,12,0:0:0:0:
256,192,18670,1,8,0:0:0:0:
256,192,18831,1,0,0:0:0:0:
256,192,18992,1,8,0:0:0:0:
256,192,19153,1,8,0:0:0:0:
256,192,19315,1,0,0:0:0:0:
256,192,19476,1,8,0:0:0:0:
256,192,19799,1,0,0:0:0:0:
256,192,19960,1,8,0:0:0:0:
256,192,20041,1,0,0:0:0:0:
256,192,20121,1,0,0:0:0:0:
256,192,20282,1,8,0:0:0:0:
256,192,20444,1,0,0:0:0:0:
256,192,20524,1,0,0:0:0:0:
256,192,20605,1,8,0:0:0:0:
256,192,20686,1,8,0:0:0:0:
256,192,20766,1,0,0:0:0:0:
256,192,20928,1,4,0:0:0:0:
256,192,21089,1,8,0:0:0:0:
256,192,21412,1,0,0:0:0:0:
256,192,21573,1,8,0:0:0:0:
256,192,21734,1,0,0:0:0:0:
256,192,21895,1,8,0:0:0:0:
256,192,22057,1,8,0:0:0:0:
256,192,22379,1,0,0:0:0:0:
256,192,22541,1,8,0:0:0:0:
256,192,22702,1,0,0:0:0:0:
256,192,22863,1,8,0:0:0:0:
256,192,23024,1,8,0:0:0:0:
256,192,23186,1,0,0:0:0:0:
256,192,23347,1,8,0:0:0:0:
256,192,23428,1,8,0:0:0:0:
256,192,23508,1,4,0:0:0:0:
256,192,23831,1,0,0:0:0:0:
256,192,24153,1,8,0:0:0:0:
256,192,24476,1,0,0:0:0:0:
256,192,24637,1,0,0:0:0:0:
256,192,24960,1,0,0:0:0:0:
256,192,25282,1,0,0:0:0:0:
256,192,25444,1,8,0:0:0:0:
256,192,25605,1,0,0:0:0:0:
256,192,25928,1,0,0:0:0:0:
256,192,26089,1,8,0:0:0:0:
256,192,26412,1,8,0:0:0:0:
256,192,26573,1,0,0:0:0:0:
256,192,26734,1,8,0:0:0:0:
256,192,27057,1,0,0:0:0:0:
256,192,27218,1,0,0:0:0:0:
256,192,27379,1,8,0:0:0:0:
256,192,27702,1,0,0:0:0:0:
256,192,28024,1,8,0:0:0:0:
256,192,28186,1,0,0:0:0:0:
256,192,28508,1,0,0:0:0:0:
256,192,28670,1,12,0:0:0:0:
256,192,28992,1,0,0:0:0:0:
256,192,29315,1,8,0:0:0:0:
256,192,29476,1,0,0:0:0:0:
256,192,29799,1,0,0:0:0:0:
256,192,30121,1,0,0:0:0:0:
256,192,30444,1,0,0:0:0:0:
256,192,30605,1,8,0:0:0:0:
256,192,30766,1,0,0:0:0:0:
256,192,31089,1,0,0:0:0:0:
256,192,31250,1,8,0:0:0:0:
256,192,31573,1,0,0:0:0:0:
256,192,31895,1,8,0:0:0:0:
256,192,32057,1,8,0:0:0:0:
256,192,32379,1,0,0:0:0:0:
256,192,32702,1,0,0:0:0:0:
256,192,33024,1,0,0:0:0:0:
256,192,33186,1,8,0:0:0:0:
256,192,33347,1,8,0:0:0:0:
256,192,33670,1,8,0:0:0:0:
256,192,33831,1,4,0:0:0:0:
256,192,33992,1,0,0:0:0:0:
256,192,34153,1,8,0:0:0:0:
256,192,34315,1,0,0:0:0:0:
256,192,34476,1,8,0:0:0:0:
256,192,34799,1,0,0:0:0:0:
256,192,34960,1,0,0:0:0:0:
256,192,35121,1,8,0:0:0:0:
256,192,35282,1,0,0:0:0:0:
256,192,35444,1,8,0:0:0:0:
256,192,35605,1,8,0:0:0:0:
256,192,35928,1,0,0:0:0:0:
256,192,36089,1,8,0:0:0:0:
256,192,36412,1,4,0:0:0:0:
256,192,36573,1,8,0:0:0:0:
256,192,36734,1,8,0:0:0:0:
256,192,36895,1,0,0:0:0:0:
256,192,37057,1,8,0:0:0:0:
256,192,37379,1,0,0:0:0:0:
256,192,37541,1,0,0:0:0:0:
256,192,37702,1,8,0:0:0:0:
256,192,37863,1,0,0:0:0:0:
256,192,38024,1,8,0:0:0:0:
256,192,38186,1,8,0:0:0:0:
256,192,38347,1,0,0:0:0:0:
256,192,38670,1,8,0:0:0:0:
256,192,38831,1,8,0:0:0:0:
256,192,38992,1,4,0:0:0:0:
256,192,39153,1,0,0:0:0:0:
256,192,39315,1,8,0:0:0:0:
256,192,39476,1,0,0:0:0:0:
256,192,39637,1,8,0:0:0:0:
256,192,39960,1,0,0:0:0:0:
256,192,40121,1,0,0:0:0:0:
256,192,40282,1,8,0:0:0:0:
256,192,40444,1,0,0:0:0:0:
256,192,40605,1,8,0:0:0:0:
256,192,40766,1,8,0:0:0:0:
256,192,41089,1,0,0:0:0:0:
256,192,41250,1,8,0:0:0:0:
256,192,41573,1,4,0:0:0:0:
256,192,41734,1,0,0:0:0:0:
256,192,41895,1,8,0:0:0:0:
256,192,42057,1,0,0:0:0:0:
256,192,42218,1,8,0:0:0:0:
256,192,42541,1,0,0:0:0:0:
256,192,42702,1,0,0:0:0:0:
256,192,42863,1,8,0:0:0:0:
256,192,43024,1,8,0:0:0:0:
256,192,43186,1,0,0:0:0:0:
256,192,43347,1,0,0:0:0:0:
256,192,43508,1,8,0:0:0:0:
256,192,43670,1,0,0:0:0:0:
256,192,43831,1,8,0:0:0:0:
256,192,44153,1,4,0:0:0:0:
256,192,45121,1,0,0:0:0:0:
256,192,45444,1,8,0:0:0:0:
256,192,46089,1,8,0:0:0:0:
256,192,46734,1,0,0:0:0:0:
256,192,47379,1,8,0:0:0:0:
256,192,47702,1,0,0:0:0:0:
256,192,48347,1,0,0:0:0:0:
256,192,48670,1,0,0:0:0:0:
256,192,48992,1,8,0:0:0:0:
256,192,49315,1,0,0:0:0:0:
256,192,49395,1,0,0:0:0:0:
256,192,49476,1,0,0:0:0:0:
256,192,49637,1,8,0:0:0:0:
256,192,49799,1,0,0:0:0:0:
256,192,50282,1,0,0:0:0:0:
256,192,50766,1,8,0:0:0:0:
256,192,51250,1,0,0:0:0:0:
256,192,51573,1,8,0:0:0:0:
256,192,51734,1,0,0:0:0:0:
256,192,51815,1,0,0:0:0:0:
256,192,51895,1,12,0:0:0:0:
256,192,52218,1,0,0:0:0:0:
256,192,52379,1,8,0:0:0:0:
256,192,52702,1,0,0:0:0:0:
256,192,52863,1,8,0:0:0:0:
256,192,53024,1,8,0:0:0:0:
256,192,53186,1,0,0:0:0:0:
256,192,53266,1,0,0:0:0:0:
256,192,53347,1,0,0:0:0:0:
256,192,53508,1,8,0:0:0:0:
256,192,53670,1,0,0:0:0:0:
256,192,53831,1,8,0:0:0:0:
256,192,54476,1,12,0:0:0:0:
256,192,54637,1,0,0:0:0:0:
256,192,54799,1,0,0:0:0:0:
256,192,54960,1,8,0:0:0:0:
256,192,55041,1,8,0:0:0:0:
256,192,55121,1,0,0:0:0:0:
256,192,55282,1,8,0:0:0:0:
256,192,55444,1,0,0:0:0:0:
256,192,55605,1,8,0:0:0:0:
256,192,55928,1,8,0:0:0:0:
256,192,56089,1,0,0:0:0:0:
256,192,56250,1,8,0:0:0:0:
256,192,56412,1,8,0:0:0:0:
256,192,56573,1,0,0:0:0:0:
256,192,56895,1,0,0:0:0:0:
256,192,57057,1,8,0:0:0:0:
256,192,57137,1,8,0:0:0:0:
256,192,57218,1,0,0:0:0:0:
256,192,57379,1,8,0:0:0:0:
256,192,57541,1,0,0:0:0:0:
256,192,57702,1,8,0:0:0:0:
256,192,57863,1,0,0:0:0:0:
256,192,58024,1,0,0:0:0:0:
256,192,58186,1,8,0:0:0:0:
256,192,58508,1,0,0:0:0:0:
256,192,58670,1,8,0:0:0:0:
256,192,58831,1,0,0:0:0:0:
256,192,58912,1,0,0:0:0:0:
256,192,58992,1,8,0:0:0:0:
256,192,59073,1,8,0:0:0:0:
256,192,59153,1,0,0:0:0:0:
256,192,59315,1,8,0:0:0:0:
256,192,59476,1,0,0:0:0:0:
256,192,59557,1,0,0:0:0:0:
256,192,59637,1,12,0:0:0:0:
256,192,59799,1,0,0:0:0:0:
256,192,60121,1,0,0:0:0:0:
256,192,60282,1,8,0:0:0:0:
256,192,60444,1,0,0:0:0:0:
256,192,60605,1,0,0:0:0:0:
256,192,60766,1,8,0:0:0:0:
256,192,61089,1,0,0:0:0:0:
256,192,61412,1,0,0:0:0:0:
256,192,61573,1,8,0:0:0:0:
256,192,61734,1,0,0:0:0:0:
256,192,61895,1,8,0:0:0:0:
256,192,62057,1,0,0:0:0:0:
256,192,62137,1,0,0:0:0:0:
256,192,62218,1,12,0:0:0:0:
256,192,62379,1,0,0:0:0:0:
256,192,62702,1,0,0:0:0:0:
256,192,62863,1,8,0:0:0:0:
256,192,63024,1,0,0:0:0:0:
256,192,63186,1,8,0:0:0:0:
256,192,63347,1,8,0:0:0:0:
256,192,63508,1,0,0:0:0:0:
256,192,63670,1,0,0:0:0:0:
256,192,63831,1,8,0:0:0:0:
256,192,63912,1,8,0:0:0:0:
256,192,63992,1,0,0:0:0:0:
256,192,64153,1,8,0:0:0:0:
256,192,64315,1,8,0:0:0:0:
256,192,64395,1,8,0:0:0:0:
256,192,64476,1,0,0:0:0:0:
256,192,64557,1,0,0:0:0:0:
256,192,64637,1,8,0:0:0:0:
256,192,64799,1,12,0:0:0:0:
256,192,64960,1,0,0:0:0:0:
256,192,65282,1,0,0:0:0:0:
256,192,65444,1,8,0:0:0:0:
256,192,65605,1,0,0:0:0:0:
256,192,65766,1,8,0:0:0:0:
256,192,65928,1,8,0:0:0:0:
256,192,66250,1,8,0:0:0:0:
256,192,66573,1,0,0:0:0:0:
256,192,66734,1,8,0:0:0:0:
256,192,66895,1,8,0:0:0:0:
256,192,67057,1,0,0:0:0:0:
256,192,67218,1,0,0:0:0:0:
256,192,67379,1,12,0:0:0:0:
256,192,67541,1,0,0:0:0:0:
256,192,67863,1,0,0:0:0:0:
256,192,68024,1,8,0:0:0:0:
256,192,68186,1,0,0:0:0:0:
256,192,68266,1,0,0:0:0:0:
256,192,68347,1,8,0:0:0:0:
256,192,68508,1,0,0:0:0:0:
256,192,68831,1,0,0:0:0:0:
256,192,68992,1,8,0:0:0:0:
256,192,69153,1,8,0:0:0:0:
256,192,69234,1,0,0:0:0:0:
256,192,69315,1,8,0:0:0:0:
256,192,69395,1,8,0:0:0:0:
256,192,69476,1,0,0:0:0:0:
256,192,69637,1,8,0:0:0:0:
256,192,69799,1,0,0:0:0:0:
256,192,69879,1,0,0:0:0:0:
256,192,69960,1,12,0:0:0:0:
256,192,70121,1,0,0:0:0:0:
256,192,70282,1,8,0:0:0:0:
256,192,70444,1,0,0:0:0:0:
256,192,70524,1,0,0:0:0:0:
256,192,70605,1,8,0:0:0:0:
256,192,70766,1,0,0:0:0:0:
256,192,70928,1,8,0:0:0:0:
256,192,71089,1,8,0:0:0:0:
256,192,71412,1,8,0:0:0:0:
256,192,71492,1,0,0:0:0:0:
256,192,71573,1,0,0:0:0:0:
256,192,71734,1,8,0:0:0:0:
256,192,71895,1,0,0:0:0:0:
256,192,72057,1,0,0:0:0:0:
256,192,72137,1,8,0:0:0:0:
256,192,72218,1,0,0:0:0:0:
256,192,72299,1,0,0:0:0:0:
256,192,72379,1,8,0:0:0:0:
256,192,72541,1,12,0:0:0:0:
256,192,72702,1,0,0:0:0:0:
256,192,73024,1,0,0:0:0:0:
256,192,73186,1,8,0:0:0:0:
256,192,73347,1,8,0:0:0:0:
256,192,73508,1,0,0:0:0:0:
256,192,73670,1,0,0:0:0:0:
256,192,73992,1,0,0:0:0:0:
256,192,74153,1,8,0:0:0:0:
256,192,74315,1,0,0:0:0:0:
256,192,74637,1,0,0:0:0:0:
256,192,74799,1,8,0:0:0:0:
256,192,74960,1,8,0:0:0:0:
256,192,75121,1,4,0:0:0:0:
256,192,75282,1,0,0:0:0:0:
256,192,75605,1,0,0:0:0:0:
256,192,75766,1,8,0:0:0:0:
256,192,75928,1,8,0:0:0:0:
256,192,76089,1,0,0:0:0:0:
256,192,76250,1,8,0:0:0:0:
256,192,76573,1,8,0:0:0:0:
256,192,76895,1,0,0:0:0:0:
256,192,77218,1,0,0:0:0:0:
256,192,77379,1,8,0:0:0:0:
256,192,77702,1,4,0:0:0:0:
256,192,77863,1,8,0:0:0:0:
256,192,78186,1,0,0:0:0:0:
256,192,78347,1,8,0:0:0:0:
256,192,78508,1,0,0:0:0:0:
256,192,78670,1,0,0:0:0:0:
256,192,78831,1,8,0:0:0:0:
256,192,79153,1,0,0:0:0:0:
256,192,79315,1,8,0:0:0:0:
256,192,79476,1,0,0:0:0:0:
256,192,79799,1,0,0:0:0:0:
256,192,80121,1,8,0:0:0:0:
256,192,80282,1,4,0:0:0:0:
256,192,80444,1,8,0:0:0:0:
256,192,80766,1,0,0:0:0:0:
256,192,80928,1,8,0:0:0:0:
256,192,81089,1,8,0:0:0:0:
256,192,81250,1,0,0:0:0:0:
256,192,81412,1,0,0:0:0:0:
256,192,81734,1,8,0:0:0:0:
256,192,81895,1,0,0:0:0:0:
256,192,82057,1,0,0:0:0:0:
256,192,82137,1,0,0:0:0:0:
256,192,82218,1,8,0:0:0:0:
256,192,82379,1,0,0:0:0:0:
256,192,82541,1,8,0:0:0:0:
256,192,82621,1,8,0:0:0:0:
256,192,82702,1,0,0:0:0:0:
256,192,82782,1,0,0:0:0:0:
256,192,82863,1,12,0:0:0:0:
256,192,83024,1,0,0:0:0:0:
256,192,83347,1,0,0:0:0:0:
256,192,83508,1,8,0:0:0:0:
256,192,83670,1,8,0:0:0:0:
256,192,83831,1,0,0:0:0:0:
256,192,83992,1,8,0:0:0:0:
256,192,84315,1,0,0:0:0:0:
256,192,84476,1,8,0:0:0:0:
256,192,84637,1,0,0:0:0:0:
256,192,84799,1,8,0:0:0:0:
256,192,84960,1,8,0:0:0:0:
256,192,85121,1,0,0:0:0:0:
256,192,85282,1,0,0:0:0:0:
256,192,85444,1,12,0:0:0:0:
256,192,85605,1,0,0:0:0:0:
256,192,85766,1,8,0:0:0:0:
256,192,85928,1,8,0:0:0:0:
256,192,86089,1,8,0:0:0:0:
256,192,86250,1,0,0:0:0:0:
256,192,86412,1,0,0:0:0:0:
256,192,86573,1,8,0:0:0:0:
256,192,86895,1,0,0:0:0:0:
256,192,87057,1,8,0:0:0:0:
256,192,87137,1,8,0:0:0:0:
256,192,87218,1,0,0:0:0:0:
256,192,87379,1,8,0:0:0:0:
256,192,87460,1,8,0:0:0:0:
256,192,87541,1,0,0:0:0:0:
256,192,87621,1,0,0:0:0:0:
256,192,87702,1,8,0:0:0:0:
256,192,87863,1,0,0:0:0:0:
256,192,88024,1,12,0:0:0:0:
256,192,88186,1,0,0:0:0:0:
256,192,88508,1,0,0:0:0:0:
256,192,88670,1,8,0:0:0:0:
256,192,88831,1,8,0:0:0:0:
256,192,88992,1,0,0:0:0:0:
256,192,89153,1,8,0:0:0:0:
256,192,89476,1,0,0:0:0:0:
256,192,89637,1,8,0:0:0:0:
256,192,89799,1,0,0:0:0:0:
256,192,89960,1,8,0:0:0:0:
256,192,90121,1,8,0:0:0:0:
256,192,90282,1,0,0:0:0:0:
256,192,90444,1,0,0:0:0:0:
256,192,90524,1,0,0:0:0:0:
256,192,90605,1,12,0:0:0:0:
256,192,90766,1,0,0:0:0:0:
256,192,91089,1,0,0:0:0:0:
256,192,91250,1,0,0:0:0:0:
256,192,91412,1,0,0:0:0:0:
256,192,91573,1,8,0:0:0:0:
256,192,91734,1,0,0:0:0:0:
256,192,92057,1,8,0:0:0:0:
256,192,92218,1,0,0:0:0:0:
256,192,92379,1,8,0:0:0:0:
256,192,92541,1,8,0:0:0:0:
256,192,92702,1,0,0:0:0:0:
256,192,92863,1,0,0:0:0:0:
256,192,93024,1,8,0:0:0:0:
256,192,93186,1,12,0:0:0:0:
256,192,93508,1,0,0:0:0:0:
256,192,93670,1,8,0:0:0:0:
256,192,93831,1,0,0:0:0:0:
256,192,93992,1,8,0:0:0:0:
256,192,94153,1,8,0:0:0:0:
256,192,94315,1,0,0:0:0:0:
256,192,94637,1,8,0:0:0:0:
256,192,94799,1,0,0:0:0:0:
256,192,94879,1,0,0:0:0:0:
256,192,94960,1,8,0:0:0:0:
256,192,95121,1,0,0:0:0:0:
256,192,95282,1,8,0:0:0:0:
256,192,95363,1,8,0:0:0:0:
256,192,95444,1,0,0:0:0:0:
256,192,95524,1,0,0:0:0:0:
256,192,95605,1,0,0:0:0:0:
256,192,95766,1,12,0:0:0:0:
256,192,96250,1,0,0:0:0:0:
256,192,96412,1,8,0:0:0:0:
256,192,96573,1,0,0:0:0:0:
256,192,96895,1,8,0:0:0:0:
256,192,97218,1,0,0:0:0:0:
256,192,97541,1,0,0:0:0:0:
256,192,97621,1,0,0:0:0:0:
256,192,97702,1,8,0:0:0:0:
256,192,97863,1,0,0:0:0:0:
256,192,98024,1,8,0:0:0:0:
256,192,98105,1,8,0:0:0:0:
256,192,98186,1,0,0:0:0:0:
256,192,98347,1,12,0:0:0:0:
256,192,98508,1,0,0:0:0:0:
256,192,98831,1,0,0:0:0:0:
256,192,98992,1,8,0:0:0:0:
256,192,99153,1,8,0:0:0:0:
256,192,99315,1,0,0:0:0:0:
256,192,99476,1,8,0:0:0:0:
256,192,99799,1,0,0:0:0:0:
256,192,99960,1,8,0:0:0:0:
256,192,100121,1,0,0:0:0:0:
256,192,100202,1,0,0:0:0:0:
256,192,100282,1,8,0:0:0:0:
256,192,100444,1,0,0:0:0:0:
256,192,100605,1,8,0:0:0:0:
256,192,100766,1,8,0:0:0:0:
256,192,100847,1,0,0:0:0:0:
256,192,100928,1,12,0:0:0:0:
256,192,101573,1,0,0:0:0:0:
256,192,102218,1,0,0:0:0:0:
256,192,102863,1,0,0:0:0:0:
256,192,103024,1,8,0:0:0:0:
256,192,103186,1,8,0:0:0:0:
256,192,103266,1,0,0:0:0:0:
256,192,103347,1,0,0:0:0:0:
256,192,103508,1,8,0:0:0:0:
256,192,103589,1,8,0:0:0:0:
256,192,103670,1,0,0:0:0:0:
256,192,103750,1,0,0:0:0:0:
256,192,103831,1,0,0:0:0:0:
256,192,103992,1,8,0:0:0:0:
256,192,104153,1,8,0:0:0:0:
256,192,104315,1,0,0:0:0:0:
256,192,104476,1,8,0:0:0:0:
256,192,104557,1,8,0:0:0:0:
256,192,104637,1,0,0:0:0:0:
256,192,104799,1,8,0:0:0:0:
256,192,104960,1,8,0:0:0:0:
256,192,105121,1,0,0:0:0:0:
256,192,105282,1,8,0:0:0:0:
256,192,105363,1,0,0:0:0:0:
256,192,105444,1,8,0:0:0:0:
256,192,105524,1,8,0:0:0:0:
256,192,105605,1,0,0:0:0:0:
256,192,105766,1,0,0:0:0:0:
256,192,105928,1,8,0:0:0:0:
256,192,106089,1,0,0:0:0:0:
256,192,106573,1,0,0:0:0:0:
256,192,107218,1,8,0:0:0:0:
256,192,108670,1,8,0:0:0:0:
256,192,109153,1,0,0:0:0:0:
256,192,109799,1,8,0:0:0:0:
256,192,111250,1,0,0:0:0:0:
256,192,111734,1,0,0:0:0:0:
256,192,112379,1,8,0:0:0:0:
256,192,113831,1,8,0:0:0:0:
256,192,114315,1,0,0:0:0:0:
256,192,114960,1,8,0:0:0:0:
256,192,116412,1,8,0:0:0:0:
256,192,116492,1,8,0:0:0:0:
256,192,116573,1,8,0:0:0:0:
256,192,116734,1,0,0:0:0:0:
256,192,117057,1,0,0:0:0:0:
256,192,117379,1,0,0:0:0:0:
256,192,117541,1,8,0:0:0:0:
256,192,117702,1,8,0:0:0:0:
256,192,118024,1,0,0:0:0:0:
256,192,118347,1,8,0:0:0:0:
256,192,118508,1,0,0:0:0:0:
256,192,118831,1,8,0:0:0:0:
256,192,118912,1,8,0:0:0:0:
256,192,118992,1,8,0:0:0:0:
256,192,119153,1,0,0:0:0:0:
256,192,119315,1,8,0:0:0:0:
256,192,119637,1,8,0:0:0:0:
256,192,119960,1,0,0:0:0:0:
256,192,120121,1,0,0:0:0:0:
256,192,120282,1,8,0:0:0:0:
256,192,120605,1,0,0:0:0:0:
256,192,120928,1,0,0:0:0:0:
256,192,121089,1,8,0:0:0:0:
256,192,121250,1,0,0:0:0:0:
256,192,121573,1,0,0:0:0:0:
256,192,121653,1,0,0:0:0:0:
256,192,121734,1,0,0:0:0:0:
256,192,121895,1,8,0:0:0:0:
256,192,122057,1,8,0:0:0:0:
256,192,122218,1,0,0:0:0:0:
256,192,122541,1,0,0:0:0:0:
256,192,122863,1,8,0:0:0:0:
256,192,123186,1,0,0:0:0:0:
256,192,123508,1,8,0:0:0:0:
256,192,123670,1,0,0:0:0:0:
256,192,123831,1,8,0:0:0:0:
256,192,123992,1,0,0:0:0:0:
256,192,124073,1,0,0:0:0:0:
256,192,124153,1,0,0:0:0:0:
256,192,124315,12,0,126573,0:0:0:0:
256,192,126734,5,12,0:0:0:0:
256,192,127057,1,0,0:0:0:0:
256,192,127379,1,8,0:0:0:0:
256,192,127702,1,0,0:0:0:0:
256,192,127863,1,8,0:0:0:0:
256,192,128186,1,8,0:0:0:0:
256,192,128266,1,8,0:0:0:0:
256,192,128347,1,8,0:0:0:0:
256,192,128428,1,8,0:0:0:0:
256,192,128508,1,0,0:0:0:0:
256,192,128670,1,8,0:0:0:0:
256,192,128831,1,0,0:0:0:0:
256,192,128992,1,8,0:0:0:0:
256,192,129153,1,8,0:0:0:0:
256,192,129315,1,4,0:0:0:0:
256,192,129637,1,8,0:0:0:0:
256,192,129799,1,0,0:0:0:0:
256,192,129960,1,8,0:0:0:0:
256,192,130121,1,8,0:0:0:0:
256,192,130282,1,8,0:0:0:0:
256,192,130444,1,4,0:0:0:0:
256,192,130766,1,0,0:0:0:0:
256,192,130928,1,8,0:0:0:0:
256,192,131008,1,8,0:0:0:0:
256,192,131089,1,0,0:0:0:0:
256,192,131250,1,8,0:0:0:0:
256,192,131412,1,0,0:0:0:0:
256,192,131492,1,0,0:0:0:0:
256,192,131573,1,8,0:0:0:0:
256,192,131653,1,8,0:0:0:0:
256,192,131734,1,0,0:0:0:0:
256,192,131895,1,12,0:0:0:0:
256,192,132057,1,0,0:0:0:0:
256,192,132379,1,0,0:0:0:0:
256,192,132541,1,8,0:0:0:0:
256,192,132863,1,0,0:0:0:0:
256,192,133024,1,8,0:0:0:0:
256,192,133347,1,0,0:0:0:0:
256,192,133670,1,0,0:0:0:0:
256,192,133831,1,8,0:0:0:0:
256,192,133992,1,8,0:0:0:0:
256,192,134153,1,0,0:0:0:0:
256,192,134315,1,0,0:0:0:0:
256,192,134395,1,0,0:0:0:0:
256,192,134476,1,12,0:0:0:0:
256,192,134637,1,0,0:0:0:0:
256,192,134960,1,0,0:0:0:0:
256,192,135121,1,8,0:0:0:0:
256,192,135282,1,8,0:0:0:0:
256,192,135444,1,0,0:0:0:0:
256,192,135605,1,8,0:0:0:0:
256,192,135766,1,8,0:0:0:0:
256,192,135928,1,0,0:0:0:0:
256,192,136008,1,0,0:0:0:0:
256,192,136089,1,8,0:0:0:0:
256,192,136250,1,0,0:0:0:0:
256,192,136412,1,8,0:0:0:0:
256,192,136492,1,8,0:0:0:0:
256,192,136573,1,0,0:0:0:0:
256,192,136653,1,0,0:0:0:0:
256,192,136734,1,8,0:0:0:0:
256,192,136895,1,8,0:0:0:0:
256,192,137057,1,4,0:0:0:0:
256,192,137218,1,0,0:0:0:0:
256,192,137541,1,0,0:0:0:0:
256,192,137702,1,8,0:0:0:0:
256,192,137863,1,0,0:0:0:0:
256,192,138024,1,0,0:0:0:0:
256,192,138186,1,8,0:0:0:0:
256,192,138266,1,8,0:0:0:0:
256,192,138347,1,0,0:0:0:0:
256,192,138508,1,0,0:0:0:0:
256,192,138831,1,0,0:0:0:0:
256,192,138992,1,8,0:0:0:0:
256,192,139153,1,0,0:0:0:0:
256,192,139315,1,0,0:0:0:0:
256,192,139395,1,8,0:0:0:0:
256,192,139476,1,0,0:0:0:0:
256,192,139637,1,8,0:0:0:0:
256,192,139799,1,8,0:0:0:0:
256,192,139960,1,0,0:0:0:0:
256,192,140121,1,0,0:0:0:0:
256,192,140282,1,8,0:0:0:0:
256,192,140363,1,0,0:0:0:0:
256,192,140444,1,0,0:0:0:0:
256,192,140605,1,0,0:0:0:0:
256,192,140766,1,12,0:0:0:0:
256,192,141089,1,0,0:0:0:0:
256,192,141412,1,0,0:0:0:0:
256,192,141492,1,0,0:0:0:0:
256,192,141573,1,8,0:0:0:0:
256,192,141734,1,8,0:0:0:0:
256,192,141895,1,0,0:0:0:0:
256,192,141976,1,0,0:0:0:0:
256,192,142057,1,8,0:0:0:0:
256,192,142137,1,0,0:0:0:0:
256,192,142218,1,8,0:0:0:0:
256,192,142541,1,8,0:0:0:0:
256,192,142702,1,0,0:0:0:0:
256,192,142863,1,8,0:0:0:0:
256,192,143024,1,8,0:0:0:0:
256,192,143186,1,0,0:0:0:0:
256,192,143347,1,12,0:0:0:0:
256,192,143670,1,0,0:0:0:0:
256,192,143750,1,0,0:0:0:0:
256,192,143831,1,8,0:0:0:0:
256,192,143992,1,0,0:0:0:0:
256,192,144153,1,8,0:0:0:0:
256,192,144234,1,0,0:0:0:0:
256,192,144315,1,8,0:0:0:0:
256,192,144395,1,0,0:0:0:0:
256,192,144476,1,8,0:0:0:0:
256,192,144637,1,0,0:0:0:0:
256,192,144799,1,12,0:0:0:0:
256,192,145122,1,0,0:0:0:0:
256,192,145283,1,8,0:0:0:0:
256,192,145364,1,8,0:0:0:0:
256,192,145444,1,0,0:0:0:0:
256,192,145605,1,8,0:0:0:0:
256,192,145767,1,0,0:0:0:0:
256,192,145928,1,8,0:0:0:0:
256,192,146251,1,8,0:0:0:0:
256,192,146412,1,0,0:0:0:0:
256,192,146573,1,8,0:0:0:0:
256,192,146735,1,8,0:0:0:0:
256,192,146896,1,0,0:0:0:0:
256,192,147057,1,8,0:0:0:0:
256,192,147380,1,12,0:0:0:0:
256,192,147541,1,0,0:0:0:0:
256,192,147622,1,0,0:0:0:0:
256,192,147702,1,8,0:0:0:0:
256,192,147864,1,0,0:0:0:0:
256,192,148025,1,8,0:0:0:0:
256,192,148186,1,0,0:0:0:0:
256,192,148347,1,0,0:0:0:0:
256,192,148509,1,8,0:0:0:0:
256,192,148831,1,0,0:0:0:0:
256,192,148993,1,8,0:0:0:0:
256,192,149154,1,0,0:0:0:0:
256,192,149235,1,0,0:0:0:0:
256,192,149315,1,8,0:0:0:0:
256,192,149476,1,0,0:0:0:0:
256,192,149638,1,8,0:0:0:0:
256,192,149718,1,0,0:0:0:0:
256,192,149799,1,0,0:0:0:0:
256,192,149880,1,0,0:0:0:0:
256,192,149960,1,12,0:0:0:0:
256,192,150282,1,0,0:0:0:0:
256,192,150444,1,8,0:0:0:0:
256,192,150605,1,8,0:0:0:0:
256,192,150767,1,0,0:0:0:0:
256,192,150928,1,0,0:0:0:0:
256,192,151089,1,8,0:0:0:0:
256,192,151412,1,0,0:0:0:0:
256,192,151573,1,8,0:0:0:0:
256,192,151735,1,0,0:0:0:0:
256,192,151896,1,8,0:0:0:0:
256,192,152057,1,8,0:0:0:0:
256,192,152218,1,0,0:0:0:0:
256,192,152299,1,0,0:0:0:0:
256,192,152380,1,8,0:0:0:0:
256,192,152541,1,4,0:0:0:0:
256,192,152702,1,8,0:0:0:0:
256,192,153025,1,0,0:0:0:0:
256,192,153186,1,8,0:0:0:0:
256,192,153347,1,0,0:0:0:0:
256,192,153509,1,8,0:0:0:0:
256,192,153670,1,8,0:0:0:0:
256,192,153831,1,0,0:0:0:0:
256,192,153992,1,0,0:0:0:0:
256,192,154154,1,8,0:0:0:0:
256,192,154235,1,8,0:0:0:0:
256,192,154315,1,0,0:0:0:0:
256,192,154476,1,8,0:0:0:0:
256,192,154638,1,8,0:0:0:0:
256,192,154718,1,8,0:0:0:0:
256,192,154799,1,0,0:0:0:0:
256,192,154880,1,0,0:0:0:0:
256,192,154960,1,8,0:0:0:0:
256,192,155122,1,12,0:0:0:0:
256,192,155444,1,8,0:0:0:0:
256,192,155605,1,0,0:0:0:0:
256,192,155767,1,8,0:0:0:0:
256,192,155928,1,0,0:0:0:0:
256,192,156089,1,8,0:0:0:0:
256,192,156251,1,8,0:0:0:0:
256,192,156573,1,8,0:0:0:0:
256,192,156734,1,0,0:0:0:0:
256,192,156896,1,0,0:0:0:0:
256,192,157057,1,8,0:0:0:0:
256,192,157218,1,8,0:0:0:0:
256,192,157299,1,8,0:0:0:0:
256,192,157380,1,0,0:0:0:0:
256,192,157541,1,0,0:0:0:0:
256,192,157702,1,12,0:0:0:0:
256,192,158024,1,0,0:0:0:0:
256,192,158186,1,0,0:0:0:0:
256,192,158347,1,8,0:0:0:0:
256,192,158509,1,0,0:0:0:0:
256,192,158589,1,0,0:0:0:0:
256,192,158670,1,8,0:0:0:0:
256,192,158831,1,0,0:0:0:0:
256,192,159154,1,0,0:0:0:0:
256,192,159315,1,8,0:0:0:0:
256,192,159476,1,8,0:0:0:0:
256,192,159557,1,0,0:0:0:0:
256,192,159638,1,8,0:0:0:0:
256,192,159799,1,0,0:0:0:0:
256,192,159960,1,8,0:0:0:0:
256,192,160041,1,8,0:0:0:0:
256,192,160122,1,0,0:0:0:0:
256,192,160202,1,0,0:0:0:0:
256,192,160283,1,8,0:0:0:0:
256,192,160605,1,8,0:0:0:0:
256,192,160928,1,8,0:0:0:0:
256,192,161089,1,0,0:0:0:0:
256,192,161250,1,0,0:0:0:0:
256,192,161412,1,8,0:0:0:0:
256,192,161735,1,8,0:0:0:0:
256,192,161815,1,0,0:0:0:0:
256,192,161896,1,0,0:0:0:0:
256,192,161976,1,0,0:0:0:0:
256,192,162057,1,8,0:0:0:0:
256,192,162218,1,8,0:0:0:0:
256,192,162299,1,8,0:0:0:0:
256,192,162379,1,0,0:0:0:0:
256,192,162541,1,8,0:0:0:0:
256,192,162702,1,0,0:0:0:0:
256,192,162863,1,12,0:0:0:0:
256,192,163186,1,0,0:0:0:0:
256,192,163508,1,0,0:0:0:0:
256,192,163831,1,8,0:0:0:0:
256,192,163992,1,0,0:0:0:0:
256,192,164315,1,0,0:0:0:0:
256,192,164476,1,8,0:0:0:0:
256,192,164637,1,0,0:0:0:0:
256,192,164799,1,8,0:0:0:0:
256,192,164960,1,0,0:0:0:0:
256,192,165121,1,8,0:0:0:0:
256,192,165282,1,12,0:0:0:0:
256,192,165605,1,0,0:0:0:0:
256,192,165766,1,8,0:0:0:0:
256,192,165928,1,0,0:0:0:0:
256,192,166089,1,8,0:0:0:0:
256,192,166250,1,8,0:0:0:0:
256,192,166412,1,0,0:0:0:0:
256,192,166573,1,8,0:0:0:0:
256,192,166895,1,0,0:0:0:0:
256,192,167057,1,8,0:0:0:0:
256,192,167218,1,0,0:0:0:0:
256,192,167379,1,8,0:0:0:0:
256,192,167541,1,0,0:0:0:0:
256,192,167702,1,0,0:0:0:0:
256,192,167863,1,8,0:0:0:0:
256,192,168024,1,0,0:0:0:0:
256,192,168105,1,0,0:0:0:0:
256,192,168186,1,8,0:0:0:0:
256,192,168347,1,8,0:0:0:0:
256,192,168670,1,0,0:0:0:0:
256,192,168992,1,8,0:0:0:0:
256,192,169153,1,0,0:0:0:0:
256,192,169476,1,0,0:0:0:0:
256,192,169637,1,8,0:0:0:0:
256,192,169799,1,8,0:0:0:0:
256,192,169960,1,0,0:0:0:0:
256,192,170282,1,8,0:0:0:0:
256,192,170444,1,4,0:0:0:0:
256,192,170766,1,0,0:0:0:0:
256,192,170928,1,8,0:0:0:0:
256,192,171089,1,0,0:0:0:0:
256,192,171250,1,8,0:0:0:0:
256,192,171412,1,8,0:0:0:0:
256,192,171573,1,0,0:0:0:0:
256,192,171734,1,8,0:0:0:0:
256,192,172057,1,8,0:0:0:0:
256,192,172137,1,0,0:0:0:0:
256,192,172218,1,8,0:0:0:0:
256,192,172299,1,8,0:0:0:0:
256,192,172379,1,0,0:0:0:0:
256,192,172541,1,8,0:0:0:0:
256,192,172702,1,8,0:0:0:0:
256,192,172782,1,0,0:0:0:0:
256,192,172863,1,8,0:0:0:0:
256,192,173024,1,8,0:0:0:0:
256,192,173186,1,4,0:0:0:0:
256,192,173347,12,0,183508,0:0:0:0:
