osu file format v14

[General]
AudioFilename: audio.mp3
AudioLeadIn: 0
PreviewTime: 4310
Countdown: 0
SampleSet: Soft
StackLeniency: 0.7
Mode: 0
LetterboxInBreaks: 0
WidescreenStoryboard: 1

[Editor]
Bookmarks: 10161,21175
DistanceSpacing: 0.8
BeatDivisor: 8
GridSize: 4
TimelineZoom: 1

[Metadata]
Title:Solarium
TitleUnicode:Solarium
Artist:Murder Ground
ArtistUnicode:Murder Ground
Creator:Debaniya-n
Version:Insane
Source:Touhou
Tags:Touhou Chen Toono Gensou Monogatar
BeatmapID:1605999
BeatmapSetID:763679

[Difficulty]
HPDrainRate:8
CircleSize:6
OverallDifficulty:7
ApproachRate:8
SliderMultiplier:2.1
SliderTickRate:2

[Events]
//Background and Video events
0,0,"Konachan.com%20-%20186259%20sample.jpg",0,0
//Break Periods
//Storyboard Layer 0 (Background)
//Storyboard Layer 1 (Fail)
//Storyboard Layer 2 (Pass)
//Storyboard Layer 3 (Foreground)
//Storyboard Sound Samples

[TimingPoints]
4654.87046402714,688.355172413793,4,2,0,100,1,0
7408,680.957303370788,4,2,0,100,1,0
10148,691.244239631336,4,2,0,100,1,0
15668,688.355172413793,4,2,0,100,1,0
23240,857.142857142857,4,2,0,100,1,0
24117,967.741935483871,4,2,0,100,1,0
25045,1176.47058823529,4,2,0,100,1,0
25045,-133.333333333333,4,2,0,100,0,0
26221,1518.98734177215,4,2,0,100,1,0
26221,-200,4,2,0,100,0,0
27739,2068.96551724138,4,2,0,100,1,0

[Colours]
Combo1 : 74,134,255
Combo2 : 158,138,229
Combo3 : 2,124,247
Combo4 : 89,11,185

[HitObjects]
440,132,4654,6,0,P|448:168|424:236,1,105
256,192,5343,1,0,0:0:0:0:
136,144,5687,1,0,0:0:0:0:
132,240,6031,1,0,0:0:0:0:
416,204,6375,1,0,0:0:0:0:
184,96,6547,1,0,0:0:0:0:
184,328,6719,2,0,P|216:288|192:224,1,105
80,96,7408,6,0,P|72:128|112:184,1,105
424,184,8088,2,0,P|436:216|388:272,1,105
176,144,8769,1,0,0:0:0:0:
272,316,9110,1,0,0:0:0:0:
320,296,9195,1,0,0:0:0:0:
344,256,9280,1,0,0:0:0:0:
352,176,9450,2,0,P|296:204|232:196,1,105
88,116,10148,5,0,0:0:0:0:
112,236,10493,1,0,0:0:0:0:
168,244,10666,1,0,0:0:0:0:
224,220,10839,1,0,0:0:0:0:
152,160,11184,1,0,0:0:0:0:
392,176,11530,5,0,0:0:0:0:
144,76,11876,1,0,0:0:0:0:
284,320,12221,1,0,0:0:0:0:
344,80,12567,1,0,0:0:0:0:
340,276,12912,5,0,0:0:0:0:
272,80,13258,1,0,0:0:0:0:
168,288,13604,1,0,0:0:0:0:
364,136,13949,1,0,0:0:0:0:
140,132,14295,2,0,P|204:168|160:284,1,210
72,200,15668,5,0,0:0:0:0:
144,136,16012,1,0,0:0:0:0:
240,96,16356,2,0,P|240:168|268:208,1,105
336,208,17044,1,0,0:0:0:0:
448,92,17388,1,0,0:0:0:0:
328,68,17733,2,0,P|352:128|332:160,1,105
220,168,18421,1,0,0:0:0:0:
140,88,18765,1,0,0:0:0:0:
100,192,19109,5,0,0:0:0:0:
256,340,19453,1,0,0:0:0:0:
380,48,19798,1,0,0:0:0:0:
128,304,20142,1,0,0:0:0:0:
392,252,20486,1,0,0:0:0:0:
192,92,20830,1,0,0:0:0:0:
96,252,21174,6,0,P|148:248|208:272,1,105
272,260,21863,1,0,0:0:0:0:
344,208,22207,2,0,P|284:192|256:152,1,105
316,128,22895,1,0,0:0:0:0:
332,72,23239,2,0,P|380:84|424:152,1,131.25
404,280,24117,6,0,P|344:264|300:276,1,105
108,72,25045,6,0,P|96:120|56:136,1,78.7500030040742
384,236,26221,6,0,P|324:260|332:300,1,105
256,192,27739,12,0,30325,0:0:0:0:
