osu file format v14

[General]
AudioFilename: Drawing Again.mp3
AudioLeadIn: 0
PreviewTime: 74203
Countdown: 0
SampleSet: Normal
StackLeniency: 0.7
Mode: 0
LetterboxInBreaks: 0
EpilepsyWarning: 1
WidescreenStoryboard: 1

[Editor]
DistanceSpacing: 0.2
BeatDivisor: 4
GridSize: 8
TimelineZoom: 5.099997

[Metadata]
Title:Drawing Again
TitleUnicode:Drawing Again
Artist:Murata Ayumi
ArtistUnicode:村田あゆみ
Creator:__Ag
Version:Drawing Memories
Source:Memories Off 〜それから again〜
Tags:Galgame kid ShallICompareThee 持田雛子
BeatmapID:883912
BeatmapSetID:400652

[Difficulty]
HPDrainRate:7
CircleSize:4
OverallDifficulty:9
ApproachRate:9.4
SliderMultiplier:1.9
SliderTickRate:0.5

[Events]
//Background and Video events
0,0,"ROAME_79793_3D669E75.jpg",0,0
//Break Periods
//Storyboard Layer 0 (Background)
//Storyboard Layer 1 (Fail)
//Storyboard Layer 2 (Pass)
//Storyboard Layer 3 (Foreground)
//Storyboard Sound Samples

[TimingPoints]
3725,333.333333333333,4,2,1,40,1,0
8974,-100,4,2,1,45,0,0
13641,-100,4,1,1,60,0,0
14058,-100,4,1,1,70,0,0
23641,-133.333333333333,4,1,1,50,0,0
26308,-100,4,1,1,60,0,0
45974,-83.3333333333333,4,1,1,60,0,0
46308,-100,4,1,1,60,0,0
56974,-125,4,1,1,60,0,0
58974,-100,4,1,1,60,0,0
74391,-100,4,1,1,60,0,1
80974,-125,4,1,1,60,0,1
81391,-100,4,1,1,60,0,1
81641,-125,4,1,1,60,0,1
82058,-100,4,1,1,60,0,1
84474,-125,4,1,1,60,0,1
84808,-100,4,1,1,60,0,1
105808,-125,4,1,1,60,0,1
106141,-100,4,1,1,60,0,1
119724,-100,4,1,1,70,0,0
128808,-200,4,1,1,70,0,0
130308,-100,4,1,1,60,0,0
149974,-66.6666666666667,4,1,1,60,0,0
150308,-100,4,1,1,60,0,0
160974,-125,4,1,1,60,0,0
162141,-100,4,1,1,60,0,0
178391,-100,4,1,1,60,0,1
184974,-125,4,1,1,60,0,1
185391,-100,4,1,1,60,0,1
185641,-125,4,1,1,60,0,1
186058,-100,4,1,1,60,0,1
188474,-125,4,1,1,60,0,1
188808,-100,4,1,1,60,0,1
209808,-125,4,1,1,60,0,1
210141,-100,4,1,1,60,0,1
223724,-100,4,1,1,50,0,0
231724,-100,4,1,1,60,0,0
234308,-76.9230769230769,4,1,1,60,0,0
234808,-100,4,1,1,60,0,0
246391,-100,4,1,1,60,0,1
252974,-125,4,1,1,60,0,1
253390,-100,4,1,1,60,0,1
253641,-125,4,1,1,60,0,1
254057,-100,4,1,1,60,0,1
256474,-125,4,1,1,60,0,1
256808,-100,4,1,1,60,0,1
277808,-125,4,1,1,60,0,1
278141,-100,4,1,1,60,0,1
291724,-100,4,1,1,70,0,0
311723,-100,4,1,1,70,0,0
312391,-100,4,1,1,60,0,0
313058,-100,4,1,1,50,0,0
314391,-100,4,1,1,40,0,0
315058,-100,4,1,1,30,0,0
315724,-100,4,1,1,20,0,0
316391,-100,4,1,1,10,0,0
316974,-100,4,1,1,5,0,0

[Colours]
Combo1 : 113,255,149
Combo2 : 255,255,128
Combo3 : 0,255,255
Combo4 : 128,128,255

[HitObjects]
252,40,3724,5,4,0:0:0:0:
352,104,3891,1,2,0:0:0:0:
364,112,3974,1,2,0:0:0:0:
376,120,4058,2,0,P|388:172|372:240,1,95,2|0,0:0|0:0,0:0:0:0:
272,340,4391,1,0,0:0:0:0:
256,332,4474,1,0,0:0:0:0:
241,322,4558,1,0,0:0:0:0:
204,232,4724,1,2,0:0:0:0:
52,264,4891,6,0,B|22:206|72:144|72:144|64:76,1,190,4|0,0:0|0:0,0:0:0:0:
196,56,5391,2,4,P|248:64|300:56,1,95,6|0,0:0|0:0,0:0:0:0:
380,40,5724,1,0,0:0:0:0:
256,144,5891,1,0,0:0:0:0:
416,200,6058,1,2,0:0:0:0:
352,128,6224,1,0,0:0:0:0:
312,312,6391,6,0,L|368:312,2,47.5,4|0|0,0:0|0:0|0:0,0:0:0:0:
184,300,6724,2,0,P|152:256|112:232,1,95,2|0,0:0|0:0,0:0:0:0:
32,204,7058,1,0,0:0:0:0:
110,148,7224,1,0,0:0:0:0:
188,204,7391,1,2,0:0:0:0:
267,151,7558,6,0,B|255:191|203:195|187:203|187:203|187:223|231:291,1,190,4|0,0:0|0:0,0:0:0:0:
296,336,8058,2,0,P|256:364|196:368,1,95,4|0,0:0|0:0,0:0:0:0:
360,212,8391,1,0,0:0:0:0:
275,246,8558,1,0,0:0:0:0:
456,176,8724,1,0,0:0:0:0:
464,192,8808,1,0,0:0:0:0:
472,208,8891,1,0,0:0:0:0:
412,336,9058,5,4,0:0:0:0:
272,148,9224,1,2,0:0:0:0:
288,140,9308,1,2,0:0:0:0:
304,128,9391,2,0,P|296:76|268:32,1,95
176,32,9724,1,0,0:0:0:0:
148,128,9891,1,0,0:0:0:0:
48,108,10058,1,2,0:0:0:0:
32,224,10224,6,0,B|88:192|88:192|144:236|216:192,1,190,4|0,0:0|0:0,0:0:0:0:
344,232,10724,2,0,L|392:328,1,95,4|0,0:0|0:0,0:0:0:0:
472,208,11058,1,0,0:0:0:0:
492,88,11224,1,0,0:0:0:0:
344,36,11391,1,0,0:0:0:0:
328,36,11474,1,0,0:0:0:0:
312,36,11558,1,0,0:0:0:0:
172,24,11724,5,4,0:0:0:0:
60,112,11891,1,2,0:0:0:0:
57,126,11975,1,2,0:0:0:0:
55,140,12058,2,0,P|72:188|136:224,1,95,2|2,0:0|0:0,0:0:0:0:
220,292,12391,2,0,L|220:344,2,47.5
220,192,12724,1,0,0:0:0:0:
348,236,12891,6,0,B|427:218|428:128|428:128|484:100,1,190,4|0,0:0|0:0,0:0:0:0:
332,137,13391,1,4,0:0:0:0:
412,40,13558,1,0,0:0:0:0:
260,188,13724,5,8,0:0:0:0:
236,188,13808,1,8,0:0:0:0:
212,188,13891,1,8,0:0:0:0:
188,188,13974,1,8,0:0:0:0:
132,188,14058,5,8,0:0:0:0:
84,216,14141,1,8,0:0:0:0:
68,268,14224,1,8,0:0:0:0:
84,320,14308,1,8,0:0:0:0:
132,348,14391,6,0,L|248:348,1,95,8|0,0:0|0:0,0:0:0:0:
392,328,14724,1,8,0:0:0:0:
508,208,14891,1,0,0:0:0:0:
392,328,15058,2,0,P|360:268|368:224,1,95
412,156,15391,1,8,0:0:0:0:
428,56,15558,1,8,0:0:0:0:
260,72,15724,5,0,0:0:0:0:
296,180,15891,1,0,0:0:0:0:
190,129,16058,2,0,P|217:91|260:72,1,95,8|0,0:0|0:0,0:0:0:0:
360,242,16391,2,0,P|335:282|295:306,1,95,4|0,0:0|0:0,0:0:0:0:
204,232,16724,1,8,0:0:0:0:
158,245,16808,1,8,0:0:0:0:
110,242,16891,1,8,0:0:0:0:
68,220,16974,1,8,0:0:0:0:
47,176,17058,6,0,P|51:124|79:80,1,95,8|0,0:0|0:0,0:0:0:0:
175,32,17391,2,0,P|238:30|287:52,1,95
320,128,17724,1,0,0:0:0:0:
124,136,17891,1,0,0:0:0:0:
216,112,18058,2,0,P|216:172|168:216,1,95,8|0,0:0|0:0,0:0:0:0:
56,340,18391,5,0,0:0:0:0:
252,296,18558,1,0,0:0:0:0:
448,332,18724,2,0,P|440:272|416:220,1,95,12|0,0:0|0:0,0:0:0:0:
388,148,19058,1,0,0:0:0:0:
248,216,19224,1,0,0:0:0:0:
114,127,19391,1,8,0:0:0:0:
152,100,19474,1,8,0:0:0:0:
200,88,19558,1,8,0:0:0:0:
248,92,19641,1,8,0:0:0:0:
292,108,19724,6,0,P|332:132|360:184,1,95,8|0,0:0|0:0,0:0:0:0:
356,352,20058,2,0,P|316:328|288:276,1,95,8|0,0:0|0:0,0:0:0:0:
248,216,20391,1,0,0:0:0:0:
404,252,20558,1,0,0:0:0:0:
232,356,20724,1,8,0:0:0:0:
212,156,20891,1,0,0:0:0:0:
392,312,21058,5,0,0:0:0:0:
424,152,21224,1,0,0:0:0:0:
302,38,21391,2,0,P|256:49|211:38,1,95,12|0,0:0|0:0,0:0:0:0:
211,346,21724,2,0,P|261:335|321:358,1,95,4|0,0:0|0:0,0:0:0:0:
370,233,22058,1,8,0:0:0:0:
328,212,22141,1,8,0:0:0:0:
280,204,22224,1,8,0:0:0:0:
232,204,22308,1,8,0:0:0:0:
188,224,22391,6,0,P|149:262|129:304,1,95,8|0,0:0|0:0,0:0:0:0:
256,324,22724,2,0,L|352:336,1,95
448,332,23058,1,8,0:0:0:0:
488,100,23224,1,8,0:0:0:0:
488,100,23558,1,0,0:0:0:0:
488,100,23641,1,0,0:0:0:0:
488,100,23724,6,0,P|376:64|332:80,1,142.500005435944
280,104,24224,1,8,0:0:0:0:
283,190,24391,2,0,P|353:187|408:144,1,142.500005435944,8|0,0:0|0:0,0:0:0:0:
236,272,24891,1,0,0:0:0:0:
312,88,25058,5,0,0:0:0:0:
224,272,25224,1,8,0:0:0:0:
216,272,25308,1,8,0:0:0:0:
204,272,25391,2,0,L|120:272,1,71.2500027179719,8|0,0:0|0:0,0:0:0:0:
40,160,25724,1,8,0:0:0:0:
132,272,25891,1,8,0:0:0:0:
32,160,26058,1,8,0:0:0:0:
192,128,26224,1,8,0:0:0:0:
256,48,26391,6,0,P|204:32|140:40,1,95
260,152,26724,2,0,P|320:136|356:140,1,95,8|0,0:0|0:0,0:0:0:0:
432,208,27058,1,0,0:0:0:0:
464,316,27224,1,0,0:0:0:0:
352,292,27391,1,0,0:0:0:0:
208,336,27557,1,0,0:0:0:0:
196,336,27641,1,0,0:0:0:0:
184,336,27724,6,0,P|156:288|148:240,1,95
160,160,28058,1,8,0:0:0:0:
72,264,28224,1,0,0:0:0:0:
228,116,28391,1,0,0:0:0:0:
344,156,28558,1,0,0:0:0:0:
356,152,28641,1,0,0:0:0:0:
368,148,28724,2,0,P|368:96|356:48,1,95
144,256,29058,6,0,P|180:288|240:300,1,95
368,148,29391,2,0,P|320:156|272:188,1,95,8|0,0:0|0:0,0:0:0:0:
224,300,29724,1,0,0:0:0:0:
316,340,29891,1,0,0:0:0:0:
408,324,30058,1,8,0:0:0:0:
472,256,30224,1,0,0:0:0:0:
328,104,30391,5,0,0:0:0:0:
456,172,30558,1,0,0:0:0:0:
268,148,30724,1,8,0:0:0:0:
404,112,30891,1,0,0:0:0:0:
224,40,31058,1,8,0:0:0:0:
192,44,31141,1,8,0:0:0:0:
164,60,31224,1,8,0:0:0:0:
148,88,31308,1,8,0:0:0:0:
144,120,31391,2,0,L|144:224,1,95,12|0,0:0|0:0,0:0:0:0:
364,264,31724,6,0,L|364:160,1,95,4|0,0:0|0:0,0:0:0:0:
412,84,32058,1,8,0:0:0:0:
252,172,32224,1,0,0:0:0:0:
316,344,32391,2,0,L|416:344,1,95
448,208,32724,5,8,0:0:0:0:
316,344,32891,1,0,0:0:0:0:
176,280,33058,1,0,0:0:0:0:
168,264,33141,1,0,0:0:0:0:
168,244,33224,1,0,0:0:0:0:
244,100,33391,1,8,0:0:0:0:
324,244,33558,1,0,0:0:0:0:
168,244,33724,2,0,P|108:244|72:264,1,95
344,140,34058,2,0,P|404:140|440:120,1,95,8|0,0:0|0:0,0:0:0:0:
256,56,34391,5,0,0:0:0:0:
356,264,34558,1,0,0:0:0:0:
434,124,34724,2,0,P|378:108|334:108,1,95,8|0,0:0|0:0,0:0:0:0:
160,140,35058,5,0,0:0:0:0:
192,252,35224,1,0,0:0:0:0:
320,252,35391,1,8,0:0:0:0:
352,140,35558,1,0,0:0:0:0:
256,56,35724,6,0,L|204:24,1,47.5,8|0,0:0|0:0,0:0:0:0:
252,144,35891,2,0,L|304:176,1,47.5,8|0,0:0|0:0,0:0:0:0:
176,100,36058,2,0,L|124:68,1,47.5,8|0,0:0|0:0,0:0:0:0:
336,100,36224,2,0,L|388:132,1,47.5,8|0,0:0|0:0,0:0:0:0:
336,100,36558,6,0,L|423:157,1,95,0|8,0:0|0:0,0:0:0:0:
460,240,36891,1,0,0:0:0:0:
256,336,37058,6,0,P|196:308|176:264,1,95,4|0,0:0|0:0,0:0:0:0:
180,104,37391,2,0,P|236:144|248:188,1,95,8|0,0:0|0:0,0:0:0:0:
181,285,37724,1,0,0:0:0:0:
245,166,37891,1,0,0:0:0:0:
144,188,38058,1,8,0:0:0:0:
276,264,38224,1,0,0:0:0:0:
180,104,38391,5,0,0:0:0:0:
92,260,38558,1,0,0:0:0:0:
328,192,38724,1,8,0:0:0:0:
244,340,38891,1,0,0:0:0:0:
400,308,39058,1,0,0:0:0:0:
400,308,39141,1,0,0:0:0:0:
400,308,39224,1,0,0:0:0:0:
456,160,39391,2,0,P|408:132|352:132,1,95,8|0,0:0|0:0,0:0:0:0:
180,104,39724,6,0,P|136:124|68:124,1,95
204,248,40058,2,0,P|256:272|288:304,1,95,8|0,0:0|0:0,0:0:0:0:
308,136,40391,2,0,P|312:76|336:40,1,95
456,32,40724,1,8,0:0:0:0:
480,200,40891,1,0,0:0:0:0:
368,324,41058,2,0,P|416:336|472:320,1,95
284,272,41391,1,8,0:0:0:0:
192,304,41558,1,0,0:0:0:0:
296,200,41724,5,0,0:0:0:0:
128,344,41891,1,8,0:0:0:0:
36,140,42058,1,8,0:0:0:0:
36,140,42391,6,0,L|68:248,1,95
312,112,42724,2,0,L|338:20,1,95,8|0,0:0|0:0,0:0:0:0:
212,272,43058,2,0,L|244:380,1,95
449,235,43391,2,0,L|476:144,1,95,8|0,0:0|0:0,0:0:0:0:
284,192,43724,1,0,0:0:0:0:
212,272,43891,1,0,0:0:0:0:
180,176,44058,1,8,0:0:0:0:
244,112,44224,5,0,0:0:0:0:
300,280,44391,1,0,0:0:0:0:
364,160,44558,1,0,0:0:0:0:
124,248,44724,1,8,0:0:0:0:
124,120,44891,1,4,0:0:0:0:
364,160,45058,5,0,0:0:0:0:
384,192,45141,1,0,0:0:0:0:
392,228,45224,1,0,0:0:0:0:
336,360,45391,1,8,0:0:0:0:
468,240,45558,1,0,0:0:0:0:
256,276,45724,1,8,0:0:0:0:
221,290,45807,1,0,0:0:0:0:
184,293,45890,1,0,0:0:0:0:
88,104,46058,6,0,B|76:96|76:96|116:80|188:104,1,113.999996520996,8|0,0:0|0:0,0:0:0:0:
300,131,46391,6,0,L|244:99,1,47.5,8|0,0:0|0:0,0:0:0:0:
148,249,46558,2,0,L|204:277,1,47.5,8|0,0:0|0:0,0:0:0:0:
357,58,46724,2,0,L|301:26,1,47.5,8|0,0:0|0:0,0:0:0:0:
197,177,46891,2,0,L|257:209,1,47.5,8|0,0:0|0:0,0:0:0:0:
352,196,47058,1,0,0:0:0:0:
496,304,47224,1,0,0:0:0:0:
320,344,47391,1,8,0:0:0:0:
304,344,47474,1,0,0:0:0:0:
288,344,47558,1,0,0:0:0:0:
108,340,47724,5,4,0:0:0:0:
24,204,47891,1,0,0:0:0:0:
180,168,48058,2,0,L|276:168,1,95,8|0,0:0|0:0,0:0:0:0:
380,168,48391,1,0,0:0:0:0:
240,32,48558,1,0,0:0:0:0:
60,84,48724,1,8,0:0:0:0:
60,84,48808,1,0,0:0:0:0:
60,84,48891,1,0,0:0:0:0:
124,252,49058,6,0,P|156:292|200:316,1,95
388,252,49391,2,0,P|356:292|312:316,1,95,8|0,0:0|0:0,0:0:0:0:
176,180,49724,1,0,0:0:0:0:
368,64,49891,1,0,0:0:0:0:
144,64,50058,1,8,0:0:0:0:
336,180,50224,1,0,0:0:0:0:
260,36,50391,6,0,P|268:92|260:136,1,95
254,318,50724,2,0,P|247:271|252:224,1,95,8|0,0:0|0:0,0:0:0:0:
336,120,51058,1,0,0:0:0:0:
176,240,51224,1,0,0:0:0:0:
344,264,51391,1,8,0:0:0:0:
152,96,51558,1,0,0:0:0:0:
69,165,51724,6,0,L|24:152,1,47.5
60,240,51891,2,0,L|104:256,1,47.5
104,336,52058,2,0,L|15:305,1,95,8|0,0:0|0:0,0:0:0:0:
240,316,52391,1,0,0:0:0:0:
128,264,52558,1,0,0:0:0:0:
280,200,52724,1,8,0:0:0:0:
404,244,52891,1,8,0:0:0:0:
408,232,52974,1,8,0:0:0:0:
412,220,53058,6,0,L|444:120,1,95,12|0,0:0|0:0,0:0:0:0:
288,32,53391,2,0,L|316:140,1,95,8|0,0:0|0:0,0:0:0:0:
408,200,53724,1,0,0:0:0:0:
284,300,53891,1,0,0:0:0:0:
440,336,54058,6,0,L|336:336,1,95,8|0,0:0|0:0,0:0:0:0:
204,284,54391,1,0,0:0:0:0:
108,128,54558,1,0,0:0:0:0:
276,224,54724,1,8,0:0:0:0:
104,248,54891,1,0,0:0:0:0:
292,104,55058,1,0,0:0:0:0:
432,200,55224,1,8,0:0:0:0:
444,204,55308,1,8,0:0:0:0:
456,208,55391,2,0,P|480:248|480:304,1,95,8|0,0:0|0:0,0:0:0:0:
323,283,55724,6,0,P|264:312|208:320,1,95,12|0,0:0|0:0,0:0:0:0:
72,288,56058,1,0,0:0:0:0:
76,144,56224,1,8,0:0:0:0:
184,48,56391,2,0,P|136:24|80:24,1,95
304,104,56724,2,0,P|348:136|396:148,1,95,8|0,0:0|0:0,0:0:0:0:
400,320,57058,6,8,L|400:236,1,76
400,72,57391,1,8,0:0:0:0:
400,244,57558,1,0,0:0:0:0:
252,48,57891,2,8,L|252:132,1,76,4|8,0:0|0:0,0:0:0:0:
252,212,58224,1,0,0:0:0:0:
44,196,58391,5,0,0:0:0:0:
120,304,58558,1,0,0:0:0:0:
16,312,58724,1,8,0:0:0:0:
156,188,58891,1,0,0:0:0:0:
144,48,59058,2,0,L|88:24,2,47.5
240,96,59391,1,8,0:0:0:0:
360,112,59558,1,0,0:0:0:0:
392,264,59724,6,0,L|296:280,1,95
208,352,60058,2,0,P|184:300|184:248,1,95,8|0,0:0|0:0,0:0:0:0:
216,88,60391,2,0,P|240:140|240:192,1,95
48,312,60724,1,8,0:0:0:0:
138,163,60891,1,0,0:0:0:0:
152,168,60974,1,0,0:0:0:0:
166,170,61058,6,0,P|214:178|262:166,1,95
392,104,61391,2,0,P|332:96|288:112,1,95,8|0,0:0|0:0,0:0:0:0:
180,212,61724,1,0,0:0:0:0:
144,320,61891,1,0,0:0:0:0:
368,320,62058,1,8,0:0:0:0:
332,212,62224,1,0,0:0:0:0:
252,108,62391,6,0,L|252:8,2,95,0|0|8,0:0|0:0|0:0,0:0:0:0:
252,200,62891,1,0,0:0:0:0:
160,320,63058,2,0,P|144:268|108:232,1,95
32,120,63391,1,8,0:0:0:0:
32,104,63474,1,8,0:0:0:0:
32,88,63558,1,8,0:0:0:0:
32,72,63641,1,8,0:0:0:0:
32,56,63724,6,0,P|76:36|132:32,1,95,8|0,0:0|0:0,0:0:0:0:
264,56,64058,1,8,0:0:0:0:
112,136,64224,1,0,0:0:0:0:
344,176,64391,2,0,P|300:156|244:152,1,95,8|0,0:0|0:0,0:0:0:0:
416,136,64724,1,8,0:0:0:0:
184,240,64891,2,0,P|224:248|288:224,1,95
380,224,65224,5,0,0:0:0:0:
211,154,65391,1,8,0:0:0:0:
360,48,65558,1,0,0:0:0:0:
224,32,65724,2,0,L|120:24,1,95
32,88,66058,2,0,P|70:125|124:124,1,95,8|0,0:0|0:0,0:0:0:0:
256,272,66391,6,0,P|204:296|140:288,1,95
256,92,66724,2,0,P|312:64|352:68,1,95,8|0,0:0|0:0,0:0:0:0:
112,240,67058,2,0,P|84:188|88:136,1,95
404,120,67391,2,0,P|432:172|428:224,1,95,8|0,0:0|0:0,0:0:0:0:
284,276,67724,5,0,0:0:0:0:
132,328,67891,1,0,0:0:0:0:
194,148,68058,1,8,0:0:0:0:
202,276,68224,1,8,0:0:0:0:
140,96,68391,1,0,0:0:0:0:
292,148,68558,1,0,0:0:0:0:
464,208,68724,2,0,P|456:260|464:312,1,95,8|0,0:0|0:0,0:0:0:0:
292,148,69058,5,0,0:0:0:0:
208,192,69224,1,0,0:0:0:0:
284,240,69391,1,8,0:0:0:0:
212,108,69558,1,0,0:0:0:0:
360,200,69724,1,0,0:0:0:0:
208,272,69891,1,8,0:0:0:0:
336,76,70058,1,8,0:0:0:0:
164,336,70224,2,8,L|60:336,1,95
56,176,70558,6,8,L|24:132,2,47.5
140,68,70891,2,8,L|140:16,2,47.5
192,184,71224,1,0,0:0:0:0:
292,292,71391,2,0,P|312:248|316:192,1,95,8|0,0:0|0:0,0:0:0:0:
216,60,71724,5,0,0:0:0:0:
236,154,71891,1,0,0:0:0:0:
320,200,72058,1,8,0:0:0:0:
415,193,72224,1,0,0:0:0:0:
327,124,72391,1,0,0:0:0:0:
236,154,72557,1,8,0:0:0:0:
177,229,72724,1,8,0:0:0:0:
195,324,72891,1,0,0:0:0:0:
301,229,73058,6,0,L|357:229,1,47.5
384,52,73224,2,0,L|316:52,1,47.5
177,229,73391,2,0,L|233:229,1,47.5,8|0,0:0|0:0,0:0:0:0:
260,52,73557,2,0,L|192:52,1,47.5
88,120,73724,5,8,0:0:0:0:
128,156,73808,1,8,0:0:0:0:
152,204,73891,1,8,0:0:0:0:
164,256,73974,1,8,0:0:0:0:
172,308,74058,1,8,0:0:0:0:
184,256,74141,1,8,0:0:0:0:
196,204,74224,1,8,0:0:0:0:
212,152,74308,1,8,0:0:0:0:
248,112,74391,5,4,0:0:0:0:
328,2,74558,1,0,0:0:0:0:
325,137,74724,1,8,0:0:0:0:
248,31,74891,1,0,0:0:0:0:
372,71,75058,1,0,0:0:0:0:
248,112,75224,1,0,0:0:0:0:
280,204,75391,2,0,P|329:217|396:188,1,95,8|0,0:0|0:0,0:0:0:0:
372,71,75724,5,0,0:0:0:0:
444,244,75891,1,0,0:0:0:0:
268,288,76058,2,0,P|220:276|172:240,1,95,8|0,0:0|0:0,0:0:0:0:
192,28,76391,2,0,P|248:48|284:80,1,95
128,108,76724,1,8,0:0:0:0:
112,96,76808,1,8,0:0:0:0:
96,84,76891,1,8,0:0:0:0:
80,72,76974,1,8,0:0:0:0:
64,60,77058,6,8,P|24:108|24:148,1,95
56,324,77391,2,0,P|84:280|84:232,1,95,8|0,0:0|0:0,0:0:0:0:
168,180,77724,1,0,0:0:0:0:
272,288,77891,1,0,0:0:0:0:
376,180,78058,1,8,0:0:0:0:
272,72,78224,1,0,0:0:0:0:
352,264,78391,6,0,L|460:264,1,95
192,88,78724,2,0,L|88:88,1,95,8|0,0:0|0:0,0:0:0:0:
24,240,78974,1,0,0:0:0:0:
24,256,79058,2,0,P|72:272|128:264,1,95
224,160,79391,1,8,0:0:0:0:
328,288,79558,1,0,0:0:0:0:
337,285,79641,1,0,0:0:0:0:
346,283,79724,6,0,L|440:248,1,95
372,88,80058,1,8,0:0:0:0:
248,46,80224,1,0,0:0:0:0:
32,88,80391,6,0,P|32:140|44:192,1,95
48,332,80724,1,8,0:0:0:0:
60,324,80808,1,0,0:0:0:0:
72,316,80891,1,0,0:0:0:0:
252,268,81058,6,0,B|220:268|200:288|200:288|184:268|136:268,1,114
88,224,81391,6,0,P|140:196|184:204,1,95,8|0,0:0|0:0,0:0:0:0:
260,116,81724,6,0,B|292:116|312:96|312:96|328:116|376:116,1,114
424,160,82058,6,0,P|372:188|328:180,1,95,8|0,0:0|0:0,0:0:0:0:
256,256,82391,5,8,0:0:0:0:
412,288,82558,1,8,0:0:0:0:
256,244,82724,1,8,0:0:0:0:
256,232,82808,1,0,0:0:0:0:
256,220,82891,1,0,0:0:0:0:
256,132,83058,1,8,0:0:0:0:
112,196,83224,1,8,0:0:0:0:
256,120,83391,1,8,0:0:0:0:
256,108,83474,1,0,0:0:0:0:
256,96,83558,1,0,0:0:0:0:
384,32,83724,5,8,0:0:0:0:
256,340,83891,1,8,0:0:0:0:
132,32,84058,1,8,0:0:0:0:
256,340,84224,1,8,0:0:0:0:
116,188,84558,6,0,L|208:188,1,76,0|8,0:0|0:0,0:0:0:0:
316,188,84891,1,0,0:0:0:0:
216,52,85058,6,0,P|152:64|92:56,1,95
0,144,85391,2,0,P|64:156|124:148,1,95,8|0,0:0|0:0,0:0:0:0:
160,252,85724,1,0,0:0:0:0:
228,332,85891,1,0,0:0:0:0:
328,320,86058,1,8,0:0:0:0:
436,196,86224,6,0,P|384:208|356:240,1,95
424,344,86558,2,0,P|476:332|504:300,1,95,0|8,0:0|0:0,0:0:0:0:
456,64,86891,2,0,P|404:76|376:108,1,95
320,176,87224,1,0,0:0:0:0:
200,80,87391,1,8,0:0:0:0:
80,184,87558,1,0,0:0:0:0:
80,204,87641,1,0,0:0:0:0:
80,224,87724,6,0,P|132:236|184:220,1,95
280,152,88058,2,0,P|304:212|292:248,1,95,8|0,0:0|0:0,0:0:0:0:
408,344,88391,1,0,0:0:0:0:
472,272,88558,1,0,0:0:0:0:
312,320,88724,1,8,0:0:0:0:
428,184,88891,6,0,P|384:160|328:168,1,95
144,208,89224,2,0,P|196:232|256:224,1,95,0|8,0:0|0:0,0:0:0:0:
248,144,89558,1,0,0:0:0:0:
160,56,89724,1,0,0:0:0:0:
276,32,89891,2,0,P|352:44|392:36,1,95,0|8,0:0|0:0,0:0:0:0:
392,40,90141,1,0,0:0:0:0:
408,40,90224,1,0,0:0:0:0:
432,144,90391,6,0,L|384:240,1,95
240,256,90724,1,8,0:0:0:0:
88,192,90891,1,0,0:0:0:0:
208,144,91058,1,0,0:0:0:0:
136,272,91224,1,0,0:0:0:0:
288,184,91391,1,8,0:0:0:0:
80,88,91558,1,0,0:0:0:0:
96,96,91641,1,0,0:0:0:0:
112,100,91724,6,0,P|168:116|224:96,1,95
340,40,92058,1,8,0:0:0:0:
236,36,92224,1,0,0:0:0:0:
288,116,92391,2,0,P|312:160|320:220,1,95
264,328,92724,1,8,0:0:0:0:
296,320,92808,1,8,0:0:0:0:
328,312,92891,1,8,0:0:0:0:
360,304,92974,1,8,0:0:0:0:
392,296,93058,6,8,L|392:184,1,95
164,116,93391,2,0,L|164:220,1,95,8|0,0:0|0:0,0:0:0:0:
288,116,93724,1,0,0:0:0:0:
136,40,93891,1,0,0:0:0:0:
304,116,94058,1,8,0:0:0:0:
208,280,94224,1,0,0:0:0:0:
48,212,94391,2,0,P|92:252|144:260,1,95
386,260,94724,2,0,P|431:245|464:212,1,95,8|0,0:0|0:0,0:0:0:0:
384,48,95058,5,8,0:0:0:0:
344,72,95141,1,8,0:0:0:0:
296,72,95224,1,8,0:0:0:0:
256,48,95308,1,8,0:0:0:0:
216,72,95391,1,8,0:0:0:0:
168,72,95474,1,8,0:0:0:0:
128,48,95558,1,8,0:0:0:0:
21,253,95724,5,0,0:0:0:0:
98,147,95891,1,0,0:0:0:0:
98,278,96058,1,8,0:0:0:0:
21,172,96224,1,0,0:0:0:0:
145,212,96391,1,0,0:0:0:0:
32,328,96558,1,0,0:0:0:0:
98,147,96724,1,8,0:0:0:0:
172,344,96891,6,0,P|228:356|284:324,1,95
249,102,97224,2,0,P|209:138|205:190,1,95,0|8,0:0|0:0,0:0:0:0:
444,296,97558,2,0,P|420:236|372:212,1,95
288,248,97891,1,0,0:0:0:0:
444,72,98058,1,8,0:0:0:0:
288,248,98224,1,0,0:0:0:0:
288,232,98308,1,0,0:0:0:0:
288,216,98391,6,0,L|287:111,1,95,8|0,0:0|0:0,0:0:0:0:
288,20,98724,1,8,0:0:0:0:
196,184,98891,1,0,0:0:0:0:
116,36,99058,2,0,L|12:28,1,95
128,144,99391,1,8,0:0:0:0:
64,272,99558,2,0,B|112:264|112:264|168:272,2,95,0|4|0,0:0|0:0|0:0,0:0:0:0:
0,344,100058,1,8,0:0:0:0:
168,268,100224,1,0,0:0:0:0:
136,128,100391,5,0,0:0:0:0:
136,128,100474,1,0,0:0:0:0:
136,128,100558,2,0,P|168:72|204:52,1,95,0|8,0:0|0:0,0:0:0:0:
308,36,100891,1,0,0:0:0:0:
452,252,101058,2,0,P|468:188|376:104,1,190
328,208,101558,1,0,0:0:0:0:
445,350,101724,2,0,P|400:337|368:304,1,95
400,192,102058,1,8,0:0:0:0:
252,296,102224,1,0,0:0:0:0:
68,212,102391,6,0,B|84:168|84:168|148:148,1,95
220,148,102724,1,8,0:0:0:0:
112,328,102891,1,0,0:0:0:0:
220,148,103058,2,0,B|268:164|268:164|292:208,1,95
288,288,103391,1,8,0:0:0:0:
340,80,103558,1,0,0:0:0:0:
288,288,103724,2,0,B|260:332|260:332|204:344,1,95
56,280,104058,5,0,0:0:0:0:
136,336,104224,1,8,0:0:0:0:
92,108,104391,1,0,0:0:0:0:
44,184,104558,1,0,0:0:0:0:
268,72,104724,2,0,P|200:96|168:88,1,95,8|0,0:0|0:0,0:0:0:0:
56,32,105058,5,8,0:0:0:0:
184,200,105224,1,8,0:0:0:0:
343,41,105391,1,8,0:0:0:0:
184,200,105558,1,8,0:0:0:0:
268,52,105891,6,0,L|352:40,1,76,8|8,0:0|0:0,0:0:0:0:
244,140,106224,1,0,0:0:0:0:
84,304,106391,6,0,P|44:264|40:208,1,95
120,88,106724,1,8,0:0:0:0:
56,156,106891,1,0,0:0:0:0:
216,76,107058,1,0,0:0:0:0:
120,88,107224,1,0,0:0:0:0:
304,36,107391,2,0,L|404:36,1,95,8|0,0:0|0:0,0:0:0:0:
496,200,107641,1,0,0:0:0:0:
480,192,107724,6,0,P|432:176|384:176,1,95
392,312,108058,1,8,0:0:0:0:
304,176,108224,1,0,0:0:0:0:
240,312,108391,2,0,P|184:320|128:308,1,95
312,312,108724,1,8,0:0:0:0:
108,224,108891,1,0,0:0:0:0:
96,216,108974,1,0,0:0:0:0:
84,208,109058,6,0,P|56:152|64:108,1,95
112,40,109391,1,8,0:0:0:0:
216,32,109558,1,0,0:0:0:0:
308,180,109724,2,0,P|264:156|240:108,1,95
216,32,110058,1,8,0:0:0:0:
320,68,110224,1,0,0:0:0:0:
396,156,110391,2,0,P|384:224|348:260,1,95
264,316,110724,5,8,0:0:0:0:
264,316,110808,1,0,0:0:0:0:
264,316,110891,2,0,P|220:288|200:232,1,95
208,136,111224,1,0,0:0:0:0:
84,48,111391,2,0,L|148:48,1,47.5,8|0,0:0|0:0,0:0:0:0:
76,152,111558,2,0,L|20:152,1,47.5
96,240,111724,6,0,P|164:320|256:308,1,190
316,172,112224,1,0,0:0:0:0:
320,312,112391,2,0,P|304:264|256:236,1,95
188,240,112724,2,0,P|204:192|252:160,1,95,8|0,0:0|0:0,0:0:0:0:
344,84,113058,6,0,P|392:52|440:48,1,95
392,176,113391,1,8,0:0:0:0:
280,168,113558,1,0,0:0:0:0:
236,64,113724,2,0,P|192:88|172:144,1,95
208,228,114058,1,8,0:0:0:0:
72,264,114224,1,0,0:0:0:0:
48,124,114391,1,0,0:0:0:0:
128,180,114558,1,0,0:0:0:0:
164,44,114724,1,8,0:0:0:0:
300,84,114891,1,0,0:0:0:0:
244,184,115058,6,0,L|292:272,1,95
468,356,115391,2,0,L|416:264,1,95,8|0,0:0|0:0,0:0:0:0:
372,148,115724,1,0,0:0:0:0:
408,32,115891,1,0,0:0:0:0:
104,32,116058,1,8,0:0:0:0:
140,148,116224,1,0,0:0:0:0:
212,232,116391,6,0,L|168:268,1,47.5
256,356,116558,2,0,L|256:300,1,47.5
292,228,116724,2,0,L|344:268,1,47.5,8|0,0:0|0:0,0:0:0:0:
276,152,116891,2,0,L|200:152,1,47.5
144,160,117058,6,0,P|156:112|192:76,1,95
300,24,117391,1,8,0:0:0:0:
73,24,117558,1,0,0:0:0:0:
186,79,117724,1,0,0:0:0:0:
300,24,117891,1,0,0:0:0:0:
414,79,118058,2,0,L|414:179,1,95,8|0,0:0|0:0,0:0:0:0:
396,328,118391,5,0,0:0:0:0:
260,360,118558,1,0,0:0:0:0:
96,188,118724,1,8,0:0:0:0:
232,156,118891,1,0,0:0:0:0:
481,216,119058,5,8,0:0:0:0:
434,256,119141,1,8,0:0:0:0:
379,283,119224,1,8,0:0:0:0:
318,296,119308,1,8,0:0:0:0:
256,301,119391,1,8,0:0:0:0:
194,296,119474,1,8,0:0:0:0:
133,283,119557,1,8,0:0:0:0:
76,256,119641,1,8,0:0:0:0:
29,216,119724,2,0,L|25:105,1,95,8|0,0:0|0:0,0:0:0:0:
112,35,120058,5,8,0:0:0:0:
279,60,120224,1,0,0:0:0:0:
344,216,120391,2,0,P|392:184|456:192,1,95
280,128,120724,1,8,0:0:0:0:
416,264,120891,1,0,0:0:0:0:
208,193,121058,2,0,P|168:241|168:281,1,95
328,340,121391,6,0,P|284:308|264:248,1,95,8|0,0:0|0:0,0:0:0:0:
208,193,121724,1,0,0:0:0:0:
216,368,121891,1,0,0:0:0:0:
360,257,122058,2,0,L|266:272,1,95,8|0,0:0|0:0,0:0:0:0:
56,296,122391,5,0,0:0:0:0:
8,176,122558,1,0,0:0:0:0:
112,64,122724,2,0,L|20:108,1,95,8|0,0:0|0:0,0:0:0:0:
192,148,123058,2,0,L|288:180,1,95
432,212,123391,1,8,0:0:0:0:
261,254,123558,1,0,0:0:0:0:
465,81,123724,6,0,P|429:50|384:40,1,95
276,96,124058,2,0,P|228:100|176:88,1,95,8|0,0:0|0:0,0:0:0:0:
36,88,124391,2,0,P|64:56|124:40,1,95
280,24,124724,1,0,0:0:0:0:
225,213,124891,1,0,0:0:0:0:
234,221,124974,1,0,0:0:0:0:
244,228,125058,6,0,L|336:296,1,95
400,108,125391,2,0,L|320:44,1,95,8|0,0:0|0:0,0:0:0:0:
140,160,125724,2,0,P|196:128|216:84,1,95
396,200,126058,2,0,P|348:232|328:284,1,95,8|0,0:0|0:0,0:0:0:0:
484,320,126391,5,0,0:0:0:0:
396,200,126558,1,0,0:0:0:0:
396,52,126724,2,0,L|296:52,1,95,8|0,0:0|0:0,0:0:0:0:
176,48,127058,1,0,0:0:0:0:
156,260,127224,1,0,0:0:0:0:
232,156,127391,1,8,0:0:0:0:
352,156,127558,1,0,0:0:0:0:
368,156,127641,1,0,0:0:0:0:
384,156,127724,6,0,B|424:192|412:260,1,95
308,304,128058,1,8,0:0:0:0:
488,216,128224,1,0,0:0:0:0:
300,308,128391,2,0,P|252:324|200:300,1,95
84,240,128724,1,0,0:0:0:0:
256,133,128891,6,0,B|228:149|208:181|208:181|240:181|288:189|288:189|272:217|236:233|236:233|252:245|252:245|260:265|260:265|252:281|252:281|256:293|256:293|256:341,1,332.5
256,336,130391,6,0,P|308:352|372:344,1,95
256,236,130724,2,0,P|204:252|140:244,1,95,8|0,0:0|0:0,0:0:0:0:
80,176,131058,1,0,0:0:0:0:
132,36,131224,1,0,0:0:0:0:
16,88,131391,1,8,0:0:0:0:
216,88,131558,1,0,0:0:0:0:
344,48,131724,6,0,P|372:96|380:144,1,95
356,224,132058,1,8,0:0:0:0:
460,84,132224,1,0,0:0:0:0:
472,200,132391,1,8,0:0:0:0:
368,340,132557,1,0,0:0:0:0:
200,228,132724,2,0,P|200:280|212:328,1,95,8|0,0:0|0:0,0:0:0:0:
368,128,133058,6,0,P|332:96|272:84,1,95
128,144,133391,2,0,P|176:136|224:104,1,95,8|0,0:0|0:0,0:0:0:0:
287,83,133724,1,0,0:0:0:0:
136,24,133891,1,0,0:0:0:0:
220,28,134058,1,8,0:0:0:0:
64,64,134224,1,0,0:0:0:0:
168,248,134391,5,0,0:0:0:0:
168,104,134558,1,0,0:0:0:0:
80,176,134724,1,8,0:0:0:0:
252,176,134891,1,0,0:0:0:0:
232,352,135058,1,8,0:0:0:0:
264,352,135141,1,8,0:0:0:0:
296,352,135224,1,8,0:0:0:0:
328,352,135308,1,8,0:0:0:0:
360,352,135391,2,0,L|472:352,1,95,12|0,0:0|0:0,0:0:0:0:
372,232,135724,6,0,L|272:232,1,95,4|0,0:0|0:0,0:0:0:0:
172,232,136058,1,8,0:0:0:0:
344,140,136224,1,0,0:0:0:0:
176,56,136391,2,0,P|132:72|112:136,1,95
100,224,136724,1,8,0:0:0:0:
220,304,136891,1,0,0:0:0:0:
232,312,136974,1,0,0:0:0:0:
243,321,137058,6,0,P|289:342|334:341,1,95
453,261,137391,2,0,P|469:205|452:146,1,95,8|0,0:0|0:0,0:0:0:0:
384,76,137724,2,0,P|340:94|293:91,1,95
136,232,138058,2,0,P|179:213|226:216,1,95,8|0,0:0|0:0,0:0:0:0:
244,300,138391,5,0,0:0:0:0:
124,132,138558,1,0,0:0:0:0:
226,216,138724,2,0,P|282:232|326:232,1,95,8|0,0:0|0:0,0:0:0:0:
400,232,139058,1,0,0:0:0:0:
276,156,139224,1,0,0:0:0:0:
56,224,139391,1,0,0:0:0:0:
184,296,139558,1,8,0:0:0:0:
428,146,139724,6,0,L|456:108,1,47.5,8|0,0:0|0:0,0:0:0:0:
412,24,139891,2,0,L|380:68,1,47.5,8|0,0:0|0:0,0:0:0:0:
316,158,140058,2,0,L|344:120,1,47.5,8|0,0:0|0:0,0:0:0:0:
320,12,140224,2,0,L|288:56,1,47.5,8|0,0:0|0:0,0:0:0:0:
320,12,140558,6,0,L|260:92,1,95,8|0,0:0|0:0,0:0:0:0:
164,184,140891,1,0,0:0:0:0:
64,64,141058,6,0,P|124:92|144:136,1,95
264,312,141391,2,0,P|208:272|196:228,1,95,8|0,0:0|0:0,0:0:0:0:
326,90,141724,1,0,0:0:0:0:
262,208,141891,1,0,0:0:0:0:
354,181,142058,1,8,0:0:0:0:
235,118,142224,1,0,0:0:0:0:
332,280,142391,5,0,0:0:0:0:
428,116,142558,1,0,0:0:0:0:
164,192,142724,1,8,0:0:0:0:
260,28,142891,1,0,0:0:0:0:
40,108,143058,5,0,0:0:0:0:
28,111,143141,1,0,0:0:0:0:
16,115,143224,1,0,0:0:0:0:
48,240,143391,2,0,P|96:268|152:268,1,95,8|0,0:0|0:0,0:0:0:0:
238,151,143724,6,0,P|274:107|342:107,1,95
400,206,144058,2,0,P|344:198|312:166,1,95,8|0,0:0|0:0,0:0:0:0:
364,42,144391,2,0,P|388:106|372:146,1,95
296,280,144724,1,8,0:0:0:0:
448,132,144891,1,0,0:0:0:0:
296,280,145058,2,0,L|192:280,1,95
216,176,145391,5,8,0:0:0:0:
244,28,145558,1,0,0:0:0:0:
320,236,145724,1,0,0:0:0:0:
84,172,145891,1,8,0:0:0:0:
244,28,146058,1,8,0:0:0:0:
121,306,146391,6,0,P|164:287|196:252,1,95
315,132,146724,2,0,P|347:96|390:77,1,95,8|0,0:0|0:0,0:0:0:0:
390,306,147058,2,0,P|347:287|315:251,1,95,8|0,0:0|0:0,0:0:0:0:
196,132,147391,2,0,P|164:96|121:77,1,95
192,212,147724,5,0,0:0:0:0:
281,117,147891,1,0,0:0:0:0:
324,240,148058,1,8,0:0:0:0:
196,120,148224,1,0,0:0:0:0:
220,304,148391,1,0,0:0:0:0:
256,64,148558,1,0,0:0:0:0:
332,240,148724,1,8,0:0:0:0:
180,324,148891,1,0,0:0:0:0:
360,352,149058,5,0,0:0:0:0:
376,344,149141,1,0,0:0:0:0:
392,336,149224,1,0,0:0:0:0:
480,280,149391,1,8,0:0:0:0:
256,352,149558,1,0,0:0:0:0:
160,352,149724,1,0,0:0:0:0:
144,344,149807,1,0,0:0:0:0:
128,336,149890,1,0,0:0:0:0:
194,169,150058,6,0,B|264:212|328:168,1,142.500005435944,8|0,0:0|0:0,0:0:0:0:
264,32,150391,6,0,L|340:4,1,47.5,8|0,0:0|0:0,0:0:0:0:
176,100,150558,2,0,L|104:124,1,47.5,8|0,0:0|0:0,0:0:0:0:
284,108,150724,2,0,L|356:84,1,47.5,8|0,0:0|0:0,0:0:0:0:
140,32,150891,2,0,L|68:52,1,47.5,8|0,0:0|0:0,0:0:0:0:
0,88,151058,1,0,0:0:0:0:
8,236,151224,1,0,0:0:0:0:
144,176,151391,1,8,0:0:0:0:
160,176,151474,1,0,0:0:0:0:
176,176,151558,1,0,0:0:0:0:
320,44,151724,5,0,0:0:0:0:
468,132,151891,1,0,0:0:0:0:
332,216,152058,2,0,L|236:216,1,95,8|0,0:0|0:0,0:0:0:0:
132,216,152391,1,0,0:0:0:0:
256,344,152558,1,0,0:0:0:0:
424,280,152724,1,8,0:0:0:0:
388,160,152891,1,0,0:0:0:0:
388,146,152974,1,0,0:0:0:0:
388,132,153058,6,0,P|356:92|312:68,1,95
124,132,153391,2,0,P|156:92|200:68,1,95,8|0,0:0|0:0,0:0:0:0:
197,199,153724,1,0,0:0:0:0:
320,72,153891,1,0,0:0:0:0:
192,72,154058,1,8,0:0:0:0:
323,199,154224,1,0,0:0:0:0:
408,308,154391,6,0,P|400:252|408:208,1,95
108,56,154724,2,0,P|115:103|110:150,1,95,8|0,0:0|0:0,0:0:0:0:
126,260,155058,1,0,0:0:0:0:
177,356,155224,1,0,0:0:0:0:
273,305,155391,1,8,0:0:0:0:
222,208,155558,1,0,0:0:0:0:
408,224,155724,6,0,L|352:208,1,47.5
448,148,155891,2,0,L|492:164,1,47.5
456,72,156058,2,0,L|352:36,1,95,8|0,0:0|0:0,0:0:0:0:
256,32,156391,1,0,0:0:0:0:
208,172,156558,1,0,0:0:0:0:
104,24,156724,1,8,0:0:0:0:
48,144,156891,1,8,0:0:0:0:
48,156,156974,1,8,0:0:0:0:
48,168,157058,6,0,P|29:215|40:280,1,95,12|0,0:0|0:0,0:0:0:0:
192,352,157391,2,0,P|208:304|188:240,1,95,8|0,0:0|0:0,0:0:0:0:
208,80,157724,1,0,0:0:0:0:
308,236,157891,1,0,0:0:0:0:
208,80,158058,6,0,L|88:68,1,95,8|0,0:0|0:0,0:0:0:0:
284,88,158391,1,0,0:0:0:0:
408,240,158558,1,0,0:0:0:0:
352,28,158724,1,8,0:0:0:0:
208,240,158891,1,0,0:0:0:0:
76,240,159058,5,8,0:0:0:0:
76,208,159141,1,8,0:0:0:0:
88,180,159224,1,8,0:0:0:0:
112,160,159308,1,8,0:0:0:0:
148,152,159391,2,0,L|208:168,1,47.5,8|0,0:0|0:0,0:0:0:0:
256,68,159558,2,0,L|196:88,1,47.5
264,144,159724,6,0,L|368:144,1,95
448,96,160058,1,8,0:0:0:0:
456,232,160224,1,0,0:0:0:0:
360,328,160391,2,0,P|408:352|464:352,1,95
168,280,160724,2,0,P|120:256|64:256,1,95,8|0,0:0|0:0,0:0:0:0:
260,336,161058,5,8,0:0:0:0:
400,64,161224,1,8,0:0:0:0:
112,64,161391,1,8,0:0:0:0:
260,336,161558,1,8,0:0:0:0:
260,336,161891,6,8,L|260:252,1,76,0|8,0:0|0:0,0:0:0:0:
260,172,162224,1,0,0:0:0:0:
468,188,162391,5,0,0:0:0:0:
392,80,162558,1,0,0:0:0:0:
496,72,162724,1,8,0:0:0:0:
356,196,162891,1,0,0:0:0:0:
368,336,163058,2,0,P|416:352|468:348,1,95
272,288,163391,1,8,0:0:0:0:
428,256,163558,1,0,0:0:0:0:
344,40,163724,5,0,0:0:0:0:
240,112,163891,1,0,0:0:0:0:
112,108,164058,2,0,P|136:160|136:212,1,95,8|0,0:0|0:0,0:0:0:0:
272,288,164391,2,0,P|248:248|244:192,1,95
368,152,164724,1,8,0:0:0:0:
368,168,164808,1,8,0:0:0:0:
364,184,164891,1,8,0:0:0:0:
356,200,164974,1,8,0:0:0:0:
344,212,165058,6,0,P|296:204|248:216,1,95,8|0,0:0|0:0,0:0:0:0:
120,280,165391,2,0,P|180:288|224:272,1,95,8|0,0:0|0:0,0:0:0:0:
180,172,165724,1,0,0:0:0:0:
144,64,165891,1,0,0:0:0:0:
368,64,166058,1,8,0:0:0:0:
332,172,166224,1,0,0:0:0:0:
260,276,166391,6,0,L|260:376,2,95,0|0|8,0:0|0:0|0:0,0:0:0:0:
260,184,166891,1,0,0:0:0:0:
280,48,167058,2,0,P|296:100|332:136,1,95
436,184,167391,1,8,0:0:0:0:
452,184,167474,1,0,0:0:0:0:
464,184,167558,1,0,0:0:0:0:
480,328,167724,6,0,P|432:308|352:236,1,142.5
328,212,168058,1,8,0:0:0:0:
256,304,168224,1,0,0:0:0:0:
176,221,168391,2,0,L|75:232,1,95
256,152,168724,1,8,0:0:0:0:
72,112,168891,2,0,L|173:101,1,95
16,48,169224,5,0,0:0:0:0:
256,152,169391,1,8,0:0:0:0:
176,296,169558,1,0,0:0:0:0:
344,344,169724,2,0,B|392:368|456:336,1,95
387,253,170058,2,0,L|294:230,1,95
140,140,170391,6,0,L|235:140,1,95
443,52,170724,2,0,L|348:52,1,95,8|0,0:0|0:0,0:0:0:0:
277,244,171058,6,0,L|372:244,1,95
172,332,171391,2,0,L|77:332,1,95,8|0,0:0|0:0,0:0:0:0:
167,185,171724,5,0,0:0:0:0:
277,244,171891,1,0,0:0:0:0:
172,332,172058,1,8,0:0:0:0:
308,136,172224,1,0,0:0:0:0:
192,40,172391,1,0,0:0:0:0:
176,40,172474,1,0,0:0:0:0:
160,40,172558,1,0,0:0:0:0:
48,176,172724,2,0,P|56:124|48:72,1,95,8|0,0:0|0:0,0:0:0:0:
195,89,173058,5,0,0:0:0:0:
324,172,173224,1,0,0:0:0:0:
324,326,173391,1,8,0:0:0:0:
233,201,173558,1,0,0:0:0:0:
379,249,173724,1,0,0:0:0:0:
233,296,173891,1,0,0:0:0:0:
324,172,174058,1,8,0:0:0:0:
256,368,174224,1,0,0:0:0:0:
360,64,174391,5,4,0:0:0:0:
456,208,174558,2,8,L|488:252,2,47.5
372,316,174891,2,8,L|372:368,2,47.5
302,200,175224,1,0,0:0:0:0:
216,96,175391,2,0,P|144:100|108:92,1,95
322,127,175724,5,0,0:0:0:0:
200,248,175891,1,0,0:0:0:0:
360,276,176058,1,8,0:0:0:0:
160,92,176224,1,0,0:0:0:0:
388,60,176391,1,0,0:0:0:0:
140,324,176558,1,0,0:0:0:0:
428,336,176724,1,8,0:0:0:0:
92,48,176891,1,0,0:0:0:0:
240,92,177058,6,0,L|192:92,1,47.5
272,172,177224,2,0,L|319:172,1,47.5
240,256,177391,2,0,L|192:256,1,47.5,8|0,0:0|0:0,0:0:0:0:
272,336,177557,2,0,L|319:336,1,47.5
416,336,177724,5,8,0:0:0:0:
416,336,177808,1,8,0:0:0:0:
416,336,177891,1,8,0:0:0:0:
416,336,177974,1,8,0:0:0:0:
416,336,178058,2,8,P|452:288|456:248,1,95,8|0,0:0|0:0,0:0:0:0:
457,124,178391,5,0,0:0:0:0:
456,254,178558,1,0,0:0:0:0:
380,148,178724,1,8,0:0:0:0:
504,189,178891,1,0,0:0:0:0:
380,229,179058,1,0,0:0:0:0:
280,120,179224,1,0,0:0:0:0:
232,208,179391,2,0,P|180:208|128:192,1,95,8|0,0:0|0:0,0:0:0:0:
16,80,179724,5,0,0:0:0:0:
144,44,179891,1,0,0:0:0:0:
248,128,180058,2,0,P|296:140|344:176,1,95,8|0,0:0|0:0,0:0:0:0:
320,356,180391,2,0,P|264:336|228:304,1,95
380,276,180724,1,8,0:0:0:0:
400,288,180808,1,8,0:0:0:0:
416,300,180891,1,8,0:0:0:0:
432,312,180974,1,8,0:0:0:0:
448,320,181058,6,8,P|488:272|488:232,1,95
456,60,181391,2,0,P|428:104|428:152,1,95,8|0,0:0|0:0,0:0:0:0:
344,204,181724,1,0,0:0:0:0:
240,96,181891,1,0,0:0:0:0:
124,200,182058,1,8,0:0:0:0:
232,316,182224,1,0,0:0:0:0:
160,120,182391,6,0,L|52:120,1,95
320,296,182724,2,0,L|424:296,1,95,8|0,0:0|0:0,0:0:0:0:
472,104,182974,1,0,0:0:0:0:
456,104,183058,2,0,L|360:104,1,95
248,40,183391,1,8,0:0:0:0:
152,152,183558,1,0,0:0:0:0:
136,152,183641,1,0,0:0:0:0:
120,152,183724,6,0,L|24:152,1,95
192,256,184058,1,8,0:0:0:0:
344,184,184224,1,0,0:0:0:0:
503,328,184391,6,0,P|503:276|491:224,1,95
479,80,184724,1,8,0:0:0:0:
445,84,184808,1,0,0:0:0:0:
411,88,184891,1,0,0:0:0:0:
252,148,185058,6,0,B|380:148,1,114
380,156,185391,6,0,L|284:156,1,95,8|0,0:0|0:0,0:0:0:0:
256,256,185724,6,0,B|136:256,1,114
128,264,186058,6,0,L|228:264,1,95,8|0,0:0|0:0,0:0:0:0:
344,112,186391,5,8,0:0:0:0:
164,180,186558,1,8,0:0:0:0:
356,112,186724,1,8,0:0:0:0:
368,112,186808,1,0,0:0:0:0:
380,112,186891,1,0,0:0:0:0:
164,180,187058,1,8,0:0:0:0:
344,112,187224,1,8,0:0:0:0:
152,180,187391,1,8,0:0:0:0:
140,180,187474,1,0,0:0:0:0:
128,180,187558,1,0,0:0:0:0:
44,324,187724,5,8,0:0:0:0:
232,56,187891,1,8,0:0:0:0:
8,112,188058,1,8,0:0:0:0:
296,332,188224,1,8,0:0:0:0:
396,196,188558,6,0,L|304:196,1,76,0|8,0:0|0:0,0:0:0:0:
196,196,188891,1,0,0:0:0:0:
296,332,189058,6,0,P|360:320|420:328,1,95
488,256,189391,2,0,P|424:244|364:252,1,95
348,148,189724,1,0,0:0:0:0:
288,64,189891,1,0,0:0:0:0:
185,64,190058,1,8,0:0:0:0:
77,189,190224,6,0,P|123:181|156:148,1,95
0,176,190558,2,0,P|8:232|48:264,1,95,0|8,0:0|0:0,0:0:0:0:
56,328,190891,2,0,P|100:296|108:248,1,95
192,208,191224,1,0,0:0:0:0:
312,304,191391,1,8,0:0:0:0:
432,200,191558,1,0,0:0:0:0:
428,184,191641,1,0,0:0:0:0:
424,168,191724,6,0,P|372:168|324:212,1,95
231,340,192058,2,0,P|263:340|319:284,1,95,8|0,0:0|0:0,0:0:0:0:
252,160,192391,1,0,0:0:0:0:
240,24,192558,1,0,0:0:0:0:
104,40,192724,1,8,0:0:0:0:
84,200,192891,6,0,P|128:224|184:216,1,95
368,176,193224,2,0,P|316:152|256:160,1,95,0|8,0:0|0:0,0:0:0:0:
264,240,193558,1,0,0:0:0:0:
352,328,193724,1,0,0:0:0:0:
236,352,193891,1,0,0:0:0:0:
140,296,194058,2,0,L|172:240,1,47.5,8|0,0:0|0:0,0:0:0:0:
64,100,194224,2,0,L|36:156,1,47.5
80,240,194391,6,0,L|128:144,1,95
184,80,194724,1,8,0:0:0:0:
304,156,194891,1,0,0:0:0:0:
188,196,195058,1,0,0:0:0:0:
304,40,195224,1,0,0:0:0:0:
400,104,195391,2,0,P|448:112|496:104,1,95,8|0,0:0|0:0,0:0:0:0:
400,272,195641,1,0,0:0:0:0:
400,284,195724,6,0,P|344:268|288:288,1,95
172,344,196058,1,8,0:0:0:0:
276,348,196224,1,0,0:0:0:0:
224,268,196391,2,0,P|200:224|192:164,1,95
248,56,196724,1,8,0:0:0:0:
216,64,196808,1,8,0:0:0:0:
184,72,196891,1,8,0:0:0:0:
152,80,196974,1,8,0:0:0:0:
120,88,197058,6,8,L|120:200,1,95
348,268,197391,2,0,L|348:164,1,95,8|0,0:0|0:0,0:0:0:0:
224,268,197724,1,0,0:0:0:0:
392,336,197891,1,0,0:0:0:0:
224,256,198058,1,8,0:0:0:0:
392,344,198224,1,0,0:0:0:0:
464,216,198391,2,0,P|420:176|368:168,1,95
126,168,198724,2,0,P|81:183|48:216,1,95,8|0,0:0|0:0,0:0:0:0:
132,280,199058,5,8,0:0:0:0:
172,244,199141,1,8,0:0:0:0:
224,244,199224,1,8,0:0:0:0:
264,280,199308,1,8,0:0:0:0:
308,312,199391,1,8,0:0:0:0:
360,312,199474,1,8,0:0:0:0:
404,280,199558,1,8,0:0:0:0:
336,136,199724,5,0,0:0:0:0:
466,129,199891,1,0,0:0:0:0:
336,136,200058,1,8,0:0:0:0:
446,208,200224,1,0,0:0:0:0:
399,85,200391,1,0,0:0:0:0:
365,212,200558,1,0,0:0:0:0:
466,129,200724,1,8,0:0:0:0:
344,40,200891,6,0,P|288:28|232:60,1,95
252,236,201224,2,0,P|292:200|296:148,1,95,0|8,0:0|0:0,0:0:0:0:
136,60,201558,2,0,P|160:120|208:144,1,95
352,218,201891,5,0,0:0:0:0:
183,136,202058,1,0,0:0:0:0:
212,328,202224,1,0,0:0:0:0:
212,328,202308,1,0,0:0:0:0:
212,328,202391,1,0,0:0:0:0:
304,364,202558,5,0,0:0:0:0:
348,276,202724,1,8,0:0:0:0:
252,236,202891,1,0,0:0:0:0:
164,108,203058,1,0,0:0:0:0:
260,148,203225,1,0,0:0:0:0:
244,44,203391,2,0,L|304:24,1,47.5,8|0,0:0|0:0,0:0:0:0:
376,36,203558,2,0,L|432:20,1,47.5
448,112,203724,6,0,B|400:120|400:120|344:112,1,95
289,28,204058,1,8,0:0:0:0:
212,188,204224,1,0,0:0:0:0:
376,256,204391,5,8,0:0:0:0:
376,256,204474,1,8,0:0:0:0:
376,256,204558,2,0,P|344:312|308:332,1,95,8|8,0:0|0:0,0:0:0:0:
204,348,204891,1,0,0:0:0:0:
58,132,205058,2,0,B|20:180|24:228|24:228|48:268|132:288,1,190,0|8,0:0|0:0,0:0:0:0:
168,184,205558,1,0,0:0:0:0:
54,33,205724,2,0,P|100:40|136:72,1,95
168,184,206058,1,8,0:0:0:0:
288,64,206224,1,0,0:0:0:0:
444,172,206391,6,0,P|428:212|364:236,1,95
472,100,206724,1,8,0:0:0:0:
384,236,206891,1,0,0:0:0:0:
292,236,207058,2,0,B|240:232|220:176,1,95
384,236,207391,1,8,0:0:0:0:
221,180,207558,1,0,0:0:0:0:
220,100,207724,2,0,B|236:44|304:44,1,95
376,48,208058,5,8,0:0:0:0:
468,200,208224,1,0,0:0:0:0:
456,104,208391,1,0,0:0:0:0:
420,276,208558,1,0,0:0:0:0:
243,312,208724,2,0,P|285:290|332:291,1,95,8|0,0:0|0:0,0:0:0:0:
389,358,209058,5,8,0:0:0:0:
256,112,209224,1,8,0:0:0:0:
123,358,209391,1,8,0:0:0:0:
256,192,209558,1,8,0:0:0:0:
256,192,209891,6,0,L|180:192,1,76,8|8,0:0|0:0,0:0:0:0:
336,192,210224,1,0,0:0:0:0:
424,72,210391,6,0,P|464:112|468:168,1,95
392,296,210724,1,8,0:0:0:0:
456,228,210891,1,0,0:0:0:0:
296,308,211058,1,0,0:0:0:0:
392,296,211224,1,0,0:0:0:0:
208,348,211391,2,0,L|108:348,1,95,8|0,0:0|0:0,0:0:0:0:
0,184,211641,1,0,0:0:0:0:
8,192,211724,6,0,P|48:216|96:216,1,95
96,72,212058,1,8,0:0:0:0:
184,208,212224,1,0,0:0:0:0:
272,72,212391,2,0,P|328:64|384:76,1,95
204,40,212724,1,8,0:0:0:0:
404,152,212891,5,0,0:0:0:0:
416,164,212974,1,0,0:0:0:0:
428,176,213058,2,0,P|456:232|448:276,1,95
400,344,213391,1,8,0:0:0:0:
296,352,213558,1,0,0:0:0:0:
204,204,213724,2,0,P|248:228|272:276,1,95
296,352,214058,1,8,0:0:0:0:
192,316,214224,1,0,0:0:0:0:
116,228,214391,2,0,P|128:160|164:124,1,95
248,68,214724,5,8,0:0:0:0:
248,68,214808,1,8,0:0:0:0:
248,68,214891,2,0,P|292:96|312:152,1,95,8|0,0:0|0:0,0:0:0:0:
304,248,215224,1,0,0:0:0:0:
428,336,215391,2,8,L|364:336,1,47.5,8|0,0:0|0:0,0:0:0:0:
436,232,215558,2,8,L|492:232,1,47.5
416,144,215724,6,0,B|408:104|408:104|372:60|312:60|312:60|256:80,1,190,8|8,0:0|0:0,0:0:0:0:
324,144,216224,1,0,0:0:0:0:
212,116,216391,2,0,P|222:165|267:198,1,95
409,225,216724,2,0,P|359:237|309:213,1,95,8|0,0:0|0:0,0:0:0:0:
168,300,217058,6,0,P|120:332|72:336,1,95
120,208,217391,1,8,0:0:0:0:
232,216,217558,1,0,0:0:0:0:
276,320,217724,2,0,P|320:296|340:240,1,95
304,156,218058,1,8,0:0:0:0:
497,250,218224,1,0,0:0:0:0:
304,156,218391,5,0,0:0:0:0:
448,106,218558,1,0,0:0:0:0:
497,250,218725,1,0,0:0:0:0:
354,300,218891,1,0,0:0:0:0:
248,244,219058,2,0,L|200:156,1,95
24,72,219391,2,0,L|76:164,1,95,8|0,0:0|0:0,0:0:0:0:
140,236,219724,5,0,0:0:0:0:
104,352,219891,1,0,0:0:0:0:
408,352,220058,1,8,0:0:0:0:
372,236,220224,1,0,0:0:0:0:
300,152,220391,6,0,L|352:116,1,47.5
208,156,220558,2,0,L|160:196,1,47.5
232,68,220724,2,0,L|276:32,1,47.5,8|0,0:0|0:0,0:0:0:0:
136,60,220891,2,0,L|92:92,1,47.5
32,180,221058,2,0,L|92:264,1,95
218,257,221391,1,8,0:0:0:0:
87,257,221558,1,0,0:0:0:0:
154,369,221724,1,0,0:0:0:0:
154,115,221891,1,0,0:0:0:0:
154,369,222058,2,0,L|254:369,1,95,12|0,0:0|0:0,0:0:0:0:
349,148,222391,5,0,0:0:0:0:
302,8,222558,1,0,0:0:0:0:
162,53,222724,1,8,0:0:0:0:
208,194,222891,1,0,0:0:0:0:
30,198,223058,5,8,0:0:0:0:
77,158,223141,1,8,0:0:0:0:
132,131,223224,1,8,0:0:0:0:
193,118,223308,1,8,0:0:0:0:
255,113,223391,1,8,0:0:0:0:
317,118,223474,1,8,0:0:0:0:
378,131,223557,1,8,0:0:0:0:
435,158,223641,1,8,0:0:0:0:
482,198,223724,6,0,L|486:309,2,95,8|0|8,0:0|0:0|0:0,0:0:0:0:
474,39,224224,1,0,0:0:0:0:
317,66,224391,2,0,L|217:90,2,95,8|0|8,0:0|0:0|0:0,0:0:0:0:
116,268,225058,5,4,0:0:0:0:
152,90,225391,1,4,0:0:0:0:
284,216,225724,1,4,0:0:0:0:
182,189,226058,1,0,0:0:0:0:
296,60,226391,6,0,P|348:92|400:88,1,95,8|0,0:0|0:0,0:0:0:0:
456,192,226724,2,0,P|420:240|408:292,1,95,8|0,0:0|0:0,0:0:0:0:
356,348,227058,1,8,0:0:0:0:
144,264,227391,1,8,0:0:0:0:
148,40,227724,6,0,L|100:40,2,47.5,4|0|4,0:0|0:0|0:0,0:0:0:0:
248,40,228058,2,0,P|296:64|320:112,1,95,8|0,0:0|0:0,0:0:0:0:
332,180,228391,2,0,P|380:156|408:96,1,95,8|0,0:0|0:0,0:0:0:0:
416,32,228724,1,8,0:0:0:0:
468,184,228891,1,8,0:0:0:0:
476,216,228974,1,8,0:0:0:0:
484,248,229058,6,0,P|464:292|428:332,1,95,8|0,0:0|0:0,0:0:0:0:
244,256,229391,2,0,L|348:284,1,95,8|0,0:0|0:0,0:0:0:0:
160,184,229724,2,0,P|129:219|109:263,1,95,8|0,0:0|0:0,0:0:0:0:
84,104,230058,1,0,0:0:0:0:
232,40,230224,1,8,0:0:0:0:
260,48,230308,1,8,0:0:0:0:
288,56,230391,6,0,P|328:88|380:100,1,95,8|0,0:0|0:0,0:0:0:0:
472,140,230724,2,0,P|472:200|448:248,1,95,8|0,0:0|0:0,0:0:0:0:
384,296,231058,1,8,0:0:0:0:
276,312,231224,1,0,0:0:0:0:
172,280,231391,2,0,B|152:308|152:308|120:256|128:204,1,142.5,8|0,0:0|0:0,0:0:0:0:
84,144,231724,6,0,B|128:120|172:144|172:144|288:128,1,190,4|8,0:0|0:0,0:0:0:0:
296,124,232141,1,0,0:0:0:0:
323,118,232224,1,0,0:0:0:0:
444,32,232391,2,0,P|472:76|472:128,1,95
472,280,232641,1,0,0:0:0:0:
468,297,232724,2,0,P|422:287|376:296,1,95
208,208,233058,1,0,0:0:0:0:
200,200,233141,1,0,0:0:0:0:
192,192,233224,2,0,B|192:152|192:152|140:196|152:304,1,190,4|0,0:0|0:0,0:0:0:0:
56,352,233724,5,8,0:0:0:0:
16,288,233836,1,8,0:0:0:0:
44,216,233947,1,8,0:0:0:0:
60,92,234058,5,8,0:0:0:0:
136,100,234169,1,8,0:0:0:0:
152,176,234280,1,8,0:0:0:0:
192,248,234391,6,0,B|256:260|256:260|328:244,2,123.499994346619,8|0|8,0:0|0:0|0:0,0:0:0:0:
40,292,234891,1,0,0:0:0:0:
69,299,234974,1,0,0:0:0:0:
98,307,235058,2,0,L|190:330,1,95
316,248,235391,1,8,0:0:0:0:
436,348,235558,1,8,0:0:0:0:
436,348,235641,1,8,0:0:0:0:
436,348,235724,6,0,P|472:288|476:248,1,95,8|0,0:0|0:0,0:0:0:0:
460,100,236058,1,8,0:0:0:0:
388,272,236224,1,0,0:0:0:0:
264,104,236391,2,0,L|160:104,1,95
216,272,236724,2,0,L|324:272,1,95,8|0,0:0|0:0,0:0:0:0:
472,88,236974,1,0,0:0:0:0:
472,72,237058,6,0,P|408:64|376:80,1,95
392,256,237391,2,0,P|430:204|433:168,1,95,8|0,0:0|0:0,0:0:0:0:
272,96,237724,2,0,P|297:155|326:175,1,95
184,272,238058,1,8,0:0:0:0:
112,80,238224,1,0,0:0:0:0:
128,78,238308,1,0,0:0:0:0:
144,76,238391,6,0,L|241:66,1,95
452,32,238724,1,8,0:0:0:0:
452,32,238807,1,8,0:0:0:0:
452,32,238891,2,0,B|396:20|348:32|348:32|404:88|404:88|392:152|426:210|426:210|356:296,1,380,8|0,0:0|0:0,0:0:0:0:
280,344,239724,5,8,0:0:0:0:
328,192,239890,1,0,0:0:0:0:
300,192,239974,1,0,0:0:0:0:
272,192,240057,2,0,L|176:192,1,95
88,104,240390,5,8,0:0:0:0:
200,40,240557,1,0,0:0:0:0:
252,296,240724,5,0,0:0:0:0:
177,192,240890,1,0,0:0:0:0:
412,156,241057,5,8,0:0:0:0:
487,260,241223,1,0,0:0:0:0:
252,296,241390,5,0,0:0:0:0:
364,232,241557,1,0,0:0:0:0:
180,116,241724,1,8,0:0:0:0:
497,171,241891,2,0,B|504:206|504:206|488:230|488:230|504:254|504:254|480:274|480:274|468:310|423:325|423:325|392:282|320:262|320:262|384:216,1,380
428,156,242724,6,0,L|384:132,1,47.5
292,44,242891,2,0,L|336:20,1,47.5,8|0,0:0|0:0,0:0:0:0:
276,156,243058,2,0,L|232:132,1,47.5
140,44,243224,2,0,L|184:20,1,47.5,8|0,0:0|0:0,0:0:0:0:
132,148,243391,2,0,L|88:172,1,47.5,8|0,0:0|0:0,0:0:0:0:
84,292,243558,2,0,L|128:268,1,47.5,8|0,0:0|0:0,0:0:0:0:
232,196,243724,6,0,L|164:196,1,47.5
152,348,243890,2,0,L|200:348,1,47.5
352,196,244057,2,0,L|284:196,1,47.5,8|0,0:0|0:0,0:0:0:0:
272,348,244224,2,0,L|319:348,1,47.5
472,196,244390,2,0,L|404:196,1,47.5
392,348,244557,2,0,L|439:348,1,47.5
512,312,244724,1,8,0:0:0:0:
504,288,244807,1,8,0:0:0:0:
496,264,244890,1,8,0:0:0:0:
488,240,244974,1,8,0:0:0:0:
472,196,245057,5,8,0:0:0:0:
184,340,245279,1,8,0:0:0:0:
112,28,245501,1,8,0:0:0:0:
256,328,245723,5,8,0:0:0:0:
276,260,245835,1,8,0:0:0:0:
256,188,245946,1,8,0:0:0:0:
276,124,246057,1,8,0:0:0:0:
256,56,246168,1,8,0:0:0:0:
372,87,246390,5,0,0:0:0:0:
496,127,246557,1,0,0:0:0:0:
372,168,246723,1,8,0:0:0:0:
449,62,246890,1,0,0:0:0:0:
449,193,247057,1,0,0:0:0:0:
449,62,247223,1,0,0:0:0:0:
449,193,247391,2,0,L|360:289,1,95,8|0,0:0|0:0,0:0:0:0:
255,359,247724,5,0,0:0:0:0:
290,201,247891,1,0,0:0:0:0:
144,132,248058,2,0,P|112:160|100:216,1,95,8|0,0:0|0:0,0:0:0:0:
248,144,248391,2,0,P|288:108|280:32,1,95
132,276,248724,1,8,0:0:0:0:
112,288,248808,1,8,0:0:0:0:
96,300,248891,1,8,0:0:0:0:
80,312,248974,1,8,0:0:0:0:
64,320,249058,6,8,P|24:272|24:232,1,95
56,60,249391,2,0,P|84:104|84:152,1,95,8|0,0:0|0:0,0:0:0:0:
168,204,249724,1,0,0:0:0:0:
272,96,249891,1,0,0:0:0:0:
388,200,250058,1,8,0:0:0:0:
280,316,250224,1,0,0:0:0:0:
352,120,250391,6,0,L|460:120,1,95,4|0,0:0|0:0,0:0:0:0:
192,296,250725,2,0,L|88:296,1,95,12|0,0:0|0:0,0:0:0:0:
32,88,250975,1,0,0:0:0:0:
48,72,251058,2,0,P|96:48|144:48,1,95
104,192,251391,1,8,0:0:0:0:
264,96,251558,1,0,0:0:0:0:
264,112,251641,1,0,0:0:0:0:
263,128,251725,6,0,P|232:184|192:216,1,95
104,296,252057,1,0,0:0:0:0:
304,208,252224,1,8,0:0:0:0:
88,296,252391,2,0,P|76:252|80:196,1,95
48,52,252724,1,8,0:0:0:0:
84,56,252807,1,0,0:0:0:0:
116,60,252890,1,0,0:0:0:0:
232,156,253058,6,0,B|200:152|180:136|180:136|156:156|100:160,1,114
60,188,253391,6,0,P|104:228|152:224,1,95,8|0,0:0|0:0,0:0:0:0:
204,292,253724,6,0,B|236:296|256:312|256:312|280:292|336:288,1,114
376,260,254058,6,0,P|332:220|280:224,1,95,8|0,0:0|0:0,0:0:0:0:
376,260,254391,5,8,0:0:0:0:
184,248,254558,1,8,0:0:0:0:
312,80,254724,1,8,0:0:0:0:
316,92,254808,1,0,0:0:0:0:
320,104,254891,1,0,0:0:0:0:
264,280,255058,1,8,0:0:0:0:
444,216,255224,1,8,0:0:0:0:
312,80,255391,1,8,0:0:0:0:
309,92,255475,1,0,0:0:0:0:
306,104,255558,1,0,0:0:0:0:
220,32,255724,5,8,0:0:0:0:
296,304,255891,1,8,0:0:0:0:
96,164,256058,1,8,0:0:0:0:
448,144,256224,1,8,0:0:0:0:
196,192,256558,6,0,L|288:192,1,76,0|8,0:0|0:0,0:0:0:0:
124,192,256891,1,0,0:0:0:0:
196,332,257058,6,0,P|233:342|289:342,1,95
397,238,257391,1,8,0:0:0:0:
384,232,257474,1,0,0:0:0:0:
370,225,257558,1,0,0:0:0:0:
205,161,257724,1,0,0:0:0:0:
312,84,257891,1,0,0:0:0:0:
112,68,258058,1,8,0:0:0:0:
205,161,258224,6,0,P|257:139|305:158,1,95
440,44,258558,2,0,P|432:100|392:132,1,95,0|8,0:0|0:0,0:0:0:0:
428,304,258891,2,0,P|383:269|375:218,1,95,0|8,0:0|0:0,0:0:0:0:
342,82,259224,1,0,0:0:0:0:
230,264,259391,5,8,0:0:0:0:
84,108,259558,1,0,0:0:0:0:
92,88,259641,1,0,0:0:0:0:
100,68,259724,2,0,L|204:68,1,95
264,192,260058,2,0,L|169:192,1,95,8|0,0:0|0:0,0:0:0:0:
312,64,260391,1,0,0:0:0:0:
472,112,260558,1,0,0:0:0:0:
408,40,260724,1,8,0:0:0:0:
428,200,260891,6,0,P|384:224|328:216,1,95
144,176,261224,2,0,P|196:152|256:160,1,95,0|8,0:0|0:0,0:0:0:0:
248,240,261558,1,0,0:0:0:0:
160,328,261724,1,0,0:0:0:0:
280,356,261891,1,0,0:0:0:0:
372,296,262058,2,0,L|340:240,1,47.5,8|0,0:0|0:0,0:0:0:0:
448,100,262224,2,0,L|476:156,1,47.5
432,240,262391,6,0,L|384:144,1,95
328,80,262725,1,0,0:0:0:0:
208,156,262891,1,0,0:0:0:0:
324,196,263058,1,8,0:0:0:0:
208,40,263224,1,0,0:0:0:0:
80,104,263391,2,0,P|40:120|-16:112,1,95
104,272,263641,1,0,0:0:0:0:
112,284,263724,6,0,P|168:268|224:288,1,95,8|0,0:0|0:0,0:0:0:0:
340,344,264058,1,8,0:0:0:0:
236,348,264224,1,0,0:0:0:0:
288,268,264391,2,0,P|312:224|320:164,1,95
264,56,264724,1,8,0:0:0:0:
296,64,264808,1,8,0:0:0:0:
328,72,264891,1,8,0:0:0:0:
360,80,264974,1,8,0:0:0:0:
392,88,265058,6,8,L|392:200,1,95
164,264,265391,2,0,L|164:160,1,95,8|0,0:0|0:0,0:0:0:0:
280,272,265724,1,0,0:0:0:0:
164,168,265891,1,0,0:0:0:0:
272,68,266058,1,8,0:0:0:0:
384,168,266224,1,0,0:0:0:0:
125,167,266391,2,0,P|80:182|48:216,1,95
385,167,266725,2,0,P|430:182|464:216,1,95,8|0,0:0|0:0,0:0:0:0:
460,328,267058,5,8,0:0:0:0:
418,305,267141,1,8,0:0:0:0:
372,292,267224,1,8,0:0:0:0:
325,287,267307,1,8,0:0:0:0:
278,293,267391,1,8,0:0:0:0:
233,307,267474,1,8,0:0:0:0:
191,330,267557,1,8,0:0:0:0:
64,352,267724,5,0,0:0:0:0:
25,203,267891,1,0,0:0:0:0:
172,156,268058,1,8,0:0:0:0:
25,203,268224,1,0,0:0:0:0:
116,79,268391,1,0,0:0:0:0:
116,232,268558,1,0,0:0:0:0:
25,108,268724,1,8,0:0:0:0:
212,56,268891,6,0,P|268:44|324:76,1,95
420,76,269224,2,0,P|396:136|348:160,1,95,0|8,0:0|0:0,0:0:0:0:
304,252,269558,2,0,P|264:216|260:164,1,95
420,76,269891,1,0,0:0:0:0:
424,248,270058,2,0,L|528:224,1,95,8|0,0:0|0:0,0:0:0:0:
424,328,270308,1,0,0:0:0:0:
424,344,270391,2,0,L|320:320,1,95
164,276,270724,5,8,0:0:0:0:
256,240,270891,1,0,0:0:0:0:
340,160,271058,2,0,L|400:184,1,47.5
468,121,271224,2,0,L|424:104,1,47.5
376,32,271391,2,0,B|328:24|328:24|272:32,1,95,8|0,0:0|0:0,0:0:0:0:
64,112,271724,2,0,B|112:120|112:120|168:112,1,95
208,40,272058,1,8,0:0:0:0:
300,184,272224,1,0,0:0:0:0:
136,256,272391,5,0,0:0:0:0:
136,256,272474,1,0,0:0:0:0:
136,256,272558,2,0,P|168:312|204:332,1,95,0|8,0:0|0:0,0:0:0:0:
308,348,272891,1,0,0:0:0:0:
400,276,273057,2,0,B|448:224|448:224|416:152|480:96,1,190
352,200,273558,1,0,0:0:0:0:
424,32,273724,2,0,P|388:64|364:120,1,95
352,200,274058,1,8,0:0:0:0:
224,64,274224,1,0,0:0:0:0:
68,172,274391,6,0,B|84:224|148:236,1,95
100,312,274724,1,8,0:0:0:0:
68,172,274891,1,0,0:0:0:0:
212,216,275058,2,0,B|248:188|252:124,1,95
324,140,275391,1,8,0:0:0:0:
212,216,275558,1,0,0:0:0:0:
184,84,275724,2,0,B|136:68|64:108,1,95
272,60,276058,5,8,0:0:0:0:
420,184,276224,1,0,0:0:0:0:
412,44,276391,1,0,0:0:0:0:
280,212,276558,1,0,0:0:0:0:
320,320,276724,2,0,P|264:328|220:304,1,95,8|0,0:0|0:0,0:0:0:0:
192,192,277058,5,0,0:0:0:0:
320,64,277224,1,0,0:0:0:0:
447,192,277391,1,0,0:0:0:0:
320,320,277558,1,0,0:0:0:0:
237,180,277891,6,0,L|313:180,1,76,8|8,0:0|0:0,0:0:0:0:
152,180,278224,1,0,0:0:0:0:
88,72,278391,6,0,P|48:112|44:168,1,95
132,316,278724,1,8,0:0:0:0:
52,240,278891,1,0,0:0:0:0:
224,136,279058,1,0,0:0:0:0:
292,212,279224,1,0,0:0:0:0:
296,304,279391,2,0,L|396:304,1,95,8|0,0:0|0:0,0:0:0:0:
488,208,279641,1,0,0:0:0:0:
488,192,279724,2,0,L|376:192,1,95
364,80,280058,5,8,0:0:0:0:
292,212,280224,1,0,0:0:0:0:
240,72,280391,2,0,P|184:64|128:84,1,95
364,80,280724,1,0,0:0:0:0:
108,160,280891,1,0,0:0:0:0:
96,168,280974,1,0,0:0:0:0:
84,176,281058,6,0,P|56:232|64:276,1,95
112,344,281391,1,8,0:0:0:0:
216,352,281558,1,0,0:0:0:0:
242,265,281724,2,0,P|266:225|308:204,1,95
396,228,282058,1,8,0:0:0:0:
240,152,282224,1,0,0:0:0:0:
396,228,282391,2,0,P|384:160|348:124,1,95
264,68,282724,5,8,0:0:0:0:
264,68,282808,1,0,0:0:0:0:
264,68,282891,2,0,P|220:96|200:152,1,95
208,248,283224,1,0,0:0:0:0:
84,336,283391,2,0,L|148:336,1,47.5,8|0,0:0|0:0,0:0:0:0:
76,232,283558,2,0,L|20:232,1,47.5
96,144,283724,6,0,B|108:104|108:104|164:104|200:60|200:60|256:80,1,190,0|8,0:0|0:0,0:0:0:0:
280,216,284224,1,0,0:0:0:0:
385,76,284391,2,0,P|369:124|321:152,1,95
127,76,284724,2,0,P|143:124|191:152,1,95,8|0,0:0|0:0,0:0:0:0:
344,300,285058,6,0,P|392:332|440:336,1,95
392,208,285391,1,8,0:0:0:0:
280,216,285558,1,0,0:0:0:0:
236,320,285724,2,0,P|192:296|172:240,1,95
208,156,286058,1,8,0:0:0:0:
48,260,286224,1,0,0:0:0:0:
208,156,286391,5,0,0:0:0:0:
72,120,286558,1,0,0:0:0:0:
180,288,286724,1,8,0:0:0:0:
48,260,286891,1,0,0:0:0:0:
264,244,287058,2,0,L|312:156,1,95
488,72,287391,2,0,L|436:164,1,95,8|0,0:0|0:0,0:0:0:0:
372,236,287724,5,0,0:0:0:0:
408,352,287891,1,0,0:0:0:0:
104,352,288057,1,8,0:0:0:0:
140,236,288223,1,0,0:0:0:0:
196,88,288391,2,8,L|128:88,1,47.5
268,216,288558,2,8,L|336:216,1,47.5
360,88,288724,2,8,L|300:88,1,47.5,8|8,0:0|0:0,0:0:0:0:
424,216,288891,2,8,L|480:216,1,47.5
504,308,289058,6,0,P|460:336|408:344,1,95,8|0,0:0|0:0,0:0:0:0:
236,348,289391,1,8,0:0:0:0:
376,216,289558,1,0,0:0:0:0:
192,164,289724,1,0,0:0:0:0:
268,248,289891,1,0,0:0:0:0:
376,56,290058,2,0,P|332:32|280:32,1,95,8|0,0:0|0:0,0:0:0:0:
192,88,290391,5,0,0:0:0:0:
152,248,290558,1,0,0:0:0:0:
312,284,290724,1,8,0:0:0:0:
352,124,290891,1,0,0:0:0:0:
488,48,291058,5,8,0:0:0:0:
480,88,291141,1,8,0:0:0:0:
444,112,291224,1,8,0:0:0:0:
404,96,291308,1,8,0:0:0:0:
376,64,291391,1,8,0:0:0:0:
380,108,291474,1,8,0:0:0:0:
356,144,291558,1,8,0:0:0:0:
312,144,291641,1,8,0:0:0:0:
288,108,291724,6,0,L|160:108,1,95,8|0,0:0|0:0,0:0:0:0:
288,260,292058,2,0,L|384:260,1,95,8|0,0:0|0:0,0:0:0:0:
260,28,292391,1,8,0:0:0:0:
156,152,292558,1,8,0:0:0:0:
360,152,292724,1,0,0:0:0:0:
260,28,292891,2,0,L|260:136,1,95,8|0,0:0|0:0,0:0:0:0:
260,244,293224,1,0,0:0:0:0:
344,336,293391,6,0,P|404:332|440:296,1,95,8|0,0:0|0:0,0:0:0:0:
424,104,293724,1,0,0:0:0:0:
492,208,293891,1,0,0:0:0:0:
308,252,294058,1,8,0:0:0:0:
260,276,294141,1,8,0:0:0:0:
208,280,294224,1,8,0:0:0:0:
156,276,294308,1,8,0:0:0:0:
116,244,294391,2,0,L|80:144,1,95,8|0,0:0|0:0,0:0:0:0:
24,44,294724,6,0,L|136:44,1,95,8|0,0:0|0:0,0:0:0:0:
221,194,295058,1,8,0:0:0:0:
119,44,295224,1,8,0:0:0:0:
0,224,295391,1,0,0:0:0:0:
112,324,295558,2,0,P|168:336|224:324,1,95,8|0,0:0|0:0,0:0:0:0:
28,336,295891,1,0,0:0:0:0:
288,312,296058,6,0,L|392:312,1,95,8|0,0:0|0:0,0:0:0:0:
472,356,296391,1,0,0:0:0:0:
500,204,296558,1,0,0:0:0:0:
428,64,296724,1,8,0:0:0:0:
380,40,296807,1,8,0:0:0:0:
328,32,296890,1,8,0:0:0:0:
276,44,296973,1,8,0:0:0:0:
232,72,297057,2,0,L|192:192,1,95,8|0,0:0|0:0,0:0:0:0:
304,288,297391,6,0,L|404:288,1,95,8|0,0:0|0:0,0:0:0:0:
208,292,297724,1,8,0:0:0:0:
36,328,297891,1,8,0:0:0:0:
80,168,298058,1,8,0:0:0:0:
208,292,298224,2,0,P|260:328|304:332,1,95,8|0,0:0|0:0,0:0:0:0:
316,184,298557,1,0,0:0:0:0:
136,208,298724,6,0,L|24:208,1,95,8|0,0:0|0:0,0:0:0:0:
16,68,299058,1,0,0:0:0:0:
180,132,299224,1,0,0:0:0:0:
348,24,299390,1,8,0:0:0:0:
388,56,299473,1,8,0:0:0:0:
408,104,299557,1,8,0:0:0:0:
416,156,299640,1,8,0:0:0:0:
400,204,299724,2,0,L|312:288,1,95,8|0,0:0|0:0,0:0:0:0:
48,208,300058,6,0,L|160:208,1,95,8|0,0:0|0:0,0:0:0:0:
264,56,300391,1,8,0:0:0:0:
268,276,300558,1,8,0:0:0:0:
76,172,300724,1,8,0:0:0:0:
264,56,300891,1,0,0:0:0:0:
363,276,301058,2,0,L|243:276,1,95,8|0,0:0|0:0,0:0:0:0:
453,276,301391,5,8,0:0:0:0:
336,148,301558,1,0,0:0:0:0:
363,276,301724,1,0,0:0:0:0:
472,148,301891,1,0,0:0:0:0:
288,64,302058,2,8,L|336:40,1,47.5
160,24,302224,2,8,L|104:56,1,47.5
68,136,302391,2,0,P|104:180|156:196,1,95
304,152,302723,5,8,0:0:0:0:
220,220,302891,2,0,P|180:260|116:268,1,95
52,256,303224,1,0,0:0:0:0:
252,352,303390,1,8,0:0:0:0:
408,216,303558,2,0,P|440:164|452:124,1,95
400,24,303891,1,0,0:0:0:0:
212,64,304057,5,8,0:0:0:0:
184,80,304141,1,0,0:0:0:0:
156,96,304224,1,0,0:0:0:0:
56,100,304391,1,0,0:0:0:0:
300,92,304558,1,0,0:0:0:0:
260,288,304724,2,0,P|264:232|296:184,1,95,8|0,0:0|0:0,0:0:0:0:
380,136,305058,1,0,0:0:0:0:
456,220,305224,1,0,0:0:0:0:
340,364,305391,5,8,0:0:0:0:
260,288,305558,2,0,L|184:216,1,95
124,132,305891,1,0,0:0:0:0:
188,56,306058,2,0,L|296:8,2,95,8|0|0,0:0|0:0|0:0,0:0:0:0:
356,48,306558,1,0,0:0:0:0:
396,136,306724,6,0,P|404:192|440:232,1,95,8|0,0:0|0:0,0:0:0:0:
492,300,307058,1,0,0:0:0:0:
340,336,307224,1,0,0:0:0:0:
160,296,307391,2,8,L|104:296,1,47.5
224,220,307558,2,8,L|284:220,1,47.5
156,152,307724,2,0,L|36:152,1,95,8|0,0:0|0:0,0:0:0:0:
304,40,308058,6,0,P|336:84|340:128,1,95,8|0,0:0|0:0,0:0:0:0:
244,116,308391,1,0,0:0:0:0:
248,296,308558,1,0,0:0:0:0:
340,123,308723,1,8,0:0:0:0:
392,220,308891,2,0,P|428:192|444:144,1,95
288,224,309224,1,0,0:0:0:0:
488,72,309390,5,8,0:0:0:0:
476,72,309474,1,0,0:0:0:0:
464,72,309558,1,0,0:0:0:0:
332,32,309724,1,8,0:0:0:0:
280,140,309891,1,8,0:0:0:0:
128,36,310058,2,8,L|80:68,1,47.5
92,156,310224,2,8,L|44:188,1,47.5
112,272,310391,2,0,L|220:280,1,95,8|0,0:0|0:0,0:0:0:0:
448,152,310724,6,0,L|328:140,1,95,8|0,0:0|0:0,0:0:0:0:
252,96,311058,1,0,0:0:0:0:
384,232,311224,1,0,0:0:0:0:
360,24,311391,1,8,0:0:0:0:
240,272,311558,1,4,0:0:0:0:
256,192,311724,12,0,317058,0:0:0:0:
