osu file format v14

[General]
AudioFilename: audio.mp3
AudioLeadIn: 0
PreviewTime: 50076
Countdown: 1
SampleSet: Soft
StackLeniency: 0.7
Mode: 0
LetterboxInBreaks: 0
WidescreenStoryboard: 0

[Editor]
DistanceSpacing: 0.9
BeatDivisor: 4
GridSize: 32
TimelineZoom: 1.9

[Metadata]
Title:Malchik hochet v Tambov
TitleUnicode:Malchik hochet v Tambov
Artist:Murat Nasirov
ArtistUnicode:Murat Nasirov
Creator:Twiggykun
Version:chiki chiki taaaaa
Source:
Tags:
BeatmapID:1719156
BeatmapSetID:820034

[Difficulty]
HPDrainRate:6
CircleSize:3.9
OverallDifficulty:8.9
ApproachRate:9.5
SliderMultiplier:2
SliderTickRate:1

[Events]
//Background and Video events
0,0,"Anime-Wallpaper-HD-5C.jpg",0,0
//Break Periods
//Storyboard Layer 0 (Background)
//Storyboard Layer 1 (Fail)
//Storyboard Layer 2 (Pass)
//Storyboard Layer 3 (Foreground)
//Storyboard Sound Samples

[TimingPoints]
224,294.117647058824,4,2,0,50,1,0
224,-133.333333333333,4,2,0,50,0,0
7282,-100,4,2,0,50,0,0
50206,294.117647058824,4,2,0,50,1,0

[HitObjects]
357,83,224,6,0,L|343:180,1,75.0000028610231
138,185,665,1,0,0:0:0:0:
74,294,812,2,8,L|241:305,1,150.000005722046
82,71,1400,2,0,L|167:79,1,75.0000028610231
223,268,1841,1,0,0:0:0:0:
355,246,1988,2,0,L|446:272,1,75.0000028610231
382,126,2282,2,0,L|281:147,1,75.0000028610231
98,106,2576,6,0,L|161:114,4,37.5000014305115
186,210,3018,1,0,0:0:0:0:
26,200,3165,2,0,L|89:208,6,37.5000014305115
123,291,3753,6,0,P|98:342|64:378,1,75.0000028610231
150,140,4047,1,0,0:0:0:0:
240,300,4194,1,0,0:0:0:0:
231,70,4341,1,0,0:0:0:0:
67,209,4488,1,0,0:0:0:0:
47,15,4635,1,0,0:0:0:0:
249,171,4782,1,0,0:0:0:0:
367,31,4929,6,0,L|391:117,1,75.0000028610231
425,212,5224,1,0,0:0:0:0:
299,335,5371,2,0,L|323:249,2,75.0000028610231
200,262,5812,2,0,L|176:180,1,75.0000028610231
104,65,6106,6,0,P|57:109|46:143,1,75.0000028610231
51,248,6400,1,0,0:0:0:0:
194,117,6547,2,0,P|207:65|200:27,2,75.0000028610231
267,200,6988,2,0,P|314:252|340:258,1,75.0000028610231
354,164,7282,5,0,0:0:0:0:
170,100,7576,6,0,L|57:128,1,100
280,62,7871,2,0,L|389:78,1,100
141,236,8164,6,0,L|28:264,1,100
352,209,8459,2,0,L|461:225,1,100
228,32,8753,2,0,L|241:170,1,100
284,352,9047,2,0,L|271:214,1,100
112,45,9341,2,0,L|79:234,1,150
53,280,9635,6,0,B|142:306|162:216|264:246,1,200
361,285,10076,1,0,0:0:0:0:
241,152,10224,1,0,0:0:0:0:
389,110,10371,1,0,0:0:0:0:
210,304,10518,5,0,0:0:0:0:
277,12,10665,1,0,0:0:0:0:
272,311,10812,5,0,0:0:0:0:
184,25,10959,1,0,0:0:0:0:
329,287,11106,5,0,0:0:0:0:
110,83,11253,1,0,0:0:0:0:
368,237,11400,5,0,0:0:0:0:
76,171,11547,1,0,0:0:0:0:
355,138,11694,6,0,P|418:151|456:289,1,200
393,340,12135,1,0,0:0:0:0:
296,292,12282,2,0,P|236:278|185:296,1,100
97,328,12576,2,0,P|97:245|126:194,1,100
208,39,12871,2,0,P|208:122|179:173,1,100
250,343,13165,2,0,P|250:260|279:209,1,100
361,54,13460,2,0,P|361:137|332:188,1,100
464,343,13753,2,0,P|431:295|424:252,1,100
467,153,14047,2,0,B|383:124|379:185|279:151,1,150
210,129,14341,6,0,P|139:117|41:201,1,200
138,346,14782,1,0,0:0:0:0:
152,222,14929,1,0,0:0:0:0:
276,315,15076,1,0,0:0:0:0:
207,128,15224,5,0,0:0:0:0:
365,347,15371,1,0,0:0:0:0:
317,71,15518,5,0,0:0:0:0:
94,257,15665,1,0,0:0:0:0:
365,233,15812,5,0,0:0:0:0:
185,16,15959,1,0,0:0:0:0:
208,322,16106,5,0,0:0:0:0:
440,144,16253,1,0,0:0:0:0:
178,193,16400,2,0,P|97:240|80:327,1,150
78,325,16694,6,0,P|54:255|16:206,1,100
125,47,16988,2,0,P|109:107|71:160,1,100
311,286,17282,2,0,P|227:238|185:239,1,100
423,214,17576,5,0,0:0:0:0:
240,134,17724,1,0,0:0:0:0:
432,79,17871,5,0,0:0:0:0:
206,215,18018,1,0,0:0:0:0:
409,329,18165,5,0,0:0:0:0:
376,123,18312,1,0,0:0:0:0:
197,314,18459,5,0,0:0:0:0:
434,225,18606,1,0,0:0:0:0:
208,65,18753,2,0,B|142:77|152:132|31:130,1,150
2,175,19047,6,0,P|45:209|121:196,1,100
247,160,19341,5,0,0:0:0:0:
143,353,19488,1,0,0:0:0:0:
279,74,19635,5,0,0:0:0:0:
349,332,19782,1,0,0:0:0:0:
127,126,19929,2,0,P|165:213|224:242,1,150
294,242,20224,6,0,L|399:228,1,100
179,52,20518,5,0,0:0:0:0:
429,142,20665,1,0,0:0:0:0:
93,223,20812,5,0,0:0:0:0:
308,92,20959,1,0,0:0:0:0:
309,347,21106,2,0,P|222:313|123:325,1,150
87,360,21400,6,0,P|75:296|177:227,1,200
284,247,21841,1,0,0:0:0:0:
246,134,21988,2,0,P|179:112|111:130,1,100
52,164,22282,1,0,0:0:0:0:
182,274,22429,1,0,0:0:0:0:
227,57,22576,5,0,0:0:0:0:
105,326,22724,1,0,0:0:0:0:
124,72,22871,5,0,0:0:0:0:
386,306,23018,1,0,0:0:0:0:
103,211,23165,5,0,0:0:0:0:
409,163,23312,1,0,0:0:0:0:
68,311,23459,2,0,P|23:274|15:161,1,150
45,117,23753,6,0,P|110:90|138:33,1,100
185,296,24047,5,0,0:0:0:0:
219,52,24194,1,0,0:0:0:0:
336,325,24341,5,0,0:0:0:0:
218,143,24488,1,0,0:0:0:0:
90,352,24635,2,0,P|78:283|124:205,1,150
137,121,24929,6,0,P|104:41|73:14,1,100
388,231,25224,5,0,0:0:0:0:
219,62,25371,1,0,0:0:0:0:
464,70,25518,5,0,0:0:0:0:
319,307,25665,1,0,0:0:0:0:
339,109,25812,2,0,L|348:4,1,100
178,182,26106,6,0,B|214:344|214:344|163:319,1,200
43,276,26547,1,0,0:0:0:0:
133,92,26694,2,0,P|218:89|279:186,1,200
283,295,27135,1,0,0:0:0:0:
387,178,27282,6,0,P|453:137|515:136,2,100
255,128,27724,1,0,0:0:0:0:
154,231,27871,2,0,P|102:266|41:273,1,100
161,124,28165,1,0,0:0:0:0:
250,191,28312,1,0,0:0:0:0:
64,166,28459,6,0,P|59:109|174:25,1,200
270,80,28900,1,0,0:0:0:0:
239,309,29047,2,0,L|131:326,1,100
30,261,29341,1,0,0:0:0:0:
146,201,29488,1,0,0:0:0:0:
335,340,29635,6,0,P|425:334|468:299,2,100
320,231,30076,1,0,0:0:0:0:
471,167,30224,2,0,P|486:113|470:61,1,100
280,66,30518,1,0,0:0:0:0:
392,114,30665,1,0,0:0:0:0:
244,164,30812,6,0,B|161:207|110:128|29:182,1,200
11,266,31253,1,0,0:0:0:0:
87,161,31400,2,0,P|127:115|137:51,1,100
170,233,31694,2,0,P|191:299|229:332,1,100
399,216,31988,6,0,L|280:226,2,100
511,204,32429,1,0,0:0:0:0:
371,113,32576,2,0,L|239:89,1,100
81,150,32871,2,0,L|195:136,1,100
195,287,33165,6,0,B|143:254|143:254|-8:271,1,200
121,352,33606,1,0,0:0:0:0:
253,166,33753,2,0,P|273:92|257:39,1,100
297,254,34047,1,0,0:0:0:0:
354,171,34194,1,0,0:0:0:0:
127,150,34341,6,0,P|58:172|25:210,2,100
235,164,34782,1,0,0:0:0:0:
97,310,34929,2,0,P|28:325|-17:314,1,100
203,260,35224,2,0,P|266:280|311:327,1,100
465,283,35518,6,0,P|388:260|329:156,1,200
333,49,35959,1,0,0:0:0:0:
440,134,36106,1,0,0:0:0:0:
252,227,36253,1,0,0:0:0:0:
350,137,36400,1,0,0:0:0:0:
380,276,36547,1,0,0:0:0:0:
169,306,36694,6,0,P|141:244|185:140,1,150
181,142,36988,2,0,P|217:87|217:45,1,100
55,70,37282,2,0,P|24:121|35:197,1,100
74,282,37576,1,0,0:0:0:0:
123,144,37724,1,0,0:0:0:0:
208,277,37871,6,0,P|273:317|376:318,1,150
427,316,38165,2,0,P|402:262|358:241,1,100
236,180,38459,2,0,P|202:132|201:70,1,100
298,97,38753,1,0,0:0:0:0:
278,266,38900,1,0,0:0:0:0:
111,156,39047,6,0,L|84:45,2,100
18,266,39488,1,0,0:0:0:0:
161,295,39635,2,0,L|278:320,1,100
423,206,39929,2,0,L|303:221,1,100
494,116,40224,6,0,B|399:61|386:136|268:88,1,200
196,57,40665,1,0,0:0:0:0:
262,198,40812,2,0,P|277:245|271:306,2,100
117,198,41253,1,0,0:0:0:0:
179,331,41400,6,0,P|235:364|352:343,1,150
349,341,41694,2,0,P|401:306|475:309,1,100
444,194,41988,2,0,P|411:136|382:120,1,100
262,122,42282,1,0,0:0:0:0:
348,214,42429,1,0,0:0:0:0:
201,75,42576,6,0,P|146:49|64:51,2,100
228,234,43018,1,0,0:0:0:0:
56,174,43165,2,0,P|14:138|4:85,1,100
134,227,43459,2,0,P|123:281|82:316,1,100
140,132,43753,6,0,P|192:113|278:153,1,150
294,173,44047,2,0,P|348:204|413:198,1,100
506,251,44341,2,0,P|483:310|446:343,1,100
449,66,44635,2,0,P|402:106|384:215,1,150
345,271,44929,6,0,P|304:236|290:186,1,100
262,77,45224,1,0,0:0:0:0:
208,239,45371,1,0,0:0:0:0:
124,112,45518,2,0,P|83:62|14:41,1,100
36,239,45812,2,0,L|68:342,1,100
207,130,46106,6,0,L|180:288,1,150
206,357,46400,2,0,P|252:323|264:262,1,100
309,125,46694,2,0,P|345:175|405:195,1,100
493,226,46988,1,0,0:0:0:0:
403,86,47135,1,0,0:0:0:0:
320,267,47282,6,0,P|280:308|200:322,2,100
279,168,47724,1,0,0:0:0:0:
114,233,47871,2,0,P|34:223|5:199,1,100
179,138,48165,2,0,P|227:73|262:60,1,100
228,241,48459,6,0,P|259:315|253:352,1,100
372,143,48753,1,0,0:0:0:0:
330,300,48900,1,0,0:0:0:0:
266,125,49047,2,0,P|293:65|426:49,1,200
201,227,49635,6,0,P|154:176|168:50,1,200
302,207,50206,6,0,P|293:281|251:321,1,100
275,117,50500,2,0,P|349:126|389:168,1,100
182,137,50794,2,0,P|191:63|233:23,1,100
209,227,51088,2,0,P|135:218|95:176,1,100
16,63,51382,6,0,P|30:134|13:186,1,100
108,269,51676,2,0,P|105:189|185:113,1,150
217,99,51970,2,0,B|299:85|323:160|420:134,1,200
379,40,52411,1,0,0:0:0:0:
316,226,52558,5,0,0:0:0:0:
202,60,52706,1,0,0:0:0:0:
242,325,52853,5,0,0:0:0:0:
278,63,53000,1,0,0:0:0:0:
323,344,53147,5,0,0:0:0:0:
123,72,53294,1,0,0:0:0:0:
160,342,53441,5,0,0:0:0:0:
217,18,53588,1,0,0:0:0:0:
68,304,53735,5,0,0:0:0:0:
212,101,53882,1,0,0:0:0:0:
237,293,54029,2,0,B|168:302|171:193|81:211,1,150
35,189,54323,2,0,P|6:129|109:66,1,200
194,97,54764,1,0,0:0:0:0:
245,252,54911,6,0,L|269:359,1,100
385,148,55206,2,0,L|361:255,1,100
103,152,55500,2,0,L|127:259,1,100
243,48,55795,2,0,L|219:155,1,100
414,119,56088,6,0,L|438:226,1,100
341,344,56382,2,0,L|304:178,1,150
326,112,56676,2,0,P|246:134|239:248,1,200
43,167,57117,1,0,0:0:0:0:
243,260,57264,5,0,0:0:0:0:
93,54,57411,1,0,0:0:0:0:
160,331,57558,5,0,0:0:0:0:
187,50,57706,1,0,0:0:0:0:
251,346,57853,5,0,0:0:0:0:
285,50,58000,1,0,0:0:0:0:
34,167,58147,5,0,0:0:0:0:
319,273,58294,1,0,0:0:0:0:
155,90,58441,5,0,0:0:0:0:
60,317,58588,1,0,0:0:0:0:
230,231,58735,2,0,B|274:155|320:198|375:112,1,150
400,65,59029,2,0,P|331:55|277:19,1,100
75,175,59323,2,0,P|144:165|198:129,1,100
317,309,59617,2,0,L|210:287,1,100
89,271,59911,1,0,0:0:0:0:
292,152,60058,1,0,0:0:0:0:
52,177,60206,5,0,0:0:0:0:
325,144,60353,1,0,0:0:0:0:
136,228,60500,5,0,0:0:0:0:
165,28,60647,1,0,0:0:0:0:
246,317,60794,5,0,0:0:0:0:
16,188,60941,1,0,0:0:0:0:
250,89,61088,2,0,P|318:63|416:67,1,150
435,80,61382,2,0,P|421:138|387:177,1,100
254,261,61676,5,0,0:0:0:0:
254,50,61823,1,0,0:0:0:0:
155,318,61970,5,0,0:0:0:0:
328,142,62117,1,0,0:0:0:0:
70,247,62264,2,0,P|111:166|102:85,1,150
44,58,62558,2,0,P|101:27|138:34,1,100
312,214,62853,5,0,0:0:0:0:
108,110,63000,1,0,0:0:0:0:
412,91,63147,5,0,0:0:0:0:
172,183,63294,1,0,0:0:0:0:
440,233,63441,2,0,P|410:301|310:346,1,150
251,353,63735,2,0,B|152:355|160:274|62:292,1,200
210,227,64176,1,0,0:0:0:0:
34,173,64323,2,0,P|103:131|99:16,1,200
22,75,64764,1,0,0:0:0:0:
210,114,64911,5,0,0:0:0:0:
65,264,65058,1,0,0:0:0:0:
197,38,65206,5,0,0:0:0:0:
287,314,65353,1,0,0:0:0:0:
265,67,65500,5,0,0:0:0:0:
162,328,65647,1,0,0:0:0:0:
332,33,65794,2,0,P|365:98|467:149,1,150
455,155,66088,2,0,P|493:189|496:268,1,100
212,167,66382,5,0,0:0:0:0:
409,227,66529,1,0,0:0:0:0:
184,282,66676,5,0,0:0:0:0:
327,81,66823,1,0,0:0:0:0:
112,177,66970,2,0,P|65:235|65:322,1,150
73,336,67264,2,0,L|191:329,1,100
349,314,67558,5,0,0:0:0:0:
218,215,67706,1,8,0:0:0:0:
486,175,67853,5,0,0:0:0:0:
245,204,68000,1,0,0:0:0:0:
435,70,68147,2,0,P|389:109|376:209,1,150
391,273,68441,2,0,P|349:319|285:326,1,100
182,275,68735,2,0,P|106:237|62:240,1,100
175,111,69029,6,0,P|219:79|295:69,1,100
438,195,69323,2,0,P|376:225|321:221,1,100
45,321,69617,2,0,B|149:332|149:332|169:329|169:329|267:341,1,200
243,338,70058,1,0,0:0:0:0:
139,164,70206,6,0,L|16:187,1,100
228,92,70500,2,0,L|344:108,1,100
