osu file format v14

[General]
AudioFilename: audio.mp3
AudioLeadIn: 0
PreviewTime: 60095
Countdown: 0
SampleSet: Soft
StackLeniency: 0.7
Mode: 0
LetterboxInBreaks: 0
WidescreenStoryboard: 1

[Editor]
Bookmarks: 9264,26407,43550,60693,86407,103550,120693,137835,161406,180692,206406,223549
DistanceSpacing: 1.1
BeatDivisor: 4
GridSize: 32
TimelineZoom: 2

[Metadata]
Title:Kizuna Hitotsu
TitleUnicode:キズナヒトツ
Artist:Murasame (CV: Satou Mikan)
ArtistUnicode:ムラサメ (CV: 佐藤みかん)
Creator:-Aqua
Version:frozz's Hard
Source:千恋*万花
Tags:綾 Aya ムラサメちゃん Murasame-chan A Single Bond Senren*Banka A Thousand Colors of Love ゆずソフト Yuzusoft エロゲー Eroge Visual Novel VN ギャルゲーム ギャルゲー Galgame NekoNyanSoft Character Song Vol.3 Volume Three Full Version ムラサメマル Murasamemaru ご主人 ごしゅじん Goshujin Master Husband Ghost 有地将臣 Arichi Masaomi 山本希望 Yamamoto Nozomi Colours Video Game Japanese Pop J-pop Jpop Senren*Banka Senren Banka frozz -Keqing
BeatmapID:3128005
BeatmapSetID:1392561

[Difficulty]
HPDrainRate:4.2
CircleSize:3.8
OverallDifficulty:6.6
ApproachRate:7.2
SliderMultiplier:2
SliderTickRate:1

[Events]
//Background and Video events
0,0,"murasame5.jpg",0,0
//Break Periods
//Storyboard Layer 0 (Background)
//Storyboard Layer 1 (Fail)
//Storyboard Layer 2 (Pass)
//Storyboard Layer 3 (Foreground)
//Storyboard Layer 4 (Overlay)
//Storyboard Sound Samples
Sample,227701,0,"murasameOyasumi.wav",100

[TimingPoints]
693,535.714285714286,4,2,1,45,1,0
9264,-100,4,2,1,70,0,0
12813,-100,4,2,1,5,0,0
13014,-100,4,2,1,70,0,0
13081,-100,4,2,1,5,0,0
13282,-100,4,2,1,70,0,0
16161,-100,4,2,1,5,0,0
16228,-100,4,2,1,70,0,0
16563,-100,4,2,1,5,0,0
16630,-100,4,2,1,70,0,0
21384,-100,4,2,1,5,0,0
21585,-100,4,2,1,70,0,0
21652,-100,4,2,1,5,0,0
21719,-100,4,2,1,70,0,0
23795,-100,4,2,1,5,0,0
23996,-100,4,2,1,70,0,0
25068,-125,4,2,1,70,0,0
26407,-166.666666666667,4,2,1,60,0,0
43483,-166.666666666667,4,2,1,5,0,0
43550,-200,4,2,1,50,0,0
52121,-142.857142857143,4,2,1,60,0,0
56407,-166.666666666667,4,2,1,70,0,0
56943,-142.857142857143,4,2,1,70,0,0
57478,-125,4,2,1,70,0,0
58014,-111.111111111111,4,2,1,70,0,0
58416,-111.111111111111,4,2,1,5,0,0
58550,-111.111111111111,4,2,1,70,0,0
59621,-111.111111111111,4,2,1,40,0,0
60157,-111.111111111111,4,2,1,60,0,0
60693,-90.9090909090909,4,2,1,85,0,0
75090,-90.9090909090909,4,2,1,5,0,0
75157,-90.9090909090909,4,2,1,85,0,0
82121,-125,4,2,1,85,0,0
84264,-125,4,2,1,60,0,0
84465,-125,4,2,1,5,0,0
84532,-125,4,2,1,60,0,0
84733,-125,4,2,1,5,0,0
84800,-125,4,2,1,60,0,0
85001,-125,4,2,1,5,0,0
85068,-125,4,2,1,60,0,0
85268,-125,4,2,1,5,0,0
85335,-125,4,2,1,60,0,0
86407,-100,4,2,1,70,0,0
89956,-100,4,2,1,5,0,0
90157,-100,4,2,1,70,0,0
90224,-100,4,2,1,5,0,0
90425,-100,4,2,1,70,0,0
93304,-100,4,2,1,5,0,0
93371,-100,4,2,1,70,0,0
93907,-100,4,2,1,70,0,0
98527,-100,4,2,1,5,0,0
98728,-100,4,2,1,70,0,0
98795,-100,4,2,1,5,0,0
98996,-100,4,2,1,70,0,0
100938,-100,4,2,1,5,0,0
101139,-100,4,2,1,70,0,0
102210,-125,4,2,1,70,0,0
103550,-166.666666666667,4,2,1,60,0,0
120693,-200,4,2,1,50,0,0
122266,535.714285714286,4,2,1,50,1,0
122266,-200,4,2,1,50,0,0
122835,535.714285714286,4,2,1,50,1,0
122835,-200,4,2,1,50,0,0
126183,535.714285714286,4,2,1,50,1,0
126183,-200,4,2,1,50,0,0
127120,535.714285714286,4,2,1,50,1,0
127120,-200,4,2,1,50,0,0
129264,535.714285714286,4,2,1,60,1,0
129264,-142.857142857143,4,2,1,60,0,0
133549,-166.666666666667,4,2,1,60,0,0
133550,-166.666666666667,4,2,1,70,0,0
134085,-142.857142857143,4,2,1,70,0,0
134621,-125,4,2,1,70,0,0
135156,-111.111111111111,4,2,1,70,0,0
135559,-111.111111111111,4,2,1,5,0,0
135693,-111.111111111111,4,2,1,70,0,0
136764,-111.111111111111,4,2,1,40,0,0
137300,-111.111111111111,4,2,1,60,0,0
137835,-86.9565217391304,4,2,1,85,0,0
152233,-86.9565217391304,4,2,1,5,0,0
152300,-86.9565217391304,4,2,1,85,0,0
159264,-125,4,2,1,85,0,0
161406,-100,4,2,1,65,0,0
162478,-125,4,2,1,65,0,0
165692,-100,4,2,1,65,0,0
166764,-125,4,2,1,65,0,0
169442,-166.666666666667,4,2,1,65,0,0
169978,-100,4,2,1,80,0,0
176072,-100,4,2,1,5,0,0
176139,-100,4,2,1,60,0,0
177210,-125,4,2,1,60,0,0
180692,-83.3333333333333,4,2,1,85,0,0
195090,-83.3333333333333,4,2,1,5,0,0
195157,-83.3333333333333,4,2,1,85,0,0
202121,-125,4,2,1,85,0,0
202657,-125,4,2,1,55,0,0
202858,-125,4,2,1,5,0,0
202925,-125,4,2,1,55,0,0
203193,-125,4,2,1,70,0,0
203393,-125,4,2,1,5,0,0
203460,-125,4,2,1,70,0,0
203728,-125,4,2,1,85,0,0
203929,-125,4,2,1,5,0,0
203996,-125,4,2,1,85,0,0
204264,-125,4,2,1,60,0,0
204465,-125,4,2,1,5,0,0
204532,-125,4,2,1,60,0,0
204733,-125,4,2,1,5,0,0
204800,-125,4,2,1,60,0,0
205001,-125,4,2,1,5,0,0
205068,-125,4,2,1,60,0,0
205268,-125,4,2,1,5,0,0
205335,-125,4,2,1,60,0,0
206406,-100,4,2,1,70,0,0
209956,-100,4,2,1,5,0,0
210157,-100,4,2,1,70,0,0
210224,-100,4,2,1,5,0,0
210425,-100,4,2,1,70,0,0
213304,-100,4,2,1,5,0,0
213371,-100,4,2,1,70,0,0
213907,-100,4,2,1,70,0,0
218527,-100,4,2,1,5,0,0
218728,-100,4,2,1,70,0,0
218795,-100,4,2,1,5,0,0
218996,-100,4,2,1,70,0,0
220938,-100,4,2,1,5,0,0
221139,-100,4,2,1,70,0,0
222210,-125,4,2,1,70,0,0
223617,-125,4,2,1,60,0,0
226764,-125,4,2,1,70,0,0
227300,-125,4,2,1,80,0,0
227768,-125,4,2,1,50,0,0

[Colours]
Combo1 : 255,255,128
Combo2 : 128,255,128
Combo3 : 255,169,128

[HitObjects]
512,384,9264,5,6,1:2:0:0:
328,284,9800,2,0,P|305:239|320:179,1,100,10|0,0:2|3:0,0:0:0:0:
393,127,10335,2,0,P|457:117|506:-17,1,200,2|10,1:2|0:2,0:0:0:0:
235,83,11407,2,0,B|217:171|217:171|219:180|219:180|196:282,2,200,2|8|0,1:2|0:0|1:0,0:0:0:0:
154,31,12746,1,2,3:2:0:0:
79,91,13014,1,10,0:0:0:0:
112,180,13282,1,2,3:2:0:0:
112,180,13550,1,0,1:2:0:0:
0,384,14085,6,0,P|45:360|100:344,1,100,10|0,0:0|3:0,0:0:0:0:
166,275,14621,2,0,P|264:295|295:394,1,200,2|10,1:2|0:0,0:0:0:0:
476,202,15693,2,0,B|520:145|520:145|466:-5,1,200,2|8,1:2|0:0,0:0:0:0:
383,62,16496,2,0,L|362:121,2,50,2|0|2,3:2|0:0|1:2,0:0:0:0:
283,68,17032,1,2,3:2:0:0:
283,68,17166,1,0,0:0:0:0:
283,68,17300,1,10,0:0:0:0:
190,97,17568,1,2,0:0:0:0:
134,23,17835,1,6,1:2:0:0:
164,199,18371,6,0,P|161:255|124:298,1,100,10|0,0:0|3:0,0:0:0:0:
63,370,18907,2,0,P|-5:318|5:203,1,200,2|10,1:2|0:0,0:0:0:0:
166,47,19978,2,0,B|267:27|267:27|269:32|269:32|379:7,2,200,2|8|0,1:2|0:0|1:0,0:0:0:0:
100,125,21318,1,2,3:2:0:0:
164,199,21585,1,10,0:0:0:0:
254,169,21853,1,2,3:2:0:0:
254,169,22121,1,6,1:2:0:0:
403,384,22657,6,0,P|355:337|360:282,1,100,10|0,0:0|3:0,0:0:0:0:
432,237,23193,2,0,P|509:173|487:40,1,200,2|10,1:2|0:0,0:0:0:0:
438,1,23996,1,6,1:2:0:0:
203,118,25068,5,2,0:0:0:0:
203,118,25335,2,0,P|214:181|221:222,1,80,2|2,0:0|0:0,0:0:0:0:
213,289,25871,1,6,3:2:0:0:
213,289,26139,1,2,0:0:0:0:
234,384,26407,6,0,P|170:354|96:338,1,119.999996337891,6|0,1:2|0:0,0:0:0:0:
46,354,27210,1,2,1:2:0:0:
46,354,27478,1,2,1:2:0:0:
46,98,28014,1,10,0:2:0:0:
328,286,28550,6,0,P|257:279|182:289,1,119.999996337891,2|0,1:2|0:0,0:0:0:0:
140,322,29353,1,2,1:2:0:0:
140,322,29621,2,0,P|129:284|132:249,1,59.9999981689454,2|2,1:2|0:0,0:0:0:0:
165,180,30157,1,10,0:2:0:0:
231,114,30425,1,2,0:0:0:0:
378,163,30693,6,0,P|309:181|242:216,1,119.999996337891,2|0,1:2|0:0,0:0:0:0:
214,259,31496,1,2,1:2:0:0:
214,259,31764,1,2,1:2:0:0:
46,98,32300,1,10,0:0:0:0:
383,31,32835,6,0,P|325:71|274:127,1,119.999996337891,2|0,1:2|0:0,0:0:0:0:
262,178,33638,1,2,1:2:0:0:
262,178,33907,2,0,P|234:157|215:128,1,59.9999981689454,2|10,1:2|0:0,0:0:0:0:
201,56,34443,1,10,0:0:0:0:
112,30,34710,1,2,0:0:0:0:
46,98,34978,6,0,P|67:161|82:233,1,119.999996337891,6|0,1:2|0:0,0:0:0:0:
69,295,35782,1,2,1:2:0:0:
69,295,36050,2,0,P|109:283|135:279,1,59.9999981689454,2|0,1:2|0:0,0:0:0:0:
230,212,36585,2,0,P|200:206|171:197,1,59.9999981689454,10|0,0:2|0:0,0:0:0:0:
212,331,37121,6,0,P|225:265|248:196,1,119.999996337891,2|0,1:2|0:0,0:0:0:0:
291,149,37925,1,2,1:2:0:0:
291,149,38193,2,0,P|250:138|225:129,1,59.9999981689454,2|2,1:2|0:0,0:0:0:0:
189,41,38728,1,10,0:0:0:0:
189,41,38862,1,0,0:0:0:0:
189,41,38996,1,2,0:0:0:0:
314,37,39264,6,0,P|269:86|215:135,1,119.999996337891,2|0,1:2|0:0,0:0:0:0:
154,155,40068,1,2,1:2:0:0:
154,155,40336,2,0,P|183:184|200:204,1,59.9999981689454,2|0,1:2|0:0,0:0:0:0:
303,252,40871,2,0,P|293:223|286:194,1,59.9999981689454,10|0,0:2|0:0,0:0:0:0:
190,297,41407,6,0,P|253:276|325:260,1,119.999996337891,2|0,1:2|0:0,0:0:0:0:
387,274,42211,1,2,1:2:0:0:
387,274,42479,2,0,P|375:233|371:207,1,59.9999981689454,2|10,1:2|0:0,0:0:0:0:
437,166,43014,1,10,0:0:0:0:
437,166,43148,1,0,3:0:0:0:
437,166,43282,1,0,3:0:0:0:
484,272,43550,6,0,P|434:278|423:371,1,150,6|0,1:2|0:0,0:0:0:0:
492,371,44621,1,2,0:0:0:0:
274,325,45693,2,0,P|242:339|235:381,2,75,2|0|0,0:0|0:0|0:0,0:0:0:0:
334,373,46764,1,2,0:0:0:0:
37,272,47835,6,0,P|95:286|92:383,1,150,2|0,1:2|0:0,0:0:0:0:
33,384,48907,1,2,0:0:0:0:
194,309,49978,2,0,P|233:329|221:396,1,100,2|0,1:2|0:0,0:0:0:0:
354,221,51050,2,0,P|315:241|327:308,1,100,2|0,1:2|3:0,0:0:0:0:
462,156,52121,6,0,P|393:142|309:115,1,139.999995727539,6|0,1:2|1:0,0:0:0:0:
255,58,52925,1,2,0:0:0:0:
255,58,53193,2,0,P|239:103|219:144,2,69.9999978637696,2|0|8,1:2|0:0|0:0,0:0:0:0:
152,55,53996,5,2,0:0:0:0:
152,55,54130,1,2,0:0:0:0:
152,55,54264,2,0,P|112:69|92:144,1,104.999996795654,2|2,1:2|0:0,0:0:0:0:
114,138,54800,2,0,P|80:135|35:138,1,69.9999978637696,0|0,1:2|0:0,0:0:0:0:
85,226,55335,1,2,1:2:0:0:
134,379,55871,1,10,0:0:0:0:
134,379,56005,1,0,3:0:0:0:
134,379,56139,1,0,3:0:0:0:
297,384,56407,6,0,P|310:334|321:309,1,59.9999981689454,6|0,1:2|0:0,0:0:0:0:
221,325,56943,2,0,P|207:271|196:246,1,69.9999978637696,6|0,1:2|0:0,0:0:0:0:
293,234,57478,2,0,P|310:174|321:149,1,80,6|0,1:2|0:0,0:0:0:0:
214,158,58014,2,0,P|197:92|186:67,1,89.9999972534181,6|0,1:2|0:0,0:0:0:0:
256,0,58550,5,6,1:2:0:0:
412,167,60157,5,0,0:0:0:0:
412,167,60425,1,0,0:0:0:0:
466,259,60693,2,0,P|412:216|287:241,1,165.000005035401,6|0,1:2|3:0,0:0:0:0:
319,218,61228,1,10,0:0:0:0:
251,300,61496,1,0,3:0:0:0:
311,381,61764,1,2,1:2:0:0:
112,384,62300,5,10,0:0:0:0:
52,303,62568,1,0,3:0:0:0:
120,221,62835,2,0,P|107:156|105:107,1,110.000003356934,0|2,1:2|3:2,0:0:0:0:
104,112,63237,1,2,3:2:0:0:
104,112,63371,2,0,P|169:99|218:97,1,110.000003356934,10|2,0:0|3:2,0:0:0:0:
301,30,63907,2,0,P|306:103|312:176,2,110.000003356934,2|2|10,1:2|3:2|0:0,0:0:0:0:
409,53,64710,5,2,3:2:0:0:
409,53,64844,1,0,0:0:0:0:
409,53,64978,2,0,P|430:122|443:195,1,110.000003356934,2|0,1:2|3:0,0:0:0:0:
460,261,65514,2,0,P|391:240|318:227,1,110.000003356934,10|0,0:0|3:0,0:0:0:0:
267,298,66050,2,0,P|195:287|192:187,1,165.000005035401,2|0,1:2|0:0,0:0:0:0:
178,206,66585,1,10,0:0:0:0:
260,124,66853,1,0,3:0:0:0:
190,50,67121,6,0,P|128:70|68:89,1,110.000003356934,0|2,1:2|3:2,0:0:0:0:
34,181,67657,2,0,P|54:243|73:303,1,110.000003356934,10|2,0:2|3:2,0:0:0:0:
165,337,68193,2,0,P|227:317|287:298,1,110.000003356934,2|2,1:2|3:2,0:0:0:0:
365,366,68728,5,10,0:0:0:0:
453,294,68996,1,2,3:2:0:0:
411,188,69264,2,0,P|341:177|302:62,1,165.000005035401,6|0,1:2|3:0,0:0:0:0:
295,100,69800,1,10,0:0:0:0:
369,28,70068,1,0,3:0:0:0:
457,79,70335,1,2,1:2:0:0:
301,233,70871,5,10,0:2:0:0:
227,161,71139,1,0,3:0:0:0:
139,212,71407,2,0,P|146:280|151:346,1,110.000003356934,2|2,1:2|3:2,0:0:0:0:
149,321,71809,1,2,3:2:0:0:
149,321,71943,2,0,P|217:314|283:309,1,110.000003356934,10|0,0:0|3:0,0:0:0:0:
361,270,72478,2,0,P|351:328|341:386,2,110.000003356934,2|2|10,1:2|3:2|0:0,0:0:0:0:
477,291,73282,5,2,3:2:0:0:
477,291,73416,1,0,0:0:0:0:
477,291,73550,2,0,P|453:231|438:184,1,110.000003356934,2|0,1:2|3:2,0:0:0:0:
452,78,74085,2,0,P|392:102|345:117,1,110.000003356934,10|0,0:0|3:0,0:0:0:0:
256,63,74621,2,0,P|157:40|116:168,1,220.000006713867,2|10,1:2|0:0,0:0:0:0:
158,212,75425,1,0,3:0:0:0:
63,261,75693,2,0,P|84:334|94:397,1,110.000003356934,2|2,1:2|3:2,0:0:0:0:
193,372,76228,5,10,0:0:0:0:
280,321,76496,1,2,3:2:0:0:
259,222,76764,1,2,1:2:0:0:
158,212,77032,1,2,3:2:0:0:
116,304,77300,1,10,0:0:0:0:
378,384,77835,6,0,P|394:317|414:241,1,110.000003356934,6|0,1:2|3:0,0:0:0:0:
404,277,78237,1,0,3:0:0:0:
404,277,78371,2,0,P|417:223|430:170,1,110.000003356934,10|0,0:0|3:0,0:0:0:0:
440,58,78907,2,0,B|326:22|338:135|228:92,1,220.000006713867,2|10,1:2|0:0,0:0:0:0:
147,44,79710,1,0,3:0:0:0:
71,118,79978,6,0,P|89:170|109:252,1,110.000003356934,2|0,1:2|3:2,0:0:0:0:
103,223,80380,1,2,3:2:0:0:
103,223,80514,2,0,P|117:276|135:328,1,110.000003356934,10|2,0:2|3:2,0:0:0:0:
223,374,81050,2,0,P|303:340|283:189,1,220.000006713867,2|10,1:2|0:0,0:0:0:0:
381,52,82121,6,0,P|454:63|463:161,1,160,2|0,1:2|1:0,0:0:0:0:
414,206,82925,1,0,0:0:0:0:
414,206,83193,2,0,P|341:195|332:97,2,160,0|0|2,1:0|1:0|1:2,0:0:0:0:
130,384,86407,6,0,P|84:363|38:343,1,100,6|0,1:2|3:0,0:0:0:0:
12,257,86943,2,0,P|32:211|52:165,1,100,10|0,0:2|3:0,0:0:0:0:
140,176,87478,2,0,P|196:136|166:0,1,200,2|10,1:2|0:2,0:0:0:0:
319,185,88550,2,0,B|351:272|351:272|348:279|348:279|390:398,2,200,2|8|0,1:2|0:0|1:0,0:0:0:0:
352,101,89889,1,2,3:2:0:0:
442,106,90157,1,10,0:2:0:0:
465,193,90425,1,2,3:2:0:0:
465,193,90693,1,0,1:2:0:0:
277,310,91228,6,0,P|211:290|143:279,1,100,10|0,0:0|3:0,0:0:0:0:
110,221,91764,2,0,P|46:236|31:373,1,200,2|10,1:2|0:0,0:0:0:0:
263,210,92835,2,0,B|304:153|304:153|240:17,1,200,2|8,1:2|0:0,0:0:0:0:
164,84,93639,2,0,L|130:154,2,50,2|0|2,3:2|0:0|1:2,0:0:0:0:
73,66,94175,1,2,3:2:0:0:
73,66,94309,1,0,0:0:0:0:
73,66,94443,1,10,0:0:0:0:
27,146,94710,1,2,0:0:0:0:
88,214,94978,1,6,1:2:0:0:
166,371,95514,6,0,P|227:342|303:327,1,100,10|0,0:0|3:0,0:0:0:0:
354,370,96050,2,0,P|443:312|417:189,1,200,2|10,1:2|0:0,0:0:0:0:
295,148,97121,2,0,B|200:168|200:168|195:176|195:176|84:197,2,200,2|8|0,1:2|0:2|1:0,0:0:0:0:
341,71,98460,1,2,3:2:0:0:
281,3,98728,1,10,0:2:0:0:
197,39,98996,1,2,3:2:0:0:
197,39,99264,1,6,1:2:0:0:
403,168,99800,6,0,P|421:237|381:287,1,100,10|0,0:0|3:0,0:0:0:0:
392,345,100335,2,0,P|316:353|274:216,1,200,2|10,1:2|0:0,0:0:0:0:
301,159,101139,1,6,1:2:0:0:
70,130,102210,5,2,0:0:0:0:
70,130,102478,2,0,P|89:184|96:231,1,80,2|2,0:0|0:0,0:0:0:0:
99,288,103014,1,6,0:0:0:0:
99,288,103282,1,2,0:0:0:0:
37,368,103550,6,0,P|135:327|214:296,1,179.999994506836,6|2,0:0|0:0,0:0:0:0:
281,298,104621,1,2,0:0:0:0:
483,96,105693,1,2,0:0:0:0:
231,151,106496,5,2,0:0:0:0:
231,151,106764,2,0,P|223:127|215:89,1,59.9999981689454,2|2,0:0|0:0,0:0:0:0:
139,115,107300,2,0,P|146:138|155:177,1,59.9999981689454,2|2,0:0|0:0,0:0:0:0:
60,207,107835,6,0,P|165:220|249:233,1,179.999994506836,2|2,0:0|0:0,0:0:0:0:
306,268,108907,1,2,0:0:0:0:
483,96,109978,6,0,P|425:106|360:132,1,119.999996337891,2|2,0:0|0:0,0:0:0:0:
310,182,110782,1,2,0:0:0:0:
302,260,111050,2,0,P|246:281|187:291,1,119.999996337891,2|2,0:0|0:0,0:0:0:0:
168,72,112121,6,0,P|252:136|318:189,1,179.999994506836,6|2,0:0|0:0,0:0:0:0:
350,247,113193,1,2,0:0:0:0:
483,96,114264,1,2,0:0:0:0:
432,2,115068,5,2,0:0:0:0:
432,2,115335,2,0,P|462:7|492:10,1,59.9999981689454,2|0,0:0|0:0,0:0:0:0:
482,95,115871,2,0,P|452:90|423:88,1,59.9999981689454,2|2,0:0|0:0,0:0:0:0:
327,9,116407,6,0,P|368:107|399:186,1,179.999994506836,2|2,0:0|0:0,0:0:0:0:
397,251,117479,1,2,0:0:0:0:
483,96,118550,6,0,P|425:99|352:118,1,119.999996337891,2|2,0:0|0:0,0:0:0:0:
288,97,119353,1,2,0:0:0:0:
288,97,119621,2,0,P|278:61|271:37,2,59.9999981689454,2|2|2,0:0|0:0|0:0,0:0:0:0:
44,274,120693,6,0,P|110:252|159:241,1,100,2|0,1:2|0:0,0:0:0:0:
208,289,121496,1,0,0:0:0:0:
208,289,121764,2,0,P|213:331|210:349,2,33.3333333333333,2|0|0,0:0|0:0|0:0,0:0:0:0:
266,239,122266,2,0,P|267:222|271:206,2,33.3333333333333,2|0|0,0:0|0:0|0:0,0:0:0:0:
320,293,122835,2,0,P|373:271|422:252,1,100,2|2,0:0|0:0,0:0:0:0:
460,149,123638,1,0,0:0:0:0:
368,68,123906,2,0,P|378:42|385:25,2,33.3333333333333,2|0|0,0:0|0:0|0:0,0:0:0:0:
313,125,124442,1,2,0:0:0:0:
120,84,124977,6,0,P|137:126|161:189,1,100,2|0,1:2|0:0,0:0:0:0:
145,255,125781,1,0,0:0:0:0:
206,316,126049,1,2,0:0:0:0:
206,316,126183,2,0,P|233:307|245:305,1,33.3333333333333,0|0,0:0|0:0,0:0:0:0:
314,319,126540,2,0,P|341:328|353:330,2,33.3333333333333,2|0|0,0:0|0:0|0:0,0:0:0:0:
299,244,127120,2,0,P|311:198|336:144,1,100,2|0,1:2|0:0,0:0:0:0:
187,85,128191,2,0,P|175:131|150:185,1,100,2|0,1:2|3:0,0:0:0:0:
35,351,129264,6,0,P|80:336|173:315,1,139.999995727539,6|2,1:2|1:2,0:0:0:0:
250,259,130067,1,2,0:0:0:0:
250,259,130335,2,0,P|260:301|274:352,2,69.9999978637696,2|0|10,1:2|0:0|0:0,0:0:0:0:
361,228,131139,5,2,0:0:0:0:
361,228,131272,1,2,0:0:0:0:
361,228,131406,2,0,P|413:261|410:328,1,104.999996795654,2|2,1:2|0:0,0:0:0:0:
411,313,131942,2,0,P|404:362|400:391,1,69.9999978637696,0|0,1:0|0:0,0:0:0:0:
312,384,132478,1,2,1:2:0:0:
134,335,133014,1,10,0:2:0:0:
134,335,133147,1,0,3:0:0:0:
134,335,133281,1,0,3:0:0:0:
37,363,133549,6,0,P|38:319|37:289,1,59.9999981689454,6|0,1:2|0:0,0:0:0:0:
100,240,134085,2,0,P|149:243|179:241,1,69.9999978637696,6|0,1:2|0:0,0:0:0:0:
250,203,134621,2,0,P|253:146|252:115,1,80,6|0,1:2|0:0,0:0:0:0:
342,87,135156,2,0,P|404:91|435:90,1,89.9999972534181,6|0,1:2|0:0,0:0:0:0:
490,20,135692,1,6,1:2:0:0:
36,171,137299,5,0,0:0:0:0:
16,264,137567,1,0,3:2:0:0:
16,264,137701,1,0,3:0:0:0:
16,264,137835,2,0,P|60:193|146:196,1,172.500003290176,6|0,1:2|3:0,0:0:0:0:
142,194,138371,1,10,0:0:0:0:
211,281,138639,1,0,3:0:0:0:
153,358,138906,1,2,1:2:0:0:
353,365,139442,5,10,0:0:0:0:
411,288,139709,1,0,3:0:0:0:
342,201,139978,2,0,P|347:127|362:61,1,115.000002193451,0|2,1:2|3:2,0:0:0:0:
354,87,140380,1,2,3:2:0:0:
354,87,140514,2,0,P|278:74|222:69,1,115.000002193451,10|2,0:0|3:2,0:0:0:0:
149,27,141049,2,0,L|140:160,2,115.000002193451,2|2|10,1:2|3:2|0:0,0:0:0:0:
41,74,141853,5,2,3:2:0:0:
41,74,141987,1,0,0:0:0:0:
41,74,142121,2,0,P|21:151|14:206,1,115.000002193451,2|0,1:2|3:0,0:0:0:0:
66,273,142656,2,0,P|143:293|198:300,1,115.000002193451,10|0,0:0|3:0,0:0:0:0:
243,215,143192,2,0,P|314:234|333:352,1,172.500003290176,2|0,1:2|0:0,0:0:0:0:
345,320,143728,1,10,0:0:0:0:
443,375,143996,1,0,3:0:0:0:
493,281,144264,6,0,L|515:134,1,115.000002193451,0|2,1:2|3:2,0:0:0:0:
459,71,144799,2,0,L|312:49,1,115.000002193451,10|2,0:2|3:2,0:0:0:0:
251,106,145335,2,0,L|229:253,1,115.000002193451,2|2,1:2|3:2,0:0:0:0:
186,325,145871,5,10,0:2:0:0:
82,312,146139,1,2,3:2:0:0:
43,215,146406,2,0,P|6:151|53:64,1,172.500003290176,6|0,1:2|3:0,0:0:0:0:
45,68,146942,1,10,0:2:0:0:
141,12,147210,1,0,3:0:0:0:
229,64,147478,1,2,1:2:0:0:
401,197,148014,5,10,0:2:0:0:
305,141,148282,1,0,3:0:0:0:
217,193,148549,2,0,P|238:260|254:336,1,115.000002193451,2|2,1:2|3:2,0:0:0:0:
248,303,148951,1,2,3:2:0:0:
248,303,149085,2,0,P|313:320|377:339,1,115.000002193451,10|0,0:0|3:0,0:0:0:0:
451,269,149621,2,0,L|475:410,2,115.000002193451,2|2|10,1:2|3:2|0:0,0:0:0:0:
465,162,150424,5,2,3:2:0:0:
465,162,150558,1,0,0:0:0:0:
465,162,150692,2,0,P|479:81|489:33,1,115.000002193451,2|0,1:2|3:2,0:0:0:0:
384,28,151228,2,0,P|303:14|255:4,1,115.000002193451,10|0,0:0|3:0,0:0:0:0:
162,75,151764,2,0,P|91:62|51:197,1,230.000004386902,2|10,1:2|0:0,0:0:0:0:
137,237,152567,1,0,3:0:0:0:
89,336,152835,2,0,P|151:317|206:311,1,115.000002193451,2|2,1:2|3:2,0:0:0:0:
292,366,153371,5,10,0:0:0:0:
372,295,153639,1,2,3:2:0:0:
329,196,153906,1,2,1:2:0:0:
223,207,154174,1,2,3:2:0:0:
200,311,154442,1,10,0:0:0:0:
306,64,154978,6,0,P|220:74|170:82,1,115.000002193451,6|0,1:2|3:0,0:0:0:0:
191,78,155380,1,0,3:0:0:0:
191,78,155514,2,0,P|134:86|76:92,1,115.000002193451,10|0,0:0|3:0,0:0:0:0:
29,207,156049,2,0,B|93:178|157:224|138:242|193:290|278:243,1,230.000004386902,2|10,1:2|0:0,0:0:0:0:
316,339,156853,1,0,3:0:0:0:
420,291,157121,6,0,P|427:221|442:149,1,115.000002193451,2|0,1:2|3:2,0:0:0:0:
435,177,157522,1,2,3:2:0:0:
435,177,157656,2,0,P|444:120|450:63,1,115.000002193451,10|2,0:2|3:2,0:0:0:0:
353,6,158192,2,0,B|303:-18|263:29|263:29|243:113|322:183,1,230.000004386902,2|10,1:2|0:0,0:0:0:0:
109,358,159264,6,0,P|47:329|43:238,1,160,2|0,1:2|1:0,0:0:0:0:
123,201,160067,1,0,0:0:0:0:
123,201,160335,2,0,P|185:230|189:321,1,160,0|0,1:0|1:2,0:0:0:0:
452,377,161406,6,0,P|465:303|473:263,1,100,6|0,3:2|0:0,0:0:0:0:
395,244,161942,2,0,P|382:170|374:130,1,100,2|0,0:0|0:0,0:0:0:0:
445,89,162478,2,0,P|421:28|313:29,1,160,2|2,0:0|0:0,0:0:0:0:
277,168,163549,2,0,B|188:150|210:208|118:188,1,160,2|2,0:0|0:0,0:0:0:0:
20,283,164621,1,2,0:0:0:0:
82,365,165156,1,2,0:0:0:0:
193,289,165692,6,0,P|257:295|335:302,1,100,6|0,3:2|0:0,0:0:0:0:
337,227,166228,2,0,P|343:163|350:85,1,100,2|0,0:0|0:0,0:0:0:0:
401,66,166764,2,0,P|477:66|481:164,1,160,2|2,0:0|0:0,0:0:0:0:
504,303,167835,2,0,P|426:326|339:360,1,160,2|2,0:0|0:0,0:0:0:0:
193,289,168906,1,2,0:0:0:0:
279,176,169442,2,0,L|272:141,3,29.9999990844727,2|0|0|0,3:2|3:0|3:0|3:0,0:0:0:0:
299,109,169978,6,0,P|252:72|177:80,1,100,6|0,1:2|3:0,0:0:0:0:
213,67,170380,1,2,3:2:0:0:
213,67,170514,2,0,L|103:95,1,100,8|0,0:0|0:0,0:0:0:0:
28,63,171049,2,0,L|36:2,2,50,2|0|2,1:2|0:0|3:2,0:0:0:0:
11,155,171585,1,10,0:0:0:0:
77,227,171853,1,2,3:2:0:0:
55,336,172121,6,0,P|122:316|198:311,1,100,2|2,1:2|3:2,0:0:0:0:
151,311,172522,1,2,0:0:0:0:
151,311,172656,2,0,L|263:339,1,100,10|2,0:2|3:2,0:0:0:0:
330,299,173192,2,0,P|348:234|375:181,1,100,2|2,1:2|3:2,0:0:0:0:
329,121,173728,1,8,2:0:0:0:
242,136,173996,1,2,3:2:0:0:
143,99,174264,6,0,B|176:60|181:7|181:7|226:40|318:36,1,200,6|10,1:2|0:0,0:0:0:0:
380,16,175067,1,2,3:2:0:0:
380,16,175201,1,0,0:0:0:0:
380,16,175335,2,0,P|401:70|422:123,1,100,2|2,1:2|3:2,0:0:0:0:
493,174,175871,1,10,0:2:0:0:
449,257,176139,1,6,1:2:0:0:
230,343,177210,5,2,0:0:0:0:
230,343,177478,2,0,P|181:331|132:322,1,80,2|2,0:2|0:2,0:0:0:0:
68,347,178014,1,6,0:0:0:0:
68,347,178281,1,2,0:0:0:0:
20,278,178549,1,2,0:0:0:0:
112,115,180156,5,0,0:0:0:0:
112,115,180424,1,0,0:0:0:0:
16,133,180692,2,0,B|75:121|108:162|90:162|124:216|208:175,1,179.999994506836,6|0,1:2|3:0,0:0:0:0:
177,186,181228,1,10,0:2:0:0:
267,114,181496,1,0,3:0:0:0:
209,19,181764,1,2,1:2:0:0:
416,36,182299,5,10,0:0:0:0:
474,131,182567,1,0,3:0:0:0:
384,203,182835,2,0,P|404:270|416:332,1,119.999996337891,0|2,1:2|3:2,0:0:0:0:
413,319,183237,1,2,3:2:0:0:
413,319,183371,2,0,P|346:339|284:351,1,119.999996337891,10|2,0:0|3:2,0:0:0:0:
201,371,183906,2,0,L|211:242,2,119.999996337891,2|2|10,1:2|3:2|0:0,0:0:0:0:
102,367,184710,5,2,3:2:0:0:
102,367,184844,1,0,0:0:0:0:
102,367,184978,2,0,P|63:301|81:249,1,119.999996337891,2|0,1:2|3:0,0:0:0:0:
15,177,185514,2,0,P|64:126|56:56,1,119.999996337891,10|0,0:0|3:0,0:0:0:0:
158,6,186049,2,0,P|223:24|213:157,1,179.999994506836,2|0,1:2|0:0,0:0:0:0:
243,124,186585,1,10,0:0:0:0:
163,207,186853,1,0,3:0:0:0:
215,301,187121,6,0,P|277:313|360:339,1,119.999996337891,0|2,1:2|3:2,0:0:0:0:
423,275,187656,2,0,P|435:213|461:130,1,119.999996337891,10|2,0:2|3:2,0:0:0:0:
394,67,188192,2,0,P|332:55|249:29,1,119.999996337891,2|2,1:2|3:2,0:0:0:0:
177,92,188728,5,10,0:0:0:0:
76,46,188996,1,2,3:2:0:0:
15,144,189264,2,0,P|34:221|55:343,1,179.999994506836,6|0,1:2|3:0,0:0:0:0:
51,320,189799,1,10,0:0:0:0:
151,380,190067,1,0,3:0:0:0:
240,325,190335,1,2,1:2:0:0:
298,167,190871,5,10,0:2:0:0:
198,227,191139,1,0,3:0:0:0:
109,172,191406,2,0,P|96:100|94:47,1,119.999996337891,2|2,1:2|3:2,0:0:0:0:
93,53,191808,1,2,3:2:0:0:
93,53,191942,2,0,P|165:40|218:38,1,119.999996337891,10|0,0:0|3:0,0:0:0:0:
314,48,192478,2,0,L|293:195,2,119.999996337891,2|2|10,1:2|3:2|0:0,0:0:0:0:
422,21,193281,5,2,3:2:0:0:
422,21,193415,1,0,0:0:0:0:
422,21,193549,2,0,P|458:89|467:150,1,119.999996337891,2|0,1:2|3:2,0:0:0:0:
451,238,194085,2,0,P|392:250|312:272,1,119.999996337891,10|0,0:0|3:0,0:0:0:0:
267,355,194621,2,0,P|182:334|214:171,1,239.999992675781,2|10,1:2|0:0,0:0:0:0:
247,126,195424,1,0,3:0:0:0:
193,32,195692,2,0,P|128:45|46:62,1,119.999996337891,2|2,1:2|3:2,0:0:0:0:
11,141,196228,5,10,0:0:0:0:
69,228,196496,1,2,3:2:0:0:
171,199,196764,1,2,1:2:0:0:
175,93,197031,1,2,3:2:0:0:
76,56,197299,1,10,0:0:0:0:
17,313,197835,6,0,P|88:321|163:334,1,119.999996337891,6|0,1:2|3:0,0:0:0:0:
135,328,198237,1,0,3:0:0:0:
135,328,198371,2,0,P|194:337|253:343,1,119.999996337891,10|0,0:0|3:0,0:0:0:0:
366,381,198906,2,0,B|337:307|401:261|388:293|455:232|423:159,1,239.999992675781,2|10,1:2|0:0,0:0:0:0:
485,79,199710,1,0,3:0:0:0:
386,32,199978,6,0,P|320:49|251:57,1,119.999996337891,2|0,1:2|3:2,0:0:0:0:
268,55,200380,1,2,3:2:0:0:
268,55,200514,2,0,P|208:63|150:78,1,119.999996337891,10|2,0:2|3:2,0:0:0:0:
48,42,201049,2,0,B|24:76|24:76|42:135|42:135|63:143|63:143|83:209|83:209|61:249,1,239.999992675781,2|10,1:2|0:0,0:0:0:0:
372,370,202121,6,0,P|450:346|453:253,1,160,2|0,1:2|1:0,0:0:0:0:
400,217,202924,1,2,0:0:0:0:
400,217,203192,2,0,P|322:241|319:334,2,160,0|0|2,1:0|1:0|1:2,0:0:0:0:
97,42,206406,6,0,P|75:103|60:157,1,100,6|0,1:2|3:0,0:0:0:0:
101,226,206942,2,0,P|162:248|216:263,1,100,10|0,0:2|3:0,0:0:0:0:
275,316,207478,2,0,P|375:303|428:383,1,200,2|10,1:2|0:2,0:0:0:0:
440,198,208549,2,0,B|467:110|467:110|463:101|463:101|499:-17,2,200,2|8|0,1:2|0:0|1:0,0:0:0:0:
354,226,209889,1,2,3:2:0:0:
301,153,210156,1,10,0:2:0:0:
354,80,210424,1,2,3:2:0:0:
354,80,210691,1,0,1:2:0:0:
170,13,211228,6,0,P|112:31|55:40,1,100,10|0,0:0|3:0,0:0:0:0:
16,125,211764,2,0,P|27:203|143:194,1,200,2|10,1:2|0:0,0:0:0:0:
301,153,212835,2,8,P|370:201|315:312,1,200,2|8,1:2|0:0,0:0:0:0:
255,302,213639,2,0,L|268:234,2,50,2|0|2,3:2|0:0|1:2,0:0:0:0:
175,360,214174,1,2,3:2:0:0:
175,360,214308,1,0,0:0:0:0:
175,360,214442,1,10,0:0:0:0:
92,312,214710,1,2,0:0:0:0:
14,363,214978,1,6,1:2:0:0:
103,221,215514,6,0,L|75:105,1,100,10|0,0:0|3:0,0:0:0:0:
123,32,216049,2,0,B|232:11|207:95|327:63,1,200,2|10,1:2|0:0,0:0:0:0:
476,189,217121,2,0,B|454:281|454:281|457:289|457:289|431:395,2,200,2|8|0,1:2|0:2|1:0,0:0:0:0:
415,120,218460,1,2,3:2:0:0:
331,157,218728,1,10,0:2:0:0:
340,248,218996,1,2,3:2:0:0:
340,248,219264,1,6,1:2:0:0:
177,384,219799,6,0,P|129:346|117:291,1,100,10|0,0:0|3:0,0:0:0:0:
53,237,220335,2,0,P|126:191|117:54,1,200,2|10,1:2|0:2,0:0:0:0:
59,27,221139,1,6,1:2:0:0:
302,145,222210,5,2,0:0:0:0:
302,145,222478,2,0,P|285:215|278:261,1,80,2|2,0:0|0:0,0:0:0:0:
304,320,223014,1,6,0:0:0:0:
304,320,223281,1,2,0:0:0:0:
256,384,223549,1,2,0:0:0:0:
256,192,223616,12,0,227767,0:0:0:0:
