osu file format v14

[General]
AudioFilename: audio.mp3
AudioLeadIn: 0
PreviewTime: 101615
Countdown: 0
SampleSet: Soft
StackLeniency: 0.7
Mode: 3
LetterboxInBreaks: 0
SpecialStyle: 0
WidescreenStoryboard: 1

[Editor]
DistanceSpacing: 0.7
BeatDivisor: 4
GridSize: 32
TimelineZoom: 1.8

[Metadata]
Title:KING
TitleUnicode:KING
Artist:Murasaki Shion
ArtistUnicode:紫咲シオン
Creator:deta5859
Version:Sun's HARD
Source:
Tags:Sun Nabi- Paran Kanon Matsubara ごず gozu たーむ tarm kanaria gumi vocaloid ボカロ vtuber virtual youtuber hololive ホロライブ japanese pop jpop j-pop
BeatmapID:2747828
BeatmapSetID:1325554

[Difficulty]
HPDrainRate:7.5
CircleSize:4
OverallDifficulty:7.5
ApproachRate:5
SliderMultiplier:1.4
SliderTickRate:1

[Events]
//Background and Video events
0,0,"shion chan daisu daisuke.jpg",0,0
//Break Periods
//Storyboard Layer 0 (Background)
//Storyboard Layer 1 (Fail)
//Storyboard Layer 2 (Pass)
//Storyboard Layer 3 (Foreground)
//Storyboard Layer 4 (Overlay)
//Storyboard Sound Samples
Sample,4024,0,"F7.wav",65
Sample,4747,0,"C7.wav",65
Sample,5470,0,"F#7.wav",65
Sample,6916,0,"F7.wav",65
Sample,7638,0,"B6.wav",65
Sample,8361,0,"B6.wav",65
Sample,9807,0,"F7.wav",65
Sample,10530,0,"C7.wav",65
Sample,11253,0,"F#7.wav",65
Sample,12699,0,"F7.wav",65
Sample,13422,0,"B6.wav",65
Sample,14144,0,"B6.wav",65
Sample,52096,0,"D8.wav",85
Sample,67638,0,"F7.wav",65
Sample,68361,0,"C7.wav",65
Sample,69084,0,"F#7.wav",65
Sample,70530,0,"F7.wav",65
Sample,71253,0,"B6.wav",65
Sample,71976,0,"B6.wav",65
Sample,73422,0,"F7.wav",65
Sample,74144,0,"C7.wav",65
Sample,74867,0,"F#7.wav",65
Sample,76313,0,"F7.wav",65
Sample,77036,0,"B6.wav",65
Sample,77759,0,"B6.wav",65
Sample,90048,0,"C7.wav",50
Sample,101253,0,"D8.wav",85
Sample,116795,0,"F#7.wav",70
Sample,117518,0,"C#7.wav",70
Sample,118241,0,"G7.wav",70
Sample,119687,0,"F#7.wav",70
Sample,120409,0,"C7.wav",70
Sample,121132,0,"C7.wav",70
Sample,122578,0,"F#7.wav",70
Sample,123301,0,"C#7.wav",70
Sample,124024,0,"G7.wav",70
Sample,125470,0,"F#7.wav",70
Sample,126193,0,"C7.wav",70
Sample,126916,0,"E7.wav",70

[TimingPoints]
410,361.44578313253,4,2,1,40,1,0
3301,-100,4,2,1,75,0,0
14867,-100,4,2,1,70,0,0
38000,-100,4,2,1,50,0,0
40891,-100,4,2,1,60,0,0
52458,-100,4,2,1,80,0,0
64024,-100,4,2,1,60,0,0
66916,-100,4,2,1,75,0,0
78482,-100,4,2,1,70,0,0
101614,-100,4,2,1,80,0,0
113181,-100,4,2,1,60,0,0
116072,-100,4,2,1,75,0,0
127638,-100,4,2,1,65,0,0

[HitObjects]
320,192,410,5,0,0:0:0:40:C7.wav
448,192,771,1,0,0:0:0:40:G7.wav
192,192,952,1,0,0:0:0:40:F#7.wav
320,192,1132,1,0,0:0:0:40:F7.wav
64,192,1313,1,0,0:0:0:40:D#7.wav
448,192,1494,1,0,0:0:0:40:D7.wav
320,192,1675,1,0,0:0:0:40:C7.wav
192,192,1855,128,0,2126:0:0:0:40:B6.wav
448,192,2036,128,0,2307:0:0:0:40:C7.wav
192,192,2217,128,0,2488:0:0:0:40:B6.wav
448,192,2397,128,0,2940:0:0:0:40:C7.wav
192,192,2578,128,0,2940:0:0:0:40:B6.wav
64,192,3301,128,2,3663:0:0:0:0:
320,192,3301,1,4,0:0:0:0:
448,192,3301,1,0,0:0:0:65:C7.wav
192,192,3663,1,10,0:0:0:0:
448,192,3663,128,0,3843:0:0:0:65:G7.wav
320,192,3843,128,0,4024:0:0:0:65:F#7.wav
192,192,4024,128,2,4205:0:0:0:0:
64,192,4205,128,0,4385:0:0:0:65:D#7.wav
320,192,4385,128,10,4566:0:0:0:0:
448,192,4385,1,0,0:0:0:65:D7.wav
192,192,4566,128,0,4747:0:0:0:65:C7.wav
448,192,4747,128,2,4928:0:0:0:0:
320,192,4928,128,0,5108:0:0:0:65:D7.wav
64,192,5108,1,10,0:0:0:0:
192,192,5108,128,0,5289:0:0:0:65:D#7.wav
320,192,5289,128,0,5470:0:0:0:55:F7.wav
448,192,5470,128,2,6012:0:0:0:0:
192,192,5831,128,10,6012:0:0:0:0:
320,192,5831,1,0,0:0:0:70:G7.wav
64,192,6193,1,2,0:0:0:0:
320,192,6193,128,0,6554:0:0:0:65:C7.wav
64,192,6554,128,10,6735:0:0:0:0:
448,192,6554,1,0,0:0:0:65:G7.wav
192,192,6735,128,0,6916:0:0:0:65:F#7.wav
320,192,6916,128,2,7096:0:0:0:0:
448,192,7096,128,0,7277:0:0:0:65:D#7.wav
64,192,7277,1,10,0:0:0:0:
192,192,7277,128,0,7458:0:0:0:65:D7.wav
320,192,7458,128,0,7638:0:0:0:65:C7.wav
64,192,7638,128,2,7819:0:0:0:0:
192,192,7819,128,0,8000:0:0:0:65:C7.wav
320,192,8000,128,10,8181:0:0:0:0:
448,192,8000,1,0,0:0:0:65:B6.wav
192,192,8181,128,0,8361:0:0:0:65:C7.wav
64,192,8361,128,2,8723:0:0:0:0:
192,192,8723,1,8,0:0:0:0:
448,192,8723,1,2,0:0:0:0:
192,192,9084,128,2,9446:0:0:0:0:
320,192,9084,1,4,0:0:0:0:
448,192,9084,1,0,0:0:0:65:C7.wav
64,192,9446,1,10,0:0:0:0:
448,192,9446,128,0,9626:0:0:0:65:G7.wav
320,192,9626,128,0,9807:0:0:0:65:F#7.wav
192,192,9807,128,2,9988:0:0:0:0:
64,192,9988,128,0,10169:0:0:0:65:D#7.wav
320,192,10169,128,10,10349:0:0:0:0:
448,192,10169,1,0,0:0:0:65:D7.wav
192,192,10349,128,0,10530:0:0:0:65:C7.wav
448,192,10530,128,2,10711:0:0:0:0:
64,192,10711,128,0,10891:0:0:0:65:D7.wav
192,192,10891,128,10,11072:0:0:0:0:
320,192,10891,1,0,0:0:0:65:D#7.wav
64,192,11072,128,0,11253:0:0:0:65:F7.wav
448,192,11253,128,2,11795:0:0:0:0:
64,192,11614,1,10,0:0:0:0:
192,192,11614,128,0,11795:0:0:0:65:G7.wav
192,192,11976,1,2,0:0:0:0:
320,192,11976,128,0,12337:0:0:0:65:C7.wav
64,192,12337,128,10,12518:0:0:0:0:
448,192,12337,1,0,0:0:0:65:G7.wav
192,192,12518,128,0,12699:0:0:0:65:F#7.wav
320,192,12699,128,2,12879:0:0:0:0:
448,192,12879,128,0,13060:0:0:0:65:D#7.wav
64,192,13060,1,10,0:0:0:0:
192,192,13060,128,0,13241:0:0:0:65:D7.wav
320,192,13241,128,0,13422:0:0:0:65:C7.wav
64,192,13422,128,2,13602:0:0:0:0:
448,192,13602,128,0,13783:0:0:0:65:C7.wav
192,192,13783,1,10,0:0:0:0:
320,192,13783,128,0,13964:0:0:0:65:B6.wav
448,192,13964,128,0,14144:0:0:0:65:C7.wav
64,192,14144,128,2,14506:0:0:0:0:
320,192,14506,128,8,14687:0:0:0:0:
448,192,14506,1,2,0:0:0:0:
192,192,14867,1,2,0:0:0:0:
448,192,14867,128,0,15409:0:0:0:0:
192,192,15229,1,2,0:0:0:0:
64,192,15409,1,0,0:0:0:0:
192,192,15590,1,2,0:0:0:0:
448,192,15590,128,0,15771:0:0:0:0:
320,192,15771,1,0,0:0:0:0:
64,192,15861,1,0,0:0:0:0:
192,192,15952,1,2,0:0:0:0:
320,192,16042,1,0,0:0:0:0:
448,192,16132,1,0,0:0:0:0:
64,192,16313,1,2,0:0:0:0:
192,192,16313,128,0,16855:0:0:0:0:
320,192,16494,1,0,0:0:0:0:
64,192,16675,1,2,0:0:0:0:
448,192,16855,1,0,0:0:0:0:
64,192,17036,1,2,0:0:0:0:
320,192,17036,128,0,17217:0:0:0:0:
192,192,17217,1,0,0:0:0:0:
64,192,17397,1,2,0:0:0:0:
448,192,17397,128,0,17578:0:0:0:0:
64,192,17759,128,2,18301:0:0:0:0:
320,192,17759,1,0,0:0:0:0:
448,192,17940,1,0,0:0:0:0:
320,192,18120,1,2,0:0:0:0:
192,192,18301,1,0,0:0:0:0:
64,192,18482,128,2,18663:0:0:0:0:
320,192,18482,1,0,0:0:0:0:
448,192,18663,1,0,0:0:0:0:
192,192,18753,1,0,0:0:0:0:
320,192,18843,1,2,0:0:0:0:
64,192,18934,1,0,0:0:0:0:
192,192,19024,1,0,0:0:0:0:
64,192,19205,1,2,0:0:0:0:
320,192,19205,128,0,19747:0:0:0:0:
64,192,19566,1,2,0:0:0:0:
448,192,19747,1,0,0:0:0:0:
192,192,19837,1,0,0:0:0:0:
64,192,19928,1,2,0:0:0:0:
320,192,20018,1,0,0:0:0:0:
192,192,20108,1,0,0:0:0:0:
320,192,20199,1,0,0:0:0:0:
64,192,20289,1,2,0:0:0:0:
448,192,20379,1,0,0:0:0:0:
192,192,20470,1,0,0:0:0:0:
448,192,20560,1,0,0:0:0:0:
64,192,20650,128,2,21193:0:0:0:0:
320,192,20650,1,0,0:0:0:0:
320,192,21012,1,2,0:0:0:0:
192,192,21193,1,0,0:0:0:0:
64,192,21373,128,2,21554:0:0:0:0:
320,192,21373,1,0,0:0:0:0:
192,192,21554,1,0,0:0:0:0:
448,192,21644,1,0,0:0:0:0:
320,192,21735,1,2,0:0:0:0:
192,192,21825,1,0,0:0:0:0:
64,192,21916,1,0,0:0:0:0:
320,192,22096,128,2,22638:0:0:0:0:
448,192,22096,1,0,0:0:0:0:
192,192,22277,1,0,0:0:0:0:
448,192,22458,1,2,0:0:0:0:
64,192,22638,1,0,0:0:0:0:
192,192,22819,128,2,23000:0:0:0:0:
448,192,22819,1,0,0:0:0:0:
320,192,23000,1,0,0:0:0:0:
64,192,23181,128,2,23361:0:0:0:0:
448,192,23181,1,0,0:0:0:0:
192,192,23542,1,2,0:0:0:0:
448,192,23542,128,0,24084:0:0:0:0:
192,192,23903,1,2,0:0:0:0:
64,192,24084,1,0,0:0:0:0:
192,192,24265,1,2,0:0:0:0:
448,192,24265,128,0,24446:0:0:0:0:
320,192,24446,1,0,0:0:0:0:
192,192,24626,1,2,0:0:0:0:
448,192,24717,1,0,0:0:0:0:
320,192,24807,1,0,0:0:0:0:
64,192,24988,1,2,0:0:0:0:
192,192,24988,128,0,25349:0:0:0:0:
64,192,25349,1,2,0:0:0:0:
320,192,25349,128,0,25711:0:0:0:0:
64,192,25711,1,2,0:0:0:0:
448,192,25711,128,0,26072:0:0:0:0:
64,192,26072,1,2,0:0:0:0:
320,192,26072,128,0,26434:0:0:0:0:
192,192,26434,1,6,0:0:0:0:
448,192,26434,128,0,26614:0:0:0:70:G7.wav
192,192,26614,128,0,26976:0:0:0:70:G#7.wav
320,192,26795,1,2,0:0:0:0:
448,192,26795,128,0,26976:0:0:0:70:G7.wav
64,192,27156,128,2,27337:0:0:0:0:
320,192,27156,1,0,0:0:0:70:G7.wav
320,192,27337,128,0,27699:0:0:0:70:G#7.wav
64,192,27518,128,2,27699:0:0:0:0:
192,192,27518,1,0,0:0:0:70:G7.wav
192,192,27879,128,2,28060:0:0:0:0:
448,192,27879,1,0,0:0:0:70:G7.wav
448,192,28060,128,0,28422:0:0:0:45:A#7.wav
192,192,28241,128,2,28422:0:0:0:0:
320,192,28241,1,0,0:0:0:70:G7.wav
64,192,28602,128,2,28964:0:0:0:0:
320,192,28602,1,0,0:0:0:70:G7.wav
192,192,28873,128,0,28964:0:0:0:70:A#7.wav
320,192,28964,1,2,0:0:0:0:
448,192,28964,1,0,0:0:0:0:
320,192,29144,128,0,29325:0:0:0:70:G7.wav
192,192,29325,128,2,29506:0:0:0:0:
448,192,29325,1,0,0:0:0:70:G7.wav
448,192,29506,128,0,29867:0:0:0:70:G#7.wav
192,192,29687,128,2,29867:0:0:0:0:
320,192,29687,1,0,0:0:0:70:G7.wav
64,192,30048,1,2,0:0:0:0:
320,192,30048,128,0,30229:0:0:0:70:G7.wav
64,192,30229,128,0,30590:0:0:0:70:G#7.wav
192,192,30409,1,2,0:0:0:0:
320,192,30409,128,0,30590:0:0:0:70:G7.wav
192,192,30771,128,2,31132:0:0:0:0:
448,192,30771,1,0,0:0:0:70:G7.wav
448,192,30952,128,0,31132:0:0:0:70:G7.wav
64,192,31132,128,2,31494:0:0:0:0:
320,192,31132,1,0,0:0:0:70:G7.wav
320,192,31313,128,0,31494:0:0:0:70:F7.wav
192,192,31494,1,2,0:0:0:0:
448,192,31494,1,0,0:0:0:70:D#7.wav
64,192,31765,1,2,0:0:0:0:
448,192,31765,1,0,0:0:0:70:D7.wav
64,192,32036,1,2,0:0:0:0:
320,192,32036,1,0,0:0:0:0:
64,192,32217,1,2,0:0:0:0:
192,192,32217,1,4,0:0:0:0:
448,192,32217,128,0,32397:0:0:0:70:G7.wav
192,192,32397,128,0,32759:0:0:0:70:G#7.wav
320,192,32578,1,2,0:0:0:0:
448,192,32578,128,0,32759:0:0:0:70:G7.wav
64,192,32940,128,2,33120:0:0:0:0:
320,192,32940,1,0,0:0:0:70:G7.wav
320,192,33120,128,0,33482:0:0:0:70:G#7.wav
64,192,33301,128,2,33482:0:0:0:0:
192,192,33301,1,0,0:0:0:70:G7.wav
192,192,33663,128,2,33843:0:0:0:0:
448,192,33663,1,0,0:0:0:70:G7.wav
448,192,33843,128,0,34205:0:0:0:70:A#7.wav
192,192,34024,128,2,34205:0:0:0:0:
320,192,34024,1,0,0:0:0:70:G7.wav
64,192,34385,128,2,34747:0:0:0:0:
320,192,34385,1,0,0:0:0:70:G7.wav
192,192,34656,128,0,34747:0:0:0:70:A#7.wav
320,192,34747,1,2,0:0:0:0:
448,192,34747,1,0,0:0:0:0:
320,192,34928,128,0,35108:0:0:0:70:G7.wav
192,192,35108,128,2,35289:0:0:0:0:
448,192,35108,1,0,0:0:0:70:G7.wav
448,192,35289,128,0,35650:0:0:0:70:G#7.wav
192,192,35470,128,2,35650:0:0:0:0:
320,192,35470,1,0,0:0:0:70:G7.wav
64,192,35831,1,2,0:0:0:0:
320,192,35831,128,0,36012:0:0:0:70:G7.wav
64,192,36012,128,0,36373:0:0:0:70:G#7.wav
192,192,36193,1,2,0:0:0:0:
320,192,36193,128,0,36373:0:0:0:70:G7.wav
192,192,36554,1,2,0:0:0:0:
448,192,36554,128,0,37096:0:0:0:80:B7.wav
64,192,36916,128,2,37096:0:0:0:0:
320,192,36916,128,0,37096:0:0:0:70:G7.wav
64,192,37277,128,2,37819:0:0:0:0:
192,192,37277,1,0,0:0:0:80:B7.wav
320,192,37638,128,2,37819:0:0:0:0:
448,192,37638,128,0,37819:0:0:0:80:D8.wav
192,192,38000,1,0,0:0:0:0:
448,192,38361,1,0,0:0:0:60:G7.wav
192,192,38542,1,0,0:0:0:60:F#7.wav
320,192,38723,1,0,0:0:0:60:F7.wav
64,192,38903,1,0,0:0:0:60:D#7.wav
448,192,39084,1,0,0:0:0:60:D7.wav
320,192,39265,1,0,0:0:0:60:C7.wav
64,192,39446,128,2,39717:0:0:0:0:
192,192,39446,128,0,39717:0:0:0:60:B6.wav
448,192,39446,128,0,39717:0:0:0:0:
64,192,39807,128,2,40078:0:0:0:0:
320,192,39807,128,0,40078:0:0:0:60:B6.wav
64,192,40169,128,2,40440:0:0:0:0:
192,192,40169,128,0,40440:0:0:0:60:B6.wav
64,192,40891,1,2,0:0:0:0:
320,192,40891,1,8,0:0:0:0:
448,192,40891,1,0,0:0:0:0:
64,192,41253,1,2,0:0:0:0:
320,192,41253,1,8,0:0:0:0:
448,192,41343,1,0,0:0:0:0:
320,192,41434,1,0,0:0:0:0:
192,192,41614,1,2,0:0:0:0:
448,192,41614,1,8,0:0:0:0:
192,192,41795,1,0,0:0:0:0:
320,192,41885,1,2,0:0:0:0:
448,192,41885,1,8,0:0:0:0:
64,192,41976,1,0,0:0:0:0:
64,192,42156,1,2,0:0:0:0:
320,192,42156,1,8,0:0:0:0:
192,192,42337,1,2,0:0:0:0:
448,192,42337,1,8,0:0:0:0:
448,192,42518,1,0,0:0:0:0:
64,192,42699,1,2,0:0:0:0:
320,192,42699,1,8,0:0:0:0:
320,192,42879,1,0,0:0:0:0:
64,192,43060,1,2,0:0:0:0:
192,192,43060,1,8,0:0:0:0:
192,192,43331,1,2,0:0:0:0:
320,192,43331,1,8,0:0:0:0:
320,192,43602,1,2,0:0:0:0:
448,192,43602,1,8,0:0:0:0:
64,192,43783,1,2,0:0:0:0:
192,192,43783,1,8,0:0:0:0:
448,192,43783,1,0,0:0:0:0:
192,192,44144,1,2,0:0:0:0:
448,192,44144,1,8,0:0:0:0:
64,192,44235,1,0,0:0:0:0:
192,192,44325,1,0,0:0:0:0:
64,192,44506,1,2,0:0:0:0:
320,192,44506,1,8,0:0:0:0:
320,192,44687,1,0,0:0:0:0:
64,192,44777,1,2,0:0:0:0:
192,192,44777,1,8,0:0:0:0:
448,192,44867,1,0,0:0:0:0:
192,192,45048,1,2,0:0:0:0:
448,192,45048,1,8,0:0:0:0:
64,192,45229,1,2,0:0:0:0:
320,192,45229,1,8,0:0:0:0:
64,192,45409,1,0,0:0:0:0:
192,192,45590,1,2,0:0:0:0:
448,192,45590,1,8,0:0:0:0:
192,192,45771,1,0,0:0:0:0:
320,192,45861,1,0,0:0:0:0:
64,192,45952,1,2,0:0:0:0:
448,192,45952,1,8,0:0:0:0:
192,192,46132,1,0,0:0:0:0:
320,192,46313,1,2,0:0:0:0:
448,192,46313,1,8,0:0:0:0:
320,192,46494,1,2,0:0:0:0:
448,192,46494,1,8,0:0:0:0:
64,192,46675,1,2,0:0:0:0:
192,192,46675,1,8,0:0:0:0:
448,192,46675,1,0,0:0:0:0:
192,192,47036,1,2,0:0:0:0:
448,192,47036,1,8,0:0:0:0:
320,192,47126,1,0,0:0:0:0:
448,192,47217,1,0,0:0:0:0:
64,192,47397,1,2,0:0:0:0:
320,192,47397,1,8,0:0:0:0:
64,192,47578,1,0,0:0:0:0:
320,192,47669,1,2,0:0:0:0:
448,192,47669,1,8,0:0:0:0:
192,192,47759,1,0,0:0:0:0:
192,192,47940,1,2,0:0:0:0:
448,192,47940,1,8,0:0:0:0:
64,192,48120,1,2,0:0:0:0:
320,192,48120,1,8,0:0:0:0:
320,192,48301,1,0,0:0:0:0:
64,192,48482,1,8,0:0:0:0:
448,192,48482,1,2,0:0:0:0:
448,192,48663,1,0,0:0:0:0:
64,192,48843,1,8,0:0:0:0:
192,192,48843,1,2,0:0:0:0:
192,192,49114,1,2,0:0:0:0:
320,192,49114,1,8,0:0:0:0:
320,192,49385,1,2,0:0:0:0:
448,192,49385,1,8,0:0:0:0:
64,192,49566,1,2,0:0:0:0:
192,192,49566,1,8,0:0:0:0:
448,192,49566,1,0,0:0:0:0:
320,192,49928,1,2,0:0:0:0:
448,192,49928,1,8,0:0:0:0:
320,192,50108,1,0,0:0:0:0:
64,192,50289,1,2,0:0:0:0:
192,192,50289,1,8,0:0:0:0:
192,192,50470,1,0,0:0:0:0:
320,192,50560,1,2,0:0:0:0:
448,192,50560,1,8,0:0:0:0:
64,192,50650,1,0,0:0:0:0:
64,192,50831,1,2,0:0:0:0:
448,192,50831,1,8,0:0:0:0:
320,192,50922,1,0,0:0:0:0:
64,192,51012,1,10,0:0:0:0:
192,192,51012,128,0,51373:0:0:0:80:B7.wav
320,192,51373,128,10,51735:0:0:0:0:
448,192,51373,1,0,0:0:0:70:G7.wav
64,192,51735,128,10,52096:0:0:0:0:
192,192,51735,1,0,0:0:0:80:B7.wav
320,192,52096,1,10,0:0:0:0:
448,192,52187,1,2,0:0:0:0:
320,192,52277,1,10,0:0:0:0:
448,192,52367,1,2,0:0:0:0:
64,192,52458,128,2,53000:0:0:0:0:
192,192,52458,1,4,0:0:0:0:
192,192,52819,1,8,0:0:0:0:
320,192,52819,128,2,53000:0:0:0:0:
320,192,53181,1,2,0:0:0:0:
448,192,53181,128,0,53723:0:0:0:0:
192,192,53542,128,8,53723:0:0:0:0:
320,192,53542,1,2,0:0:0:0:
64,192,53903,1,2,0:0:0:0:
320,192,53903,1,0,0:0:0:0:
448,192,54084,1,0,0:0:0:0:
64,192,54265,1,8,0:0:0:0:
448,192,54265,1,2,0:0:0:0:
192,192,54446,1,0,0:0:0:0:
64,192,54626,1,2,0:0:0:0:
320,192,54626,128,0,54807:0:0:0:0:
64,192,54807,128,0,54988:0:0:0:0:
192,192,54988,1,8,0:0:0:0:
448,192,54988,128,2,55169:0:0:0:0:
192,192,55169,128,0,55349:0:0:0:0:
320,192,55349,1,2,0:0:0:0:
448,192,55349,128,0,55530:0:0:0:0:
64,192,55530,1,0,0:0:0:0:
192,192,55620,1,0,0:0:0:0:
320,192,55711,1,8,0:0:0:0:
448,192,55711,1,2,0:0:0:0:
64,192,55891,128,0,56072:0:0:0:0:
448,192,56072,1,2,0:0:0:0:
64,192,56253,128,0,56434:0:0:0:0:
192,192,56434,1,8,0:0:0:0:
448,192,56434,1,2,0:0:0:0:
64,192,56614,128,0,56795:0:0:0:0:
448,192,56795,1,2,0:0:0:0:
320,192,56976,1,0,0:0:0:0:
64,192,57156,128,8,57337:0:0:0:0:
320,192,57156,1,2,0:0:0:0:
192,192,57337,1,0,0:0:0:0:
320,192,57518,1,2,0:0:0:0:
448,192,57518,128,0,57699:0:0:0:0:
64,192,57699,1,0,0:0:0:0:
64,192,57879,1,8,0:0:0:0:
320,192,57879,128,2,58060:0:0:0:0:
64,192,58241,128,2,58783:0:0:0:0:
192,192,58241,1,4,0:0:0:0:
192,192,58602,1,8,0:0:0:0:
320,192,58602,128,2,58783:0:0:0:0:
320,192,58964,1,2,0:0:0:0:
448,192,58964,128,0,59506:0:0:0:0:
192,192,59325,128,8,59506:0:0:0:0:
320,192,59325,1,2,0:0:0:0:
320,192,59687,1,2,0:0:0:0:
448,192,59687,1,0,0:0:0:0:
64,192,59867,1,0,0:0:0:0:
64,192,60048,1,8,0:0:0:0:
448,192,60048,1,2,0:0:0:0:
320,192,60229,1,0,0:0:0:0:
192,192,60409,128,2,60590:0:0:0:0:
448,192,60409,1,0,0:0:0:0:
448,192,60590,128,0,60771:0:0:0:0:
64,192,60771,128,8,60952:0:0:0:0:
320,192,60771,1,2,0:0:0:0:
320,192,60952,128,0,61132:0:0:0:0:
192,192,61132,128,2,61313:0:0:0:0:
448,192,61132,1,0,0:0:0:0:
64,192,61313,1,0,0:0:0:0:
448,192,61403,1,0,0:0:0:0:
192,192,61494,1,8,0:0:0:0:
320,192,61494,1,2,0:0:0:0:
64,192,61675,128,0,61855:0:0:0:0:
448,192,61855,1,2,0:0:0:0:
64,192,62036,128,0,62217:0:0:0:0:
192,192,62217,1,8,0:0:0:0:
448,192,62217,1,2,0:0:0:0:
64,192,62397,128,0,62578:0:0:0:0:
320,192,62578,1,2,0:0:0:0:
448,192,62578,128,0,62940:0:0:0:0:
192,192,62759,1,0,0:0:0:0:
64,192,62940,128,8,63301:0:0:0:0:
192,192,62940,1,2,0:0:0:0:
320,192,63301,128,2,63663:0:0:0:0:
448,192,63301,1,0,0:0:0:0:
64,192,63663,1,8,0:0:0:0:
192,192,63663,128,2,64024:0:0:0:0:
64,192,64024,1,2,0:0:0:0:
320,192,64024,1,4,0:0:0:0:
448,192,64024,1,0,0:0:0:0:
448,192,64385,1,0,0:0:0:65:G7.wav
192,192,64566,1,0,0:0:0:65:F#7.wav
320,192,64747,1,0,0:0:0:65:F7.wav
64,192,64928,1,0,0:0:0:65:D#7.wav
448,192,65108,1,0,0:0:0:65:D7.wav
320,192,65289,1,0,0:0:0:65:C7.wav
64,192,65470,1,2,0:0:0:0:
192,192,65470,1,8,0:0:0:0:
448,192,65470,1,0,0:0:0:65:B6.wav
64,192,65650,1,10,0:0:0:0:
320,192,65650,1,0,0:0:0:65:B6.wav
192,192,65831,1,10,0:0:0:0:
448,192,65831,1,0,0:0:0:65:B6.wav
64,192,66012,1,2,0:0:0:0:
192,192,66012,1,8,0:0:0:0:
448,192,66012,1,0,0:0:0:65:B6.wav
320,192,66193,128,0,66554:0:0:0:0:
192,192,66554,128,0,66916:0:0:0:0:
64,192,66916,128,2,67277:0:0:0:0:
320,192,66916,1,4,0:0:0:0:
448,192,66916,1,0,0:0:0:65:C7.wav
192,192,67277,1,10,0:0:0:0:
448,192,67277,128,0,67458:0:0:0:65:G7.wav
320,192,67458,128,0,67638:0:0:0:65:F#7.wav
64,192,67638,128,2,67819:0:0:0:0:
192,192,67819,128,0,68000:0:0:0:65:D#7.wav
320,192,68000,128,10,68181:0:0:0:0:
448,192,68000,1,0,0:0:0:65:D7.wav
64,192,68181,128,0,68361:0:0:0:65:C7.wav
448,192,68361,128,2,68542:0:0:0:0:
320,192,68542,128,0,68723:0:0:0:65:D7.wav
64,192,68723,1,10,0:0:0:0:
192,192,68723,128,0,68903:0:0:0:65:D#7.wav
320,192,68903,128,0,69084:0:0:0:65:F7.wav
64,192,69084,128,2,69626:0:0:0:0:
192,192,69446,1,10,0:0:0:0:
320,192,69446,128,0,69626:0:0:0:70:G7.wav
192,192,69807,1,2,0:0:0:0:
448,192,69807,128,0,70169:0:0:0:65:C7.wav
64,192,70169,128,10,70349:0:0:0:0:
320,192,70169,1,0,0:0:0:65:G7.wav
192,192,70349,128,0,70530:0:0:0:65:F#7.wav
448,192,70530,128,2,70711:0:0:0:0:
320,192,70711,128,0,70891:0:0:0:65:D#7.wav
64,192,70891,1,10,0:0:0:0:
192,192,70891,128,0,71072:0:0:0:65:D7.wav
448,192,71072,128,0,71253:0:0:0:65:C7.wav
64,192,71253,128,2,71434:0:0:0:0:
320,192,71434,128,0,71614:0:0:0:65:C7.wav
64,192,71614,128,10,71795:0:0:0:0:
192,192,71614,1,0,0:0:0:65:B6.wav
320,192,71795,128,0,71976:0:0:0:65:C7.wav
64,192,71976,128,2,72337:0:0:0:0:
192,192,72337,1,8,0:0:0:0:
320,192,72337,1,2,0:0:0:0:
64,192,72699,1,2,0:0:0:0:
320,192,72699,128,4,73060:0:0:0:0:
448,192,72699,1,0,0:0:0:65:C7.wav
192,192,73060,1,10,0:0:0:0:
448,192,73060,128,0,73241:0:0:0:65:G7.wav
64,192,73241,128,0,73422:0:0:0:65:F#7.wav
320,192,73422,128,2,73602:0:0:0:0:
192,192,73602,128,0,73783:0:0:0:65:D#7.wav
64,192,73783,1,10,0:0:0:0:
448,192,73783,128,0,73964:0:0:0:65:D7.wav
320,192,73964,128,0,74144:0:0:0:65:C7.wav
64,192,74144,128,2,74325:0:0:0:0:
192,192,74325,128,0,74506:0:0:0:65:D7.wav
320,192,74506,128,10,74687:0:0:0:0:
448,192,74506,1,0,0:0:0:65:D#7.wav
64,192,74687,128,0,74867:0:0:0:65:F7.wav
448,192,74867,128,2,75409:0:0:0:0:
192,192,75229,128,10,75409:0:0:0:0:
320,192,75229,1,0,0:0:0:65:G7.wav
64,192,75590,1,2,0:0:0:0:
192,192,75590,128,0,75952:0:0:0:65:C7.wav
64,192,75952,128,10,76132:0:0:0:0:
320,192,75952,1,0,0:0:0:65:G7.wav
448,192,76132,128,0,76313:0:0:0:65:F#7.wav
192,192,76313,128,2,76494:0:0:0:0:
320,192,76494,128,0,76675:0:0:0:65:D#7.wav
192,192,76675,128,10,76855:0:0:0:0:
448,192,76675,1,0,0:0:0:65:D7.wav
64,192,76855,128,0,77036:0:0:0:65:C7.wav
448,192,77036,128,2,77217:0:0:0:0:
192,192,77217,128,0,77397:0:0:0:65:C7.wav
64,192,77397,1,10,0:0:0:0:
448,192,77397,128,0,77578:0:0:0:65:B6.wav
192,192,77578,128,0,77759:0:0:0:65:C7.wav
448,192,77759,128,2,78120:0:0:0:0:
192,192,78120,1,8,0:0:0:0:
320,192,78120,1,2,0:0:0:0:
64,192,78482,1,2,0:0:0:0:
320,192,78482,1,4,0:0:0:0:
448,192,78482,1,0,0:0:0:0:
320,192,78663,1,0,0:0:0:0:
192,192,78753,1,0,0:0:0:0:
64,192,78843,1,2,0:0:0:0:
448,192,78843,1,0,0:0:0:0:
64,192,79024,1,0,0:0:0:0:
192,192,79205,1,2,0:0:0:0:
320,192,79205,1,0,0:0:0:0:
320,192,79385,128,0,79566:0:0:0:0:
64,192,79566,128,2,79747:0:0:0:0:
448,192,79566,1,0,0:0:0:0:
320,192,79747,1,0,0:0:0:0:
192,192,79928,1,2,0:0:0:0:
448,192,79928,1,0,0:0:0:0:
320,192,80018,1,0,0:0:0:0:
192,192,80199,1,0,0:0:0:0:
64,192,80289,1,2,0:0:0:0:
320,192,80289,1,0,0:0:0:0:
64,192,80470,1,0,0:0:0:0:
320,192,80650,1,2,0:0:0:0:
448,192,80650,128,0,80831:0:0:0:0:
192,192,80831,128,0,81012:0:0:0:0:
64,192,81012,1,2,0:0:0:0:
448,192,81012,128,0,81193:0:0:0:0:
192,192,81193,128,0,81373:0:0:0:0:
320,192,81373,1,2,0:0:0:0:
448,192,81373,1,0,0:0:0:0:
320,192,81554,1,0,0:0:0:0:
192,192,81735,1,2,0:0:0:0:
448,192,81735,1,0,0:0:0:0:
192,192,81916,1,0,0:0:0:0:
64,192,82096,1,2,0:0:0:0:
320,192,82096,1,0,0:0:0:0:
64,192,82277,128,0,82458:0:0:0:0:
192,192,82458,1,2,0:0:0:0:
448,192,82458,128,0,82638:0:0:0:0:
320,192,82638,1,0,0:0:0:0:
64,192,82819,1,2,0:0:0:0:
192,192,82819,1,0,0:0:0:0:
320,192,82909,1,0,0:0:0:0:
192,192,83090,1,0,0:0:0:0:
320,192,83181,1,2,0:0:0:0:
448,192,83181,1,0,0:0:0:0:
448,192,83361,1,0,0:0:0:0:
64,192,83542,1,2,0:0:0:0:
320,192,83542,1,0,0:0:0:0:
320,192,83723,128,0,83903:0:0:0:0:
64,192,83903,128,2,84084:0:0:0:0:
192,192,83903,1,0,0:0:0:0:
320,192,84084,1,0,0:0:0:0:
64,192,84265,1,2,0:0:0:0:
192,192,84265,1,4,0:0:0:0:
448,192,84265,1,0,0:0:0:0:
192,192,84446,1,0,0:0:0:0:
320,192,84536,1,0,0:0:0:0:
64,192,84626,1,2,0:0:0:0:
448,192,84626,1,0,0:0:0:0:
448,192,84807,1,0,0:0:0:0:
64,192,84988,1,2,0:0:0:0:
192,192,84988,1,0,0:0:0:0:
192,192,85169,128,0,85349:0:0:0:0:
64,192,85349,1,2,0:0:0:0:
448,192,85349,128,0,85530:0:0:0:0:
320,192,85530,1,0,0:0:0:0:
192,192,85711,1,2,0:0:0:0:
448,192,85711,1,0,0:0:0:0:
64,192,85801,1,0,0:0:0:0:
448,192,85982,1,0,0:0:0:0:
64,192,86072,1,2,0:0:0:0:
320,192,86072,1,0,0:0:0:0:
320,192,86253,1,0,0:0:0:0:
192,192,86434,1,2,0:0:0:0:
448,192,86434,128,0,86614:0:0:0:0:
192,192,86614,128,0,86795:0:0:0:0:
64,192,86795,1,2,0:0:0:0:
320,192,86795,128,0,86976:0:0:0:0:
64,192,86976,128,0,87156:0:0:0:0:
192,192,87156,1,2,0:0:0:0:
448,192,87156,128,0,87247:0:0:0:0:
448,192,87337,128,0,87428:0:0:0:0:
64,192,87518,1,2,0:0:0:0:
448,192,87518,128,0,87699:0:0:0:0:
192,192,87699,128,0,87879:0:0:0:0:
320,192,87879,1,2,0:0:0:0:
448,192,87879,128,0,87970:0:0:0:0:
64,192,88060,128,0,88150:0:0:0:0:
64,192,88241,128,2,88422:0:0:0:0:
192,192,88241,1,0,0:0:0:0:
64,192,88602,1,2,0:0:0:0:
448,192,88602,1,0,0:0:0:0:
192,192,88693,1,0,0:0:0:0:
320,192,88873,1,0,0:0:0:0:
64,192,88964,1,2,0:0:0:0:
448,192,88964,1,0,0:0:0:0:
448,192,89144,1,0,0:0:0:0:
64,192,89325,1,2,0:0:0:0:
192,192,89325,1,0,0:0:0:70:G7.wav
64,192,89506,1,2,0:0:0:0:
192,192,89506,1,0,0:0:0:70:F7.wav
320,192,89687,1,2,0:0:0:0:
448,192,89687,1,0,0:0:0:70:D#7.wav
320,192,89867,1,2,0:0:0:0:
448,192,89867,1,0,0:0:0:70:D7.wav
64,192,90048,1,10,0:0:0:0:
192,192,90048,1,4,0:0:0:0:
64,192,90409,1,2,0:0:0:0:
320,192,90409,1,8,0:0:0:0:
192,192,90500,1,0,0:0:0:0:
64,192,90590,1,0,0:0:0:0:
320,192,90771,1,2,0:0:0:0:
448,192,90771,1,8,0:0:0:0:
448,192,90952,1,0,0:0:0:0:
64,192,91042,1,2,0:0:0:0:
320,192,91042,1,8,0:0:0:0:
192,192,91132,1,0,0:0:0:0:
192,192,91313,1,2,0:0:0:0:
448,192,91313,1,8,0:0:0:0:
64,192,91494,1,2,0:0:0:0:
320,192,91494,1,8,0:0:0:0:
320,192,91675,1,0,0:0:0:0:
192,192,91855,1,2,0:0:0:0:
448,192,91855,1,8,0:0:0:0:
192,192,92036,1,0,0:0:0:0:
64,192,92217,1,2,0:0:0:0:
448,192,92217,1,8,0:0:0:0:
64,192,92488,1,2,0:0:0:0:
320,192,92488,1,8,0:0:0:0:
64,192,92759,1,2,0:0:0:0:
192,192,92759,1,8,0:0:0:0:
64,192,92940,1,2,0:0:0:0:
320,192,92940,1,8,0:0:0:0:
448,192,92940,1,0,0:0:0:0:
192,192,93301,1,2,0:0:0:0:
448,192,93301,1,8,0:0:0:0:
320,192,93391,1,0,0:0:0:0:
448,192,93482,1,0,0:0:0:0:
64,192,93663,1,2,0:0:0:0:
320,192,93663,1,8,0:0:0:0:
64,192,93843,1,0,0:0:0:0:
192,192,93934,1,2,0:0:0:0:
448,192,93934,1,8,0:0:0:0:
320,192,94024,1,0,0:0:0:0:
64,192,94205,1,2,0:0:0:0:
320,192,94205,1,8,0:0:0:0:
192,192,94385,1,2,0:0:0:0:
448,192,94385,1,8,0:0:0:0:
192,192,94566,1,0,0:0:0:0:
64,192,94747,1,2,0:0:0:0:
320,192,94747,1,8,0:0:0:0:
320,192,94928,1,0,0:0:0:0:
448,192,95018,1,2,0:0:0:0:
64,192,95108,1,2,0:0:0:0:
192,192,95108,1,8,0:0:0:0:
320,192,95289,1,0,0:0:0:0:
64,192,95470,1,2,0:0:0:0:
448,192,95470,1,8,0:0:0:0:
64,192,95650,1,2,0:0:0:0:
448,192,95650,1,8,0:0:0:0:
192,192,95831,1,2,0:0:0:0:
320,192,95831,1,8,0:0:0:0:
448,192,95831,1,0,0:0:0:0:
64,192,96193,1,2,0:0:0:0:
320,192,96193,1,8,0:0:0:0:
448,192,96283,1,0,0:0:0:0:
320,192,96373,1,0,0:0:0:0:
64,192,96554,1,2,0:0:0:0:
192,192,96554,1,8,0:0:0:0:
64,192,96735,1,0,0:0:0:0:
192,192,96825,1,2,0:0:0:0:
448,192,96825,1,8,0:0:0:0:
320,192,96916,1,0,0:0:0:0:
64,192,97096,1,2,0:0:0:0:
320,192,97096,1,8,0:0:0:0:
192,192,97277,1,2,0:0:0:0:
448,192,97277,1,8,0:0:0:0:
192,192,97458,1,0,0:0:0:0:
64,192,97638,1,2,0:0:0:0:
320,192,97638,1,8,0:0:0:0:
320,192,97819,1,0,0:0:0:0:
64,192,98000,1,2,0:0:0:0:
448,192,98000,1,8,0:0:0:0:
64,192,98271,1,2,0:0:0:0:
320,192,98271,1,8,0:0:0:0:
64,192,98542,1,2,0:0:0:0:
192,192,98542,1,8,0:0:0:0:
64,192,98723,1,2,0:0:0:0:
320,192,98723,1,8,0:0:0:0:
448,192,98723,1,0,0:0:0:0:
192,192,99084,1,2,0:0:0:0:
448,192,99084,1,8,0:0:0:0:
192,192,99265,1,0,0:0:0:0:
64,192,99446,1,2,0:0:0:0:
320,192,99446,1,8,0:0:0:0:
320,192,99626,1,0,0:0:0:0:
192,192,99717,1,2,0:0:0:0:
448,192,99717,1,8,0:0:0:0:
64,192,99807,1,0,0:0:0:0:
64,192,99988,1,2,0:0:0:0:
448,192,99988,1,8,0:0:0:0:
320,192,100078,1,0,0:0:0:0:
64,192,100169,128,10,100530:0:0:0:0:
192,192,100169,1,0,0:0:0:80:B7.wav
320,192,100530,1,10,0:0:0:0:
448,192,100530,128,0,100891:0:0:0:70:G7.wav
64,192,100891,1,10,0:0:0:0:
192,192,100891,128,0,101253:0:0:0:80:B7.wav
320,192,101253,1,10,0:0:0:0:
448,192,101343,1,2,0:0:0:0:
320,192,101434,1,10,0:0:0:0:
448,192,101524,1,2,0:0:0:0:
64,192,101614,128,2,102156:0:0:0:0:
192,192,101614,1,4,0:0:0:0:
192,192,101976,1,8,0:0:0:0:
320,192,101976,128,2,102156:0:0:0:0:
320,192,102337,1,2,0:0:0:0:
448,192,102337,128,0,102879:0:0:0:0:
192,192,102699,128,8,102879:0:0:0:0:
320,192,102699,1,2,0:0:0:0:
64,192,103060,1,2,0:0:0:0:
192,192,103060,1,0,0:0:0:0:
320,192,103241,128,0,103602:0:0:0:0:
64,192,103422,1,8,0:0:0:0:
448,192,103422,1,2,0:0:0:0:
192,192,103602,1,0,0:0:0:0:
192,192,103783,128,2,103964:0:0:0:0:
448,192,103783,1,0,0:0:0:0:
448,192,103964,128,0,104144:0:0:0:0:
64,192,104144,128,8,104325:0:0:0:0:
320,192,104144,1,2,0:0:0:0:
320,192,104325,128,0,104506:0:0:0:0:
64,192,104506,1,2,0:0:0:0:
192,192,104506,128,0,104687:0:0:0:0:
448,192,104687,1,0,0:0:0:0:
320,192,104777,1,0,0:0:0:0:
64,192,104867,1,8,0:0:0:0:
192,192,104867,1,2,0:0:0:0:
448,192,105048,128,0,105229:0:0:0:0:
64,192,105229,1,2,0:0:0:0:
448,192,105409,128,0,105590:0:0:0:0:
64,192,105590,1,8,0:0:0:0:
320,192,105590,1,2,0:0:0:0:
448,192,105771,128,0,105952:0:0:0:0:
64,192,105952,1,2,0:0:0:0:
320,192,106132,128,0,106313:0:0:0:0:
64,192,106313,128,8,106494:0:0:0:0:
192,192,106313,1,2,0:0:0:0:
448,192,106494,128,0,106675:0:0:0:0:
192,192,106675,128,2,106855:0:0:0:0:
320,192,106675,1,0,0:0:0:0:
64,192,106855,1,0,0:0:0:0:
64,192,107036,1,8,0:0:0:0:
448,192,107036,128,2,107217:0:0:0:0:
64,192,107397,128,2,107940:0:0:0:0:
192,192,107397,1,4,0:0:0:0:
192,192,107759,1,8,0:0:0:0:
320,192,107759,128,2,107940:0:0:0:0:
320,192,108120,1,2,0:0:0:0:
448,192,108120,128,0,108663:0:0:0:0:
192,192,108482,128,8,108663:0:0:0:0:
320,192,108482,1,2,0:0:0:0:
320,192,108843,1,2,0:0:0:0:
448,192,108843,1,0,0:0:0:0:
192,192,109024,128,0,109385:0:0:0:0:
64,192,109205,1,8,0:0:0:0:
448,192,109205,1,2,0:0:0:0:
320,192,109385,1,0,0:0:0:0:
64,192,109566,1,2,0:0:0:0:
320,192,109566,128,0,109747:0:0:0:0:
64,192,109747,128,0,109928:0:0:0:0:
192,192,109928,1,8,0:0:0:0:
448,192,109928,128,2,110108:0:0:0:0:
192,192,110108,128,0,110289:0:0:0:0:
320,192,110289,128,2,110470:0:0:0:0:
448,192,110289,1,0,0:0:0:0:
64,192,110470,1,0,0:0:0:0:
448,192,110560,1,0,0:0:0:0:
192,192,110650,1,8,0:0:0:0:
320,192,110650,1,2,0:0:0:0:
448,192,110831,128,0,111012:0:0:0:0:
64,192,111012,1,2,0:0:0:0:
448,192,111193,128,0,111373:0:0:0:0:
64,192,111373,1,8,0:0:0:0:
320,192,111373,1,2,0:0:0:0:
448,192,111554,128,0,111735:0:0:0:0:
64,192,111735,128,2,112096:0:0:0:0:
192,192,111735,1,0,0:0:0:0:
320,192,111916,1,0,0:0:0:0:
320,192,112096,1,8,0:0:0:0:
448,192,112096,128,2,112458:0:0:0:0:
64,192,112458,1,2,0:0:0:0:
192,192,112458,128,0,112819:0:0:0:0:
320,192,112819,128,8,113181:0:0:0:0:
448,192,112819,1,2,0:0:0:0:
64,192,113181,1,2,0:0:0:0:
192,192,113181,1,4,0:0:0:0:
448,192,113181,1,0,0:0:0:0:
448,192,113542,1,0,0:0:0:65:G7.wav
192,192,113723,1,0,0:0:0:65:F#7.wav
320,192,113903,1,0,0:0:0:65:F7.wav
64,192,114084,1,0,0:0:0:65:D#7.wav
448,192,114265,1,0,0:0:0:65:D7.wav
320,192,114446,1,0,0:0:0:65:C7.wav
64,192,114626,1,2,0:0:0:0:
192,192,114626,1,8,0:0:0:0:
448,192,114626,1,0,0:0:0:65:B6.wav
64,192,114807,1,10,0:0:0:0:
192,192,114807,1,0,0:0:0:65:B6.wav
320,192,114988,1,10,0:0:0:0:
448,192,114988,1,0,0:0:0:65:C7.wav
192,192,115169,1,2,0:0:0:0:
320,192,115169,1,8,0:0:0:0:
448,192,115169,1,0,0:0:0:60:C7.wav
64,192,115349,128,0,115711:0:0:0:0:
192,192,115711,128,0,116072:0:0:0:0:
64,192,116072,1,2,0:0:0:0:
320,192,116072,128,4,116434:0:0:0:0:
448,192,116072,1,0,0:0:0:70:C#7.wav
64,192,116434,128,10,116614:0:0:0:0:
192,192,116434,1,0,0:0:0:80:G#7.wav
448,192,116614,128,0,116795:0:0:0:70:G7.wav
192,192,116795,128,2,116976:0:0:0:0:
320,192,116976,128,0,117156:0:0:0:70:E7.wav
64,192,117156,128,10,117337:0:0:0:0:
448,192,117156,1,0,0:0:0:70:D#7.wav
192,192,117337,128,0,117518:0:0:0:70:C#7.wav
448,192,117518,128,2,117699:0:0:0:0:
320,192,117699,128,0,117879:0:0:0:70:D#7.wav
64,192,117879,1,10,0:0:0:0:
192,192,117879,128,0,118060:0:0:0:70:E7.wav
320,192,118060,128,0,118241:0:0:0:70:F#7.wav
448,192,118241,128,2,118783:0:0:0:0:
192,192,118602,128,10,118783:0:0:0:0:
320,192,118602,1,0,0:0:0:70:G#7.wav
64,192,118964,1,2,0:0:0:0:
320,192,118964,128,0,119325:0:0:0:70:C#7.wav
64,192,119325,128,10,119506:0:0:0:0:
448,192,119325,1,0,0:0:0:70:G#7.wav
192,192,119506,128,0,119687:0:0:0:70:G7.wav
320,192,119687,128,2,119867:0:0:0:0:
448,192,119867,128,0,120048:0:0:0:70:E7.wav
64,192,120048,1,10,0:0:0:0:
192,192,120048,128,0,120229:0:0:0:70:D#7.wav
320,192,120229,128,0,120409:0:0:0:70:C#7.wav
64,192,120409,128,2,120590:0:0:0:0:
192,192,120590,128,0,120771:0:0:0:70:C#7.wav
64,192,120771,128,10,120952:0:0:0:0:
448,192,120771,1,0,0:0:0:70:C7.wav
192,192,120952,128,0,121132:0:0:0:70:C#7.wav
448,192,121132,128,2,121494:0:0:0:0:
192,192,121494,1,8,0:0:0:0:
320,192,121494,128,2,121855:0:0:0:0:
64,192,121855,1,2,0:0:0:0:
192,192,121855,128,4,122217:0:0:0:0:
448,192,121855,1,0,0:0:0:70:C#7.wav
320,192,122217,1,10,0:0:0:0:
448,192,122217,128,0,122397:0:0:0:80:G#7.wav
64,192,122397,128,0,122578:0:0:0:70:G7.wav
320,192,122578,128,2,122759:0:0:0:0:
192,192,122759,128,0,122940:0:0:0:70:E7.wav
64,192,122940,1,10,0:0:0:0:
448,192,122940,128,0,123120:0:0:0:70:D#7.wav
320,192,123120,128,0,123301:0:0:0:70:C#7.wav
64,192,123301,128,2,123482:0:0:0:0:
448,192,123482,128,0,123663:0:0:0:70:D#7.wav
64,192,123663,1,10,0:0:0:0:
192,192,123663,128,0,123843:0:0:0:70:E7.wav
320,192,123843,128,0,124024:0:0:0:70:F#7.wav
64,192,124024,128,2,124566:0:0:0:0:
192,192,124385,1,10,0:0:0:0:
320,192,124385,128,0,124566:0:0:0:70:G#7.wav
192,192,124747,128,2,125108:0:0:0:0:
448,192,124747,1,0,0:0:0:70:C#7.wav
64,192,125108,1,10,0:0:0:0:
448,192,125108,128,0,125289:0:0:0:70:G#7.wav
320,192,125289,128,0,125470:0:0:0:70:G7.wav
64,192,125470,128,2,125650:0:0:0:0:
192,192,125650,128,0,125831:0:0:0:70:E7.wav
320,192,125831,128,10,126012:0:0:0:0:
448,192,125831,1,0,0:0:0:70:D#7.wav
64,192,126012,128,0,126193:0:0:0:70:C#7.wav
448,192,126193,128,2,126373:0:0:0:0:
192,192,126373,128,0,126554:0:0:0:70:C#7.wav
64,192,126554,1,10,0:0:0:0:
448,192,126554,128,0,126735:0:0:0:70:C7.wav
192,192,126735,128,0,126916:0:0:0:70:C#7.wav
320,192,126916,128,2,127096:0:0:0:0:
64,192,127096,128,0,127277:0:0:0:65:D#7.wav
320,192,127277,1,10,0:0:0:0:
448,192,127277,128,0,127458:0:0:0:70:C#7.wav
192,192,127458,128,0,127638:0:0:0:70:C7.wav
64,192,127638,1,2,0:0:0:0:
320,192,127638,128,4,128000:0:0:0:0:
448,192,127638,1,0,0:0:0:65:C#7.wav
64,192,128000,1,2,0:0:0:0:
320,192,128181,128,0,128361:0:0:0:0:
64,192,128361,1,2,0:0:0:0:
320,192,128542,128,0,128723:0:0:0:0:
64,192,128723,1,2,0:0:0:0:
320,192,128903,128,0,129084:0:0:0:0:
64,192,129084,128,2,129446:0:0:0:0:
192,192,129175,128,0,129446:0:0:0:0:
448,192,129446,1,2,0:0:0:0:
64,192,129626,128,0,129807:0:0:0:0:
448,192,129807,1,2,0:0:0:0:
64,192,129988,128,0,130169:0:0:0:0:
448,192,130169,1,2,0:0:0:0:
64,192,130349,128,0,130530:0:0:0:0:
448,192,130530,128,2,130891:0:0:0:0:
320,192,130620,128,0,130891:0:0:0:0:
192,192,130891,1,2,0:0:0:0:
320,192,131072,128,0,131253:0:0:0:0:
192,192,131253,1,2,0:0:0:0:
320,192,131434,128,0,131614:0:0:0:0:
192,192,131614,1,2,0:0:0:0:
320,192,131795,128,0,131976:0:0:0:0:
192,192,131976,128,2,132337:0:0:0:0:
64,192,132066,128,0,132337:0:0:0:0:
448,192,132337,1,2,0:0:0:0:
64,192,132518,128,0,132699:0:0:0:0:
448,192,132699,1,2,0:0:0:0:
64,192,132879,128,0,133060:0:0:0:0:
448,192,133060,1,2,0:0:0:0:
64,192,133241,128,0,133422:0:0:0:0:
