osu file format v14

[General]
AudioFilename: audio.mp3
AudioLeadIn: 0
PreviewTime: 101615
Countdown: 0
SampleSet: Soft
StackLeniency: 0.7
Mode: 3
LetterboxInBreaks: 0
SpecialStyle: 0
WidescreenStoryboard: 1

[Editor]
DistanceSpacing: 0.7
BeatDivisor: 4
GridSize: 32
TimelineZoom: 1.8

[Metadata]
Title:KING
TitleUnicode:KING
Artist:Murasaki Shion
ArtistUnicode:紫咲シオン
Creator:deta5859
Version:Paran's EASY
Source:
Tags:Sun Nabi- Paran Kanon Matsubara ごず gozu たーむ tarm kanaria gumi vocaloid ボカロ vtuber virtual youtuber hololive ホロライブ japanese pop jpop j-pop
BeatmapID:2747827
BeatmapSetID:1325554

[Difficulty]
HPDrainRate:7
CircleSize:4
OverallDifficulty:7
ApproachRate:5
SliderMultiplier:1.4
SliderTickRate:1

[Events]
//Background and Video events
0,0,"shion chan daisu daisuke.jpg",0,0
//Break Periods
//Storyboard Layer 0 (Background)
//Storyboard Layer 1 (Fail)
//Storyboard Layer 2 (Pass)
//Storyboard Layer 3 (Foreground)
//Storyboard Layer 4 (Overlay)
//Storyboard Sound Samples
Sample,4024,0,"F7.wav",65
Sample,4747,0,"C7.wav",65
Sample,5470,0,"F#7.wav",65
Sample,6193,0,"C7.wav",65
Sample,6916,0,"F7.wav",65
Sample,7638,0,"B6.wav",65
Sample,8361,0,"B6.wav",65
Sample,9807,0,"F7.wav",65
Sample,10530,0,"C7.wav",65
Sample,11253,0,"F#7.wav",65
Sample,11976,0,"C7.wav",65
Sample,12699,0,"F7.wav",65
Sample,13422,0,"B6.wav",65
Sample,14144,0,"B6.wav",65
Sample,26434,0,"G7.wav",70
Sample,26795,0,"G7.wav",70
Sample,27156,0,"G7.wav",70
Sample,27518,0,"G7.wav",70
Sample,27879,0,"G7.wav",70
Sample,28241,0,"G7.wav",70
Sample,28602,0,"G7.wav",70
Sample,29325,0,"G7.wav",70
Sample,29687,0,"G7.wav",70
Sample,30048,0,"G7.wav",70
Sample,30409,0,"G7.wav",70
Sample,30771,0,"G7.wav",70
Sample,31132,0,"G7.wav",70
Sample,31494,0,"D#7.wav",70
Sample,31765,0,"D7.wav",70
Sample,32578,0,"G7.wav",70
Sample,32940,0,"G7.wav",70
Sample,33301,0,"G7.wav",70
Sample,33663,0,"G7.wav",70
Sample,34024,0,"G7.wav",70
Sample,34385,0,"G7.wav",70
Sample,35108,0,"G7.wav",70
Sample,35470,0,"G7.wav",70
Sample,35831,0,"G7.wav",70
Sample,36193,0,"G7.wav",70
Sample,36554,0,"B7.wav",80
Sample,36916,0,"G7.wav",70
Sample,37277,0,"B7.wav",80
Sample,37638,0,"D8.wav",80
Sample,51012,0,"B7.wav",80
Sample,51373,0,"G7.wav",70
Sample,51735,0,"B7.wav",80
Sample,52096,0,"D8.wav",85
Sample,65470,0,"B6.wav",65
Sample,65650,0,"B6.wav",65
Sample,65831,0,"B6.wav",65
Sample,66012,0,"B6.wav",65
Sample,67638,0,"F7.wav",65
Sample,68361,0,"C7.wav",65
Sample,69084,0,"F#7.wav",65
Sample,69807,0,"C7.wav",65
Sample,70530,0,"F7.wav",65
Sample,71253,0,"B6.wav",65
Sample,71976,0,"B6.wav",65
Sample,73422,0,"F7.wav",65
Sample,74144,0,"C7.wav",65
Sample,74867,0,"F#7.wav",65
Sample,75590,0,"C7.wav",65
Sample,76313,0,"F7.wav",65
Sample,77036,0,"B6.wav",65
Sample,77759,0,"B6.wav",65
Sample,89325,0,"G7.wav",70
Sample,89506,0,"F7.wav",70
Sample,89687,0,"D#7.wav",70
Sample,89867,0,"D7.wav",70
Sample,90048,0,"C7.wav",50
Sample,100169,0,"B7.wav",80
Sample,100530,0,"G7.wav",70
Sample,100891,0,"B7.wav",80
Sample,101253,0,"D8.wav",85
Sample,114626,0,"B6.wav",65
Sample,114807,0,"B6.wav",65
Sample,114988,0,"C7.wav",65
Sample,115169,0,"C7.wav",60
Sample,116795,0,"F#7.wav",70
Sample,117518,0,"C#7.wav",70
Sample,118241,0,"G7.wav",70
Sample,118964,0,"C#7.wav",70
Sample,119687,0,"F#7.wav",70
Sample,120409,0,"C7.wav",70
Sample,121132,0,"C7.wav",70
Sample,122578,0,"F#7.wav",70
Sample,123301,0,"C#7.wav",70
Sample,124024,0,"G7.wav",70
Sample,124747,0,"C#7.wav",70
Sample,125470,0,"F#7.wav",70
Sample,126193,0,"C7.wav",70
Sample,126916,0,"E7.wav",70

[TimingPoints]
410,361.44578313253,4,2,1,40,1,0
3301,-100,4,2,1,75,0,0
14867,-100,4,2,1,70,0,0
38000,-100,4,2,1,50,0,0
40891,-100,4,2,1,60,0,0
52458,-100,4,2,1,80,0,0
64024,-100,4,2,1,60,0,0
66916,-100,4,2,1,75,0,0
78482,-100,4,2,1,70,0,0
101614,-100,4,2,1,80,0,0
113181,-100,4,2,1,60,0,0
116072,-100,4,2,1,75,0,0
127638,-100,4,2,1,65,0,0

[HitObjects]
64,192,410,5,0,0:0:0:40:C7.wav
448,192,771,128,0,1132:0:0:0:40:G7.wav
320,192,1132,128,0,1494:0:0:0:40:F7.wav
192,192,1494,128,0,1855:0:0:0:40:D7.wav
64,192,1855,1,0,0:0:0:40:B6.wav
448,192,2036,1,0,0:0:0:40:C7.wav
64,192,2217,1,0,0:0:0:40:B6.wav
448,192,2397,1,0,0:0:0:40:C7.wav
192,192,2578,128,0,2940:0:0:0:40:B6.wav
64,192,3301,1,6,0:0:0:0:
448,192,3301,1,0,0:0:0:65:C7.wav
192,192,3663,1,10,0:0:0:0:
320,192,3663,1,0,0:0:0:65:G7.wav
64,192,4024,1,2,0:0:0:0:
320,192,4385,1,10,0:0:0:0:
448,192,4385,1,0,0:0:0:65:D7.wav
192,192,4747,1,2,0:0:0:0:
64,192,5108,1,10,0:0:0:0:
320,192,5108,1,0,0:0:0:65:D#7.wav
448,192,5470,1,2,0:0:0:0:
64,192,5831,1,10,0:0:0:0:
192,192,5831,1,0,0:0:0:70:G7.wav
320,192,6193,1,2,0:0:0:0:
192,192,6554,1,10,0:0:0:0:
448,192,6554,1,0,0:0:0:65:G7.wav
64,192,6916,1,2,0:0:0:0:
192,192,7277,1,10,0:0:0:0:
320,192,7277,1,0,0:0:0:65:D7.wav
448,192,7638,1,2,0:0:0:0:
64,192,8000,1,10,0:0:0:0:
192,192,8000,1,0,0:0:0:65:B6.wav
320,192,8361,1,2,0:0:0:0:
192,192,8723,1,8,0:0:0:0:
448,192,8723,1,2,0:0:0:0:
64,192,9084,1,6,0:0:0:0:
448,192,9084,1,0,0:0:0:65:C7.wav
192,192,9446,1,10,0:0:0:0:
320,192,9446,1,0,0:0:0:65:G7.wav
448,192,9807,1,2,0:0:0:0:
64,192,10169,1,10,0:0:0:0:
192,192,10169,1,0,0:0:0:65:D7.wav
320,192,10530,1,2,0:0:0:0:
192,192,10891,1,10,0:0:0:0:
448,192,10891,1,0,0:0:0:65:D#7.wav
64,192,11253,1,2,0:0:0:0:
320,192,11614,1,10,0:0:0:0:
448,192,11614,1,0,0:0:0:65:G7.wav
192,192,11976,1,2,0:0:0:0:
64,192,12337,1,10,0:0:0:0:
320,192,12337,1,0,0:0:0:65:G7.wav
448,192,12699,1,2,0:0:0:0:
192,192,13060,1,10,0:0:0:0:
320,192,13060,1,0,0:0:0:65:D7.wav
64,192,13422,1,2,0:0:0:0:
320,192,13783,1,10,0:0:0:0:
448,192,13783,1,0,0:0:0:65:B6.wav
192,192,14144,1,2,0:0:0:0:
64,192,14506,1,8,0:0:0:0:
320,192,14506,1,2,0:0:0:0:
192,192,14867,1,2,0:0:0:0:
448,192,14867,128,0,15229:0:0:0:0:
64,192,15229,128,2,15590:0:0:0:0:
320,192,15590,1,2,0:0:0:0:
448,192,15952,1,2,0:0:0:0:
64,192,16313,128,2,16675:0:0:0:0:
320,192,16313,1,0,0:0:0:0:
448,192,16675,128,2,17036:0:0:0:0:
192,192,17036,1,2,0:0:0:0:
64,192,17397,1,2,0:0:0:0:
192,192,17759,128,2,18120:0:0:0:0:
448,192,17759,1,0,0:0:0:0:
320,192,18120,128,2,18482:0:0:0:0:
64,192,18482,1,2,0:0:0:0:
192,192,18843,1,2,0:0:0:0:
64,192,19205,1,2,0:0:0:0:
320,192,19205,128,0,19566:0:0:0:0:
192,192,19566,128,2,19928:0:0:0:0:
448,192,19928,1,2,0:0:0:0:
320,192,20289,1,2,0:0:0:0:
64,192,20650,128,2,21012:0:0:0:0:
192,192,20650,1,0,0:0:0:0:
320,192,21012,128,2,21373:0:0:0:0:
448,192,21373,1,2,0:0:0:0:
64,192,21735,1,2,0:0:0:0:
320,192,22096,1,2,0:0:0:0:
448,192,22096,128,0,22458:0:0:0:0:
192,192,22458,128,2,22819:0:0:0:0:
64,192,22819,1,2,0:0:0:0:
448,192,23181,1,2,0:0:0:0:
192,192,23542,128,2,23903:0:0:0:0:
320,192,23542,1,0,0:0:0:0:
448,192,23903,128,2,24265:0:0:0:0:
64,192,24265,1,2,0:0:0:0:
320,192,24626,1,2,0:0:0:0:
64,192,24988,128,2,25349:0:0:0:0:
448,192,24988,1,0,0:0:0:0:
192,192,25349,128,2,25711:0:0:0:0:
320,192,25711,128,2,26072:0:0:0:0:
448,192,26072,128,2,26434:0:0:0:0:
64,192,26434,1,2,0:0:0:0:
320,192,26434,1,4,0:0:0:0:
192,192,26614,1,0,0:0:0:70:G#7.wav
320,192,26795,1,2,0:0:0:0:
448,192,27156,1,2,0:0:0:0:
320,192,27337,1,0,0:0:0:70:G#7.wav
192,192,27518,1,2,0:0:0:0:
64,192,27879,1,2,0:0:0:0:
448,192,28060,1,0,0:0:0:45:A#7.wav
192,192,28241,1,2,0:0:0:0:
320,192,28602,1,2,0:0:0:0:
192,192,28873,1,0,0:0:0:70:A#7.wav
64,192,29144,1,0,0:0:0:70:G7.wav
448,192,29325,1,2,0:0:0:0:
320,192,29506,1,0,0:0:0:70:G#7.wav
192,192,29687,1,2,0:0:0:0:
64,192,30048,1,2,0:0:0:0:
192,192,30229,1,0,0:0:0:70:G#7.wav
320,192,30409,1,2,0:0:0:0:
448,192,30771,1,2,0:0:0:0:
64,192,30952,1,0,0:0:0:70:G7.wav
320,192,31132,1,2,0:0:0:0:
448,192,31313,1,0,0:0:0:70:F7.wav
192,192,31494,1,2,0:0:0:0:
320,192,31765,1,2,0:0:0:0:
448,192,32036,1,2,0:0:0:0:
64,192,32217,1,6,0:0:0:0:
320,192,32217,1,0,0:0:0:70:G7.wav
192,192,32397,1,0,0:0:0:70:G#7.wav
320,192,32578,1,2,0:0:0:0:
448,192,32940,1,2,0:0:0:0:
320,192,33120,1,0,0:0:0:70:G#7.wav
192,192,33301,1,2,0:0:0:0:
64,192,33663,1,2,0:0:0:0:
448,192,33843,1,0,0:0:0:70:A#7.wav
192,192,34024,1,2,0:0:0:0:
320,192,34385,1,2,0:0:0:0:
192,192,34656,1,0,0:0:0:70:A#7.wav
64,192,34928,1,0,0:0:0:70:G7.wav
448,192,35108,1,2,0:0:0:0:
320,192,35289,1,0,0:0:0:70:G#7.wav
192,192,35470,1,2,0:0:0:0:
64,192,35831,1,2,0:0:0:0:
192,192,36012,1,0,0:0:0:70:G#7.wav
320,192,36193,1,2,0:0:0:0:
448,192,36554,128,2,36916:0:0:0:0:
64,192,36916,128,2,37277:0:0:0:0:
320,192,37277,128,2,37638:0:0:0:0:
192,192,37638,128,2,38000:0:0:0:0:
448,192,38000,1,0,0:0:0:0:
64,192,38361,128,0,38723:0:0:0:60:G7.wav
192,192,38723,128,0,39084:0:0:0:60:F7.wav
320,192,39084,128,0,39446:0:0:0:60:D7.wav
64,192,39446,1,2,0:0:0:0:
448,192,39446,1,0,0:0:0:60:B6.wav
64,192,39807,1,2,0:0:0:0:
448,192,39807,1,0,0:0:0:60:B6.wav
64,192,40169,1,2,0:0:0:0:
448,192,40169,1,0,0:0:0:60:B6.wav
448,192,40891,1,10,0:0:0:0:
448,192,41253,1,10,0:0:0:0:
64,192,41614,1,10,0:0:0:0:
192,192,41885,1,10,0:0:0:0:
320,192,42156,1,10,0:0:0:0:
64,192,42337,1,10,0:0:0:0:
64,192,42699,1,10,0:0:0:0:
448,192,43060,1,10,0:0:0:0:
320,192,43331,1,10,0:0:0:0:
192,192,43602,1,10,0:0:0:0:
448,192,43783,1,10,0:0:0:0:
448,192,44144,1,10,0:0:0:0:
64,192,44506,1,10,0:0:0:0:
192,192,44777,1,10,0:0:0:0:
320,192,45048,1,10,0:0:0:0:
64,192,45229,1,10,0:0:0:0:
64,192,45590,1,10,0:0:0:0:
448,192,45952,1,10,0:0:0:0:
192,192,46313,1,10,0:0:0:0:
320,192,46494,1,10,0:0:0:0:
64,192,46675,1,10,0:0:0:0:
64,192,47036,1,10,0:0:0:0:
448,192,47397,1,10,0:0:0:0:
320,192,47669,1,10,0:0:0:0:
192,192,47940,1,10,0:0:0:0:
448,192,48120,1,10,0:0:0:0:
448,192,48482,1,10,0:0:0:0:
64,192,48843,1,10,0:0:0:0:
192,192,49114,1,10,0:0:0:0:
320,192,49385,1,10,0:0:0:0:
64,192,49566,1,10,0:0:0:0:
64,192,49928,1,10,0:0:0:0:
448,192,50289,1,10,0:0:0:0:
320,192,50560,1,10,0:0:0:0:
192,192,50831,1,10,0:0:0:0:
448,192,51012,128,10,51373:0:0:0:0:
192,192,51373,128,10,51735:0:0:0:0:
320,192,51735,128,10,52096:0:0:0:0:
64,192,52096,128,10,52458:0:0:0:0:
320,192,52458,1,2,0:0:0:0:
448,192,52458,1,4,0:0:0:0:
64,192,52819,1,8,0:0:0:0:
448,192,52819,1,2,0:0:0:0:
192,192,53181,1,2,0:0:0:0:
64,192,53542,1,8,0:0:0:0:
448,192,53542,1,2,0:0:0:0:
320,192,53903,1,2,0:0:0:0:
64,192,54265,1,8,0:0:0:0:
192,192,54265,1,2,0:0:0:0:
448,192,54626,1,2,0:0:0:0:
192,192,54988,1,8,0:0:0:0:
320,192,54988,1,2,0:0:0:0:
64,192,55349,1,2,0:0:0:0:
320,192,55711,1,8,0:0:0:0:
448,192,55711,1,2,0:0:0:0:
192,192,56072,1,2,0:0:0:0:
64,192,56434,1,8,0:0:0:0:
448,192,56434,1,2,0:0:0:0:
64,192,56795,128,2,57156:0:0:0:0:
192,192,57156,128,10,57518:0:0:0:0:
320,192,57518,128,2,57879:0:0:0:0:
448,192,57879,128,10,58241:0:0:0:0:
64,192,58241,1,2,0:0:0:0:
192,192,58241,1,4,0:0:0:0:
64,192,58602,1,8,0:0:0:0:
448,192,58602,1,2,0:0:0:0:
320,192,58964,1,2,0:0:0:0:
64,192,59325,1,8,0:0:0:0:
448,192,59325,1,2,0:0:0:0:
192,192,59687,1,2,0:0:0:0:
320,192,60048,1,8,0:0:0:0:
448,192,60048,1,2,0:0:0:0:
64,192,60409,1,2,0:0:0:0:
192,192,60771,1,8,0:0:0:0:
320,192,60771,1,2,0:0:0:0:
448,192,61132,1,2,0:0:0:0:
64,192,61494,1,8,0:0:0:0:
192,192,61494,1,2,0:0:0:0:
320,192,61855,1,2,0:0:0:0:
64,192,62217,1,8,0:0:0:0:
448,192,62217,1,2,0:0:0:0:
448,192,62578,128,2,62940:0:0:0:0:
320,192,62940,128,10,63301:0:0:0:0:
192,192,63301,128,2,63663:0:0:0:0:
64,192,63663,128,10,64024:0:0:0:0:
320,192,64024,1,2,0:0:0:0:
448,192,64024,1,4,0:0:0:0:
192,192,64385,128,0,64747:0:0:0:65:G7.wav
320,192,64747,128,0,65108:0:0:0:65:F7.wav
448,192,65108,128,0,65470:0:0:0:65:D7.wav
64,192,65470,1,10,0:0:0:0:
320,192,65650,1,10,0:0:0:0:
192,192,65831,1,10,0:0:0:0:
448,192,66012,1,10,0:0:0:0:
192,192,66193,128,0,66554:0:0:0:0:
64,192,66554,128,0,66916:0:0:0:0:
320,192,66916,1,6,0:0:0:0:
448,192,66916,1,0,0:0:0:65:C7.wav
64,192,67277,1,10,0:0:0:0:
320,192,67277,1,0,0:0:0:65:G7.wav
192,192,67638,1,2,0:0:0:0:
320,192,68000,1,10,0:0:0:0:
448,192,68000,1,0,0:0:0:65:D7.wav
64,192,68361,1,2,0:0:0:0:
192,192,68723,1,10,0:0:0:0:
320,192,68723,1,0,0:0:0:65:D#7.wav
448,192,69084,1,2,0:0:0:0:
64,192,69446,1,10,0:0:0:0:
192,192,69446,1,0,0:0:0:70:G7.wav
320,192,69807,1,2,0:0:0:0:
192,192,70169,1,10,0:0:0:0:
448,192,70169,1,0,0:0:0:65:G7.wav
64,192,70530,1,2,0:0:0:0:
320,192,70891,1,10,0:0:0:0:
448,192,70891,1,0,0:0:0:65:D7.wav
192,192,71253,1,2,0:0:0:0:
64,192,71614,1,10,0:0:0:0:
448,192,71614,1,0,0:0:0:65:B6.wav
320,192,71976,1,2,0:0:0:0:
64,192,72337,1,8,0:0:0:0:
192,192,72337,1,2,0:0:0:0:
64,192,72699,1,6,0:0:0:0:
320,192,72699,1,0,0:0:0:65:C7.wav
192,192,73060,1,10,0:0:0:0:
448,192,73060,1,0,0:0:0:65:G7.wav
320,192,73422,1,2,0:0:0:0:
64,192,73783,1,10,0:0:0:0:
192,192,73783,1,0,0:0:0:65:D7.wav
448,192,74144,1,2,0:0:0:0:
192,192,74506,1,10,0:0:0:0:
320,192,74506,1,0,0:0:0:65:D#7.wav
64,192,74867,1,2,0:0:0:0:
320,192,75229,1,10,0:0:0:0:
448,192,75229,1,0,0:0:0:65:G7.wav
192,192,75590,1,2,0:0:0:0:
64,192,75952,1,10,0:0:0:0:
320,192,75952,1,0,0:0:0:65:G7.wav
448,192,76313,1,2,0:0:0:0:
64,192,76675,1,10,0:0:0:0:
192,192,76675,1,0,0:0:0:65:D7.wav
320,192,77036,1,2,0:0:0:0:
64,192,77397,1,10,0:0:0:0:
448,192,77397,1,0,0:0:0:65:B6.wav
192,192,77759,1,2,0:0:0:0:
320,192,78120,1,8,0:0:0:0:
448,192,78120,1,2,0:0:0:0:
64,192,78482,1,6,0:0:0:0:
192,192,78843,1,2,0:0:0:0:
320,192,79205,1,2,0:0:0:0:
448,192,79566,1,2,0:0:0:0:
64,192,79928,1,2,0:0:0:0:
448,192,80289,1,2,0:0:0:0:
64,192,80650,1,2,0:0:0:0:
320,192,80831,1,0,0:0:0:0:
192,192,81012,1,2,0:0:0:0:
448,192,81193,1,0,0:0:0:0:
64,192,81373,1,2,0:0:0:0:
192,192,81735,1,2,0:0:0:0:
320,192,82096,1,2,0:0:0:0:
448,192,82458,1,2,0:0:0:0:
64,192,82819,1,2,0:0:0:0:
448,192,83181,1,2,0:0:0:0:
64,192,83542,1,2,0:0:0:0:
192,192,83723,1,0,0:0:0:0:
320,192,83903,1,2,0:0:0:0:
448,192,84084,1,0,0:0:0:0:
64,192,84265,1,6,0:0:0:0:
192,192,84626,1,2,0:0:0:0:
320,192,84988,1,2,0:0:0:0:
448,192,85349,1,2,0:0:0:0:
64,192,85711,1,2,0:0:0:0:
448,192,86072,1,2,0:0:0:0:
64,192,86434,1,2,0:0:0:0:
320,192,86614,1,0,0:0:0:0:
192,192,86795,1,2,0:0:0:0:
448,192,86976,1,0,0:0:0:0:
64,192,87156,1,2,0:0:0:0:
192,192,87518,1,2,0:0:0:0:
320,192,87879,1,2,0:0:0:0:
448,192,88241,1,2,0:0:0:0:
64,192,88602,1,2,0:0:0:0:
320,192,88964,1,2,0:0:0:0:
192,192,89325,1,2,0:0:0:0:
448,192,89506,1,2,0:0:0:0:
192,192,89687,1,2,0:0:0:0:
448,192,89867,1,2,0:0:0:0:
64,192,90048,1,10,0:0:0:0:
192,192,90048,1,4,0:0:0:0:
64,192,90409,1,10,0:0:0:0:
448,192,90771,1,10,0:0:0:0:
320,192,91042,1,10,0:0:0:0:
192,192,91313,1,10,0:0:0:0:
448,192,91494,1,10,0:0:0:0:
448,192,91855,1,10,0:0:0:0:
64,192,92217,1,10,0:0:0:0:
192,192,92488,1,10,0:0:0:0:
320,192,92759,1,10,0:0:0:0:
64,192,92940,1,10,0:0:0:0:
64,192,93301,1,10,0:0:0:0:
448,192,93663,1,10,0:0:0:0:
320,192,93934,1,10,0:0:0:0:
192,192,94205,1,10,0:0:0:0:
448,192,94385,1,10,0:0:0:0:
448,192,94747,1,10,0:0:0:0:
64,192,95108,1,10,0:0:0:0:
320,192,95470,1,10,0:0:0:0:
192,192,95650,1,10,0:0:0:0:
448,192,95831,1,10,0:0:0:0:
448,192,96193,1,10,0:0:0:0:
64,192,96554,1,10,0:0:0:0:
192,192,96825,1,10,0:0:0:0:
320,192,97096,1,10,0:0:0:0:
64,192,97277,1,10,0:0:0:0:
64,192,97638,1,10,0:0:0:0:
448,192,98000,1,10,0:0:0:0:
320,192,98271,1,10,0:0:0:0:
192,192,98542,1,10,0:0:0:0:
448,192,98723,1,10,0:0:0:0:
448,192,99084,1,10,0:0:0:0:
64,192,99446,1,10,0:0:0:0:
192,192,99717,1,10,0:0:0:0:
320,192,99988,1,10,0:0:0:0:
64,192,100169,128,10,100530:0:0:0:0:
320,192,100530,128,10,100891:0:0:0:0:
192,192,100891,128,10,101253:0:0:0:0:
448,192,101253,128,10,101614:0:0:0:0:
64,192,101614,1,2,0:0:0:0:
192,192,101614,1,4,0:0:0:0:
64,192,101976,1,8,0:0:0:0:
448,192,101976,1,2,0:0:0:0:
320,192,102337,1,2,0:0:0:0:
64,192,102699,1,8,0:0:0:0:
448,192,102699,1,2,0:0:0:0:
192,192,103060,1,2,0:0:0:0:
320,192,103422,1,8,0:0:0:0:
448,192,103422,1,2,0:0:0:0:
64,192,103783,1,2,0:0:0:0:
192,192,104144,1,8,0:0:0:0:
320,192,104144,1,2,0:0:0:0:
448,192,104506,1,2,0:0:0:0:
64,192,104867,1,8,0:0:0:0:
192,192,104867,1,2,0:0:0:0:
320,192,105229,1,2,0:0:0:0:
64,192,105590,1,8,0:0:0:0:
448,192,105590,1,2,0:0:0:0:
448,192,105952,128,2,106313:0:0:0:0:
320,192,106313,128,10,106675:0:0:0:0:
192,192,106675,128,2,107036:0:0:0:0:
64,192,107036,128,10,107397:0:0:0:0:
320,192,107397,1,2,0:0:0:0:
448,192,107397,1,4,0:0:0:0:
64,192,107759,1,8,0:0:0:0:
448,192,107759,1,2,0:0:0:0:
192,192,108120,1,2,0:0:0:0:
64,192,108482,1,8,0:0:0:0:
448,192,108482,1,2,0:0:0:0:
320,192,108843,1,2,0:0:0:0:
64,192,109205,1,8,0:0:0:0:
192,192,109205,1,2,0:0:0:0:
448,192,109566,1,2,0:0:0:0:
192,192,109928,1,8,0:0:0:0:
320,192,109928,1,2,0:0:0:0:
64,192,110289,1,2,0:0:0:0:
320,192,110650,1,8,0:0:0:0:
448,192,110650,1,2,0:0:0:0:
192,192,111012,1,2,0:0:0:0:
64,192,111373,1,8,0:0:0:0:
448,192,111373,1,2,0:0:0:0:
64,192,111735,128,2,112096:0:0:0:0:
192,192,112096,128,10,112458:0:0:0:0:
320,192,112458,128,2,112819:0:0:0:0:
448,192,112819,128,10,113181:0:0:0:0:
64,192,113181,1,2,0:0:0:0:
192,192,113181,1,4,0:0:0:0:
320,192,113542,128,0,113903:0:0:0:65:G7.wav
192,192,113903,128,0,114265:0:0:0:65:F7.wav
64,192,114265,128,0,114626:0:0:0:65:D7.wav
448,192,114626,1,10,0:0:0:0:
320,192,114807,1,10,0:0:0:0:
64,192,114988,1,10,0:0:0:0:
192,192,115169,1,10,0:0:0:0:
320,192,115349,128,0,115711:0:0:0:0:
448,192,115711,128,0,116072:0:0:0:0:
64,192,116072,1,6,0:0:0:0:
192,192,116072,1,0,0:0:0:70:C#7.wav
192,192,116434,1,10,0:0:0:0:
448,192,116434,1,0,0:0:0:80:G#7.wav
320,192,116795,1,2,0:0:0:0:
64,192,117156,1,10,0:0:0:0:
192,192,117156,1,0,0:0:0:70:D#7.wav
448,192,117518,1,2,0:0:0:0:
192,192,117879,1,10,0:0:0:0:
320,192,117879,1,0,0:0:0:70:E7.wav
64,192,118241,1,2,0:0:0:0:
320,192,118602,1,10,0:0:0:0:
448,192,118602,1,0,0:0:0:70:G#7.wav
192,192,118964,1,2,0:0:0:0:
64,192,119325,1,10,0:0:0:0:
320,192,119325,1,0,0:0:0:70:G#7.wav
448,192,119687,1,2,0:0:0:0:
64,192,120048,1,10,0:0:0:0:
192,192,120048,1,0,0:0:0:70:D#7.wav
320,192,120409,1,2,0:0:0:0:
64,192,120771,1,10,0:0:0:0:
448,192,120771,1,0,0:0:0:70:C7.wav
192,192,121132,1,2,0:0:0:0:
320,192,121494,1,8,0:0:0:0:
448,192,121494,1,2,0:0:0:0:
192,192,121855,1,6,0:0:0:0:
448,192,121855,1,0,0:0:0:70:C#7.wav
64,192,122217,1,10,0:0:0:0:
320,192,122217,1,0,0:0:0:80:G#7.wav
192,192,122578,1,2,0:0:0:0:
320,192,122940,1,10,0:0:0:0:
448,192,122940,1,0,0:0:0:70:D#7.wav
64,192,123301,1,2,0:0:0:0:
192,192,123663,1,10,0:0:0:0:
320,192,123663,1,0,0:0:0:70:E7.wav
448,192,124024,1,2,0:0:0:0:
64,192,124385,1,10,0:0:0:0:
192,192,124385,1,0,0:0:0:70:G#7.wav
320,192,124747,1,2,0:0:0:0:
192,192,125108,1,10,0:0:0:0:
448,192,125108,1,0,0:0:0:70:G#7.wav
64,192,125470,1,2,0:0:0:0:
320,192,125831,1,10,0:0:0:0:
448,192,125831,1,0,0:0:0:70:D#7.wav
192,192,126193,1,2,0:0:0:0:
64,192,126554,1,10,0:0:0:0:
448,192,126554,1,0,0:0:0:70:C7.wav
320,192,126916,1,2,0:0:0:0:
64,192,127277,1,10,0:0:0:0:
192,192,127277,1,0,0:0:0:70:C#7.wav
320,192,127638,128,6,128000:0:0:0:0:
448,192,127638,1,0,0:0:0:65:C#7.wav
64,192,128000,1,2,0:0:0:0:
192,192,128361,1,2,0:0:0:0:
320,192,128723,1,2,0:0:0:0:
448,192,129084,128,2,129446:0:0:0:0:
320,192,129446,1,2,0:0:0:0:
192,192,129807,1,2,0:0:0:0:
64,192,130169,1,2,0:0:0:0:
192,192,130530,128,2,130891:0:0:0:0:
448,192,130891,1,2,0:0:0:0:
320,192,131253,1,2,0:0:0:0:
192,192,131614,1,2,0:0:0:0:
64,192,131976,128,2,132337:0:0:0:0:
192,192,132337,1,2,0:0:0:0:
320,192,132699,1,2,0:0:0:0:
448,192,133060,1,2,0:0:0:0:
