osu file format v14

[General]
AudioFilename: audio.mp3
AudioLeadIn: 0
PreviewTime: 52517
Countdown: 0
SampleSet: Soft
StackLeniency: 0.7
Mode: 0
LetterboxInBreaks: 0
WidescreenStoryboard: 0

[Editor]
DistanceSpacing: 3
BeatDivisor: 4
GridSize: 32
TimelineZoom: 2.4

[Metadata]
Title:KING
TitleUnicode:KING
Artist:Murasaki Shion
ArtistUnicode:紫咲シオン
Creator:Yuuma
Version:Royal Witch
Source:
Tags:ごず gozu たーむ tarm Kanaria GUMI vocaloid ボカロ vtuber virtual youtuber hololive ホロライブ japanese pop jpop j-pop
BeatmapID:2699138
BeatmapSetID:1301332

[Difficulty]
HPDrainRate:6
CircleSize:4
OverallDifficulty:8
ApproachRate:9
SliderMultiplier:1.8
SliderTickRate:1

[Events]
//Background and Video events
0,0,"shion chan daisuki dayo.jpg",0,0
//Break Periods
//Storyboard Layer 0 (Background)
//Storyboard Layer 1 (Fail)
//Storyboard Layer 2 (Pass)
//Storyboard Layer 3 (Foreground)
//Storyboard Layer 4 (Overlay)
//Storyboard Sound Samples

[TimingPoints]
469,361.44578313253,4,2,1,50,1,0
469,-166.666666666667,4,2,1,50,0,0
2999,-166.666666666667,4,2,1,20,0,0
3360,-100,4,2,1,80,0,0
14926,-125,4,2,1,60,0,0
26493,-111.111111111111,4,2,1,70,0,0
31553,-83.3333333333333,4,2,1,70,0,0
32276,-111.111111111111,4,2,1,70,0,0
38059,-166.666666666666,4,2,1,50,0,0
39505,-83.3333333333332,4,2,1,80,0,0
39595,-83.3333333333332,4,2,1,5,0,0
39866,-83.3333333333332,4,2,1,80,0,0
39956,-83.3333333333332,4,2,1,5,0,0
40228,-83.3333333333332,4,2,1,80,0,0
40318,-83.3333333333332,4,2,1,5,0,0
40589,-166.666666666667,4,2,1,50,0,0
40950,-125,4,2,1,70,0,0
52517,-100,4,2,1,80,0,1
66071,-100,4,2,1,80,0,0
78541,-100,4,2,1,70,0,0
90107,-125,4,2,1,70,0,0
101673,-100,4,2,1,80,0,1
115228,-100,4,2,1,80,0,0
116131,-83.3333333333333,4,2,1,80,0,0
127697,-142.857142857143,4,2,1,60,0,0

[Colours]
Combo1 : 102,0,204
Combo2 : 128,128,192
Combo3 : 199,199,226

[HitObjects]
85,248,469,5,2,0:0:0:0:
85,248,830,5,2,0:0:0:0:
95,169,1011,1,2,0:0:0:0:
173,239,1191,1,2,0:0:0:0:
185,144,1372,1,2,0:0:0:0:
267,228,1553,1,2,0:0:0:0:
282,114,1734,1,2,0:0:0:0:
356,212,1914,6,0,L|427:200,1,53.9999983520508,2|2,0:0|0:0,0:0:0:0:
234,321,2276,2,0,L|305:309,1,53.9999983520508,2|2,0:0|0:0,0:0:0:0:
85,248,2637,2,0,P|50:240|58:295,1,107.999996704102,2|0,0:0|0:0,0:0:0:0:
234,321,3360,6,0,B|252:269|252:269|240:165,1,135,6|0,3:2|0:0,0:0:0:0:
238,155,3722,1,10,0:0:0:0:
385,205,3902,1,2,0:0:0:0:
352,36,4083,2,0,P|331:92|325:142,1,90,2|2,3:2|0:0,0:0:0:0:
476,116,4444,1,10,0:0:0:0:
429,278,4625,6,0,B|346:301|353:205|265:228,1,180,2|2,0:0|0:0,0:0:0:0:
418,188,5167,1,10,0:0:0:0:
277,316,5348,1,2,0:0:0:0:
418,188,5529,2,0,L|430:292,1,90,2|0,3:2|0:0,0:0:0:0:
277,316,5890,2,0,L|266:226,1,90,10|0,0:0|0:0,0:0:0:0:
172,49,6252,6,0,P|98:52|75:115,1,135,6|0,3:2|0:0,0:0:0:0:
63,132,6613,1,10,0:0:0:0:
241,101,6794,1,2,0:0:0:0:
140,245,6975,2,0,B|98:246|98:246|38:233,1,90,2|2,3:2|0:0,0:0:0:0:
241,101,7336,2,0,B|285:92|285:92|330:93,1,90,10|2,0:0|0:0,0:0:0:0:
465,157,7697,5,2,3:2:0:0:
275,220,7878,1,2,0:0:0:0:
486,170,8059,1,10,0:0:0:0:
294,106,8240,1,2,0:0:0:0:
438,280,8420,2,0,L|453:88,1,180,2|10,3:2|0:0,0:0:0:0:
365,195,8962,1,2,0:0:0:0:
266,30,9143,6,0,B|196:17|206:82|138:68,1,135,6|0,3:2|0:0,0:0:0:0:
108,51,9505,1,10,0:0:0:0:
273,130,9685,1,2,0:0:0:0:
55,117,9866,2,0,L|65:215,1,90,2|2,3:2|0:0,0:0:0:0:
215,58,10228,1,8,0:0:0:0:
287,246,10408,6,0,P|174:234|154:161,1,180,2|2,0:0|0:0,0:0:0:0:
331,83,10950,1,10,0:0:0:0:
164,30,11131,1,2,0:0:0:0:
235,183,11312,2,0,L|334:166,1,90,2|0,3:2|0:0,0:0:0:0:
497,43,11673,2,0,L|381:25,1,90,10|0,0:0|0:0,0:0:0:0:
368,265,12035,6,0,P|417:221|423:156,1,135,6|0,3:2|0:0,0:0:0:0:
402,116,12396,1,10,0:0:0:0:
467,286,12577,1,2,0:0:0:0:
267,329,12758,2,0,L|257:226,1,90,2|2,3:2|0:0,0:0:0:0:
354,91,13119,2,0,L|345:180,1,90,10|2,0:0|0:0,0:0:0:0:
196,119,13481,5,2,3:2:0:0:
309,270,13661,1,2,0:0:0:0:
120,200,13842,1,10,0:0:0:0:
304,142,14023,1,2,0:0:0:0:
127,300,14203,2,0,P|62:283|34:250,1,90,2|0,3:2|0:0,0:0:0:0:
208,123,14565,2,0,P|232:170|232:213,1,90,10|0,0:0|0:0,0:0:0:0:
199,382,14926,5,6,3:2:0:0:
199,382,15288,1,2,3:2:0:0:
199,382,15649,1,2,3:2:0:0:
199,382,16011,2,0,B|232:378|232:378|242:371|242:371|279:366,1,72,2|0,3:2|0:0,0:0:0:0:
406,318,16372,5,2,3:2:0:0:
310,267,16734,1,2,3:2:0:0:
329,160,17095,1,2,3:2:0:0:
436,145,17456,1,2,3:2:0:0:
483,242,17818,6,0,P|418:272|408:280,1,72,2|2,3:2|0:0,0:0:0:0:
352,160,18179,2,0,P|310:151|273:131,1,72,2|2,3:2|0:0,0:0:0:0:
283,277,18541,2,0,P|218:307|208:315,1,72,2|0,3:2|0:0,0:0:0:0:
153,195,18902,2,0,P|111:186|74:166,1,72,2|2,3:2|0:0,0:0:0:0:
157,82,19264,5,2,3:2:0:0:
278,67,19625,1,2,3:2:0:0:
210,14,19987,1,2,3:2:0:0:
226,136,20348,2,0,L|238:220,1,72,2|0,3:2|0:0,0:0:0:0:
391,88,20709,5,6,3:2:0:0:
391,88,21071,1,2,3:2:0:0:
391,88,21432,2,0,L|369:239,1,144,2|0,3:2|3:0,0:0:0:0:
314,322,22155,5,2,3:2:0:0:
209,299,22517,1,2,3:2:0:0:
200,190,22878,1,2,3:2:0:0:
299,148,23240,1,2,3:2:0:0:
370,229,23601,6,0,P|405:236|436:253,1,72,2|2,3:2|0:0,0:0:0:0:
273,116,23962,2,0,P|308:108|339:91,1,72,2|0,3:2|0:0,0:0:0:0:
192,231,24324,2,0,P|227:238|258:255,1,72,2|0,3:2|0:0,0:0:0:0:
95,117,24685,2,0,P|130:109|161:92,1,72,2|0,3:2|0:2,0:0:0:0:
44,237,25047,5,2,3:2:0:0:
44,237,25408,1,2,3:2:0:0:
44,237,25770,1,2,3:2:0:0:
95,117,26131,1,2,3:2:0:0:
189,211,26493,5,6,3:2:0:0:
44,237,26673,1,2,0:0:0:0:
189,211,26854,2,0,P|259:223|279:230,1,80.9999975280763,10|2,0:0|0:0,0:0:0:0:
142,311,27215,1,2,3:2:0:0:
306,350,27396,1,2,0:0:0:0:
303,176,27577,2,0,P|233:162|212:161,1,80.9999975280763,10|2,0:0|0:0,0:0:0:0:
399,305,27938,5,2,3:2:0:0:
205,249,28119,1,2,0:0:0:0:
401,161,28300,1,10,0:0:0:0:
209,116,28481,1,2,0:0:0:0:
290,297,28661,6,0,P|294:239|308:157,1,121.499996292114,2|2,3:2|0:0,0:0:0:0:
324,88,29023,1,8,0:0:0:0:
192,231,29203,2,0,P|182:170|176:148,1,80.9999975280763,2|2,0:0|3:2,0:0:0:0:
26,49,29565,5,2,0:0:0:0:
148,23,29746,2,0,L|240:32,1,80.9999975280763,10|2,0:0|0:0,0:0:0:0:
59,142,30107,1,2,3:2:0:0:
261,108,30288,1,2,0:0:0:0:
136,243,30468,2,0,L|151:150,1,80.9999975280763,10|2,0:0|0:0,0:0:0:0:
265,24,30830,5,2,3:2:0:0:
320,220,31011,1,2,0:0:0:0:
163,73,31191,1,10,0:0:0:0:
364,31,31372,1,2,0:0:0:0:
204,254,31553,6,0,P|196:201|218:153,1,107.999996704102,6|0,0:0|0:0,0:0:0:0:
353,167,31824,2,0,P|359:219|336:268,1,107.999996704102,6|0,0:0|0:0,0:0:0:0:
262,346,32095,1,6,0:0:0:0:
132,247,32276,5,6,3:2:0:0:
336,268,32456,1,2,0:0:0:0:
132,247,32637,2,0,L|147:348,1,80.9999975280763,10|2,0:0|0:0,0:0:0:0:
211,121,32999,1,2,3:2:0:0:
41,173,33179,1,2,0:0:0:0:
244,248,33360,1,10,0:0:0:0:
255,41,33541,1,2,0:0:0:0:
138,225,33722,5,2,3:2:0:0:
107,28,33902,1,2,0:0:0:0:
240,218,34083,1,10,0:0:0:0:
259,19,34264,1,2,0:0:0:0:
337,209,34444,6,0,B|383:193|383:193|411:197|411:197|453:185,1,121.499996292114,2|2,3:2|0:0,0:0:0:0:
412,114,34806,1,8,0:0:0:0:
384,280,34987,2,0,P|339:297|304:303,1,80.9999975280763,2|2,0:0|3:2,0:0:0:0:
167,190,35348,5,2,0:0:0:0:
296,104,35529,2,0,L|287:209,1,80.9999975280763,10|2,0:0|0:0,0:0:0:0:
202,383,35890,1,2,3:2:0:0:
167,190,36071,1,2,0:0:0:0:
96,361,36252,1,10,0:0:0:0:
165,165,36432,1,2,0:0:0:0:
293,331,36613,5,2,3:2:0:0:
28,223,36975,1,2,3:2:0:0:
254,47,37336,1,2,3:2:0:0:
293,331,37697,1,2,3:2:0:0:
203,199,38059,5,2,0:0:0:0:
203,199,38420,5,2,0:0:0:0:
193,120,38601,1,2,0:0:0:0:
293,224,38782,1,2,0:0:0:0:
281,129,38962,1,2,0:0:0:0:
381,246,39143,1,2,0:0:0:0:
366,132,39324,1,2,0:0:0:0:
467,271,39505,6,0,L|475:329,1,53.9999983520508,6|0,0:0|0:0,0:0:0:0:
475,278,39866,6,0,L|483:336,1,53.9999983520508,6|0,0:0|0:0,0:0:0:0:
483,285,40228,6,0,L|491:343,1,53.9999983520508,6|0,0:0|0:0,0:0:0:0:
491,292,40589,6,0,L|502:382,1,80.9999975280763,2|0,0:0|0:0,0:0:0:0:
467,271,40950,5,14,0:0:0:0:
320,356,41312,2,0,P|284:346|245:343,1,72,10|2,0:0|0:0,0:0:0:0:
133,350,41673,5,10,0:0:0:0:
305,253,41944,1,10,0:0:0:0:
134,162,42215,1,10,0:0:0:0:
188,251,42396,6,0,P|223:240|259:237,1,72,10|2,0:0|0:0,0:0:0:0:
360,155,42758,2,0,P|324:151|289:141,1,72,10|2,0:0|0:0,0:0:0:0:
239,50,43119,5,10,0:0:0:0:
259,237,43390,1,10,0:0:0:0:
446,217,43661,1,10,0:0:0:0:
365,302,43842,1,10,0:0:0:0:
426,30,44203,6,0,P|406:75|401:114,1,72,10|2,0:0|0:0,0:0:0:0:
446,217,44565,5,10,0:0:0:0:
250,142,44836,1,10,0:0:0:0:
94,276,45107,1,10,0:0:0:0:
212,257,45288,6,0,P|217:292|221:328,1,72,10|2,0:0|0:0,0:0:0:0:
134,165,45649,1,10,0:0:0:0:
250,142,45830,2,0,P|252:128|256:112,2,24,2|0|0,3:2|3:0|3:0,0:0:0:0:
259,158,46011,6,0,L|350:146,1,72,10|2,0:0|0:0,0:0:0:0:
134,165,46372,1,10,0:0:0:0:
308,247,46553,1,10,0:0:0:0:
330,51,46734,1,14,0:0:0:0:
330,51,47095,6,0,P|275:64|247:79,1,72,10|2,0:0|0:0,0:0:0:0:
363,155,47456,1,10,0:0:0:0:
506,11,47728,1,10,0:0:0:0:
511,217,47999,1,10,0:0:0:0:
471,111,48179,6,0,P|448:165|441:193,1,72,10|2,0:0|0:0,0:0:0:0:
375,261,48541,2,0,P|429:284|457:291,1,72,10|2,0:0|0:0,0:0:0:0:
345,164,48902,5,10,0:0:0:0:
256,351,49173,1,10,0:0:0:0:
130,190,49444,1,10,0:0:0:0:
243,237,49625,1,10,0:0:0:0:
243,237,49987,6,0,L|251:144,1,72,10|2,0:0|0:0,0:0:0:0:
256,51,50348,1,10,0:0:0:0:
56,93,50619,1,10,0:0:0:0:
85,287,50890,2,0,L|92:329,2,24,8|0|0,3:2|3:0|3:0,0:0:0:0:
99,266,51071,5,10,0:0:0:0:
175,167,51432,1,10,0:0:0:0:
286,232,51794,1,10,0:0:0:0:
175,167,52155,5,10,3:2:0:0:
175,167,52246,1,0,3:0:0:0:
175,167,52336,1,0,3:0:0:0:
175,167,52426,1,0,3:0:0:0:
175,167,52517,6,0,P|263:173|327:92,1,180,6|10,3:2|0:0,0:0:0:0:
214,44,53059,1,0,0:0:0:0:
409,8,53240,2,0,B|435:57|435:57|413:105|410:182,2,180,2|10|2,3:2|0:0|3:2,0:0:0:0:
328,218,54143,6,0,P|385:266|433:265,1,90,0|8,0:0|0:0,0:0:0:0:
498,186,54505,1,2,0:0:0:0:
322,110,54685,1,2,3:2:0:0:
243,281,54866,1,2,0:0:0:0:
410,178,55047,1,10,0:0:0:0:
234,86,55228,1,2,0:0:0:0:
334,301,55408,6,0,L|350:118,1,180,2|8,3:2|0:0,0:0:0:0:
109,53,55950,2,0,L|123:152,1,90,2|0,0:0|3:0,0:0:0:0:
226,247,56312,2,0,L|235:158,1,90,2|8,0:0|0:0,0:0:0:0:
20,113,56673,2,0,L|34:212,1,90,2|0,0:0|3:0,0:0:0:0:
145,334,57035,5,2,0:0:0:0:
235,157,57215,1,10,0:0:0:0:
284,340,57396,1,2,0:0:0:0:
235,157,57577,2,0,P|187:143|146:141,1,90,2|0,3:2|0:0,0:0:0:0:
284,340,57938,2,0,P|328:337|371:323,1,90,10|0,0:0|0:0,0:0:0:0:
485,131,58300,6,0,P|465:58|434:122,1,180,6|10,3:2|0:0,0:0:0:0:
426,244,58842,1,0,0:0:0:0:
313,87,59023,2,0,B|216:76|240:157|115:137,2,180,2|10|2,3:2|0:0|3:2,0:0:0:0:
410,250,59926,6,0,P|351:252|316:225,1,90,2|10,0:0|0:0,0:0:0:0:
239,145,60288,1,2,0:0:0:0:
412,4,60468,1,2,3:2:0:0:
381,179,60649,1,2,0:0:0:0:
227,48,60830,1,10,0:0:0:0:
411,92,61011,1,2,0:0:0:0:
259,212,61191,6,0,B|188:216|188:216|160:244|160:244|90:249,1,180,2|8,3:2|0:0,0:0:0:0:
256,373,61734,2,0,P|264:308|272:275,1,90,2|0,0:0|3:0,0:0:0:0:
120,126,62095,2,0,P|129:170|133:214,1,90,2|8,0:0|0:0,0:0:0:0:
288,380,62456,2,0,P|296:315|304:282,1,90,2|0,0:0|3:0,0:0:0:0:
313,167,62818,5,2,0:0:0:0:
313,167,62908,1,2,0:0:0:0:
313,167,62999,2,0,L|421:174,1,90,10|0,0:0|0:0,0:0:0:0:
318,27,63360,6,0,P|249:42|229:57,1,90,2|0,3:2|0:0,0:0:0:0:
63,178,63722,2,0,P|132:163|152:148,1,90,10|0,0:0|0:0,0:0:0:0:
69,41,64083,5,6,0:0:0:0:
69,41,64444,5,2,0:0:0:0:
81,123,64625,1,2,0:0:0:0:
161,63,64806,1,2,0:0:0:0:
175,161,64987,1,2,0:0:0:0:
253,85,65167,1,2,0:0:0:0:
269,202,65348,1,2,0:0:0:0:
345,112,65529,5,10,0:0:0:0:
297,304,65709,1,10,0:0:0:0:
428,139,65890,1,10,0:0:0:0:
435,344,66071,1,10,0:0:0:0:
79,41,66975,6,0,B|56:97|73:159|73:159|67:183,1,135,6|0,3:2|0:0,0:0:0:0:
63,205,67336,1,10,0:0:0:0:
164,100,67517,1,2,0:0:0:0:
152,273,67697,2,0,P|100:310|62:315,1,90,2|2,3:2|0:0,0:0:0:0:
226,171,68059,1,10,0:0:0:0:
272,285,68240,6,0,B|365:303|341:210|443:227,1,180,2|2,0:0|0:0,0:0:0:0:
398,352,68782,1,10,0:0:0:0:
313,171,68962,1,2,0:0:0:0:
398,352,69143,2,0,P|449:343|485:316,1,90,2|0,3:2|0:0,0:0:0:0:
313,171,69505,2,0,P|262:180|226:207,1,90,10|0,0:0|0:0,0:0:0:0:
75,349,69866,6,0,L|57:176,1,135,2|0,3:2|0:0,0:0:0:0:
59,178,70228,1,10,0:0:0:0:
175,289,70408,1,2,0:0:0:0:
191,106,70589,2,0,L|182:200,1,90,2|2,3:2|0:0,0:0:0:0:
23,92,70950,2,0,P|80:59|133:69,1,90,10|2,0:0|0:0,0:0:0:0:
279,96,71312,5,2,3:2:0:0:
92,154,71493,1,2,0:0:0:0:
278,192,71673,1,10,0:0:0:0:
102,58,71854,1,2,0:0:0:0:
279,96,72035,2,0,P|378:85|408:12,1,180,2|10,3:2|0:0,0:0:0:0:
309,0,72577,1,2,0:0:0:0:
182,110,72758,6,0,P|166:170|155:270,1,135,6|0,3:2|0:0,0:0:0:0:
164,275,73119,1,8,0:0:0:0:
290,145,73300,1,0,0:0:0:0:
278,351,73481,2,0,P|323:346|371:331,1,90,2|2,3:2|0:0,0:0:0:0:
452,246,73842,1,10,0:0:0:0:
289,147,74023,6,0,P|232:179|217:291,1,180,2|2,0:0|0:0,0:0:0:0:
375,196,74565,1,10,0:0:0:0:
191,95,74746,1,2,0:0:0:0:
297,244,74926,2,0,L|308:350,1,90,2|0,3:2|0:0,0:0:0:0:
181,184,75288,2,0,L|190:94,1,90,10|0,0:0|0:0,0:0:0:0:
44,263,75649,6,0,P|102:301|168:307,1,135,2|0,3:2|0:0,0:0:0:0:
196,294,76011,1,10,0:0:0:0:
86,155,76191,1,2,0:0:0:0:
271,202,76372,2,0,P|343:222|368:216,1,90,2|2,3:2|0:0,0:0:0:0:
386,57,76734,2,0,P|314:37|289:43,1,90,10|2,0:0|0:0,0:0:0:0:
122,71,77095,5,2,3:2:0:0:
325,129,77276,1,2,0:0:0:0:
86,155,77456,1,10,0:0:0:0:
279,52,77637,1,2,0:0:0:0:
158,223,77818,2,0,P|145:284|141:323,1,90,2|2,3:2|0:0,0:0:0:0:
122,71,78179,1,10,0:0:0:0:
269,280,78541,6,0,L|369:264,1,90,6|2,3:2|0:0,0:0:0:0:
483,145,78902,2,0,L|383:129,1,90,10|2,0:0|0:0,0:0:0:0:
269,280,79264,1,2,3:2:0:0:
287,120,79444,1,2,0:0:0:0:
420,226,79625,2,0,P|471:251|522:253,1,90,10|0,0:0|0:0,0:0:0:0:
441,95,79987,5,2,3:2:0:0:
402,72,80077,1,2,0:0:0:0:
357,69,80167,1,2,0:0:0:0:
316,86,80258,1,2,0:0:0:0:
286,119,80348,2,0,L|296:222,1,90,10|2,0:0|0:0,0:0:0:0:
180,345,80709,5,2,3:2:0:0:
353,287,80890,1,2,0:0:0:0:
167,223,81071,1,10,0:0:0:0:
378,278,81252,1,2,0:0:0:0:
244,141,81432,6,0,P|227:98|220:48,1,90,2|2,3:2|0:0,0:0:0:0:
409,12,81794,2,0,P|426:55|433:105,1,90,10|2,0:0|0:0,0:0:0:0:
378,278,82155,1,2,3:2:0:0:
334,82,82336,1,2,0:0:0:0:
378,278,82517,2,0,L|499:255,1,90,10|0,0:0|0:0,0:0:0:0:
268,210,82878,5,2,3:2:0:0:
223,217,82968,1,2,0:0:0:0:
179,225,83059,1,2,0:0:0:0:
135,233,83149,1,2,0:0:0:0:
90,241,83240,2,0,P|81:293|86:355,1,90,8|2,0:0|0:0,0:0:0:0:
259,298,83601,5,2,3:2:0:0:
169,133,83782,1,2,0:0:0:0:
259,298,83962,2,0,P|268:246|263:184,1,90,10|0,0:0|0:0,0:0:0:0:
195,17,84324,6,0,P|150:14|108:31,1,90,6|2,3:2|0:0,0:0:0:0:
29,228,84685,2,0,P|73:230|115:213,1,90,10|2,0:0|0:0,0:0:0:0:
279,78,85047,1,2,3:2:0:0:
92,123,85228,1,2,0:0:0:0:
267,209,85408,2,0,L|376:192,1,90,10|0,0:0|0:0,0:0:0:0:
501,83,85770,5,2,3:2:0:0:
502,39,85860,1,2,0:0:0:0:
472,7,85950,1,2,0:0:0:0:
428,7,86041,1,2,0:0:0:0:
397,37,86131,2,0,P|409:120|417:144,1,90,10|2,0:0|0:0,0:0:0:0:
446,256,86493,5,2,3:2:0:0:
303,106,86673,1,2,0:0:0:0:
348,311,86854,1,10,0:0:0:0:
410,125,87035,1,2,0:0:0:0:
251,268,87215,6,0,L|185:258,1,45,2|0,3:2|0:0,0:0:0:0:
148,201,87396,2,0,L|82:191,1,45,2|0,0:0|0:0,0:0:0:0:
30,243,87577,1,10,0:0:0:0:
247,180,87758,1,2,0:0:0:0:
85,41,87938,6,0,L|94:99,1,45,2|0,3:2|0:0,0:0:0:0:
141,156,88119,2,0,L|150:214,1,45,2|0,0:0|0:0,0:0:0:0:
206,261,88300,1,10,0:0:0:0:
288,88,88481,1,2,0:0:0:0:
378,292,88661,5,2,3:2:0:0:
378,292,88752,1,2,0:0:0:0:
378,292,88842,1,2,0:0:0:0:
378,292,88932,1,2,0:0:0:0:
378,292,89023,2,0,P|433:285|470:257,1,90,10|2,0:0|0:0,0:0:0:0:
223,207,89384,5,10,0:0:0:0:
467,128,89565,1,10,0:0:0:0:
240,84,89746,1,10,0:0:0:0:
397,217,89926,1,10,0:0:0:0:
160,302,90107,5,14,0:0:0:0:
240,84,90468,2,0,P|292:68|314:54,1,72,10|2,0:0|0:0,0:0:0:0:
141,36,90830,5,10,0:0:0:0:
57,241,91101,1,10,0:0:0:0:
277,198,91372,1,10,0:0:0:0:
158,143,91553,6,0,L|171:241,1,72,10|2,0:0|0:0,0:0:0:0:
257,352,91914,2,0,L|266:280,1,72,10|2,0:0|0:0,0:0:0:0:
158,143,92276,5,10,0:0:0:0:
369,207,92547,1,10,0:0:0:0:
318,0,92818,1,10,0:0:0:0:
285,109,92999,1,10,0:0:0:0:
285,109,93360,6,0,P|345:96|365:89,1,72,10|2,0:0|0:0,0:0:0:0:
213,230,93722,1,10,0:0:0:0:
175,28,93993,1,10,0:0:0:0:
213,230,94264,1,10,0:0:0:0:
109,150,94444,6,0,L|38:162,1,72,10|2,0:0|0:0,0:0:0:0:
92,280,94806,1,10,0:0:0:0:
213,230,94987,2,0,L|236:226,2,24,2|0|0,3:2|3:0|3:0,0:0:0:0:
196,251,95167,6,0,L|207:339,1,72,10|2,0:0|0:0,0:0:0:0:
390,243,95529,1,10,0:0:0:0:
281,93,95709,1,10,0:0:0:0:
295,278,95890,1,14,0:0:0:0:
295,278,96252,6,0,P|356:295|377:293,1,72,10|2,0:0|0:0,0:0:0:0:
474,208,96613,1,10,0:0:0:0:
269,145,96884,1,10,0:0:0:0:
421,0,97155,1,10,0:0:0:0:
397,110,97336,6,0,P|378:170|375:198,1,72,10|2,0:0|0:0,0:0:0:0:
273,86,97697,2,0,P|265:50|252:17,1,72,10|2,0:0|0:0,0:0:0:0:
179,159,98059,5,10,0:0:0:0:
397,110,98330,1,10,0:0:0:0:
326,320,98601,1,10,0:0:0:0:
306,205,98782,1,10,0:0:0:0:
306,205,99143,6,0,P|242:221|225:229,1,72,10|2,0:0|0:0,0:0:0:0:
144,304,99505,1,10,0:0:0:0:
50,123,99776,1,10,0:0:0:0:
232,29,100047,2,0,P|269:18|274:18,2,24,10|0|0,3:2|3:0|3:0,0:0:0:0:
218,50,100228,5,10,0:0:0:0:
176,148,100589,1,10,0:0:0:0:
230,242,100950,1,10,0:0:0:0:
176,148,101312,5,10,3:2:0:0:
176,148,101402,1,0,3:0:0:0:
176,148,101493,1,0,3:0:0:0:
176,148,101583,1,0,3:0:0:0:
176,148,101673,6,0,B|282:123|255:206|356:179,1,180,6|8,3:2|0:0,0:0:0:0:
323,94,102215,1,0,0:0:0:0:
209,233,102396,2,0,B|187:289|200:373|200:373|224:363|224:334,2,180,2|10|2,3:2|0:0|3:2,0:0:0:0:
381,329,103300,6,0,P|433:323|461:295,1,90,2|10,0:0|0:0,0:0:0:0:
340,123,103661,1,2,0:0:0:0:
503,211,103842,1,2,3:2:0:0:
293,263,104023,1,2,0:0:0:0:
428,67,104203,1,10,0:0:0:0:
394,256,104384,1,2,0:0:0:0:
204,168,104565,6,0,B|163:143|116:138|116:138|85:169|72:233,1,180,2|8,3:2|0:0,0:0:0:0:
145,346,105107,2,0,L|159:247,1,90,2|0,0:0|3:0,0:0:0:0:
282,112,105468,2,0,L|294:201,1,90,2|8,0:0|0:0,0:0:0:0:
407,353,105830,2,0,L|421:254,1,90,2|0,0:0|3:0,0:0:0:0:
282,112,106191,5,2,0:0:0:0:
311,290,106372,1,10,0:0:0:0:
433,161,106553,1,2,0:0:0:0:
311,290,106734,2,0,P|253:321|208:316,1,90,2|0,3:2|0:0,0:0:0:0:
177,151,107095,2,0,P|235:120|280:125,1,90,10|0,0:0|0:0,0:0:0:0:
69,293,107456,6,0,B|31:251|31:251|55:109,1,180,6|8,3:2|0:0,0:0:0:0:
166,249,107999,1,0,0:0:0:0:
260,114,108179,2,0,B|359:95|332:186|445:159,2,180,2|10|2,3:2|0:0|3:2,0:0:0:0:
165,248,109083,6,0,P|233:302|268:294,1,90,2|10,0:0|0:0,0:0:0:0:
382,213,109444,1,2,0:0:0:0:
192,122,109625,1,2,3:2:0:0:
408,87,109806,1,2,0:0:0:0:
247,222,109987,1,10,0:0:0:0:
222,17,110167,1,2,0:0:0:0:
382,213,110348,6,0,B|413:271|388:336|388:336|364:324|337:321,1,180,2|8,3:2|0:0,0:0:0:0:
126,320,110890,2,0,P|201:308|229:292,1,90,2|0,0:0|3:0,0:0:0:0:
265,104,111252,2,0,P|237:174|237:207,1,90,2|8,0:0|0:0,0:0:0:0:
382,332,111613,2,0,P|334:273|306:256,1,90,2|0,0:0|3:0,0:0:0:0:
155,229,111975,5,2,0:0:0:0:
155,229,112065,1,2,0:0:0:0:
155,229,112155,2,0,L|62:221,1,90,10|0,0:0|0:0,0:0:0:0:
261,76,112517,6,0,L|271:180,1,90,2|0,3:2|0:0,0:0:0:0:
382,332,112878,2,0,L|390:242,1,90,10|0,0:0|0:0,0:0:0:0:
467,62,113240,5,6,0:0:0:0:
467,62,113601,5,2,0:0:0:0:
455,144,113782,1,2,0:0:0:0:
375,84,113962,1,2,0:0:0:0:
361,182,114143,1,2,0:0:0:0:
283,106,114324,1,2,0:0:0:0:
267,223,114505,1,2,0:0:0:0:
191,133,114685,5,10,0:0:0:0:
252,349,114866,1,10,0:0:0:0:
108,160,115047,1,10,0:0:0:0:
83,378,115228,1,10,0:0:0:0:
444,83,116131,6,0,P|386:57|382:140,1,161.999995056153,6|0,3:2|0:0,0:0:0:0:
403,158,116493,1,8,0:0:0:0:
234,87,116673,1,2,0:0:0:0:
299,267,116854,2,0,L|309:128,1,107.999996704102,2|2,3:2|0:0,0:0:0:0:
128,87,117215,1,10,0:0:0:0:
183,292,117396,6,0,B|297:318|276:210|391:235,1,215.999993408203,2|2,0:0|0:0,0:0:0:0:
202,196,117938,1,10,0:0:0:0:
364,330,118119,1,2,0:0:0:0:
271,121,118300,2,0,P|301:179|296:239,1,107.999996704102,2|0,3:2|0:0,0:0:0:0:
120,377,118661,2,0,P|90:319|95:259,1,107.999996704102,10|0,0:0|0:0,0:0:0:0:
121,60,119023,6,0,B|212:41|191:113|280:90,1,161.999995056153,6|0,3:2|0:0,0:0:0:0:
308,79,119384,1,10,0:0:0:0:
141,157,119565,1,2,0:0:0:0:
383,178,119746,2,0,P|325:179|280:204,1,107.999996704102,2|2,3:2|0:0,0:0:0:0:
179,362,120107,2,0,P|232:362|280:337,1,107.999996704102,10|2,0:0|0:0,0:0:0:0:
467,257,120468,5,2,3:2:0:0:
281,202,120649,1,2,0:0:0:0:
433,336,120830,1,10,0:0:0:0:
469,142,121011,1,2,0:0:0:0:
319,320,121191,6,0,P|235:299|188:293,1,107.999996704102,2|0,3:2|0:0,0:0:0:0:
18,147,121553,2,0,P|102:126|149:120,1,107.999996704102,10|0,0:0|0:0,0:0:0:0:
372,234,121914,6,0,P|284:200|206:197,1,161.999995056153,6|0,3:2|0:0,0:0:0:0:
186,212,122276,1,10,0:0:0:0:
373,106,122456,1,2,0:0:0:0:
277,280,122637,2,0,P|259:331|252:384,1,107.999996704102,2|2,3:2|0:0,0:0:0:0:
430,239,122999,1,10,0:0:0:0:
267,90,123179,6,0,P|143:113|105:195,1,215.999993408203,2|2,0:0|0:0,0:0:0:0:
153,369,123722,1,10,0:0:0:0:
208,166,123902,1,2,0:0:0:0:
65,336,124083,2,0,B|41:290|41:290|49:234,1,107.999996704102,2|0,3:2|0:0,0:0:0:0:
290,202,124444,2,0,B|314:248|314:248|305:303,1,107.999996704102,10|0,0:0|0:0,0:0:0:0:
65,130,124806,6,0,P|147:99|258:91,1,161.999995056153,6|0,3:2|0:0,0:0:0:0:
255,98,125167,1,10,0:0:0:0:
175,255,125348,1,2,0:0:0:0:
370,106,125529,2,0,P|387:224|388:234,1,107.999996704102,2|2,3:2|0:0,0:0:0:0:
159,361,125890,2,0,P|165:307|174:254,1,107.999996704102,10|2,0:0|0:0,0:0:0:0:
255,98,126252,5,2,3:2:0:0:
272,317,126432,1,2,0:0:0:0:
370,106,126613,1,10,0:0:0:0:
405,320,126794,1,2,0:0:0:0:
215,167,126975,5,2,3:2:0:0:
451,210,127155,1,2,0:0:0:0:
221,317,127336,1,10,0:0:0:0:
468,207,127517,1,2,0:0:0:0:
162,246,127697,5,6,3:2:0:0:
162,246,128059,2,0,P|130:241|104:225,1,62.9999980773926,0|2,3:0|0:0,0:0:0:0:
88,135,128420,2,0,P|107:110|134:95,1,62.9999980773926,0|2,3:0|0:0,0:0:0:0:
221,126,128782,2,0,P|232:154|231:186,1,62.9999980773926,0|2,3:0|0:0,0:0:0:0:
231,186,129143,6,0,P|218:125|242:67,1,125.999996154785,2|0,3:2|3:0,0:0:0:0:
332,37,129685,1,2,0:0:0:0:
373,123,129866,2,0,L|452:113,1,62.9999980773926,0|2,3:0|0:0,0:0:0:0:
358,226,130228,2,0,L|437:216,1,62.9999980773926,0|2,3:0|0:0,0:0:0:0:
420,218,130589,6,0,L|291:234,1,125.999996154785,2|0,3:2|3:0,0:0:0:0:
218,322,131131,1,2,0:0:0:0:
121,275,131312,2,0,P|109:243|112:210,1,62.9999980773926,0|2,3:0|0:0,0:0:0:0:
223,194,131673,2,0,P|235:226|232:259,1,62.9999980773926,0|2,3:0|0:0,0:0:0:0:
233,254,132035,6,0,P|202:178|221:127,1,125.999996154785,2|0,3:2|3:0,0:0:0:0:
258,59,132577,1,2,0:0:0:0:
177,29,132758,2,0,L|112:41,1,62.9999980773926,0|2,3:0|0:0,0:0:0:0:
213,138,133119,1,0,3:0:0:0:
321,117,133300,1,2,0:0:0:0:
