osu file format v14

[General]
AudioFilename: audio.mp3
AudioLeadIn: 0
PreviewTime: 52517
Countdown: 0
SampleSet: Soft
StackLeniency: 0.7
Mode: 0
LetterboxInBreaks: 0
WidescreenStoryboard: 1

[Editor]
DistanceSpacing: 3
BeatDivisor: 4
GridSize: 32
TimelineZoom: 2.4

[Metadata]
Title:KING
TitleUnicode:KING
Artist:Murasaki Shion
ArtistUnicode:紫咲シオン
Creator:Yuuma
Version:Normal
Source:
Tags:ごず gozu たーむ tarm Kanaria GUMI vocaloid ボカロ vtuber virtual youtuber hololive ホロライブ japanese pop jpop j-pop
BeatmapID:2699209
BeatmapSetID:1301332

[Difficulty]
HPDrainRate:3
CircleSize:3
OverallDifficulty:4
ApproachRate:5
SliderMultiplier:1.1
SliderTickRate:1

[Events]
//Background and Video events
0,0,"shion chan daisuki dayo.jpg",0,0
//Break Periods
2,66970,77341
//Storyboard Layer 0 (Background)
//Storyboard Layer 1 (Fail)
//Storyboard Layer 2 (Pass)
//Storyboard Layer 3 (Foreground)
//Storyboard Layer 4 (Overlay)
//Storyboard Sound Samples

[TimingPoints]
469,361.44578313253,4,2,1,50,1,0
469,-111.111111111111,4,2,1,50,0,0
2999,-111.111111111111,4,2,1,20,0,0
3360,-100,4,2,1,80,0,0
14926,-100,4,2,1,60,0,0
26493,-100,4,2,1,70,0,0
31553,-100,4,2,1,70,0,0
32276,-100,4,2,1,70,0,0
38059,-100,4,2,1,50,0,0
39505,-100,4,2,1,80,0,0
39595,-100,4,2,1,5,0,0
39866,-100,4,2,1,80,0,0
39956,-100,4,2,1,5,0,0
40228,-100,4,2,1,80,0,0
40318,-100,4,2,1,5,0,0
40589,-100,4,2,1,50,0,0
40950,-100,4,2,1,70,0,0
52517,-100,4,2,1,80,0,1
66071,-100,4,2,1,80,0,0
78541,-100,4,2,1,70,0,0
90107,-100,4,2,1,70,0,0
101673,-100,4,2,1,80,0,1
115228,-100,4,2,1,80,0,0
116131,-100,4,2,1,80,0,0
127697,-100,4,2,1,60,0,0

[Colours]
Combo1 : 162,68,255
Combo2 : 128,128,192
Combo3 : 199,199,226

[HitObjects]
456,59,3360,6,0,P|412:63|338:79,1,110,6|10,3:2|0:0,0:0:0:0:
305,111,3902,1,2,0:0:0:0:
305,111,4083,2,0,P|255:109|236:103,1,55,2|2,3:2|0:0,0:0:0:0:
202,82,4444,1,10,0:0:0:0:
202,82,4625,1,2,0:0:0:0:
95,56,4987,2,0,L|89:-2,2,55,2|10|2,0:0|0:0|0:0,0:0:0:0:
60,101,5529,2,0,L|74:220,1,110,2|10,3:2|0:0,0:0:0:0:
38,315,6252,6,0,P|89:321|146:290,1,110,6|10,3:2|0:0,0:0:0:0:
180,258,6794,1,2,0:0:0:0:
180,258,6975,2,0,P|218:245|241:245,1,55,2|2,3:2|0:0,0:0:0:0:
281,273,7336,2,0,P|309:282|338:283,1,55,10|2,0:0|0:0,0:0:0:0:
384,261,7697,2,0,B|376:211|376:211|382:195|382:195|375:135,2,110,2|10|2,3:2|0:0|3:2,0:0:0:0:
461,341,8782,1,10,0:0:0:0:
510,241,9143,6,0,P|523:190|501:129,1,110,6|10,3:2|0:0,0:0:0:0:
479,88,9685,1,2,0:0:0:0:
479,88,9866,2,0,L|407:79,1,55,2|2,3:2|0:0,0:0:0:0:
371,70,10228,1,8,0:0:0:0:
371,70,10408,1,2,0:0:0:0:
295,149,10770,2,0,L|230:141,2,55,2|10|2,0:0|0:0|0:0,0:0:0:0:
325,195,11312,2,0,P|337:258|325:303,1,110,2|10,3:2|0:0,0:0:0:0:
226,350,12035,6,0,L|99:334,1,110,6|10,3:2|0:0,0:0:0:0:
63,327,12577,1,2,0:0:0:0:
63,327,12758,2,0,P|57:273|65:257,1,55,2|2,3:2|0:0,0:0:0:0:
86,226,13119,2,0,P|88:198|79:172,1,55,10|2,0:0|0:0,0:0:0:0:
42,132,13481,2,0,P|39:93|72:27,2,110,2|10|2,3:2|0:0|3:2,0:0:0:0:
147,103,14565,1,10,0:0:0:0:
225,175,14926,6,0,P|252:128|252:74,1,110,6|2,3:2|3:2,0:0:0:0:
348,22,15649,1,2,3:2:0:0:
444,74,16011,1,2,3:2:0:0:
446,184,16372,2,0,P|395:183|328:222,1,110,2|2,3:2|3:2,0:0:0:0:
271,291,17095,1,2,3:2:0:0:
179,234,17456,1,2,3:2:0:0:
100,310,17818,6,0,P|88:237|79:195,2,110,2|2|2,3:2|3:2|3:2,0:0:0:0:
193,365,18902,1,2,3:2:0:0:
271,291,19264,2,0,P|283:218|292:176,2,110,2|2|2,3:2|3:2|3:2,0:0:0:0:
360,355,20348,1,2,3:2:0:0:
449,291,20709,6,0,P|437:218|428:176,1,110,6|2,3:2|3:2,0:0:0:0:
359,97,21432,1,2,3:2:0:0:
290,182,21794,1,0,3:0:0:0:
217,98,22155,2,0,L|99:112,1,110,2|2,3:2|3:2,0:0:0:0:
31,189,22878,1,2,3:2:0:0:
56,298,23240,1,2,3:2:0:0:
152,241,23601,6,0,P|204:215|258:219,2,110,2|2|2,3:2|3:2|3:2,0:0:0:0:
225,321,24685,1,2,3:2:0:0:
330,354,25047,2,0,P|384:356|432:330,2,110,2|2|2,3:2|3:2|3:2,0:0:0:0:
356,250,26131,1,2,3:2:0:0:
448,190,26493,6,0,B|459:163|459:163|453:137,1,55,6|2,3:2|0:0,0:0:0:0:
435,86,26854,2,0,L|361:80,1,55,10|2,0:0|0:0,0:0:0:0:
325,78,27215,1,2,3:2:0:0:
230,136,27577,1,10,0:0:0:0:
289,227,27938,2,0,P|301:269|300:303,1,55,2|2,3:2|0:0,0:0:0:0:
275,328,28300,2,0,P|235:338|206:335,1,55,10|2,0:0|0:0,0:0:0:0:
171,312,28661,2,0,P|116:296|79:293,2,82.5,2|2|2,3:2|0:0|0:0,0:0:0:0:
142,207,29565,5,2,0:0:0:0:
142,207,29746,2,0,P|93:199|79:191,1,55,10|2,0:0|0:0,0:0:0:0:
46,162,30107,1,2,3:2:0:0:
85,62,30468,1,10,0:0:0:0:
193,40,30830,2,0,P|242:48|256:56,1,55,2|2,3:2|0:0,0:0:0:0:
292,82,31191,2,0,P|317:91|345:92,1,55,10|2,0:0|0:0,0:0:0:0:
397,71,31553,2,0,B|454:38|454:38|485:39,2,82.5,6|6|6,0:0|0:0|0:0,0:0:0:0:
386,125,32276,6,0,L|395:199,1,55,6|2,3:2|0:0,0:0:0:0:
356,219,32637,2,0,L|366:285,1,55,10|2,0:0|0:0,0:0:0:0:
343,323,32999,1,2,3:2:0:0:
243,272,33360,1,10,0:0:0:0:
156,340,33722,2,0,P|125:354|93:354,1,55,2|2,3:2|0:0,0:0:0:0:
58,325,34083,2,0,P|49:294|58:261,1,55,10|2,0:0|0:0,0:0:0:0:
76,221,34444,2,0,P|77:166|54:126,2,82.5,2|2|2,3:2|0:0|0:0,0:0:0:0:
177,170,35348,5,2,0:0:0:0:
177,170,35529,2,0,L|247:175,1,55,10|2,0:0|0:0,0:0:0:0:
283,194,35890,1,2,3:2:0:0:
378,130,36252,1,10,0:0:0:0:
455,212,36613,2,0,P|461:247|467:328,3,110,2|2|2|2,3:2|3:2|3:2|3:2,0:0:0:0:
364,280,38059,5,2,0:0:0:0:
364,280,39505,6,0,P|317:302|260:294,2,110,6|6|6,0:0|0:0|0:0,0:0:0:0:
281,78,40950,5,14,0:0:0:0:
281,78,41312,2,0,P|248:88|215:100,1,55,10|2,0:0|0:0,0:0:0:0:
186,127,41673,2,0,P|151:143|99:152,2,82.5,10|10|10,0:0|0:0|0:0,0:0:0:0:
226,164,42396,2,0,P|237:209|241:280,1,110,10|10,0:0|0:0,0:0:0:0:
152,328,43119,2,0,L|58:341,2,82.5,10|10|10,0:0|0:0|0:0,0:0:0:0:
203,353,43842,1,10,0:0:0:0:
309,334,44203,6,0,L|371:321,1,55,10|2,0:0|0:0,0:0:0:0:
409,291,44565,2,0,P|461:323|495:321,2,82.5,10|10|10,0:0|0:0|0:0,0:0:0:0:
378,245,45288,2,0,L|392:125,1,110,10|10,0:0|0:0,0:0:0:0:
426,32,46011,2,0,P|382:22|364:27,1,55,10|2,0:0|0:0,0:0:0:0:
328,56,46372,2,0,P|298:68|267:68,1,55,10|10,0:0|0:0,0:0:0:0:
227,42,46734,1,14,0:0:0:0:
121,14,47095,6,0,P|133:66|133:75,1,55,10|2,0:0|0:0,0:0:0:0:
111,119,47456,2,0,P|55:97|11:94,2,82.5,10|10|10,0:0|0:0|0:0,0:0:0:0:
148,162,48179,2,0,L|130:295,1,110,10|10,0:0|0:0,0:0:0:0:
244,297,48902,2,0,L|257:386,2,82.5,10|10|10,0:0|0:0|0:0,0:0:0:0:
254,243,49625,1,10,0:0:0:0:
352,299,49987,6,0,P|399:301|410:294,1,55,10|2,0:0|0:0,0:0:0:0:
452,267,50348,2,0,L|444:365,2,82.5,10|10|8,0:0|0:0|3:2,0:0:0:0:
456,214,51071,1,10,0:0:0:0:
391,124,51432,1,10,0:0:0:0:
287,159,51794,2,0,P|250:175|168:174,1,110,10|10,0:0|3:2,0:0:0:0:
85,131,52517,6,0,B|91:169|76:193|76:193|91:236,1,110,6|10,3:2|0:0,0:0:0:0:
175,308,53240,2,0,P|106:316|67:354,2,110,2|10|2,3:2|0:0|3:2,0:0:0:0:
220,337,54143,2,0,P|304:361|341:349,1,110,0|2,0:0|0:0,0:0:0:0:
374,333,54685,1,2,3:2:0:0:
288,263,55047,1,10,0:0:0:0:
392,226,55408,6,0,B|415:200|415:200|407:106,1,110,2|8,3:2|0:0,0:0:0:0:
402,71,55950,1,2,0:0:0:0:
306,126,56312,1,2,0:0:0:0:
213,67,56673,1,2,0:0:0:0:
123,129,57035,2,0,L|62:120,2,55,2|10|2,0:0|0:0|0:0,0:0:0:0:
168,161,57577,2,0,P|177:220|180:280,1,110,2|10,3:2|0:0,0:0:0:0:
259,348,58300,6,0,B|316:359|316:359|362:335,1,110,6|10,3:2|0:0,0:0:0:0:
400,232,59023,2,0,B|343:221|343:221|297:245,2,110,2|10|2,3:2|0:0|3:2,0:0:0:0:
454,248,59926,2,0,P|504:230|489:165,1,110,2|2,0:0|0:0,0:0:0:0:
495,126,60468,1,2,3:2:0:0:
402,71,60830,1,10,0:0:0:0:
302,113,61191,6,0,P|234:142|189:142,1,110,2|8,3:2|0:0,0:0:0:0:
153,112,61734,1,2,0:0:0:0:
217,21,62095,1,2,0:0:0:0:
327,24,62456,1,2,0:0:0:0:
411,97,62818,2,0,L|419:160,1,55,2|10,0:0|0:0,0:0:0:0:
377,253,63360,2,0,P|423:262|488:233,2,110,2|10|6,3:2|0:0|0:0,0:0:0:0:
88,56,65529,6,0,L|96:129,1,55,10|10,0:0|0:0,0:0:0:0:
104,166,65890,1,10,0:0:0:0:
104,166,66071,1,10,0:0:0:0:
483,52,78541,6,0,P|426:55|354:68,1,110,6|10,3:2|0:0,0:0:0:0:
331,97,79083,1,2,0:0:0:0:
331,97,79264,2,0,P|278:96|255:92,2,55,2|2|10,3:2|0:0|0:0,0:0:0:0:
431,149,79987,2,0,P|443:215|441:267,1,110,2|10,3:2|0:0,0:0:0:0:
425,310,80529,1,2,0:0:0:0:
425,310,80709,2,0,L|359:300,1,55,2|2,3:2|0:0,0:0:0:0:
324,333,81071,2,0,L|261:322,1,55,10|2,0:0|0:0,0:0:0:0:
219,345,81432,6,0,P|175:370|102:367,2,110,2|10|2,3:2|0:0|3:2,0:0:0:0:
238,237,82517,1,10,0:0:0:0:
174,150,82878,2,0,P|119:150|71:176,1,110,2|8,3:2|0:0,0:0:0:0:
34,217,83420,1,2,0:0:0:0:
34,217,83601,2,0,L|27:149,2,55,2|2|10,3:2|0:0|0:0,0:0:0:0:
130,262,84324,6,0,L|237:236,1,110,6|10,3:2|0:0,0:0:0:0:
292,227,84866,1,2,0:0:0:0:
292,227,85047,2,0,P|289:263|288:294,2,55,2|2|10,3:2|0:0|0:0,0:0:0:0:
377,160,85770,2,0,P|373:83|364:33,1,110,2|10,3:2|0:0,0:0:0:0:
326,15,86312,1,2,0:0:0:0:
326,15,86493,2,0,L|261:24,1,55,2|2,3:2|0:0,0:0:0:0:
243,71,86854,2,0,L|163:86,1,55,10|2,0:0|0:0,0:0:0:0:
148,120,87215,6,0,P|126:157|134:228,1,110,2|10,3:2|0:0,0:0:0:0:
162,268,87758,1,2,0:0:0:0:
162,268,87938,2,0,P|221:243|278:245,1,110,2|10,3:2|0:0,0:0:0:0:
346,164,88661,2,0,P|287:139|230:141,1,110,2|10,3:2|0:0,0:0:0:0:
138,106,89384,2,0,P|111:113|88:128,1,55,10|10,0:0|0:0,0:0:0:0:
100,183,89746,2,0,L|110:248,1,55,10|10,0:0|0:0,0:0:0:0:
120,291,90107,5,14,0:0:0:0:
231,306,90468,2,0,P|264:296|297:284,1,55,10|2,0:0|0:0,0:0:0:0:
326,257,90830,2,0,P|361:241|413:232,2,82.5,10|10|10,0:0|0:0|0:0,0:0:0:0:
286,220,91553,2,0,P|275:175|271:104,1,110,10|10,0:0|0:0,0:0:0:0:
360,56,92276,2,0,L|454:43,2,82.5,10|10|10,0:0|0:0|0:0,0:0:0:0:
309,31,92999,1,10,0:0:0:0:
203,50,93360,6,0,L|141:63,1,55,10|2,0:0|0:0,0:0:0:0:
103,93,93722,2,0,P|51:61|17:63,2,82.5,10|10|10,0:0|0:0|0:0,0:0:0:0:
134,139,94444,2,0,L|120:259,1,110,10|10,0:0|0:0,0:0:0:0:
86,352,95167,2,0,P|130:362|148:357,1,55,10|2,0:0|0:0,0:0:0:0:
184,328,95529,2,0,P|214:316|245:316,1,55,10|10,0:0|0:0,0:0:0:0:
285,342,95890,1,14,0:0:0:0:
391,370,96252,6,0,P|379:318|379:309,1,55,10|2,0:0|0:0,0:0:0:0:
401,265,96613,2,0,P|457:287|501:290,2,82.5,10|10|10,0:0|0:0|0:0,0:0:0:0:
364,222,97336,2,0,L|382:89,1,110,10|10,0:0|0:0,0:0:0:0:
268,87,98059,2,0,L|255:-2,2,82.5,10|10|10,0:0|0:0|0:0,0:0:0:0:
258,141,98782,1,10,0:0:0:0:
160,85,99143,6,0,P|113:83|102:90,1,55,10|2,0:0|0:0,0:0:0:0:
60,117,99505,2,0,L|68:19,2,82.5,10|10|10,0:0|0:0|3:2,0:0:0:0:
56,170,100228,1,10,0:0:0:0:
121,260,100589,1,10,0:0:0:0:
225,225,100950,2,0,P|262:209|344:210,1,110,10|10,0:0|3:2,0:0:0:0:
427,253,101673,6,0,B|421:215|436:191|436:191|421:148,1,110,6|8,3:2|0:0,0:0:0:0:
348,67,102396,2,0,P|393:37|447:42,2,110,2|10|2,3:2|0:0|3:2,0:0:0:0:
314,110,103300,2,0,P|265:144|209:138,1,110,2|2,0:0|0:0,0:0:0:0:
188,95,103842,1,2,3:2:0:0:
82,121,104203,1,10,0:0:0:0:
155,206,104565,6,0,L|167:329,1,110,2|8,3:2|0:0,0:0:0:0:
201,359,105107,1,2,0:0:0:0:
271,271,105468,1,2,0:0:0:0:
346,352,105830,1,2,0:0:0:0:
419,270,106191,2,0,L|478:282,2,55,2|10|2,0:0|0:0|0:0,0:0:0:0:
387,224,106734,2,0,P|375:193|404:126,1,110,2|10,3:2|0:0,0:0:0:0:
445,23,107456,6,0,P|374:33|326:44,1,110,6|8,3:2|0:0,0:0:0:0:
245,105,108179,2,0,P|181:92|132:73,2,110,2|10|2,3:2|0:0|3:2,0:0:0:0:
290,138,109083,2,0,B|302:196|302:196|278:264,1,110,2|2,0:0|0:0,0:0:0:0:
262,292,109625,1,2,3:2:0:0:
153,321,109987,1,10,0:0:0:0:
79,243,110348,6,0,P|130:208|197:201,1,110,2|8,3:2|0:0,0:0:0:0:
231,201,110890,1,2,0:0:0:0:
336,233,111252,1,2,0:0:0:0:
429,172,111613,1,2,0:0:0:0:
392,69,111975,2,0,L|327:59,1,55,2|10,0:0|0:0,0:0:0:0:
228,51,112517,2,0,P|175:52|120:92,1,110,2|10,3:2|0:0,0:0:0:0:
65,172,113240,5,6,0:0:0:0:
65,172,114685,6,0,L|76:248,1,55,10|10,0:0|0:0,0:0:0:0:
80,280,115047,1,10,0:0:0:0:
80,280,115228,1,10,0:0:0:0:
296,336,116131,6,0,P|369:337|406:316,1,110,6|8,3:2|0:0,0:0:0:0:
440,283,116673,1,2,0:0:0:0:
440,283,116854,2,0,L|446:222,1,55,2|2,3:2|0:0,0:0:0:0:
456,174,117215,1,10,0:0:0:0:
456,174,117396,1,2,0:0:0:0:
369,105,117758,2,0,L|378:39,2,55,2|10|2,0:0|0:0|0:0,0:0:0:0:
325,140,118300,2,0,P|288:169|216:160,1,110,2|10,3:2|0:0,0:0:0:0:
125,121,119023,6,0,P|144:183|144:232,1,110,6|10,3:2|0:0,0:0:0:0:
116,275,119565,1,2,0:0:0:0:
116,275,119746,2,0,P|112:304|119:341,1,55,2|2,3:2|0:0,0:0:0:0:
162,358,120107,2,0,L|227:347,1,55,10|2,0:0|0:0,0:0:0:0:
254,308,120468,2,0,L|363:320,2,110,2|10|2,3:2|0:0|3:2,0:0:0:0:
237,198,121553,1,10,0:0:0:0:
283,97,121914,6,0,P|342:93|408:114,1,110,6|10,3:2|0:0,0:0:0:0:
443,122,122456,1,2,0:0:0:0:
443,122,122637,2,0,P|447:172|443:187,1,55,2|2,3:2|0:0,0:0:0:0:
435,230,122999,1,10,0:0:0:0:
435,230,123179,1,2,0:0:0:0:
324,249,123541,2,0,L|318:323,2,55,2|10|2,0:0|0:0|0:0,0:0:0:0:
278,218,124083,2,0,P|214:193|156:212,1,110,2|10,3:2|0:0,0:0:0:0:
82,257,124806,6,0,B|57:206|57:206|80:135,1,110,6|10,3:2|0:0,0:0:0:0:
97,105,125348,1,2,0:0:0:0:
97,105,125529,2,0,P|140:99|166:91,1,55,2|2,3:2|0:0,0:0:0:0:
189,56,125890,2,0,P|215:49|243:47,1,55,10|2,0:0|0:0,0:0:0:0:
292,74,126252,2,0,B|301:107|301:107|287:142|282:203,2,110,2|10|2,3:2|0:0|3:2,0:0:0:0:
399,59,127336,1,10,0:0:0:0:
440,161,127697,6,0,P|451:217|452:287,1,110,6|0,3:2|3:0,0:0:0:0:
431,320,128240,2,0,L|306:303,1,110,2|2,0:0|0:0,0:0:0:0:
215,289,128962,1,2,0:0:0:0:
215,289,129143,2,0,P|206:223|233:171,1,110,2|0,3:2|3:0,0:0:0:0:
255,141,129685,1,2,0:0:0:0:
324,55,130047,2,0,L|214:40,1,110,2|2,0:0|0:0,0:0:0:0:
170,70,130589,6,0,P|127:101|53:94,1,110,2|0,3:2|3:0,0:0:0:0:
20,83,131131,1,2,0:0:0:0:
0,190,131493,2,0,P|53:196|96:229,1,110,2|2,0:0|0:0,0:0:0:0:
121,280,132035,6,0,P|165:309|234:287,1,110,2|0,3:2|3:0,0:0:0:0:
257,260,132577,2,0,L|373:271,2,110,2|2|2,0:0|0:0|0:0,0:0:0:0:
