osu file format v14

[General]
AudioFilename: audio.mp3
AudioLeadIn: 0
PreviewTime: 52517
Countdown: 0
SampleSet: Soft
StackLeniency: 0.7
Mode: 0
LetterboxInBreaks: 0
WidescreenStoryboard: 1

[Editor]
DistanceSpacing: 3
BeatDivisor: 4
GridSize: 32
TimelineZoom: 2.4

[Metadata]
Title:KING
TitleUnicode:KING
Artist:Murasaki Shion
ArtistUnicode:紫咲シオン
Creator:Yuuma
Version:Light Insane
Source:
Tags:ごず gozu たーむ tarm Kanaria GUMI vocaloid ボカロ vtuber virtual youtuber hololive ホロライブ japanese pop jpop j-pop
BeatmapID:2724972
BeatmapSetID:1301332

[Difficulty]
HPDrainRate:5
CircleSize:4
OverallDifficulty:7
ApproachRate:8
SliderMultiplier:1.7
SliderTickRate:1

[Events]
//Background and Video events
0,0,"shion chan daisuki dayo.jpg",0,0
//Break Periods
//Storyboard Layer 0 (Background)
//Storyboard Layer 1 (Fail)
//Storyboard Layer 2 (Pass)
//Storyboard Layer 3 (Foreground)
//Storyboard Layer 4 (Overlay)
//Storyboard Sound Samples

[TimingPoints]
469,361.44578313253,4,2,1,50,1,0
469,-166.666666666667,4,2,1,50,0,0
2999,-166.666666666667,4,2,1,20,0,0
3360,-100,4,2,1,80,0,0
14926,-125,4,2,1,60,0,0
26493,-111.111111111111,4,2,1,70,0,0
31553,-83.3333333333333,4,2,1,70,0,0
32276,-111.111111111111,4,2,1,70,0,0
38059,-166.666666666666,4,2,1,50,0,0
39505,-83.3333333333332,4,2,1,80,0,0
39595,-83.3333333333332,4,2,1,5,0,0
39866,-83.3333333333332,4,2,1,80,0,0
39956,-83.3333333333332,4,2,1,5,0,0
40228,-83.3333333333332,4,2,1,80,0,0
40318,-83.3333333333332,4,2,1,5,0,0
40589,-166.666666666667,4,2,1,50,0,0
40950,-125,4,2,1,70,0,0
52517,-100,4,2,1,80,0,1
64083,-142.857142857143,4,2,1,80,0,1
66071,-100,4,2,1,80,0,0
78541,-100,4,2,1,70,0,0
90107,-125,4,2,1,70,0,0
101673,-100,4,2,1,80,0,1
113240,-142.857142857143,4,2,1,80,0,1
115228,-100,4,2,1,80,0,0
116131,-83.3333333333333,4,2,1,80,0,0
127697,-142.857142857143,4,2,1,60,0,0

[Colours]
Combo1 : 162,68,255
Combo2 : 128,128,192
Combo3 : 199,199,226

[HitObjects]
481,69,469,5,2,0:0:0:0:
481,69,830,2,0,L|421:79,1,50.9999984436036,2|2,0:0|0:0,0:0:0:0:
362,145,1191,1,2,0:0:0:0:
362,145,1372,1,2,0:0:0:0:
283,78,1553,2,0,L|232:69,1,50.9999984436036,2|2,0:0|0:0,0:0:0:0:
362,145,1914,6,0,P|371:184|368:208,1,50.9999984436036,2|2,0:0|0:0,0:0:0:0:
275,211,2276,2,0,P|266:172|269:148,1,50.9999984436036,2|2,0:0|0:0,0:0:0:0:
385,243,2637,2,0,P|329:244|278:274,1,101.999996887207,2|0,0:0|0:0,0:0:0:0:
52,349,3360,6,0,B|22:289|22:289|49:189,1,170,6|10,3:2|0:0,0:0:0:0:
81,75,3902,1,2,0:0:0:0:
139,219,4083,2,0,P|191:211|225:179,1,85,2|2,3:2|0:0,0:0:0:0:
311,246,4444,1,10,0:0:0:0:
311,246,4625,6,0,P|326:182|266:95,1,170,2|2,0:0|0:0,0:0:0:0:
178,38,5167,1,10,0:0:0:0:
155,144,5348,1,2,0:0:0:0:
178,38,5529,2,0,P|237:26|279:23,1,85,2|0,3:2|0:0,0:0:0:0:
427,117,5890,2,0,P|368:105|326:102,1,85,10|0,0:0|0:0,0:0:0:0:
215,191,6252,6,0,P|311:208|391:243,1,170,6|10,3:2|0:0,0:0:0:0:
411,333,6794,1,2,0:0:0:0:
267,365,6975,2,0,P|261:324|274:284,1,85,2|2,3:2|0:0,0:0:0:0:
384,153,7336,2,0,P|390:194|377:234,1,85,10|2,0:0|0:0,0:0:0:0:
231,173,7697,6,0,P|159:181|121:192,1,85,2|2,3:2|0:0,0:0:0:0:
37,324,8059,2,0,P|109:316|147:305,1,85,10|2,0:0|0:0,0:0:0:0:
118,100,8420,2,0,P|71:133|83:253,1,170,2|10,3:2|0:0,0:0:0:0:
197,261,8962,1,2,0:0:0:0:
252,104,9143,6,0,B|342:81|325:159|417:134,1,170,6|10,3:2|0:0,0:0:0:0:
512,87,9685,1,2,0:0:0:0:
394,16,9866,2,0,P|374:118|375:136,1,85,2|2,3:2|0:0,0:0:0:0:
287,186,10228,1,8,0:0:0:0:
287,186,10408,6,0,P|339:217|453:212,1,170,2|2,0:0|0:0,0:0:0:0:
390,317,10950,1,10,0:0:0:0:
370,135,11131,1,2,0:0:0:0:
235,246,11312,2,0,P|162:272|124:267,1,85,2|0,3:2|0:0,0:0:0:0:
110,129,11673,2,0,P|183:103|221:108,1,85,10|0,0:0|0:0,0:0:0:0:
241,269,12035,6,0,P|184:300|80:301,1,170,6|10,3:2|0:0,0:0:0:0:
177,200,12577,1,2,0:0:0:0:
72,110,12758,2,0,P|61:160|49:202,1,85,2|2,3:2|0:0,0:0:0:0:
182,32,13119,2,0,P|195:80|211:118,1,85,10|2,0:0|0:0,0:0:0:0:
289,264,13481,6,0,L|393:245,1,85,2|2,3:2|0:0,0:0:0:0:
496,150,13842,2,0,L|395:130,1,85,10|2,0:0|0:0,0:0:0:0:
467,260,14203,2,0,P|480:299|481:342,1,85,2|0,3:2|0:0,0:0:0:0:
289,264,14565,2,0,P|289:221|303:181,1,85,10|0,0:0|0:0,0:0:0:0:
343,367,14926,6,0,L|186:350,1,136,6|2,3:2|3:2,0:0:0:0:
113,343,15468,1,2,0:0:0:0:
166,261,15649,1,2,3:2:0:0:
166,261,16011,2,0,P|178:214|168:179,1,68,2|2,3:2|0:0,0:0:0:0:
75,210,16372,5,2,3:2:0:0:
105,111,16553,1,2,0:0:0:0:
105,111,16734,2,0,P|159:85|234:80,2,136,2|2|2,3:2|3:2|3:2,0:0:0:0:
264,239,17818,6,0,P|331:235|393:208,1,136,2|2,3:2|3:2,0:0:0:0:
393,208,18360,1,2,0:0:0:0:
405,108,18541,2,0,P|376:61|358:113,1,136,2|2,3:2|3:2,0:0:0:0:
358,113,19083,1,2,0:0:0:0:
488,173,19264,6,0,L|485:243,1,68,2|0,3:2|0:0,0:0:0:0:
477,346,19625,2,0,P|431:315|349:309,1,136,2|2,3:2|3:2,0:0:0:0:
178,370,20348,2,0,P|221:363|248:351,1,68,2|0,3:2|0:0,0:0:0:0:
260,244,20709,6,0,B|268:193|268:193|246:142|272:87,3,136,6|2|2|0,3:2|3:2|3:2|3:0,0:0:0:0:
350,146,21975,1,2,0:0:0:0:
350,146,22155,2,0,P|354:91|343:58,1,68,2|2,3:2|0:0,0:0:0:0:
276,11,22517,6,0,B|214:1|204:59|131:45,2,136,2|2|2,3:2|3:2|3:2,0:0:0:0:
263,110,23420,1,2,0:0:0:0:
175,157,23601,6,0,P|106:142|39:137,1,136,2|2,3:2|3:2,0:0:0:0:
40,137,24143,1,2,0:0:0:0:
90,260,24324,2,0,P|159:245|226:240,1,136,2|2,3:2|3:2,0:0:0:0:
224,240,24866,1,2,0:2:0:0:
339,307,25047,6,0,L|343:377,1,68,2|0,3:2|0:0,0:0:0:0:
423,230,25408,2,0,L|431:365,2,136,2|2|2,3:2|3:2|3:2,0:0:0:0:
406,31,26493,5,6,3:2:0:0:
283,107,26673,1,2,0:0:0:0:
283,107,26854,2,0,P|274:53|284:22,1,76.4999976654053,10|2,0:0|0:0,0:0:0:0:
419,155,27215,2,0,P|428:209|418:240,1,76.4999976654053,2|2,3:2|0:0,0:0:0:0:
302,274,27577,2,0,L|205:261,1,76.4999976654053,10|2,0:0|0:0,0:0:0:0:
75,209,27938,5,2,3:2:0:0:
247,160,28119,1,2,0:0:0:0:
82,94,28300,1,10,0:0:0:0:
238,50,28481,1,2,0:0:0:0:
204,224,28661,2,0,P|173:169|194:100,1,114.749996498108,2|2,3:2|0:0,0:0:0:0:
247,160,29023,2,0,L|335:145,1,76.4999976654053,8|2,0:0|0:0,0:0:0:0:
421,130,29384,1,2,3:2:0:0:
416,291,29565,5,2,0:0:0:0:
416,291,29746,2,0,P|363:279|319:278,1,76.4999976654053,10|2,0:0|0:0,0:0:0:0:
201,364,30107,2,0,P|237:324|260:286,1,76.4999976654053,2|2,3:2|0:0,0:0:0:0:
245,141,30468,2,0,P|261:192|282:231,1,76.4999976654053,10|2,0:0|0:0,0:0:0:0:
400,132,30830,5,2,3:2:0:0:
292,49,31011,1,2,0:0:0:0:
271,212,31191,1,10,0:0:0:0:
176,82,31372,1,2,0:0:0:0:
138,230,31553,6,0,B|153:287|153:287|139:318|139:318|154:382,2,152.999995330811,6|6|6,0:0|0:0|0:0,0:0:0:0:
89,39,32276,5,6,3:2:0:0:
205,86,32456,1,2,0:0:0:0:
205,86,32637,2,0,P|247:103|287:102,1,76.4999976654053,10|2,0:0|0:0,0:0:0:0:
417,34,32999,2,0,P|375:17|335:18,1,76.4999976654053,2|2,3:2|0:0,0:0:0:0:
390,141,33360,2,0,P|400:189|406:243,1,76.4999976654053,10|2,0:0|0:0,0:0:0:0:
290,202,33722,5,2,3:2:0:0:
342,357,33902,1,2,0:0:0:0:
198,228,34083,1,10,0:0:0:0:
233,382,34264,1,2,0:0:0:0:
290,202,34444,2,0,P|360:205|423:222,1,114.749996498108,2|2,3:2|0:0,0:0:0:0:
468,145,34806,2,0,P|397:120|383:119,1,76.4999976654053,8|2,0:0|0:0,0:0:0:0:
290,202,35167,1,2,3:2:0:0:
214,34,35348,5,2,0:0:0:0:
214,34,35529,2,0,P|259:33|294:42,1,76.4999976654053,10|2,0:0|0:0,0:0:0:0:
120,137,35890,2,0,L|105:52,1,76.4999976654053,2|2,3:2|0:0,0:0:0:0:
276,157,36252,2,0,L|265:256,1,76.4999976654053,10|2,0:0|0:0,0:0:0:0:
249,353,36613,5,2,3:2:0:0:
249,353,36975,1,2,3:2:0:0:
249,353,37336,1,2,3:2:0:0:
249,353,37697,2,0,L|240:276,1,76.4999976654053,2|0,3:2|0:0,0:0:0:0:
221,148,38059,5,2,0:0:0:0:
221,148,38420,2,0,P|254:159|287:154,1,50.9999984436036,2|2,0:0|0:0,0:0:0:0:
344,87,38782,1,2,0:0:0:0:
344,87,38962,1,2,0:0:0:0:
424,147,39143,2,0,P|467:156|486:151,1,50.9999984436036,2|2,0:0|0:0,0:0:0:0:
354,228,39505,5,6,0:0:0:0:
344,87,39866,1,6,0:0:0:0:
354,228,40228,1,6,0:0:0:0:
221,160,40950,5,14,0:0:0:0:
221,160,41312,2,0,L|230:234,1,68,10|2,0:0|0:0,0:0:0:0:
197,324,41673,2,0,P|250:331|304:295,2,102,10|10|10,0:0|0:0|0:0,0:0:0:0:
108,303,42396,6,0,L|99:235,1,68,10|2,0:0|0:0,0:0:0:0:
221,160,42758,2,0,L|230:234,1,68,10|2,0:0|0:0,0:0:0:0:
81,139,43119,1,10,0:0:0:0:
207,64,43390,1,10,0:0:0:0:
347,105,43661,1,10,0:0:0:0:
221,160,43842,5,10,0:0:0:0:
357,288,44203,2,0,P|391:284|423:272,1,68,10|2,0:0|0:0,0:0:0:0:
469,186,44565,2,0,B|486:148|486:148|473:123|473:123|492:84,2,102,10|10|10,0:0|0:0|0:0,0:0:0:0:
389,132,45288,6,0,P|355:136|323:148,1,68,10|2,0:0|0:0,0:0:0:0:
267,244,45649,1,10,0:0:0:0:
169,184,45830,2,0,P|149:178|139:179,2,22.6666666666667,2|0|0,3:2|3:0|3:0,0:0:0:0:
169,184,46011,2,0,L|162:261,1,68,10|2,0:0|0:0,0:0:0:0:
110,362,46372,1,10,0:0:0:0:
58,210,46553,1,10,0:0:0:0:
253,234,46734,5,14,0:0:0:0:
252,234,47095,2,0,P|265:202|266:168,1,68,10|2,0:0|0:0,0:0:0:0:
185,88,47456,2,0,P|150:141|155:209,2,102,10|10|10,0:0|0:0|0:0,0:0:0:0:
297,55,48179,6,0,L|373:65,1,68,10|2,0:0|0:0,0:0:0:0:
445,133,48541,2,0,L|512:124,1,68,10|2,0:0|0:0,0:0:0:0:
343,164,48902,1,10,0:0:0:0:
512,277,49173,1,10,0:0:0:0:
323,357,49444,1,10,0:0:0:0:
390,262,49625,5,10,0:0:0:0:
390,262,49987,2,0,P|398:225|394:196,1,68,10|2,0:0|0:0,0:0:0:0:
238,134,50348,2,0,P|230:171|234:200,1,68,10|0,0:0|0:0,0:0:0:0:
250,232,50619,1,10,0:0:0:0:
250,232,50709,2,0,L|322:223,1,68,0|8,0:0|3:2,0:0:0:0:
471,110,51071,6,0,L|321:88,1,136,10|10,0:0|0:0,0:0:0:0:
154,60,51794,1,10,0:0:0:0:
131,250,52155,2,0,L|125:291,3,34,2|0|0|0,3:2|3:0|3:0|3:0,0:0:0:0:
146,238,52517,6,0,B|241:214|223:296|314:262,1,170,6|10,3:2|0:0,0:0:0:0:
441,229,53059,1,0,0:0:0:0:
381,86,53240,2,0,B|315:59|271:105|271:105|281:154,2,170,2|10|2,3:2|0:0|3:2,0:0:0:0:
378,242,54143,6,0,P|319:293|226:267,1,170,0|2,0:0|0:0,0:0:0:0:
144,216,54685,2,0,P|122:279|111:299,1,85,2|2,3:2|0:0,0:0:0:0:
264,137,55047,2,0,P|282:200|308:231,1,85,10|2,0:0|0:0,0:0:0:0:
158,99,55408,6,0,P|96:158|3:164,1,170,2|8,3:2|0:0,0:0:0:0:
134,16,55950,2,0,P|195:22|228:41,1,85,2|0,0:0|3:0,0:0:0:0:
330,136,56312,2,0,P|269:130|236:111,1,85,2|8,0:0|0:0,0:0:0:0:
312,11,56673,2,0,P|373:17|406:36,1,85,2|0,0:0|3:0,0:0:0:0:
491,80,57035,5,2,0:0:0:0:
392,211,57215,2,0,L|384:121,1,85,10|2,0:0|0:0,0:0:0:0:
465,301,57577,2,0,P|490:268|504:228,1,85,2|0,3:2|0:0,0:0:0:0:
294,248,57938,2,0,P|314:286|346:313,1,85,10|0,0:0|0:0,0:0:0:0:
384,126,58300,6,0,B|296:103|319:192|197:157,1,170,6|10,3:2|0:0,0:0:0:0:
124,122,58842,1,0,0:0:0:0:
241,73,59023,2,0,P|259:119|257:264,2,170,2|10|2,3:2|0:0|3:2,0:0:0:0:
33,116,59926,6,0,P|55:38|134:21,1,170,2|2,0:0|0:0,0:0:0:0:
131,201,60468,1,2,3:2:0:0:
241,73,60649,1,2,0:0:0:0:
263,238,60830,1,10,0:0:0:0:
156,112,61011,1,2,0:0:0:0:
79,295,61191,6,0,B|169:269|153:360|260:321,1,170,2|8,3:2|0:0,0:0:0:0:
412,267,61734,2,0,P|371:293|329:298,1,85,2|0,0:0|3:0,0:0:0:0:
186,208,62095,2,0,P|229:207|265:232,1,85,2|8,0:0|0:0,0:0:0:0:
103,374,62456,2,0,L|92:277,1,85,2|0,0:0|3:0,0:0:0:0:
45,172,62818,5,2,0:0:0:0:
45,172,62908,1,2,0:0:0:0:
45,172,62999,2,0,L|56:75,1,85,10|0,0:0|0:0,0:0:0:0:
195,93,63360,6,0,P|240:118|284:124,1,85,2|0,3:2|0:0,0:0:0:0:
449,48,63722,2,0,P|372:67|356:78,1,85,10|0,0:0|0:0,0:0:0:0:
278,237,64083,5,6,0:0:0:0:
278,237,64444,6,0,L|291:305,1,59.4999981842042,2|2,0:0|0:0,0:0:0:0:
194,207,64806,1,2,0:0:0:0:
194,207,64987,1,2,0:0:0:0:
113,240,65167,2,0,L|100:308,1,59.4999981842042,2|2,0:0|0:0,0:0:0:0:
190,114,65529,5,10,0:0:0:0:
278,237,65709,1,10,0:0:0:0:
99,147,65890,1,10,0:0:0:0:
261,36,66071,1,10,0:0:0:0:
432,343,66975,6,0,P|460:283|408:196,1,170,6|10,3:2|0:0,0:0:0:0:
326,317,67517,1,2,0:0:0:0:
316,134,67697,2,0,P|297:177|302:231,1,85,2|2,3:2|0:0,0:0:0:0:
413,199,68059,1,10,0:0:0:0:
404,39,68240,6,0,P|290:47|231:68,1,170,2|2,0:0|0:0,0:0:0:0:
132,124,68782,1,10,0:0:0:0:
239,180,68962,1,2,0:0:0:0:
132,124,69143,2,0,P|126:77|140:35,1,85,2|0,3:2|0:0,0:0:0:0:
239,180,69505,2,0,P|260:238|255:273,1,85,10|0,0:0|0:0,0:0:0:0:
79,338,69866,6,0,P|86:269|180:245,1,170,2|10,3:2|0:0,0:0:0:0:
202,352,70408,1,2,0:0:0:0:
338,283,70589,2,0,P|277:261|245:260,1,85,2|2,3:2|0:0,0:0:0:0:
166,138,70950,2,0,P|227:160|259:161,1,85,10|2,0:0|0:0,0:0:0:0:
432,148,71312,6,0,L|426:53,1,85,2|2,3:2|0:0,0:0:0:0:
274,0,71673,2,0,L|281:102,1,85,10|2,0:0|0:0,0:0:0:0:
219,209,72035,2,0,B|264:214|291:172|291:172|321:207|371:196,1,170,2|10,3:2|0:0,0:0:0:0:
296,270,72577,1,2,0:0:0:0:
212,122,72758,6,0,P|151:123|99:241,1,170,6|8,3:2|0:0,0:0:0:0:
101,316,73300,1,0,0:0:0:0:
182,207,73481,2,0,P|200:255|203:317,1,85,2|2,3:2|0:0,0:0:0:0:
92,206,73842,1,10,0:0:0:0:
212,122,74023,6,0,B|304:104|283:183|406:146,1,170,2|2,0:0|0:0,0:0:0:0:
472,104,74565,1,10,0:0:0:0:
351,51,74746,1,2,0:0:0:0:
472,104,74926,2,0,L|484:212,1,85,2|0,3:2|0:0,0:0:0:0:
327,253,75288,2,0,L|336:168,1,85,10|0,0:0|0:0,0:0:0:0:
388,337,75649,6,0,P|337:365|241:304,1,170,2|10,3:2|0:0,0:0:0:0:
194,224,76191,1,2,0:0:0:0:
327,253,76372,2,0,P|379:245|413:225,1,85,2|2,3:2|0:0,0:0:0:0:
325,110,76734,2,0,P|273:118|239:138,1,85,10|2,0:0|0:0,0:0:0:0:
65,251,77095,6,0,L|81:348,1,85,2|2,3:2|0:0,0:0:0:0:
226,211,77456,2,0,L|133:176,1,85,10|2,0:0|0:0,0:0:0:0:
180,370,77818,2,0,L|256:307,1,85,2|2,3:2|0:0,0:0:0:0:
159,278,78179,1,10,0:0:0:0:
159,278,78541,6,0,P|142:218|147:181,1,85,6|2,3:2|0:0,0:0:0:0:
279,105,78902,1,10,0:0:0:0:
237,219,79083,1,2,0:0:0:0:
162,106,79264,2,0,P|99:90|68:87,1,85,2|2,3:2|0:0,0:0:0:0:
237,219,79625,2,0,P|300:235|331:238,1,85,10|0,0:0|0:0,0:0:0:0:
481,209,79987,6,0,L|477:166,3,42.5,2|2|2|2,3:2|0:0|0:0|0:0,0:0:0:0:
457,162,80348,2,0,L|450:62,1,85,10|2,0:0|0:0,0:0:0:0:
338,7,80709,5,2,3:2:0:0:
364,168,80890,1,2,0:0:0:0:
251,28,81071,1,10,0:0:0:0:
272,198,81252,1,2,0:0:0:0:
170,50,81432,6,0,P|215:30|258:28,1,85,2|2,3:2|0:0,0:0:0:0:
160,180,81794,1,10,0:0:0:0:
63,98,81975,1,2,0:0:0:0:
160,180,82155,2,0,P|180:225|182:268,1,85,2|2,3:2|0:0,0:0:0:0:
45,332,82517,2,0,L|69:233,1,85,10|0,0:0|0:0,0:0:0:0:
150,92,82878,6,0,P|170:85|190:81,3,42.5,2|2|2|2,3:2|0:0|0:0|0:0,0:0:0:0:
214,92,83240,2,0,P|264:102|300:101,1,85,8|2,0:0|0:0,0:0:0:0:
436,23,83601,2,0,P|402:61|385:92,1,85,2|2,3:2|0:0,0:0:0:0:
384,249,83962,2,0,P|367:200|348:170,1,85,10|0,0:0|0:0,0:0:0:0:
198,180,84324,6,0,P|148:170|112:171,1,85,6|2,3:2|0:0,0:0:0:0:
120,293,84685,1,10,0:0:0:0:
283,241,84866,1,2,0:0:0:0:
218,369,85047,2,0,L|208:265,1,85,2|2,3:2|0:0,0:0:0:0:
373,209,85408,2,0,L|364:293,1,85,10|0,0:0|0:0,0:0:0:0:
245,182,85770,5,2,3:2:0:0:
242,160,85860,1,2,0:0:0:0:
240,139,85950,1,2,0:0:0:0:
238,118,86041,1,2,0:0:0:0:
235,97,86131,2,0,P|181:76|140:83,1,85,10|2,0:0|0:0,0:0:0:0:
166,216,86493,5,2,3:2:0:0:
326,186,86673,1,2,0:0:0:0:
213,299,86854,1,10,0:0:0:0:
234,141,87035,1,2,0:0:0:0:
309,279,87215,6,0,P|381:300|407:297,1,85,2|2,3:2|0:0,0:0:0:0:
421,170,87577,2,0,P|349:149|323:152,1,85,10|2,0:0|0:0,0:0:0:0:
207,240,87938,1,2,3:2:0:0:
170,94,88119,1,2,0:0:0:0:
207,240,88300,1,10,0:0:0:0:
257,28,88661,5,2,3:2:0:0:
286,16,88752,1,2,0:0:0:0:
317,8,88842,1,2,0:0:0:0:
349,5,88932,1,2,0:0:0:0:
380,7,89023,2,0,L|400:101,1,85,10|2,0:0|0:0,0:0:0:0:
305,221,89384,5,10,0:0:0:0:
483,155,89565,1,10,0:0:0:0:
312,118,89746,1,10,0:0:0:0:
451,241,89926,1,10,0:0:0:0:
267,318,90107,5,14,0:0:0:0:
267,318,90468,2,0,P|217:338|184:337,1,68,10|2,0:0|0:0,0:0:0:0:
92,311,90830,2,0,L|77:195,2,102,10|10|10,0:0|0:0|0:0,0:0:0:0:
201,229,91553,6,0,P|232:179|236:155,1,68,10|2,0:0|0:0,0:0:0:0:
121,47,91914,2,0,L|133:131,1,68,10|2,0:0|0:0,0:0:0:0:
228,64,92276,5,10,0:0:0:0:
362,213,92547,1,10,0:0:0:0:
159,254,92818,1,10,0:0:0:0:
249,171,92999,5,10,0:0:0:0:
249,171,93360,2,0,P|260:220|262:245,1,68,10|2,0:0|0:0,0:0:0:0:
343,312,93722,2,0,P|350:242|369:199,2,102,10|10|10,0:0|0:0|0:0,0:0:0:0:
429,136,94444,6,0,P|381:119|349:114,1,68,10|2,0:0|0:0,0:0:0:0:
249,171,94806,1,10,0:0:0:0:
177,82,94987,2,0,L|181:58,2,22.6666666666667,2|0|0,3:2|3:0|3:0,0:0:0:0:
177,82,95167,2,0,P|241:65|267:67,1,68,10|2,0:0|0:0,0:0:0:0:
154,195,95529,1,10,0:0:0:0:
64,78,95709,1,10,0:0:0:0:
32,257,95890,5,14,0:0:0:0:
32,257,96252,2,0,B|22:230|22:230|33:186,1,68,10|2,0:0|0:0,0:0:0:0:
146,223,96613,2,0,B|163:260|163:260|138:342,2,102,10|10|10,0:0|0:0|0:0,0:0:0:0:
216,139,97336,6,0,P|254:161|292:164,1,68,10|2,0:0|0:0,0:0:0:0:
432,118,97697,2,0,P|394:96|356:93,1,68,10|2,0:0|0:0,0:0:0:0:
360,216,98059,5,10,0:0:0:0:
303,23,98330,1,10,0:0:0:0:
508,73,98601,1,10,0:0:0:0:
392,109,98782,5,10,0:0:0:0:
392,109,99143,2,0,P|416:157|421:180,1,68,10|2,0:0|0:0,0:0:0:0:
440,291,99505,2,0,P|382:272|362:271,1,68,10|0,0:0|0:0,0:0:0:0:
333,299,99776,1,10,0:0:0:0:
333,299,99866,2,0,P|272:308|253:308,1,68,0|10,0:0|3:2,0:0:0:0:
163,181,100228,6,0,P|253:179|289:225,1,136,10|10,0:0|0:0,0:0:0:0:
171,383,100950,1,10,0:0:0:0:
27,266,101312,2,0,L|18:217,3,34,2|0|0|0,3:2|3:0|3:0|3:0,0:0:0:0:
35,281,101673,6,0,B|122:298|111:214|213:226,1,170,6|8,3:2|0:0,0:0:0:0:
312,255,102215,1,0,0:0:0:0:
185,307,102396,2,0,B|151:321|151:321|133:276|150:166,2,170,2|10|2,3:2|0:0|3:2,0:0:0:0:
254,170,103300,6,0,P|249:111|134:101,1,170,2|2,0:0|0:0,0:0:0:0:
301,42,103842,1,2,3:2:0:0:
164,171,104023,1,2,0:0:0:0:
334,201,104203,1,10,0:0:0:0:
217,62,104384,1,2,0:0:0:0:
249,236,104565,6,0,P|307:300|390:276,1,170,2|8,3:2|0:0,0:0:0:0:
479,183,105107,2,0,L|498:283,1,85,2|0,0:0|3:0,0:0:0:0:
355,118,105468,2,0,L|324:234,1,85,2|8,0:0|0:0,0:0:0:0:
488,58,105830,2,0,L|511:172,1,85,2|0,0:0|3:0,0:0:0:0:
371,5,106191,5,2,0:0:0:0:
371,5,106372,2,0,P|306:11|276:41,1,85,10|2,0:0|0:0,0:0:0:0:
182,139,106734,2,0,P|247:133|277:103,1,85,2|0,3:2|0:0,0:0:0:0:
194,0,107095,2,0,P|129:6|99:36,1,85,10|0,0:0|0:0,0:0:0:0:
21,147,107456,6,0,P|40:233|48:329,1,170,6|8,3:2|0:0,0:0:0:0:
132,177,107999,1,0,0:0:0:0:
157,316,108179,2,0,B|238:339|235:235|323:258,2,170,2|10|2,3:2|0:0|3:2,0:0:0:0:
306,345,109083,6,0,P|379:318|373:213,1,170,2|2,0:0|0:0,0:0:0:0:
344,90,109625,1,2,3:2:0:0:
306,254,109806,1,2,0:0:0:0:
446,123,109987,1,10,0:0:0:0:
490,282,110167,1,2,0:0:0:0:
328,176,110348,6,0,P|229:145|148:143,1,170,2|8,3:2|0:0,0:0:0:0:
202,318,110890,2,0,L|225:234,1,85,2|0,0:0|3:0,0:0:0:0:
314,92,111252,2,0,L|333:210,1,85,2|8,0:0|0:0,0:0:0:0:
296,379,111613,2,0,L|319:295,1,85,2|0,0:0|3:0,0:0:0:0:
428,220,111975,5,2,0:0:0:0:
428,220,112065,1,2,0:0:0:0:
428,220,112155,2,0,L|415:137,1,85,10|0,0:0|0:0,0:0:0:0:
296,12,112517,6,0,P|234:16|208:35,1,85,2|0,3:2|0:0,0:0:0:0:
247,191,112878,2,0,P|309:187|335:168,1,85,10|0,0:0|0:0,0:0:0:0:
271,100,113240,5,6,0:0:0:0:
271,100,113601,2,0,L|189:113,1,59.4999981842042,2|2,0:0|0:0,0:0:0:0:
130,177,113962,1,2,0:0:0:0:
130,177,114143,1,2,0:0:0:0:
285,215,114324,2,0,L|203:228,1,59.4999981842042,2|2,0:0|0:0,0:0:0:0:
135,283,114685,5,10,0:0:0:0:
212,109,114866,1,10,0:0:0:0:
262,302,115047,1,10,0:0:0:0:
343,125,115228,1,10,0:0:0:0:
124,57,116131,6,0,P|29:41|63:126,1,203.999993774414,6|8,3:2|0:0,0:0:0:0:
118,228,116673,1,2,0:0:0:0:
246,71,116854,2,0,P|260:119|261:189,1,101.999996887207,2|2,3:2|0:0,0:0:0:0:
210,299,117215,1,10,0:0:0:0:
160,143,117396,6,0,B|268:122|239:233|394:179,1,203.999993774414,2|2,0:0|0:0,0:0:0:0:
491,114,117938,1,10,0:0:0:0:
323,76,118119,1,2,0:0:0:0:
427,271,118300,2,0,L|436:162,1,101.999996887207,2|0,3:2|0:0,0:0:0:0:
239,132,118661,2,0,L|247:233,1,101.999996887207,10|0,0:0|0:0,0:0:0:0:
164,349,119023,6,0,P|296:353|333:274,1,203.999993774414,6|10,3:2|0:0,0:0:0:0:
145,246,119565,1,2,0:0:0:0:
313,178,119746,2,0,P|386:191|410:214,1,101.999996887207,2|2,3:2|0:0,0:0:0:0:
238,286,120107,2,0,L|228:164,1,101.999996887207,10|2,0:0|0:0,0:0:0:0:
88,90,120468,5,2,3:2:0:0:
111,228,120649,1,2,0:0:0:0:
217,42,120830,1,10,0:0:0:0:
229,184,121011,1,2,0:0:0:0:
354,44,121191,6,0,P|412:71|451:78,1,101.999996887207,2|0,3:2|0:0,0:0:0:0:
470,261,121553,2,0,P|391:225|350:223,1,101.999996887207,10|0,0:0|0:0,0:0:0:0:
143,182,121914,6,0,P|247:129|332:135,1,203.999993774414,6|10,3:2|0:0,0:0:0:0:
262,285,122456,1,2,0:0:0:0:
406,215,122637,2,0,P|417:277|409:332,1,101.999996887207,2|2,3:2|0:0,0:0:0:0:
293,171,122999,1,10,0:0:0:0:
393,95,123179,6,0,B|374:56|374:56|320:21|264:23|219:51,1,203.999993774414,2|2,0:0|0:0,0:0:0:0:
126,183,123722,1,10,0:0:0:0:
295,124,123902,1,2,0:0:0:0:
126,183,124083,2,0,B|105:146|105:146|120:74,1,101.999996887207,2|0,3:2|0:0,0:0:0:0:
295,124,124444,2,0,B|316:161|316:161|301:233,1,101.999996887207,10|0,0:0|0:0,0:0:0:0:
151,312,124806,6,0,B|211:299|211:299|282:329|282:329|345:315,1,203.999993774414,6|10,3:2|0:0,0:0:0:0:
461,290,125348,1,2,0:0:0:0:
343,188,125529,2,0,P|266:198|239:228,1,101.999996887207,2|2,3:2|0:0,0:0:0:0:
128,363,125890,2,0,P|205:353|232:323,1,101.999996887207,10|2,0:0|0:0,0:0:0:0:
147,232,126252,5,2,3:2:0:0:
323,286,126432,1,2,0:0:0:0:
228,141,126613,1,10,0:0:0:0:
220,338,126794,1,2,0:0:0:0:
336,154,126975,2,0,L|452:167,1,101.999996887207,2|2,3:2|0:0,0:0:0:0:
314,299,127336,1,10,0:0:0:0:
276,88,127517,1,2,0:0:0:0:
133,236,127697,5,6,3:2:0:0:
133,236,128059,2,0,P|102:226|76:224,1,59.4999981842042,0|2,3:0|0:0,0:0:0:0:
226,230,128420,2,0,P|219:198|207:174,1,59.4999981842042,0|2,3:0|0:0,0:0:0:0:
277,307,128782,2,0,P|301:285|315:263,1,59.4999981842042,0|2,3:0|0:0,0:0:0:0:
357,124,129143,6,0,L|482:137,1,118.999996368408,2|0,3:2|3:0,0:0:0:0:
406,221,129685,1,2,0:0:0:0:
406,221,129866,2,0,L|326:213,1,59.4999981842042,0|2,3:0|0:0,0:0:0:0:
203,140,130228,2,0,L|262:145,1,59.4999981842042,0|2,3:0|0:0,0:0:0:0:
212,260,130589,6,0,P|161:297|100:291,1,118.999996368408,2|0,3:2|3:0,0:0:0:0:
30,161,131131,1,2,0:0:0:0:
30,161,131312,2,0,P|14:205|20:235,1,59.4999981842042,0|2,3:0|0:0,0:0:0:0:
141,215,131673,2,0,P|138:171|124:151,1,59.4999981842042,0|2,3:0|0:0,0:0:0:0:
96,47,132035,6,0,B|152:24|152:24|224:47,1,118.999996368408,2|0,3:2|3:0,0:0:0:0:
317,113,132577,1,2,0:0:0:0:
317,113,132758,2,0,B|287:127|287:127|243:117,1,59.4999981842042,0|2,3:0|0:0,0:0:0:0:
368,24,133119,2,0,B|398:10|398:10|442:20,1,59.4999981842042,0|2,3:0|0:0,0:0:0:0:
