osu file format v14

[General]
AudioFilename: audio.mp3
AudioLeadIn: 0
PreviewTime: 52517
Countdown: 0
SampleSet: Soft
StackLeniency: 0.7
Mode: 0
LetterboxInBreaks: 0
WidescreenStoryboard: 1

[Editor]
DistanceSpacing: 3
BeatDivisor: 4
GridSize: 32
TimelineZoom: 2.4

[Metadata]
Title:KING
TitleUnicode:KING
Artist:Murasaki Shion
ArtistUnicode:紫咲シオン
Creator:Yuuma
Version:Hard
Source:
Tags:ごず gozu たーむ tarm Kanaria GUMI vocaloid ボカロ vtuber virtual youtuber hololive ホロライブ japanese pop jpop j-pop
BeatmapID:2699208
BeatmapSetID:1301332

[Difficulty]
HPDrainRate:4
CircleSize:3.5
OverallDifficulty:6
ApproachRate:7
SliderMultiplier:1.4
SliderTickRate:1

[Events]
//Background and Video events
0,0,"shion chan daisuki dayo.jpg",0,0
//Break Periods
2,67175,77641
//Storyboard Layer 0 (Background)
//Storyboard Layer 1 (Fail)
//Storyboard Layer 2 (Pass)
//Storyboard Layer 3 (Foreground)
//Storyboard Layer 4 (Overlay)
//Storyboard Sound Samples

[TimingPoints]
469,361.44578313253,4,2,1,50,1,0
469,-166.666666666667,4,2,1,50,0,0
2999,-166.666666666667,4,2,1,20,0,0
3360,-100,4,2,1,80,0,0
14926,-125,4,2,1,60,0,0
26493,-111.111111111111,4,2,1,70,0,0
31553,-83.3333333333333,4,2,1,70,0,0
32276,-111.111111111111,4,2,1,70,0,0
38059,-166.666666666666,4,2,1,50,0,0
39505,-83.3333333333332,4,2,1,80,0,0
39595,-83.3333333333332,4,2,1,5,0,0
39866,-83.3333333333332,4,2,1,80,0,0
39956,-83.3333333333332,4,2,1,5,0,0
40228,-83.3333333333332,4,2,1,80,0,0
40318,-83.3333333333332,4,2,1,5,0,0
40589,-166.666666666667,4,2,1,50,0,0
40950,-125,4,2,1,70,0,0
52517,-100,4,2,1,80,0,1
66071,-100,4,2,1,80,0,0
78541,-100,4,2,1,70,0,0
90107,-125,4,2,1,70,0,0
101673,-100,4,2,1,80,0,1
115228,-100,4,2,1,80,0,0
116131,-90.9090909090909,4,2,1,80,0,0
127697,-142.857142857143,4,2,1,60,0,0

[Colours]
Combo1 : 162,68,255
Combo2 : 128,128,192
Combo3 : 199,199,226

[HitObjects]
256,192,469,12,0,2999,0:0:0:0:
74,346,3360,6,0,P|126:344|208:306,1,140,6|10,3:2|0:0,0:0:0:0:
269,231,3902,1,2,0:0:0:0:
187,169,4083,2,0,P|128:178|101:191,2,70,2|2|10,3:2|0:0|0:0,0:0:0:0:
269,231,4625,6,0,P|286:170|261:91,1,140,2|2,0:0|0:0,0:0:0:0:
192,37,5167,1,10,0:0:0:0:
192,37,5348,1,2,0:0:0:0:
105,82,5529,2,0,L|115:167,1,70,2|0,3:2|0:0,0:0:0:0:
32,212,5890,2,0,L|42:297,1,70,10|0,0:0|0:0,0:0:0:0:
136,322,6252,6,0,P|220:287|280:294,1,140,6|10,3:2|0:0,0:0:0:0:
362,328,6794,1,2,0:0:0:0:
435,262,6975,2,0,P|444:225|436:193,1,70,2|2,3:2|0:0,0:0:0:0:
343,158,7336,2,0,P|334:195|342:227,1,70,10|2,0:0|0:0,0:0:0:0:
267,290,7697,6,0,L|190:277,1,70,2|2,3:2|0:0,0:0:0:0:
157,186,8059,2,0,L|80:173,1,70,10|2,0:0|0:0,0:0:0:0:
26,99,8420,1,2,3:2:0:0:
201,31,8782,1,10,0:0:0:0:
353,105,9143,6,0,P|365:154|368:256,1,140,6|10,3:2|0:0,0:0:0:0:
350,340,9685,1,2,0:0:0:0:
274,272,9866,2,0,P|228:255|180:256,2,70,2|2|8,3:2|0:0|0:0,0:0:0:0:
211,356,10408,6,0,P|145:363|78:296,1,140,2|2,0:0|0:0,0:0:0:0:
60,222,10950,1,10,0:0:0:0:
152,166,11131,1,2,0:0:0:0:
204,254,11312,2,0,P|165:270|118:259,1,70,2|0,3:2|0:0,0:0:0:0:
42,221,11673,2,0,P|27:171|35:134,1,70,10|0,0:0|0:0,0:0:0:0:
89,67,12035,6,0,B|167:42|156:116|253:82,1,140,6|10,3:2|0:0,0:0:0:0:
311,39,12577,1,2,0:0:0:0:
402,93,12758,2,0,P|416:26|420:16,1,70,2|2,3:2|0:0,0:0:0:0:
314,138,13119,2,0,P|323:171|328:206,1,70,10|2,0:0|0:0,0:0:0:0:
286,301,13481,6,0,L|195:312,1,70,2|2,3:2|0:0,0:0:0:0:
161,219,13842,2,0,L|230:210,1,70,10|2,0:0|0:0,0:0:0:0:
109,311,14203,2,0,P|57:268|67:191,1,140,2|10,3:2|0:0,0:0:0:0:
166,75,14926,6,0,P|112:49|36:45,2,112,6|2|2,3:2|3:2|3:2,0:0:0:0:
301,154,16011,2,0,P|334:165|367:165,1,56,2|2,3:2|0:0,0:0:0:0:
439,142,16372,2,0,B|453:96|453:96|436:74|436:74|450:27,2,112,2|2|2,3:2|3:2|3:2,0:0:0:0:
400,266,17456,1,2,3:2:0:0:
285,333,17818,6,0,P|226:343|159:333,1,112,2|2,3:2|3:2,0:0:0:0:
33,324,18541,2,0,P|53:267|96:214,1,112,2|2,3:2|3:2,0:0:0:0:
166,111,19264,2,0,P|204:157|229:220,2,112,2|2|2,3:2|3:2|3:2,0:0:0:0:
44,44,20348,1,2,3:2:0:0:
21,182,20709,6,0,P|99:153|143:151,1,112,6|2,3:2|3:2,0:0:0:0:
255,208,21432,2,0,P|324:226|370:222,1,112,2|0,3:2|3:0,0:0:0:0:
442,190,21975,1,2,0:0:0:0:
442,190,22155,2,0,L|451:135,1,56,2|2,3:2|0:0,0:0:0:0:
410,61,22517,2,0,P|359:72|316:137,1,112,2|2,3:2|3:2,0:0:0:0:
269,239,23240,1,2,3:2:0:0:
167,195,23601,6,0,P|118:169|40:183,1,112,2|2,3:2|3:2,0:0:0:0:
81,329,24324,2,0,P|130:355|208:341,1,112,2|2,3:2|3:2,0:0:0:0:
273,236,25047,2,0,B|271:189|271:189|260:170|260:170|259:127,2,112,2|2|2,3:2|3:2|3:2,0:0:0:0:
383,332,26131,1,2,3:2:0:0:
475,216,26493,5,6,3:2:0:0:
479,118,26673,1,2,0:0:0:0:
479,118,26854,2,0,P|428:129|398:152,1,62.9999980773926,10|2,0:0|0:0,0:0:0:0:
341,197,27215,2,0,P|289:221|266:224,1,62.9999980773926,2|2,3:2|0:0,0:0:0:0:
184,199,27577,2,0,L|178:126,1,62.9999980773926,10|2,0:0|0:0,0:0:0:0:
110,69,27938,6,0,L|119:-5,2,62.9999980773926,2|2|10,3:2|0:0|0:0,0:0:0:0:
205,51,28481,1,2,0:0:0:0:
281,107,28661,2,0,P|321:125|382:126,2,94.499997116089,2|2|2,3:2|0:0|0:0,0:0:0:0:
347,34,29384,5,2,3:2:0:0:
439,61,29565,1,2,0:0:0:0:
439,61,29746,2,0,P|448:92|452:123,1,62.9999980773926,10|2,0:0|0:0,0:0:0:0:
432,220,30107,2,0,L|356:232,1,62.9999980773926,2|2,3:2|0:0,0:0:0:0:
299,296,30468,2,0,L|226:287,1,62.9999980773926,10|2,0:0|0:0,0:0:0:0:
138,302,30830,6,0,P|139:257|152:236,2,62.9999980773926,2|2|10,3:2|0:0|0:0,0:0:0:0:
236,288,31372,1,2,0:0:0:0:
224,186,31553,2,0,P|165:159|85:155,2,125.999996154785,6|6|6,0:0|0:0|0:0,0:0:0:0:
321,225,32276,5,6,3:2:0:0:
387,150,32456,1,2,0:0:0:0:
387,150,32637,2,0,P|392:108|391:83,1,62.9999980773926,10|2,0:0|0:0,0:0:0:0:
314,29,32999,2,0,P|266:48|244:52,1,62.9999980773926,2|2,3:2|0:0,0:0:0:0:
182,118,33360,2,0,P|137:107|111:90,1,62.9999980773926,10|2,0:0|0:0,0:0:0:0:
24,89,33722,6,0,L|18:19,2,62.9999980773926,2|2|10,3:2|0:0|0:0,0:0:0:0:
38,188,34264,1,2,0:0:0:0:
124,231,34444,2,0,L|112:341,2,94.499997116089,2|2|2,3:2|0:0|0:0,0:0:0:0:
135,135,35167,5,2,3:2:0:0:
214,195,35348,1,2,0:0:0:0:
214,195,35529,2,0,P|261:209|292:207,1,62.9999980773926,10|2,0:0|0:0,0:0:0:0:
354,158,35890,2,0,P|392:145|427:148,1,62.9999980773926,2|2,3:2|0:0,0:0:0:0:
440,241,36252,2,0,P|400:255|368:253,1,62.9999980773926,10|2,0:0|0:0,0:0:0:0:
274,209,36613,5,2,3:2:0:0:
161,346,36975,1,2,3:2:0:0:
24,233,37336,1,2,3:2:0:0:
137,96,37697,1,2,3:2:0:0:
151,227,38059,5,2,0:0:0:0:
342,49,39505,6,0,B|383:33|418:58|418:58|430:49|430:49|460:76|497:64,2,167.999994873047,6|6|6,0:0|0:0|0:0,0:0:0:0:
22,101,40950,5,14,0:0:0:0:
22,101,41312,2,0,L|33:167,1,56,10|2,0:0|0:0,0:0:0:0:
88,216,41673,2,0,P|39:239|4:235,2,84,10|10|10,0:0|0:0|0:0,0:0:0:0:
158,165,42396,2,0,P|205:154|222:154,1,56,10|2,0:0|0:0,0:0:0:0:
292,197,42758,2,0,P|339:208|355:204,1,56,10|2,0:0|0:0,0:0:0:0:
414,156,43119,2,0,L|405:57,2,84,10|10|10,0:0|0:0|0:0,0:0:0:0:
469,228,43842,1,10,0:0:0:0:
353,323,44203,6,0,P|301:307|279:306,1,56,10|2,0:0|0:0,0:0:0:0:
216,340,44565,2,0,P|126:355|116:354,2,84,10|10|10,0:0|0:0|0:0,0:0:0:0:
228,251,45288,2,0,L|213:179,1,56,10|2,0:0|0:0,0:0:0:0:
292,141,45649,2,0,L|307:204,1,56,10|2,0:0|3:2,0:0:0:0:
314,221,45920,1,0,0:0:0:0:
314,221,46011,2,0,P|356:237|376:237,1,56,10|2,0:0|0:0,0:0:0:0:
448,216,46372,1,10,0:0:0:0:
478,136,46553,1,10,0:0:0:0:
420,73,46734,1,14,0:0:0:0:
283,12,47095,6,0,P|244:18|219:26,1,56,10|2,0:0|0:0,0:0:0:0:
152,69,47456,2,0,P|102:51|56:30,2,84,10|10|10,0:0|0:0|0:0,0:0:0:0:
228,110,48179,2,0,P|236:149|238:171,1,56,10|2,0:0|0:0,0:0:0:0:
177,229,48541,2,0,P|169:285|170:301,1,56,10|2,0:0|0:0,0:0:0:0:
246,328,48902,2,0,L|352:316,2,84,10|10|10,0:0|0:0|0:0,0:0:0:0:
169,372,49625,1,10,0:0:0:0:
42,273,49987,6,0,P|47:223|54:208,1,56,10|2,0:0|0:0,0:0:0:0:
122,168,50348,2,0,B|167:171|167:171|227:150,2,84,10|10|8,0:0|0:0|3:2,0:0:0:0:
43,130,51071,6,0,P|38:80|68:16,1,112,10|10,0:0|0:0,0:0:0:0:
221,52,51794,2,0,P|226:102|196:166,1,112,10|10,0:0|3:2,0:0:0:0:
131,90,52336,1,0,3:0:0:0:
131,90,52517,6,0,P|114:162|103:241,1,140,6|10,3:2|0:0,0:0:0:0:
126,332,53059,1,0,0:0:0:0:
229,289,53240,2,0,P|301:268|381:268,2,140,2|10|2,3:2|0:0|3:2,0:0:0:0:
126,332,54143,6,0,P|78:319|68:226,1,140,0|2,0:0|0:0,0:0:0:0:
64,134,54685,2,0,P|118:145|137:162,1,70,2|2,3:2|0:0,0:0:0:0:
225,102,55047,2,0,P|238:146|233:188,1,70,10|2,0:0|0:0,0:0:0:0:
324,227,55408,6,0,P|281:271|202:270,1,140,2|8,3:2|0:0,0:0:0:0:
237,169,55950,1,2,0:0:0:0:
437,202,56312,1,2,0:0:0:0:
363,15,56673,1,2,0:0:0:0:
237,169,57035,6,0,L|247:243,2,70,2|10|2,0:0|0:0|0:0,0:0:0:0:
182,78,57577,2,0,P|242:62|273:72,1,70,2|0,3:2|0:0,0:0:0:0:
351,120,57938,2,0,P|394:132|432:126,1,70,10|0,0:0|0:0,0:0:0:0:
509,209,58300,6,0,P|401:222|370:250,1,140,6|10,3:2|0:0,0:0:0:0:
312,322,58842,1,0,0:0:0:0:
224,267,59023,2,0,P|129:243|78:262,2,140,2|10|2,3:2|0:0|3:2,0:0:0:0:
312,322,59926,6,0,L|286:152,1,140,2|2,0:0|0:0,0:0:0:0:
198,128,60468,2,0,L|184:207,1,70,2|2,3:2|0:0,0:0:0:0:
95,245,60830,2,0,L|85:172,1,70,10|2,0:0|0:0,0:0:0:0:
68,69,61191,6,0,B|146:50|137:116|221:97,1,140,2|8,3:2|0:0,0:0:0:0:
295,43,61734,1,2,0:0:0:0:
460,140,62095,1,2,0:0:0:0:
363,305,62456,1,2,0:0:0:0:
198,208,62818,5,2,0:0:0:0:
198,208,62999,2,0,P|152:214|128:226,1,70,10|0,0:0|0:0,0:0:0:0:
158,331,63360,2,0,P|222:318|237:305,1,70,2|0,3:2|0:0,0:0:0:0:
302,248,63722,2,0,L|309:168,1,70,10|0,0:0|0:0,0:0:0:0:
258,83,64083,5,6,0:0:0:0:
55,52,65529,6,0,L|60:126,1,70,10|10,0:0|0:0,0:0:0:0:
157,81,65890,1,10,0:0:0:0:
199,179,66071,1,10,0:0:0:0:
501,31,66975,5,6,3:2:0:0:
477,54,78541,6,0,P|403:65|385:73,1,70,6|2,3:2|0:0,0:0:0:0:
331,140,78902,2,0,P|292:151|242:151,1,70,10|2,0:0|0:0,0:0:0:0:
176,91,79264,1,2,3:2:0:0:
176,91,79444,1,2,0:0:0:0:
91,152,79625,2,0,L|96:231,1,70,10|0,0:0|0:0,0:0:0:0:
39,315,79987,6,0,P|115:332|177:282,1,140,2|10,3:2|0:0,0:0:0:0:
235,218,80529,1,2,0:0:0:0:
304,294,80709,2,0,P|324:352|319:383,1,70,2|2,3:2|0:0,0:0:0:0:
235,218,81071,2,0,P|238:179|272:139,1,70,10|2,0:0|0:0,0:0:0:0:
348,93,81432,6,0,L|341:17,2,70,2|2|10,3:2|0:0|0:0,0:0:0:0:
428,163,81975,1,2,0:0:0:0:
428,163,82155,2,0,L|434:232,2,70,2|2|10,3:2|0:0|0:0,0:0:0:0:
256,73,82878,6,0,P|159:92|113:133,1,140,2|8,3:2|0:0,0:0:0:0:
42,176,83420,1,2,0:0:0:0:
4,275,83601,2,0,L|19:361,1,70,2|2,3:2|0:0,0:0:0:0:
121,379,83962,2,0,L|133:310,1,70,10|0,0:0|0:0,0:0:0:0:
205,231,84324,6,0,P|242:246|283:245,1,70,6|2,3:2|0:0,0:0:0:0:
366,204,84685,1,10,0:0:0:0:
366,204,84866,1,2,0:0:0:0:
282,147,85047,2,0,P|279:110|291:75,1,70,2|2,3:2|0:0,0:0:0:0:
368,12,85408,1,10,0:0:0:0:
483,154,85770,6,0,P|492:232|459:293,1,140,2|10,3:2|0:0,0:0:0:0:
387,359,86312,1,2,0:0:0:0:
330,266,86493,2,0,P|276:269|240:280,1,70,2|2,3:2|0:0,0:0:0:0:
180,346,86854,2,0,P|134:339|107:329,1,70,10|2,0:0|0:0,0:0:0:0:
30,255,87215,6,0,L|15:341,2,70,2|2|10,3:2|0:0|0:0,0:0:0:0:
110,178,87758,1,2,0:0:0:0:
110,178,87938,2,0,L|97:109,2,70,2|2|10,3:2|0:0|0:0,0:0:0:0:
180,346,88661,6,0,P|240:343|287:264,1,140,2|10,3:2|0:0,0:0:0:0:
262,187,89203,1,2,0:0:0:0:
202,103,89384,2,0,P|266:81|278:82,1,70,10|10,0:0|0:0,0:0:0:0:
339,154,89746,2,0,P|393:166|407:161,1,70,10|10,0:0|0:0,0:0:0:0:
490,101,90107,5,14,0:0:0:0:
490,101,90468,2,0,L|479:167,1,56,10|2,0:0|0:0,0:0:0:0:
424,216,90830,2,0,P|473:239|508:235,2,84,10|10|10,0:0|0:0|0:0,0:0:0:0:
354,165,91553,2,0,P|307:154|290:154,1,56,10|2,0:0|0:0,0:0:0:0:
220,197,91914,2,0,P|173:208|157:204,1,56,10|2,0:0|0:0,0:0:0:0:
98,156,92276,2,0,L|107:57,2,84,10|10|10,0:0|0:0|0:0,0:0:0:0:
43,228,92999,1,10,0:0:0:0:
159,323,93360,6,0,P|211:307|233:306,1,56,10|2,0:0|0:0,0:0:0:0:
296,340,93722,2,0,P|386:355|396:354,2,84,10|10|10,0:0|0:0|0:0,0:0:0:0:
284,251,94444,2,0,L|299:179,1,56,10|2,0:0|0:0,0:0:0:0:
220,141,94806,2,0,L|205:204,1,56,10|2,0:0|3:2,0:0:0:0:
198,221,95077,1,0,0:0:0:0:
198,221,95167,2,0,P|156:237|136:237,1,56,10|2,0:0|0:0,0:0:0:0:
64,216,95529,1,10,0:0:0:0:
34,136,95709,1,10,0:0:0:0:
92,73,95890,1,14,0:0:0:0:
229,12,96252,6,0,P|268:18|293:26,1,56,10|2,0:0|0:0,0:0:0:0:
360,69,96613,2,0,P|410:51|456:30,2,84,10|10|10,0:0|0:0|0:0,0:0:0:0:
284,110,97336,2,0,P|276:149|274:171,1,56,10|2,0:0|0:0,0:0:0:0:
335,229,97697,2,0,P|343:285|342:301,1,56,10|2,0:0|0:0,0:0:0:0:
266,328,98059,2,0,L|160:316,2,84,10|10|10,0:0|0:0|0:0,0:0:0:0:
343,372,98782,1,10,0:0:0:0:
470,273,99143,6,0,P|465:223|458:208,1,56,10|2,0:0|0:0,0:0:0:0:
390,168,99505,2,0,B|345:171|345:171|285:150,2,84,10|10|10,0:0|0:0|3:2,0:0:0:0:
469,130,100228,6,0,P|474:80|444:16,1,112,10|10,0:0|0:0,0:0:0:0:
291,52,100950,2,0,P|286:102|316:166,1,112,10|10,0:0|3:2,0:0:0:0:
381,90,101493,1,0,3:0:0:0:
381,90,101673,6,0,P|398:162|409:241,1,140,6|8,3:2|0:0,0:0:0:0:
379,331,102215,1,0,0:0:0:0:
285,280,102396,2,0,B|224:274|224:334|149:320,2,140,2|10|2,3:2|0:0|3:2,0:0:0:0:
364,209,103300,6,0,P|294:185|219:194,1,140,2|2,0:0|0:0,0:0:0:0:
132,246,103842,2,0,P|119:208|121:169,1,70,2|2,3:2|0:0,0:0:0:0:
73,82,104203,2,0,P|106:71|143:71,1,70,10|2,0:0|0:0,0:0:0:0:
245,55,104565,6,0,P|250:123|223:200,1,140,2|8,3:2|0:0,0:0:0:0:
132,246,105107,1,2,0:0:0:0:
287,373,105468,1,2,0:0:0:0:
316,177,105830,1,2,0:0:0:0:
132,246,106191,6,0,P|94:265|56:269,2,70,2|10|2,0:0|0:0|0:0,0:0:0:0:
200,172,106734,2,0,L|187:89,1,70,2|0,3:2|0:0,0:0:0:0:
281,48,107095,2,0,L|294:132,1,70,10|0,0:0|0:0,0:0:0:0:
392,164,107456,6,0,B|357:173|357:173|317:219|256:197,1,140,6|8,3:2|0:0,0:0:0:0:
166,153,107999,1,0,0:0:0:0:
83,216,108179,2,0,B|50:294|116:291|95:367,2,140,2|10|2,3:2|0:0|3:2,0:0:0:0:
181,254,109083,6,0,P|268:236|330:232,1,140,2|2,0:0|0:0,0:0:0:0:
406,292,109625,2,0,P|456:302|480:300,1,70,2|2,3:2|0:0,0:0:0:0:
484,194,109987,2,0,P|434:184|410:186,1,70,10|2,0:0|0:0,0:0:0:0:
318,232,110348,6,0,B|285:269|285:269|300:365,1,140,2|8,3:2|0:0,0:0:0:0:
202,329,110890,1,2,0:0:0:0:
169,136,111252,1,2,0:0:0:0:
362,103,111613,1,2,0:0:0:0:
395,296,111975,5,2,0:0:0:0:
395,296,112155,2,0,P|352:311|318:316,1,70,10|0,0:0|0:0,0:0:0:0:
229,280,112517,2,0,L|217:195,1,70,2|0,3:2|0:0,0:0:0:0:
318,165,112878,2,0,L|330:80,1,70,10|0,0:0|0:0,0:0:0:0:
231,52,113240,5,6,0:0:0:0:
62,296,114685,6,0,P|119:294|152:268,1,70,10|10,0:0|0:0,0:0:0:0:
211,210,115047,1,10,0:0:0:0:
106,171,115228,1,10,0:0:0:0:
288,16,116131,6,0,P|216:28|195:98,1,154.000004699707,6|8,3:2|0:0,0:0:0:0:
306,147,116673,1,2,0:0:0:0:
306,147,116854,2,0,L|390:134,2,77.0000023498536,2|2|10,3:2|0:0|0:0,0:0:0:0:
260,250,117396,6,0,L|103:228,1,154.000004699707,2|2,0:0|0:0,0:0:0:0:
20,150,117938,1,10,0:0:0:0:
130,114,118119,1,2,0:0:0:0:
107,228,118300,2,0,P|99:285|100:322,1,77.0000023498536,2|0,3:2|0:0,0:0:0:0:
218,343,118661,2,0,P|223:285|222:263,1,77.0000023498536,10|0,0:0|0:0,0:0:0:0:
259,151,119023,6,0,B|342:136|325:219|430:195,1,154.000004699707,6|10,3:2|0:0,0:0:0:0:
502,150,119565,1,2,0:0:0:0:
435,56,119746,2,0,P|400:96|393:151,1,77.0000023498536,2|2,3:2|0:0,0:0:0:0:
278,153,120107,2,0,P|269:103|247:68,1,77.0000023498536,10|2,0:0|0:0,0:0:0:0:
153,32,120468,6,0,L|64:50,1,77.0000023498536,2|2,3:2|0:0,0:0:0:0:
84,165,120830,2,0,L|179:148,1,77.0000023498536,10|2,0:0|0:0,0:0:0:0:
256,80,121191,1,2,3:2:0:0:
219,293,121553,1,10,0:0:0:0:
424,213,121914,6,0,P|382:171|294:198,1,154.000004699707,6|10,3:2|0:0,0:0:0:0:
346,293,122456,1,2,0:0:0:0:
246,343,122637,2,0,P|193:357|153:350,2,77.0000023498536,2|2|10,3:2|0:0|0:0,0:0:0:0:
191,243,123179,6,0,P|108:248|50:302,1,154.000004699707,2|2,0:0|0:0,0:0:0:0:
4,189,123722,1,10,0:0:0:0:
4,189,123902,1,2,0:0:0:0:
81,113,124083,2,0,P|123:130|164:129,1,77.0000023498536,2|0,3:2|0:0,0:0:0:0:
251,73,124444,2,0,P|300:59|347:66,1,77.0000023498536,10|0,0:0|0:0,0:0:0:0:
413,141,124806,6,0,B|329:126|344:195|263:166,1,154.000004699707,6|10,3:2|0:0,0:0:0:0:
154,130,125348,1,2,0:0:0:0:
61,206,125529,2,0,L|75:284,1,77.0000023498536,2|2,3:2|0:0,0:0:0:0:
166,354,125890,1,10,0:0:0:0:
166,354,126071,1,2,0:0:0:0:
279,332,126252,6,0,L|292:256,1,77.0000023498536,2|2,3:2|0:0,0:0:0:0:
398,198,126613,2,0,L|411:273,1,77.0000023498536,10|2,0:0|0:0,0:0:0:0:
300,141,126975,2,0,L|313:65,1,77.0000023498536,2|2,3:2|0:0,0:0:0:0:
436,10,127336,2,0,L|449:85,1,77.0000023498536,10|2,0:0|0:0,0:0:0:0:
490,171,127697,6,0,P|442:177|397:197,1,97.9999970092774,6|0,3:2|3:0,0:0:0:0:
337,251,128240,2,0,P|297:271|226:271,2,97.9999970092774,2|2|2,0:0|0:0|0:0,0:0:0:0:
311,169,129143,2,0,P|262:171|218:192,1,97.9999970092774,2|0,3:2|3:0,0:0:0:0:
156,262,129685,2,0,B|162:292|162:292|150:321|150:321|155:356,2,97.9999970092774,2|2|2,0:0|0:0|0:0,0:0:0:0:
70,214,130589,6,0,B|62:179|62:179|76:118,1,97.9999970092774,2|0,3:2|3:0,0:0:0:0:
138,49,131131,2,0,P|76:28|32:39,2,97.9999970092774,2|2|2,0:0|0:0|0:0,0:0:0:0:
217,107,132035,2,0,P|245:128|326:128,1,97.9999970092774,2|0,3:2|3:0,0:0:0:0:
382,75,132577,1,2,0:0:0:0:
473,177,132938,2,0,L|459:293,1,97.9999970092774,2|2,0:0|0:0,0:0:0:0:
