osu file format v14

[General]
AudioFilename: bacot.mp3
AudioLeadIn: 0
PreviewTime: 57890
Countdown: 0
SampleSet: Drum
StackLeniency: 0.7
Mode: 3
LetterboxInBreaks: 0
SpecialStyle: 0
WidescreenStoryboard: 0

[Editor]
Bookmarks: 22837
DistanceSpacing: 0.8
BeatDivisor: 4
GridSize: 32
TimelineZoom: 2.3

[Metadata]
Title:Re:TrymenT
TitleUnicode:Re:TrymenT
Artist:Murasaki Hotaru
ArtistUnicode:紫咲ほたる
Creator:AchsanLovers
Version:Amii's 7K HarD
Source:Re:LieF〜親愛なるあなたへ〜
Tags:Rivals_7 Amiichii Critical_Star FAMoss dudehacker Drum-Hitnormal video game japanese eroge visual novel relief 甘利紗陽 saya amari Shin'ainaru Anata e レリーフ DeaR YoU retryment miu yuu game op rask opening
BeatmapID:1874588
BeatmapSetID:642457

[Difficulty]
HPDrainRate:7
CircleSize:7
OverallDifficulty:7.4
ApproachRate:5
SliderMultiplier:1.4
SliderTickRate:1

[Events]
//Background and Video events
0,0,"BGAlyce.jpg",0,0
//Break Periods
//Storyboard Layer 0 (Background)
//Storyboard Layer 1 (Fail)
//Storyboard Layer 2 (Pass)
//Storyboard Layer 3 (Foreground)
//Storyboard Layer 4 (Overlay)
//Storyboard Sound Samples
Sample,14627,0,"drum-hitwhistle.wav",70
Sample,15890,0,"drum-hitwhistle.wav",70
Sample,16205,0,"drum-hitwhistle.wav",70
Sample,16205,0,"HHOpen.wav",70
Sample,16521,0,"drum-hitwhistle.wav",70
Sample,18416,0,"drum-hitwhistle.wav",70
Sample,18969,0,"LR_Hat Normal.wav",20
Sample,28048,0,"LR_Kick Normal.wav",20
Sample,32469,0,"C6S_s.wav",80
Sample,41784,0,"A#2S_Bb2S_s.wav",80
Sample,41942,0,"G#5S_Ab5S_s.wav",80
Sample,47153,0,"Tom2.wav",70
Sample,56705,0,"rewind.wav",70
Sample,60890,0,"drum-hitwhistle.wav",70
Sample,63416,0,"drum-hitwhistle.wav",70
Sample,65942,0,"drum-hitwhistle.wav",70
Sample,68469,0,"drum-hitwhistle.wav",70
Sample,69732,0,"drum-hitwhistle.wav",70
Sample,70995,0,"drum-hitwhistle.wav",70
Sample,72258,0,"drum-hitwhistle.wav",70
Sample,72574,0,"drum-hitwhistle.wav",70
Sample,94995,0,"A#5S_Bb5S_s.wav",80
Sample,95627,0,"G#5S_Ab5S_s.wav",80
Sample,96140,0,"D#7S_Eb7S.wav",80

[TimingPoints]
2627,315.789473684211,4,2,1,30,1,0
12732,-100.0,4,3,1,40,0,0
22837,-100.0,4,2,1,20,0,0
32942,-100.0,4,2,1,30,0,0
42416,-100.0,4,3,1,40,0,0
58205,-100.0,4,3,1,50,0,1
73048,-100.0,4,3,1,50,0,0
73363,-100.0,4,3,1,50,0,1
78416,-100.0,4,2,1,30,0,0

[HitObjects]
36,192,2627,1,0,0:0:0:80:C#7S_Db7S_s.wav
256,192,2627,1,0,0:0:0:0:
329,192,2784,1,0,0:0:0:80:C#5S_Db5S_s.wav
402,192,2942,1,0,0:0:0:80:F5S.wav
109,192,3100,1,0,0:0:0:80:C7S.wav
475,192,3100,1,0,0:0:0:0:
256,192,3416,1,0,0:0:0:80:C#5S_Db5S.wav
109,192,3574,1,0,0:0:0:80:G#6S_Ab6S_s.wav
402,192,3574,1,0,0:0:0:0:
36,192,3890,1,0,0:0:0:80:A#5S_Bb5S.wav
329,192,3890,1,0,0:0:0:0:
109,192,4048,1,0,0:0:0:0:
182,192,4205,1,0,0:0:0:0:
475,192,4205,1,0,0:0:0:0:
109,192,4363,1,0,0:0:0:80:C6S.wav
402,192,4363,1,0,0:0:0:0:
109,192,4837,1,0,0:0:0:80:F6S_s.wav
256,192,4837,1,0,0:0:0:0:
329,192,5153,1,0,0:0:0:80:D#6S_Eb6S.wav
475,192,5153,1,0,0:0:0:0:
256,192,5311,1,0,0:0:0:80:D#5S_Eb5S_s.wav
182,192,5469,1,0,0:0:0:80:G#5S_Ab5S_s.wav
475,192,5469,1,0,0:0:0:0:
36,192,5627,1,0,0:0:0:80:A#5S_Bb5S_s.wav
329,192,5627,1,0,0:0:0:0:
256,192,5784,1,0,0:0:0:80:G#4S_Ab4S_s.wav
36,192,5942,1,0,0:0:0:80:D#5S_Eb5S_s.wav
182,192,5942,1,0,0:0:0:0:
329,192,6100,1,0,0:0:0:80:C#6S_Db6S_s.wav
475,192,6100,1,0,0:0:0:0:
109,192,6416,1,0,0:0:0:80:C6S.wav
256,192,6416,1,0,0:0:0:0:
182,192,6732,1,0,0:0:0:0:
329,192,6890,1,0,0:0:0:80:G#6S_Ab6S.wav
402,192,6890,1,0,0:0:0:0:
36,192,7048,1,0,0:0:0:80:G#4S_Ab4S.wav
182,192,7048,1,0,0:0:0:0:
256,192,7363,1,0,0:0:0:80:C7S_s.wav
402,192,7363,1,0,0:0:0:0:
36,192,7679,1,0,0:0:0:80:C#7S_Db7S.wav
182,192,7679,1,0,0:0:0:0:
475,192,7679,1,0,0:0:0:0:
256,192,7837,1,0,0:0:0:80:F5S_s.wav
402,192,7995,1,0,0:0:0:80:G#5S_Ab5S.wav
182,192,8153,1,0,0:0:0:80:C7S.wav
329,192,8153,1,0,0:0:0:0:
256,192,8469,1,0,0:0:0:80:G#5S_Ab5S.wav
109,192,8627,1,0,0:0:0:80:G#6S_Ab6S.wav
475,192,8627,1,0,0:0:0:0:
329,192,8784,1,0,0:0:0:0:
36,192,8942,1,0,0:0:0:80:C#6S_Db6S_s.wav
182,192,8942,1,0,0:0:0:0:
256,192,9258,1,0,0:0:0:80:F5S_s.wav
402,192,9258,1,0,0:0:0:0:
182,192,9574,1,0,0:0:0:80:A#4S_Bb4S_s.wav
329,192,9574,1,0,0:0:0:0:
109,192,9890,1,0,0:0:0:80:D#6S_Eb6S_s.wav
402,192,9890,1,0,0:0:0:0:
36,192,10205,1,0,0:0:0:80:F6S.wav
256,192,10205,1,0,0:0:0:0:
475,192,10205,1,0,0:0:0:0:
109,192,10521,1,0,0:0:0:80:C5S_s.wav
182,192,10521,1,0,0:0:0:0:
329,192,10679,1,0,0:0:0:80:D#6S_Eb6S.wav
402,192,10679,1,0,0:0:0:0:
36,192,10837,1,0,0:0:0:80:F5S_s.wav
329,192,11153,1,0,0:0:0:80:G#6S_Ab6S_s.wav
475,192,11153,1,0,0:0:0:0:
36,192,11469,1,0,0:0:0:80:C7S.wav
109,192,11469,1,0,0:0:0:0:
182,192,11469,1,0,0:0:0:0:
109,192,11942,1,0,0:0:0:80:C#7S_Db7S.wav
256,192,11942,1,0,0:0:0:0:
402,192,11942,1,0,0:0:0:0:
36,192,12416,1,0,0:0:0:80:D#7S_Eb7S_s.wav
182,192,12416,1,0,0:0:0:0:
475,192,12416,1,0,0:0:0:0:
36,192,12732,1,2,0:0:0:0:
329,192,12732,1,0,0:0:0:70:CrashRight.wav
475,192,12732,128,0,13995:0:0:0:0:
182,192,13048,1,2,0:0:0:0:
256,192,13048,1,0,0:0:0:0:
109,192,13363,1,2,0:0:0:0:
402,192,13363,1,0,0:0:0:0:
256,192,13521,1,4,0:0:0:0:
36,192,13679,128,2,13995:0:0:0:0:
182,192,13679,1,0,0:0:0:0:
256,192,13837,1,4,0:0:0:0:
109,192,13995,1,2,0:0:0:0:
329,192,13995,128,0,14469:0:0:0:0:
182,192,14311,1,2,0:0:0:0:
36,192,14469,1,0,0:0:0:70:Tom2.wav
256,192,14469,128,0,14942:0:0:0:0:
475,192,14469,1,0,0:0:0:0:
182,192,14784,1,0,0:0:0:70:Tom3.wav
329,192,14784,1,0,0:0:0:0:
109,192,14942,128,2,15258:0:0:0:0:
402,192,14942,128,0,15258:0:0:0:0:
329,192,15100,1,0,0:0:0:70:Tom3.wav
36,192,15258,1,2,0:0:0:0:
256,192,15258,128,0,16521:0:0:0:70:CrashRight.wav
475,192,15258,1,0,0:0:0:0:
109,192,15574,1,2,0:0:0:0:
402,192,15574,1,0,0:0:0:0:
182,192,15732,1,0,0:0:0:0:
475,192,15732,1,0,0:0:0:0:
109,192,16048,1,0,0:0:0:0:
402,192,16048,1,0,0:0:0:0:
36,192,16363,1,0,0:0:0:0:
329,192,16363,1,0,0:0:0:0:
109,192,16679,128,8,16837:0:0:0:0:
402,192,16679,1,0,0:0:0:0:
329,192,16837,128,2,16995:0:0:0:0:
36,192,16995,1,4,0:0:0:0:
475,192,16995,128,0,17153:0:0:0:0:
256,192,17153,128,2,17311:0:0:0:0:
109,192,17311,1,4,0:0:0:0:
402,192,17311,128,0,17469:0:0:0:0:
182,192,17469,128,2,17627:0:0:0:0:
329,192,17627,128,0,17784:0:0:0:0:
475,192,17627,1,0,0:0:0:0:
36,192,17784,1,2,0:0:0:0:
109,192,17784,128,0,19048:0:0:0:0:
402,192,18100,1,2,0:0:0:0:
475,192,18100,1,0,0:0:0:0:
182,192,18258,1,0,0:0:0:70:Tom1.wav
256,192,18258,1,0,0:0:0:0:
329,192,18574,1,4,0:0:0:0:
402,192,18574,1,0,0:0:0:0:
36,192,18732,1,2,0:0:0:0:
256,192,18732,1,0,0:0:0:0:
402,192,18890,1,0,0:0:0:70:LR_Hat Normal.wav
475,192,18890,1,0,0:0:0:0:
182,192,19048,1,2,0:0:0:0:
329,192,19048,128,0,19205:0:0:0:70:LR_Hat Normal.wav
109,192,19205,1,0,0:0:0:0:
402,192,19205,128,0,19363:0:0:0:0:
36,192,19363,1,2,0:0:0:0:
475,192,19363,128,0,19521:0:0:0:0:
256,192,19521,128,0,19995:0:0:0:70:Tom2.wav
329,192,19521,1,0,0:0:0:0:
109,192,19679,1,2,0:0:0:0:
36,192,19837,1,0,0:0:0:70:Tom3.wav
182,192,19995,128,2,20311:0:0:0:0:
329,192,19995,1,0,0:0:0:0:
402,192,20153,1,0,0:0:0:70:Tom3.wav
36,192,20311,128,2,20942:0:0:0:0:
475,192,20311,128,0,20942:0:0:0:0:
329,192,20469,1,4,0:0:0:0:
182,192,20627,1,0,0:0:0:0:
256,192,20784,1,4,0:0:0:0:
109,192,20942,128,2,21574:0:0:0:0:
402,192,20942,128,0,21574:0:0:0:70:CrashRight.wav
329,192,21100,1,0,0:0:0:0:
256,192,21258,1,0,0:0:0:0:
182,192,21416,1,0,0:0:0:0:
256,192,21574,128,2,22837:0:0:0:0:
475,192,22048,1,0,0:0:0:20:LR_Hat Normal.wav
402,192,22127,1,0,0:0:0:20:LR_Hat Normal.wav
329,192,22205,1,0,0:0:0:20:LR_Hat Normal.wav
36,192,22837,1,0,0:0:0:70:LR2_KickBassD.wav
109,192,22837,1,0,0:0:0:80:F4S.wav
475,192,22837,1,0,0:0:0:0:
402,192,22995,1,0,0:0:0:0:
329,192,23153,1,0,0:0:0:0:
109,192,23311,1,0,0:0:0:0:
182,192,23469,1,0,0:0:0:0:
402,192,23784,1,0,0:0:0:0:
256,192,23942,1,0,0:0:0:0:
36,192,24100,1,0,0:0:0:0:
109,192,24100,1,0,0:0:0:0:
329,192,24258,1,0,0:0:0:0:
475,192,24416,1,0,0:0:0:0:
256,192,24574,1,0,0:0:0:0:
36,192,24732,1,0,0:0:0:0:
182,192,24732,1,0,0:0:0:0:
329,192,25048,1,0,0:0:0:0:
475,192,25048,1,0,0:0:0:0:
109,192,25205,1,0,0:0:0:0:
256,192,25363,1,0,0:0:0:80:D#4S_Eb4S.wav
402,192,25363,1,0,0:0:0:0:
182,192,25679,1,0,0:0:0:0:
36,192,25837,1,0,0:0:0:0:
475,192,25837,1,0,0:0:0:0:
329,192,25995,1,0,0:0:0:0:
109,192,26153,1,0,0:0:0:0:
402,192,26311,1,0,0:0:0:0:
475,192,26311,1,0,0:0:0:0:
182,192,26469,1,0,0:0:0:0:
256,192,26627,128,0,26942:0:0:0:0:
475,192,26942,128,0,27258:0:0:0:0:
109,192,27258,1,0,0:0:0:0:
329,192,27258,128,0,27416:0:0:0:0:
402,192,27416,128,0,27574:0:0:0:0:
182,192,27574,1,0,0:0:0:0:
475,192,27574,128,0,27890:0:0:0:0:
36,192,27890,1,0,0:0:0:70:LR_Kick Normal.wav
109,192,27890,1,0,0:0:0:80:C#4S_Db4S.wav
256,192,28205,1,0,0:0:0:0:
402,192,28363,1,0,0:0:0:0:
475,192,28363,1,0,0:0:0:0:
109,192,28521,1,0,0:0:0:0:
329,192,28679,1,0,0:0:0:0:
36,192,28837,1,0,0:0:0:0:
182,192,28837,1,0,0:0:0:0:
402,192,28995,1,0,0:0:0:0:
36,192,29153,1,0,0:0:0:0:
182,192,29311,1,0,0:0:0:0:
329,192,29469,1,0,0:0:0:0:
475,192,29469,1,0,0:0:0:0:
109,192,29627,1,0,0:0:0:0:
256,192,29784,1,0,0:0:0:0:
402,192,29784,128,0,30100:0:0:0:0:
36,192,30100,128,0,30416:0:0:0:0:
182,192,30100,1,0,0:0:0:0:
256,192,30416,1,0,0:0:0:80:C5S.wav
475,192,30416,128,0,30732:0:0:0:0:
182,192,30732,1,0,0:0:0:0:
402,192,30890,1,0,0:0:0:0:
109,192,31048,1,0,0:0:0:0:
36,192,31363,1,0,0:0:0:0:
402,192,31363,128,0,31679:0:0:0:0:
256,192,31679,1,0,0:0:0:80:D#5S_Eb5S_s.wav
182,192,31837,128,0,31995:0:0:0:80:G#5S_Ab5S_s.wav
36,192,31995,1,0,0:0:0:80:G#6S_Ab6S_s.wav
475,192,31995,128,0,32153:0:0:0:0:
402,192,32153,128,0,32311:0:0:0:80:F6S_s.wav
109,192,32311,1,0,0:0:0:70:RimShot.wav
329,192,32311,128,0,32469:0:0:0:80:C#6S_Db6S_s.wav
256,192,32469,128,0,32627:0:0:0:70:RimShot.wav
182,192,32627,128,0,32784:0:0:0:80:G#5S_Ab5S_s.wav
402,192,32627,1,0,0:0:0:0:
109,192,32784,128,0,32942:0:0:0:80:D#5S_Eb5S_s.wav
36,192,32942,1,0,0:0:0:70:LR_Kick Normal.wav
475,192,32942,1,0,0:0:0:80:D#4S_Eb4S.wav
256,192,33100,1,0,0:0:0:70:LR_Kick Normal.wav
109,192,33258,1,0,0:0:0:0:
329,192,33416,1,0,0:0:0:0:
36,192,33574,1,0,0:0:0:70:RimShot.wav
475,192,33574,1,0,0:0:0:0:
109,192,33732,1,0,0:0:0:0:
182,192,33890,1,0,0:0:0:0:
329,192,34048,128,0,34205:0:0:0:0:
36,192,34205,1,0,0:0:0:0:
475,192,34205,128,0,34521:0:0:0:0:
109,192,34363,1,0,0:0:0:0:
329,192,34521,128,0,34837:0:0:0:0:
182,192,34837,128,0,35153:0:0:0:70:RimShot.wav
402,192,34837,1,0,0:0:0:0:
36,192,35153,128,0,35469:0:0:0:0:
475,192,35153,1,0,0:0:0:0:
402,192,35311,1,0,0:0:0:0:
182,192,35469,1,0,0:0:0:80:D#4S_Eb4S.wav
329,192,35469,1,0,0:0:0:0:
109,192,35784,1,0,0:0:0:0:
256,192,35942,1,0,0:0:0:0:
402,192,36100,1,0,0:0:0:70:RimShot.wav
475,192,36100,1,0,0:0:0:0:
329,192,36258,1,0,0:0:0:0:
36,192,36416,1,0,0:0:0:0:
182,192,36416,1,0,0:0:0:0:
256,192,36574,128,0,36732:0:0:0:0:
36,192,36732,128,0,37048:0:0:0:0:
402,192,36732,1,0,0:0:0:0:
182,192,37048,128,0,37363:0:0:0:0:
36,192,37363,1,0,0:0:0:70:RimShot.wav
329,192,37363,128,0,37679:0:0:0:0:
182,192,37679,1,0,0:0:0:0:
475,192,37679,128,0,37995:0:0:0:0:
109,192,37995,1,0,0:0:0:70:LR_Kick Normal.wav
402,192,37995,1,0,0:0:0:80:C#3S_Db3S.wav
329,192,38153,1,0,0:0:0:70:LR_Kick Normal.wav
256,192,38311,1,0,0:0:0:0:
329,192,38469,1,0,0:0:0:0:
36,192,38627,1,0,0:0:0:70:RimShot.wav
475,192,38627,1,0,0:0:0:0:
256,192,38784,1,0,0:0:0:0:
109,192,38942,1,0,0:0:0:0:
182,192,38942,1,0,0:0:0:0:
256,192,39100,1,0,0:0:0:0:
402,192,39258,1,0,0:0:0:0:
329,192,39416,1,0,0:0:0:70:RimShot.wav
36,192,39574,128,0,39890:0:0:0:70:drum-hitwhistle.wav
182,192,39574,1,0,0:0:0:0:
256,192,39890,128,0,40205:0:0:0:70:RimShot.wav
402,192,39890,1,0,0:0:0:0:
109,192,40205,1,0,0:0:0:0:
475,192,40205,128,0,40521:0:0:0:0:
182,192,40521,1,0,0:0:0:70:drum-hitwhistle.wav
402,192,40521,1,0,0:0:0:80:C5S.wav
256,192,40679,1,0,0:0:0:0:
329,192,40837,1,0,0:0:0:0:
109,192,40995,1,0,0:0:0:0:
329,192,41153,1,0,0:0:0:70:RimShot.wav
402,192,41153,1,0,0:0:0:0:
256,192,41311,1,0,0:0:0:0:
36,192,41469,1,0,0:0:0:0:
109,192,41469,1,0,0:0:0:0:
402,192,41627,1,0,0:0:0:70:RimShot.wav
475,192,41627,1,0,0:0:0:0:
182,192,41784,1,0,0:0:0:70:drum-hitwhistle.wav
329,192,41942,1,0,0:0:0:70:RimShot.wav
256,192,42100,1,0,0:0:0:80:G#6S_Ab6S_s.wav
475,192,42100,1,0,0:0:0:0:
182,192,42258,1,0,0:0:0:80:F6S_s.wav
402,192,42258,1,0,0:0:0:0:
109,192,42416,1,4,0:0:0:70:LR_Hat Normal.wav
329,192,42416,1,0,0:0:0:80:C#6S_Db6S_s.wav
36,192,42574,1,4,0:0:0:70:LR_Hat Normal.wav
256,192,42574,1,0,0:0:0:80:C6S_s.wav
182,192,42732,1,0,0:0:0:70:HHOpen.wav
329,192,42732,1,0,0:0:0:80:G#5S_Ab5S_s.wav
109,192,42890,1,0,0:0:0:80:D#5S_Eb5S_s.wav
402,192,42890,1,0,0:0:0:0:
36,192,43048,1,2,0:0:0:0:
256,192,43048,128,0,45574:0:0:0:70:CrashRight.wav
475,192,43048,1,0,0:0:0:0:
109,192,43363,1,2,0:0:0:0:
182,192,43363,1,0,0:0:0:0:
402,192,43521,1,0,0:0:0:0:
36,192,43679,1,2,0:0:0:0:
182,192,43679,1,0,0:0:0:0:
329,192,43995,1,2,0:0:0:0:
402,192,43995,1,0,0:0:0:0:
36,192,44153,1,0,0:0:0:70:Tom1.wav
182,192,44153,1,0,0:0:0:0:
475,192,44153,1,0,0:0:0:0:
109,192,44311,1,2,0:0:0:0:
182,192,44469,1,0,0:0:0:70:Tom1.wav
329,192,44469,1,0,0:0:0:0:
402,192,44469,1,0,0:0:0:0:
36,192,44627,1,2,0:0:0:0:
475,192,44627,1,0,0:0:0:70:Tom2.wav
109,192,44942,1,4,0:0:0:0:
329,192,44942,1,2,0:0:0:0:
182,192,45100,1,4,0:0:0:0:
36,192,45258,1,2,0:0:0:0:
475,192,45258,128,0,45574:0:0:0:70:HHOpen.wav
36,192,45574,1,2,0:0:0:0:
182,192,45574,1,0,0:0:0:70:CrashRight.wav
402,192,45574,128,0,46205:0:0:0:0:
109,192,45890,1,2,0:0:0:0:
329,192,45890,1,0,0:0:0:0:
182,192,46048,1,0,0:0:0:0:
36,192,46205,128,2,46363:0:0:0:0:
256,192,46205,1,0,0:0:0:70:HHOpen.wav
329,192,46205,1,0,0:0:0:0:
109,192,46363,128,0,46521:0:0:0:0:
182,192,46521,128,2,46679:0:0:0:0:
36,192,46679,128,0,46995:0:0:0:70:Tom1.wav
329,192,46679,1,0,0:0:0:0:
475,192,46679,128,0,46995:0:0:0:0:
256,192,46837,1,2,0:0:0:0:
182,192,46995,1,0,0:0:0:70:Tom1.wav
329,192,46995,1,0,0:0:0:0:
402,192,46995,1,0,0:0:0:0:
109,192,47153,128,2,47311:0:0:0:0:
256,192,47311,128,0,47469:0:0:0:0:
402,192,47469,128,2,47627:0:0:0:0:
475,192,47469,1,0,0:0:0:0:
109,192,47627,1,0,0:0:0:70:Tom3.wav
182,192,47627,128,0,47784:0:0:0:0:
256,192,47784,1,2,0:0:0:0:
329,192,47784,128,0,47942:0:0:0:0:
402,192,47942,1,0,0:0:0:70:Tom2.wav
475,192,47942,128,0,48100:0:0:0:0:
36,192,48100,128,2,49205:0:0:0:0:
109,192,48100,1,0,0:0:0:70:CrashRight.wav
182,192,48100,1,0,0:0:0:0:
256,192,48416,1,0,0:0:0:0:
182,192,48574,1,2,0:0:0:0:
329,192,48574,1,0,0:0:0:0:
109,192,48732,1,8,0:0:0:0:
402,192,48732,1,0,0:0:0:0:
182,192,49048,1,2,0:0:0:0:
475,192,49048,1,0,0:0:0:0:
256,192,49205,128,2,49995:0:0:0:0:
402,192,49205,1,0,0:0:0:0:
109,192,49521,1,8,0:0:0:0:
329,192,49521,1,0,0:0:0:0:
182,192,49837,1,2,0:0:0:0:
402,192,49837,1,0,0:0:0:0:
36,192,49995,1,0,0:0:0:70:Tom1.wav
475,192,49995,128,0,50153:0:0:0:0:
182,192,50153,1,0,0:0:0:70:Tom1.wav
402,192,50153,128,0,50311:0:0:0:0:
109,192,50311,1,0,0:0:0:70:Tom2.wav
329,192,50311,128,0,50469:0:0:0:0:
36,192,50469,1,0,0:0:0:70:Tom2.wav
256,192,50469,128,0,50627:0:0:0:0:
109,192,50627,128,0,51574:0:0:0:70:Tom3.wav
475,192,50627,128,0,52205:0:0:0:0:
256,192,51100,1,2,0:0:0:0:
402,192,51100,1,0,0:0:0:0:
182,192,51258,1,8,0:0:0:0:
329,192,51258,1,0,0:0:0:0:
36,192,51574,128,2,52205:0:0:0:0:
182,192,51732,1,4,0:0:0:0:
402,192,51732,1,0,0:0:0:0:
256,192,51890,128,0,52205:0:0:0:100:RideCup.wav
182,192,52205,128,8,52521:0:0:0:0:
402,192,52205,1,0,0:0:0:0:
109,192,52363,1,2,0:0:0:0:
329,192,52521,128,8,52837:0:0:0:0:
402,192,52521,1,0,0:0:0:0:
36,192,52679,1,8,0:0:0:0:
109,192,52679,1,0,0:0:0:0:
402,192,52837,1,0,0:0:0:70:Tom1.wav
475,192,52837,128,0,53153:0:0:0:0:
36,192,53153,128,2,54416:0:0:0:0:
109,192,53153,1,0,0:0:0:70:CrashRight.wav
329,192,53153,1,0,0:0:0:0:
256,192,53469,1,2,0:0:0:0:
475,192,53469,1,0,0:0:0:0:
402,192,53627,1,4,0:0:0:0:
109,192,53784,1,2,0:0:0:0:
329,192,53784,1,4,0:0:0:0:
475,192,53942,1,4,0:0:0:0:
182,192,54100,1,2,0:0:0:0:
402,192,54100,1,4,0:0:0:0:
256,192,54258,1,4,0:0:0:0:
329,192,54337,1,4,0:0:0:0:
109,192,54416,1,2,0:0:0:0:
402,192,54416,1,4,0:0:0:0:
475,192,54416,128,0,55679:0:0:0:0:
256,192,54574,1,4,0:0:0:0:
329,192,54732,1,2,0:0:0:0:
402,192,54732,1,4,0:0:0:0:
256,192,54890,1,4,0:0:0:0:
36,192,55048,1,4,0:0:0:0:
182,192,55048,1,2,0:0:0:0:
256,192,55205,1,4,0:0:0:0:
329,192,55363,1,2,0:0:0:0:
402,192,55363,1,4,0:0:0:0:
182,192,55521,1,4,0:0:0:0:
109,192,55600,1,4,0:0:0:0:
36,192,55679,1,2,0:0:0:0:
256,192,55679,1,0,0:0:0:70:CrashRight.wav
402,192,55679,1,0,0:0:0:0:
109,192,55995,1,2,0:0:0:0:
182,192,55995,1,0,0:0:0:0:
329,192,56153,1,8,0:0:0:0:
402,192,56153,1,2,0:0:0:0:
36,192,56311,1,2,0:0:0:0:
256,192,56311,1,8,0:0:0:0:
475,192,56311,1,0,0:0:0:0:
109,192,56469,1,2,0:0:0:0:
182,192,56469,1,8,0:0:0:0:
402,192,56469,1,0,0:0:0:0:
36,192,56627,1,2,0:0:0:0:
256,192,56627,1,8,0:0:0:0:
475,192,56627,1,0,0:0:0:0:
109,192,56784,128,8,57574:0:0:0:0:
329,192,56784,128,2,57574:0:0:0:0:
402,192,56784,128,0,57574:0:0:0:0:
36,192,57574,1,0,0:0:0:70:LR2_KickBassD.wav
256,192,57574,1,0,0:0:0:0:
475,192,57574,1,0,0:0:0:0:
109,192,57890,128,0,58205:0:0:0:0:
402,192,57890,128,0,58205:0:0:0:0:
36,192,58205,1,2,0:0:0:0:
329,192,58205,1,0,0:0:0:70:CrashRight.wav
475,192,58205,1,0,0:0:0:0:
109,192,58521,1,8,0:0:0:0:
256,192,58521,1,0,0:0:0:70:HHOpen.wav
475,192,58521,1,0,0:0:0:0:
329,192,58679,1,0,0:0:0:0:
36,192,58837,1,0,0:0:0:70:HHOpen.wav
402,192,58837,128,0,59784:0:0:0:0:
182,192,58995,1,2,0:0:0:0:
256,192,58995,1,0,0:0:0:0:
36,192,59153,1,8,0:0:0:0:
329,192,59153,1,0,0:0:0:70:HHOpen.wav
475,192,59153,1,0,0:0:0:0:
256,192,59311,1,0,0:0:0:0:
109,192,59469,1,2,0:0:0:0:
182,192,59469,1,0,0:0:0:70:HHOpen.wav
36,192,59784,1,8,0:0:0:0:
329,192,59784,1,0,0:0:0:70:HHOpen.wav
475,192,59784,128,0,60100:0:0:0:0:
182,192,59942,1,2,0:0:0:0:
256,192,59942,1,0,0:0:0:0:
329,192,60100,128,0,60416:0:0:0:70:HHOpen.wav
36,192,60258,1,2,0:0:0:0:
109,192,60258,1,0,0:0:0:0:
182,192,60416,128,8,60732:0:0:0:0:
402,192,60416,1,0,0:0:0:70:HHOpen.wav
475,192,60416,1,0,0:0:0:0:
36,192,60732,128,2,61995:0:0:0:0:
256,192,60732,1,0,0:0:0:70:HHOpen.wav
182,192,61048,1,8,0:0:0:0:
329,192,61048,1,0,0:0:0:70:HHOpen.wav
475,192,61048,1,0,0:0:0:0:
256,192,61205,1,0,0:0:0:0:
402,192,61363,1,0,0:0:0:70:HHOpen.wav
109,192,61521,1,2,0:0:0:0:
329,192,61521,1,0,0:0:0:0:
182,192,61679,1,8,0:0:0:0:
256,192,61679,1,0,0:0:0:70:HHOpen.wav
475,192,61679,1,0,0:0:0:0:
402,192,61837,1,0,0:0:0:0:
109,192,61995,1,2,0:0:0:0:
329,192,61995,1,0,0:0:0:70:HHOpen.wav
182,192,62311,1,8,0:0:0:0:
402,192,62311,128,0,62627:0:0:0:70:HHOpen.wav
475,192,62311,1,0,0:0:0:0:
256,192,62469,1,2,0:0:0:0:
329,192,62469,1,0,0:0:0:0:
109,192,62627,128,0,62942:0:0:0:70:HHOpen.wav
182,192,62784,1,2,0:0:0:0:
256,192,62784,1,0,0:0:0:0:
329,192,62942,128,8,63258:0:0:0:0:
402,192,62942,1,0,0:0:0:70:HHOpen.wav
475,192,62942,1,0,0:0:0:0:
36,192,63258,1,2,0:0:0:0:
182,192,63258,128,0,64521:0:0:0:70:CrashRight.wav
109,192,63574,1,8,0:0:0:0:
402,192,63574,1,0,0:0:0:70:HHOpen.wav
475,192,63574,1,0,0:0:0:0:
256,192,63890,1,0,0:0:0:70:HHOpen.wav
329,192,64048,1,2,0:0:0:0:
402,192,64048,1,0,0:0:0:0:
36,192,64205,1,8,0:0:0:0:
109,192,64205,1,0,0:0:0:70:HHOpen.wav
475,192,64205,1,0,0:0:0:0:
256,192,64363,1,0,0:0:0:0:
329,192,64521,1,2,0:0:0:0:
402,192,64521,1,0,0:0:0:70:HHOpen.wav
36,192,64837,1,8,0:0:0:0:
402,192,64837,128,0,65153:0:0:0:0:
475,192,64837,1,0,0:0:0:0:
109,192,64995,1,2,0:0:0:0:
182,192,64995,1,0,0:0:0:0:
256,192,65153,128,0,65469:0:0:0:70:HHOpen.wav
36,192,65311,1,2,0:0:0:0:
182,192,65311,1,0,0:0:0:0:
109,192,65469,128,8,65784:0:0:0:0:
329,192,65469,1,0,0:0:0:70:HHOpen.wav
475,192,65469,1,0,0:0:0:0:
256,192,65784,1,2,0:0:0:0:
402,192,65784,1,0,0:0:0:70:CrashRight.wav
475,192,65784,128,0,66416:0:0:0:0:
36,192,66100,1,8,0:0:0:0:
182,192,66100,1,0,0:0:0:0:
329,192,66100,1,0,0:0:0:0:
109,192,66416,1,2,0:0:0:0:
256,192,66416,128,0,67048:0:0:0:70:CrashRight.wav
402,192,66416,1,0,0:0:0:0:
36,192,66574,1,2,0:0:0:0:
329,192,66574,1,0,0:0:0:0:
182,192,66732,1,8,0:0:0:0:
402,192,66732,1,0,0:0:0:0:
475,192,66732,1,0,0:0:0:0:
36,192,67048,128,2,67679:0:0:0:0:
329,192,67048,1,0,0:0:0:70:CrashRight.wav
402,192,67048,1,0,0:0:0:0:
109,192,67205,1,2,0:0:0:0:
182,192,67205,1,0,0:0:0:0:
256,192,67363,1,8,0:0:0:0:
402,192,67363,1,0,0:0:0:0:
475,192,67363,1,0,0:0:0:0:
182,192,67521,1,2,0:0:0:0:
329,192,67521,1,0,0:0:0:0:
402,192,67679,128,0,68311:0:0:0:70:Tom1.wav
109,192,67837,1,0,0:0:0:70:Tom2.wav
256,192,67837,1,0,0:0:0:0:
36,192,67995,1,0,0:0:0:70:Tom3.wav
182,192,67995,1,0,0:0:0:0:
329,192,67995,1,0,0:0:0:0:
36,192,68311,128,2,69574:0:0:0:0:
256,192,68311,1,0,0:0:0:70:CrashRight.wav
475,192,68311,1,0,0:0:0:0:
109,192,68627,1,8,0:0:0:0:
182,192,68627,1,0,0:0:0:70:HHOpen.wav
402,192,68627,1,0,0:0:0:0:
329,192,68784,1,0,0:0:0:0:
256,192,68942,1,0,0:0:0:70:HHOpen.wav
182,192,69100,1,2,0:0:0:0:
329,192,69100,1,0,0:0:0:0:
109,192,69258,1,8,0:0:0:0:
402,192,69258,1,0,0:0:0:70:HHOpen.wav
475,192,69258,1,0,0:0:0:0:
182,192,69574,1,2,0:0:0:0:
329,192,69574,128,0,70837:0:0:0:70:CrashRight.wav
475,192,69574,1,0,0:0:0:0:
36,192,69890,1,8,0:0:0:0:
256,192,69890,1,0,0:0:0:70:HHOpen.wav
402,192,69890,1,0,0:0:0:0:
109,192,70048,1,2,0:0:0:0:
182,192,70048,1,0,0:0:0:0:
402,192,70205,1,0,0:0:0:70:HHOpen.wav
36,192,70363,1,2,0:0:0:0:
256,192,70363,1,0,0:0:0:0:
109,192,70521,1,8,0:0:0:0:
402,192,70521,1,0,0:0:0:70:HHOpen.wav
475,192,70521,1,0,0:0:0:0:
36,192,70837,128,2,72100:0:0:0:0:
182,192,70837,1,0,0:0:0:70:CrashRight.wav
402,192,70837,128,0,70995:0:0:0:0:
109,192,71153,1,8,0:0:0:0:
256,192,71153,1,0,0:0:0:70:HHOpen.wav
475,192,71153,128,0,71311:0:0:0:0:
329,192,71469,128,0,71627:0:0:0:70:HHOpen.wav
182,192,71627,1,2,0:0:0:0:
256,192,71627,1,0,0:0:0:0:
109,192,71784,1,8,0:0:0:0:
402,192,71784,1,0,0:0:0:70:HHOpen.wav
475,192,71784,128,0,71942:0:0:0:0:
256,192,72100,128,2,72416:0:0:0:0:
329,192,72100,128,0,72732:0:0:0:0:
36,192,72416,1,8,0:0:0:0:
182,192,72416,128,0,72732:0:0:0:0:
402,192,72416,1,0,0:0:0:0:
109,192,72732,128,8,73048:0:0:0:0:
475,192,72732,128,0,73363:0:0:0:0:
402,192,72890,1,0,0:0:0:0:
36,192,73048,128,8,73363:0:0:0:0:
182,192,73048,1,0,0:0:0:0:
329,192,73048,1,0,0:0:0:0:
182,192,73363,1,0,0:0:0:70:CrashRight.wav
256,192,73363,1,0,0:0:0:0:
329,192,73363,1,0,0:0:0:0:
402,192,73521,1,2,0:0:0:0:
36,192,73679,1,8,0:0:0:0:
256,192,73679,1,0,0:0:0:70:HHOpen.wav
475,192,73679,1,0,0:0:0:0:
182,192,73837,1,2,0:0:0:0:
109,192,73995,1,8,0:0:0:0:
329,192,73995,1,0,0:0:0:70:HHOpen.wav
402,192,73995,1,0,0:0:0:0:
256,192,74153,1,2,0:0:0:0:
36,192,74311,1,8,0:0:0:0:
182,192,74311,1,0,0:0:0:70:HHOpen.wav
402,192,74311,1,0,0:0:0:0:
329,192,74469,1,2,0:0:0:0:
109,192,74627,1,0,0:0:0:70:HHOpen.wav
256,192,74627,1,0,0:0:0:0:
475,192,74627,1,0,0:0:0:0:
402,192,74784,1,2,0:0:0:0:
36,192,74942,1,8,0:0:0:0:
182,192,74942,1,0,0:0:0:70:HHOpen.wav
329,192,74942,1,0,0:0:0:0:
256,192,75100,1,2,0:0:0:0:
109,192,75258,1,8,0:0:0:0:
329,192,75258,1,0,0:0:0:70:HHOpen.wav
475,192,75258,1,0,0:0:0:0:
182,192,75416,1,2,0:0:0:0:
36,192,75574,1,8,0:0:0:0:
256,192,75574,1,0,0:0:0:70:HHOpen.wav
402,192,75574,1,0,0:0:0:0:
109,192,75732,1,2,0:0:0:0:
182,192,75890,1,0,0:0:0:70:CrashRight.wav
329,192,75890,128,0,76837:0:0:0:0:
475,192,75890,128,0,76837:0:0:0:0:
256,192,76048,1,2,0:0:0:0:
36,192,76205,1,8,0:0:0:0:
402,192,76205,1,0,0:0:0:70:HHOpen.wav
256,192,76363,1,2,0:0:0:0:
109,192,76521,1,8,0:0:0:0:
182,192,76521,1,0,0:0:0:70:HHOpen.wav
36,192,76679,1,2,0:0:0:0:
109,192,76837,1,2,0:0:0:0:
256,192,76837,1,0,0:0:0:0:
36,192,76995,128,8,77311:0:0:0:0:
182,192,76995,128,0,77311:0:0:0:70:CrashRight.wav
402,192,76995,128,0,77311:0:0:0:0:
109,192,77311,128,0,77469:0:0:0:0:
256,192,77469,128,2,77627:0:0:0:0:
329,192,77469,1,0,0:0:0:0:
475,192,77627,128,0,78416:0:0:0:0:
36,192,77784,1,10,0:0:0:0:
109,192,77863,1,8,0:0:0:0:
182,192,77942,1,10,0:0:0:0:
402,192,78021,1,0,0:0:0:0:
329,192,78100,1,10,0:0:0:0:
256,192,78179,1,8,0:0:0:0:
182,192,78258,1,10,0:0:0:0:
109,192,78337,1,0,0:0:0:0:
36,192,78416,128,0,80311:0:0:0:70:CrashRight.wav
329,192,78416,1,0,0:0:0:0:
402,192,78416,1,0,0:0:0:0:
256,192,78574,1,0,0:0:0:0:
109,192,78732,1,0,0:0:0:0:
402,192,78890,1,0,0:0:0:0:
256,192,79205,1,0,0:0:0:0:
475,192,79363,1,0,0:0:0:0:
109,192,79679,1,0,0:0:0:0:
402,192,79995,1,0,0:0:0:0:
329,192,80311,128,0,80942:0:0:0:0:
256,192,80627,1,0,0:0:0:0:
109,192,80942,1,0,0:0:0:0:
475,192,80942,128,0,82205:0:0:0:0:
182,192,81100,1,0,0:0:0:0:
256,192,81258,1,0,0:0:0:0:
329,192,81416,1,0,0:0:0:0:
402,192,81890,1,0,0:0:0:0:
256,192,82205,1,0,0:0:0:0:
36,192,82521,1,0,0:0:0:0:
109,192,82521,128,0,82837:0:0:0:0:
256,192,82837,128,0,83153:0:0:0:0:
329,192,82837,1,0,0:0:0:0:
402,192,83153,128,0,83469:0:0:0:0:
475,192,83153,1,0,0:0:0:0:
36,192,83469,1,0,0:0:0:0:
182,192,83469,128,0,84732:0:0:0:0:
256,192,83627,1,0,0:0:0:0:
475,192,83784,1,0,0:0:0:0:
109,192,83942,1,0,0:0:0:0:
402,192,84258,1,0,0:0:0:0:
329,192,84416,1,0,0:0:0:0:
256,192,84574,1,0,0:0:0:0:
36,192,84732,1,0,0:0:0:0:
109,192,84732,128,0,85995:0:0:0:0:
475,192,85048,1,0,0:0:0:0:
329,192,85363,1,0,0:0:0:0:
256,192,85679,1,0,0:0:0:0:
36,192,85995,128,0,86627:0:0:0:0:
402,192,85995,1,0,0:0:0:0:
182,192,86153,1,0,0:0:0:0:
329,192,86311,1,0,0:0:0:0:
475,192,86469,1,0,0:0:0:0:
109,192,86627,1,0,0:0:0:0:
256,192,86627,128,0,87258:0:0:0:0:
36,192,87258,1,0,0:0:0:0:
329,192,87258,128,0,87890:0:0:0:0:
182,192,87890,1,0,0:0:0:0:
475,192,87890,128,0,88521:0:0:0:0:
36,192,88521,1,0,0:0:0:0:
256,192,88521,128,0,89784:0:0:0:0:
36,192,89784,1,0,0:0:0:80:D#7S_Eb7S.wav
109,192,89784,1,0,0:0:0:0:
182,192,90100,1,0,0:0:0:0:
329,192,90100,128,0,90416:0:0:0:0:
109,192,90416,1,0,0:0:0:80:F#7S_Gb7S_s.wav
402,192,90416,128,0,90732:0:0:0:0:
36,192,90732,1,0,0:0:0:80:F7S_s.wav
475,192,90732,128,0,91048:0:0:0:0:
182,192,91048,128,0,92311:0:0:0:80:A#6S_Bb6S.wav
256,192,91048,1,0,0:0:0:0:
402,192,91679,1,0,0:0:0:0:
109,192,92311,128,0,93574:0:0:0:80:G#6S_Ab6S.wav
329,192,92311,1,0,0:0:0:0:
256,192,92942,1,0,0:0:0:80:C#6S_Db6S_s.wav
329,192,93100,1,0,0:0:0:80:D#6S_Eb6S_s.wav
402,192,93258,1,0,0:0:0:80:G#6S_Ab6S_s.wav
36,192,93574,128,0,98627:0:0:0:80:C#7S_Db7S.wav
182,192,93574,1,0,0:0:0:0:
475,192,94048,1,0,0:0:0:80:C7S.wav
402,192,94521,1,0,0:0:0:80:G#6S_Ab6S_s.wav
182,192,94837,1,0,0:0:0:80:F6S.wav
475,192,95311,1,0,0:0:0:80:D#6S_Eb6S.wav
256,192,95784,1,0,0:0:0:80:G#6S_Ab6S_s.wav
329,192,96100,1,0,0:0:0:80:C#7S_Db7S.wav
475,192,96179,128,0,98627:0:0:0:80:G#7S_Ab7S.wav
