osu file format v14

[General]
AudioFilename: bacot.mp3
AudioLeadIn: 0
PreviewTime: 57890
Countdown: 0
SampleSet: Soft
StackLeniency: 0.7
Mode: 3
LetterboxInBreaks: 0
SpecialStyle: 0
WidescreenStoryboard: 0

[Editor]
DistanceSpacing: 0.8
BeatDivisor: 4
GridSize: 32
TimelineZoom: 2.999999

[Metadata]
Title:Re:TrymenT
TitleUnicode:Re:TrymenT
Artist:Murasaki Hotaru
ArtistUnicode:紫咲ほたる
Creator:AchsanLovers
Version:4K HarD
Source:Re:LieF〜親愛なるあなたへ〜
Tags:Rivals_7 Amiichii Critical_Star FAMoss dudehacker Drum-Hitnormal video game japanese eroge visual novel relief 甘利紗陽 saya amari Shin'ainaru Anata e レリーフ DeaR YoU retryment miu yuu game op rask opening
BeatmapID:1874586
BeatmapSetID:642457

[Difficulty]
HPDrainRate:7
CircleSize:4
OverallDifficulty:7.4
ApproachRate:5
SliderMultiplier:1.4
SliderTickRate:1

[Events]
//Background and Video events
0,0,"I2.jpg",0,0
//Break Periods
//Storyboard Layer 0 (Background)
//Storyboard Layer 1 (Fail)
//Storyboard Layer 2 (Pass)
//Storyboard Layer 3 (Foreground)
//Storyboard Layer 4 (Overlay)
//Storyboard Sound Samples
Sample,2784,0,"C#5S_Db5S_s.wav",80
Sample,2942,0,"F5S.wav",80
Sample,3416,0,"C#5S_Db5S.wav",80
Sample,7837,0,"F5S_s.wav",80
Sample,7995,0,"G#5S_Ab5S.wav",80
Sample,8469,0,"G#5S_Ab5S.wav",80
Sample,10521,0,"C5S_s.wav",80
Sample,10837,0,"F5S_s.wav",80
Sample,16205,0,"HHOpen.wav",70
Sample,19048,0,"LR_Hat Normal.wav",20
Sample,19679,0,"drum-hitwhistle.wav",70
Sample,32311,0,"C#6S_Db6S_s.wav",80
Sample,32469,0,"C6S_s.wav",80
Sample,41784,0,"A#2S_Bb2S_s.wav",80
Sample,41942,0,"G#5S_Ab5S_s.wav",80
Sample,47153,0,"Tom2.wav",70
Sample,56705,0,"rewind.wav",70
Sample,75732,0,"drum-hitwhistle.wav",70
Sample,96140,0,"D#7S_Eb7S.wav",80
Sample,96179,0,"G#7S_Ab7S.wav",80

[TimingPoints]
2627,315.789473684211,4,2,1,30,1,0
12732,-100,4,3,1,40,0,0
22837,-100,4,2,1,20,0,0
32942,-100,4,2,1,30,0,0
42416,-100,4,3,1,40,0,0
58205,-100,4,3,1,50,0,1
73048,-100,4,3,1,50,0,0
73363,-100,4,3,1,50,0,1
78416,-100,4,2,1,30,0,0

[HitObjects]
64,192,2627,5,0,0:0:0:80:C#7S_Db7S_s.wav
448,192,2627,1,0,0:0:0:0:
192,192,3100,1,0,0:0:0:80:C7S.wav
320,192,3574,1,0,0:0:0:80:G#6S_Ab6S_s.wav
64,192,3890,1,0,0:0:0:80:A#5S_Bb5S.wav
448,192,3890,1,0,0:0:0:0:
192,192,4363,1,0,0:0:0:80:C6S.wav
320,192,4837,1,0,0:0:0:80:F6S_s.wav
192,192,5153,1,0,0:0:0:80:D#6S_Eb6S.wav
448,192,5153,1,0,0:0:0:0:
64,192,5311,1,0,0:0:0:80:D#5S_Eb5S_s.wav
192,192,5469,1,0,0:0:0:80:G#5S_Ab5S_s.wav
320,192,5627,1,0,0:0:0:80:A#5S_Bb5S_s.wav
64,192,5784,1,0,0:0:0:80:G#4S_Ab4S_s.wav
192,192,5942,1,0,0:0:0:80:D#5S_Eb5S_s.wav
320,192,6100,1,0,0:0:0:80:C#6S_Db6S_s.wav
64,192,6416,1,0,0:0:0:80:C6S.wav
448,192,6416,1,0,0:0:0:0:
320,192,6890,1,0,0:0:0:80:G#6S_Ab6S.wav
64,192,7048,1,0,0:0:0:80:G#4S_Ab4S.wav
192,192,7048,1,0,0:0:0:0:
320,192,7363,1,0,0:0:0:80:C7S_s.wav
64,192,7679,1,0,0:0:0:80:C#7S_Db7S.wav
448,192,7679,1,0,0:0:0:0:
320,192,8153,1,0,0:0:0:80:C7S.wav
192,192,8627,1,0,0:0:0:80:G#6S_Ab6S.wav
64,192,8942,1,0,0:0:0:80:C#6S_Db6S_s.wav
448,192,8942,1,0,0:0:0:0:
320,192,9258,1,0,0:0:0:80:F5S_s.wav
64,192,9574,1,0,0:0:0:80:A#4S_Bb4S_s.wav
448,192,9890,1,0,0:0:0:80:D#6S_Eb6S_s.wav
64,192,10205,1,0,0:0:0:80:F6S.wav
320,192,10205,1,0,0:0:0:0:
192,192,10679,1,0,0:0:0:80:D#6S_Eb6S.wav
320,192,11153,1,0,0:0:0:80:G#6S_Ab6S_s.wav
64,192,11469,128,0,11942:0:0:0:80:C7S.wav
320,192,11942,128,0,12416:0:0:0:80:C#7S_Db7S.wav
192,192,12416,128,0,12732:0:0:0:80:D#7S_Eb7S_s.wav
64,192,12732,1,2,0:0:0:0:
320,192,12732,1,0,0:0:0:70:CrashRight.wav
448,192,12732,128,0,13995:0:0:0:0:
192,192,13048,1,2,0:0:0:0:
192,192,13363,1,2,0:0:0:0:
192,192,13679,1,2,0:0:0:0:
64,192,13995,1,2,0:0:0:0:
320,192,13995,128,0,14469:0:0:0:0:
192,192,14311,1,2,0:0:0:0:
64,192,14469,128,0,14942:0:0:0:70:Tom2.wav
448,192,14469,1,0,0:0:0:0:
320,192,14627,1,2,0:0:0:0:
192,192,14784,1,0,0:0:0:70:Tom3.wav
320,192,14942,1,2,0:0:0:0:
448,192,14942,128,0,15258:0:0:0:0:
64,192,15100,1,0,0:0:0:70:Tom3.wav
64,192,15258,128,2,16521:0:0:0:0:
192,192,15258,1,0,0:0:0:70:CrashRight.wav
320,192,15258,1,0,0:0:0:0:
192,192,15574,1,2,0:0:0:0:
320,192,15732,1,0,0:0:0:0:
448,192,15890,1,2,0:0:0:0:
192,192,16048,1,0,0:0:0:0:
448,192,16205,128,2,16363:0:0:0:0:
320,192,16363,1,0,0:0:0:0:
192,192,16521,1,2,0:0:0:0:
320,192,16679,1,8,0:0:0:0:
448,192,16679,1,0,0:0:0:0:
192,192,16758,1,0,0:0:0:0:
64,192,16837,128,2,16995:0:0:0:0:
320,192,16995,128,4,17153:0:0:0:0:
192,192,17153,128,2,17311:0:0:0:0:
448,192,17311,128,4,17469:0:0:0:0:
64,192,17469,128,2,17627:0:0:0:0:
320,192,17627,128,0,17784:0:0:0:0:
64,192,17784,128,2,19048:0:0:0:0:
192,192,17784,1,0,0:0:0:0:
448,192,18100,1,2,0:0:0:0:
320,192,18258,1,0,0:0:0:70:Tom1.wav
192,192,18416,1,2,0:0:0:0:
448,192,18574,1,4,0:0:0:0:
192,192,18732,1,2,0:0:0:0:
448,192,18890,1,0,0:0:0:20:LR_Hat Normal.wav
320,192,18969,1,0,0:0:0:20:LR_Hat Normal.wav
192,192,19048,128,2,19205:0:0:0:0:
448,192,19205,128,0,19363:0:0:0:0:
320,192,19363,128,2,19521:0:0:0:0:
64,192,19521,128,0,19995:0:0:0:70:Tom2.wav
192,192,19521,1,0,0:0:0:0:
448,192,19837,1,0,0:0:0:70:Tom3.wav
192,192,19995,128,2,20311:0:0:0:0:
320,192,19995,1,0,0:0:0:0:
448,192,20153,1,0,0:0:0:70:Tom3.wav
64,192,20311,1,2,0:0:0:0:
320,192,20311,1,0,0:0:0:0:
448,192,20311,128,0,21574:0:0:0:0:
192,192,20469,1,4,0:0:0:0:
64,192,20627,1,0,0:0:0:0:
320,192,20784,1,4,0:0:0:0:
64,192,20942,1,2,0:0:0:0:
192,192,20942,1,0,0:0:0:70:CrashRight.wav
320,192,21100,1,0,0:0:0:0:
64,192,21258,1,0,0:0:0:0:
192,192,21416,1,0,0:0:0:0:
320,192,21574,1,2,0:0:0:0:
448,192,22048,1,0,0:0:0:20:LR_Hat Normal.wav
320,192,22127,1,0,0:0:0:20:LR_Hat Normal.wav
192,192,22205,1,0,0:0:0:20:LR_Hat Normal.wav
64,192,22837,1,0,0:0:0:70:LR2_KickBassD.wav
448,192,22837,1,0,0:0:0:80:F4S.wav
320,192,23311,1,0,0:0:0:0:
192,192,23784,1,0,0:0:0:0:
320,192,24100,1,0,0:0:0:0:
64,192,24258,1,0,0:0:0:0:
320,192,24416,1,0,0:0:0:0:
64,192,24574,1,0,0:0:0:0:
448,192,24732,1,0,0:0:0:0:
320,192,24890,1,0,0:0:0:0:
192,192,25048,1,0,0:0:0:0:
320,192,25205,1,0,0:0:0:0:
64,192,25363,1,0,0:0:0:80:D#4S_Eb4S.wav
192,192,25363,1,0,0:0:0:0:
320,192,25837,1,0,0:0:0:0:
448,192,26311,1,0,0:0:0:0:
64,192,27258,1,0,0:0:0:0:
192,192,27574,1,0,0:0:0:0:
320,192,27890,1,0,0:0:0:70:LR_Kick Normal.wav
448,192,27890,1,0,0:0:0:80:C#4S_Db4S.wav
192,192,28048,1,0,0:0:0:70:LR_Kick Normal.wav
64,192,28205,1,0,0:0:0:0:
320,192,28363,1,0,0:0:0:0:
64,192,28837,1,0,0:0:0:0:
320,192,29153,1,0,0:0:0:0:
448,192,29311,1,0,0:0:0:0:
192,192,29469,1,0,0:0:0:0:
64,192,29627,1,0,0:0:0:0:
320,192,29784,1,0,0:0:0:0:
192,192,29942,1,0,0:0:0:0:
448,192,30100,1,0,0:0:0:0:
64,192,30258,1,0,0:0:0:0:
192,192,30416,1,0,0:0:0:80:C5S.wav
320,192,30416,1,0,0:0:0:0:
64,192,30732,1,0,0:0:0:0:
448,192,31048,1,0,0:0:0:0:
64,192,31363,1,0,0:0:0:0:
192,192,31679,1,0,0:0:0:80:D#5S_Eb5S_s.wav
320,192,31837,1,0,0:0:0:80:G#5S_Ab5S_s.wav
448,192,31995,1,0,0:0:0:80:G#6S_Ab6S_s.wav
64,192,32153,1,0,0:0:0:80:F6S_s.wav
192,192,32311,1,0,0:0:0:70:RimShot.wav
192,192,32469,1,0,0:0:0:70:RimShot.wav
448,192,32627,1,0,0:0:0:80:G#5S_Ab5S_s.wav
320,192,32784,1,0,0:0:0:80:D#5S_Eb5S_s.wav
64,192,32942,1,0,0:0:0:70:LR_Kick Normal.wav
192,192,32942,1,0,0:0:0:80:D#4S_Eb4S.wav
64,192,33100,1,0,0:0:0:70:LR_Kick Normal.wav
448,192,33258,1,0,0:0:0:0:
192,192,33416,1,0,0:0:0:0:
320,192,33574,1,0,0:0:0:70:RimShot.wav
64,192,33890,1,0,0:0:0:0:
448,192,34205,1,0,0:0:0:0:
192,192,34363,1,0,0:0:0:0:
448,192,34521,1,0,0:0:0:0:
192,192,34679,1,0,0:0:0:0:
320,192,34837,1,0,0:0:0:70:RimShot.wav
192,192,34995,1,0,0:0:0:0:
64,192,35153,1,0,0:0:0:0:
320,192,35311,1,0,0:0:0:0:
64,192,35469,1,0,0:0:0:80:D#4S_Eb4S.wav
192,192,35469,1,0,0:0:0:0:
320,192,35784,1,0,0:0:0:0:
64,192,35942,1,0,0:0:0:0:
192,192,36100,1,0,0:0:0:70:RimShot.wav
448,192,36416,1,0,0:0:0:0:
192,192,36574,1,0,0:0:0:0:
320,192,36732,1,0,0:0:0:0:
64,192,36890,1,0,0:0:0:0:
448,192,37048,1,0,0:0:0:0:
192,192,37363,1,0,0:0:0:70:RimShot.wav
320,192,37521,1,0,0:0:0:0:
64,192,37679,1,0,0:0:0:0:
192,192,37837,1,0,0:0:0:0:
320,192,37995,1,0,0:0:0:70:LR_Kick Normal.wav
448,192,37995,1,0,0:0:0:80:C#3S_Db3S.wav
448,192,38153,1,0,0:0:0:70:LR_Kick Normal.wav
192,192,38311,1,0,0:0:0:0:
320,192,38469,1,0,0:0:0:0:
64,192,38627,1,0,0:0:0:70:RimShot.wav
192,192,38942,1,0,0:0:0:0:
448,192,39258,1,0,0:0:0:0:
192,192,39416,1,0,0:0:0:70:RimShot.wav
64,192,39574,1,0,0:0:0:70:drum-hitwhistle.wav
320,192,39732,1,0,0:0:0:0:
448,192,39890,1,0,0:0:0:70:RimShot.wav
192,192,40048,1,0,0:0:0:0:
320,192,40205,1,0,0:0:0:0:
64,192,40363,1,0,0:0:0:0:
192,192,40521,1,0,0:0:0:70:drum-hitwhistle.wav
448,192,40521,1,0,0:0:0:80:C5S.wav
320,192,40837,1,0,0:0:0:0:
192,192,40995,1,0,0:0:0:0:
448,192,41153,1,0,0:0:0:70:RimShot.wav
320,192,41469,1,0,0:0:0:0:
192,192,41627,1,0,0:0:0:70:RimShot.wav
64,192,41784,1,0,0:0:0:70:drum-hitwhistle.wav
320,192,41942,1,0,0:0:0:70:RimShot.wav
448,192,42100,1,0,0:0:0:80:G#6S_Ab6S_s.wav
192,192,42258,1,0,0:0:0:80:F6S_s.wav
320,192,42416,1,4,0:0:0:70:LR_Hat Normal.wav
448,192,42416,1,0,0:0:0:80:C#6S_Db6S_s.wav
64,192,42574,1,4,0:0:0:70:LR_Hat Normal.wav
192,192,42574,1,0,0:0:0:80:C6S_s.wav
320,192,42732,1,0,0:0:0:70:HHOpen.wav
448,192,42732,128,0,43048:0:0:0:80:G#5S_Ab5S_s.wav
64,192,42890,1,0,0:0:0:80:D#5S_Eb5S_s.wav
64,192,43048,128,2,43363:0:0:0:0:
192,192,43048,1,0,0:0:0:70:CrashRight.wav
320,192,43048,1,0,0:0:0:0:
448,192,43363,1,2,0:0:0:0:
320,192,43521,1,0,0:0:0:0:
192,192,43679,128,2,43995:0:0:0:0:
448,192,43679,1,0,0:0:0:0:
320,192,43995,1,2,0:0:0:0:
64,192,44153,1,0,0:0:0:70:Tom1.wav
192,192,44153,1,0,0:0:0:0:
448,192,44311,1,2,0:0:0:0:
64,192,44469,1,0,0:0:0:70:Tom1.wav
192,192,44469,1,0,0:0:0:0:
64,192,44627,1,2,0:0:0:0:
320,192,44627,1,0,0:0:0:70:Tom2.wav
192,192,44784,1,0,0:0:0:0:
448,192,44942,1,6,0:0:0:0:
320,192,45100,1,4,0:0:0:0:
64,192,45258,1,2,0:0:0:0:
448,192,45258,128,0,45574:0:0:0:70:HHOpen.wav
64,192,45574,128,2,45890:0:0:0:0:
192,192,45574,1,0,0:0:0:70:CrashRight.wav
320,192,45574,1,0,0:0:0:0:
320,192,45890,1,2,0:0:0:0:
192,192,46048,1,0,0:0:0:0:
64,192,46205,128,2,46521:0:0:0:0:
448,192,46205,1,0,0:0:0:70:HHOpen.wav
320,192,46363,1,0,0:0:0:0:
192,192,46521,1,2,0:0:0:0:
320,192,46679,1,0,0:0:0:70:Tom1.wav
448,192,46679,1,0,0:0:0:0:
64,192,46837,1,2,0:0:0:0:
192,192,46995,1,0,0:0:0:70:Tom1.wav
320,192,46995,1,0,0:0:0:0:
448,192,47153,1,2,0:0:0:0:
192,192,47311,1,0,0:0:0:0:
320,192,47469,1,2,0:0:0:0:
448,192,47469,128,0,47627:0:0:0:0:
64,192,47627,128,0,47784:0:0:0:70:Tom3.wav
192,192,47627,1,0,0:0:0:0:
320,192,47784,128,2,47942:0:0:0:0:
192,192,47942,128,0,48100:0:0:0:70:Tom2.wav
64,192,48100,1,2,0:0:0:0:
320,192,48100,1,0,0:0:0:70:CrashRight.wav
448,192,48100,128,0,49048:0:0:0:0:
192,192,48574,1,2,0:0:0:0:
64,192,48732,1,8,0:0:0:0:
320,192,48732,1,0,0:0:0:0:
192,192,48890,1,0,0:0:0:0:
64,192,49048,1,2,0:0:0:0:
448,192,49205,1,2,0:0:0:0:
320,192,49363,1,4,0:0:0:0:
64,192,49521,1,8,0:0:0:0:
192,192,49521,1,0,0:0:0:0:
448,192,49679,1,0,0:0:0:0:
64,192,49837,1,2,0:0:0:0:
192,192,49995,128,0,50153:0:0:0:70:Tom1.wav
320,192,49995,1,0,0:0:0:0:
64,192,50153,128,0,50311:0:0:0:70:Tom1.wav
448,192,50153,1,0,0:0:0:0:
320,192,50311,128,0,50469:0:0:0:70:Tom2.wav
448,192,50469,128,0,50627:0:0:0:70:Tom2.wav
64,192,50627,128,0,51574:0:0:0:70:Tom3.wav
192,192,50627,1,0,0:0:0:0:
320,192,50627,1,0,0:0:0:0:
448,192,50942,1,0,0:0:0:0:
320,192,51100,1,2,0:0:0:0:
192,192,51258,1,8,0:0:0:0:
448,192,51258,1,0,0:0:0:0:
320,192,51416,1,0,0:0:0:0:
192,192,51574,1,2,0:0:0:0:
448,192,51732,1,4,0:0:0:0:
320,192,51890,1,0,0:0:0:100:RideCup.wav
192,192,52048,1,0,0:0:0:0:
64,192,52205,1,8,0:0:0:0:
448,192,52205,1,0,0:0:0:0:
320,192,52363,1,2,0:0:0:0:
64,192,52521,1,8,0:0:0:0:
192,192,52521,1,0,0:0:0:0:
320,192,52679,1,8,0:0:0:0:
448,192,52679,1,0,0:0:0:0:
64,192,52837,128,0,53153:0:0:0:70:Tom1.wav
192,192,52837,1,0,0:0:0:0:
192,192,53153,1,2,0:0:0:0:
320,192,53153,1,0,0:0:0:70:CrashRight.wav
448,192,53153,1,0,0:0:0:0:
64,192,53311,1,0,0:0:0:0:
320,192,53469,1,2,0:0:0:0:
192,192,53627,1,4,0:0:0:0:
64,192,53705,1,0,0:0:0:0:
320,192,53784,1,2,0:0:0:0:
448,192,53784,1,4,0:0:0:0:
192,192,53942,1,4,0:0:0:0:
64,192,54100,1,6,0:0:0:0:
320,192,54258,1,4,0:0:0:0:
192,192,54337,1,4,0:0:0:0:
64,192,54416,1,2,0:0:0:0:
448,192,54416,1,4,0:0:0:0:
320,192,54574,1,4,0:0:0:0:
64,192,54732,1,6,0:0:0:0:
448,192,54890,1,4,0:0:0:0:
192,192,55048,1,6,0:0:0:0:
320,192,55205,1,4,0:0:0:0:
64,192,55363,1,6,0:0:0:0:
448,192,55521,1,4,0:0:0:0:
320,192,55600,1,4,0:0:0:0:
64,192,55679,128,2,55995:0:0:0:0:
192,192,55679,1,0,0:0:0:70:CrashRight.wav
448,192,55679,1,0,0:0:0:0:
320,192,55995,1,2,0:0:0:0:
320,192,56153,1,10,0:0:0:0:
64,192,56311,1,2,0:0:0:0:
192,192,56311,1,8,0:0:0:0:
64,192,56469,1,2,0:0:0:0:
192,192,56469,1,8,0:0:0:0:
320,192,56627,1,2,0:0:0:0:
448,192,56627,1,8,0:0:0:0:
320,192,56784,128,8,57574:0:0:0:0:
448,192,56784,128,2,57574:0:0:0:0:
64,192,57574,1,0,0:0:0:70:LR2_KickBassD.wav
192,192,57574,1,0,0:0:0:0:
192,192,57890,128,0,58205:0:0:0:0:
64,192,58205,1,2,0:0:0:0:
320,192,58205,1,0,0:0:0:70:CrashRight.wav
448,192,58205,1,0,0:0:0:0:
448,192,58363,1,0,0:0:0:0:
64,192,58521,1,8,0:0:0:0:
320,192,58521,1,0,0:0:0:70:HHOpen.wav
192,192,58679,1,0,0:0:0:0:
320,192,58837,1,0,0:0:0:70:HHOpen.wav
448,192,58837,1,0,0:0:0:0:
64,192,58995,1,2,0:0:0:0:
192,192,58995,1,0,0:0:0:0:
64,192,59153,1,8,0:0:0:0:
448,192,59153,1,0,0:0:0:70:HHOpen.wav
320,192,59311,1,0,0:0:0:0:
64,192,59469,1,2,0:0:0:0:
448,192,59469,1,0,0:0:0:70:HHOpen.wav
192,192,59627,1,0,0:0:0:0:
64,192,59784,128,8,59942:0:0:0:0:
320,192,59784,1,0,0:0:0:70:HHOpen.wav
192,192,59942,1,2,0:0:0:0:
448,192,59942,1,0,0:0:0:0:
320,192,60100,128,0,60258:0:0:0:70:HHOpen.wav
64,192,60258,1,2,0:0:0:0:
192,192,60258,1,0,0:0:0:0:
64,192,60416,1,8,0:0:0:0:
448,192,60416,128,0,60732:0:0:0:70:HHOpen.wav
192,192,60732,1,2,0:0:0:0:
320,192,60732,1,0,0:0:0:70:HHOpen.wav
64,192,60890,1,2,0:0:0:0:
320,192,61048,1,8,0:0:0:0:
448,192,61048,1,0,0:0:0:70:HHOpen.wav
192,192,61205,1,0,0:0:0:0:
64,192,61363,1,0,0:0:0:70:HHOpen.wav
320,192,61363,1,0,0:0:0:0:
192,192,61521,1,2,0:0:0:0:
448,192,61521,1,0,0:0:0:0:
320,192,61679,1,8,0:0:0:0:
448,192,61679,1,0,0:0:0:70:HHOpen.wav
64,192,61837,1,0,0:0:0:0:
192,192,61995,1,2,0:0:0:0:
320,192,61995,1,0,0:0:0:70:HHOpen.wav
448,192,62153,1,0,0:0:0:0:
64,192,62311,1,8,0:0:0:0:
320,192,62311,1,0,0:0:0:70:HHOpen.wav
64,192,62469,1,2,0:0:0:0:
192,192,62469,1,0,0:0:0:0:
448,192,62627,1,0,0:0:0:70:HHOpen.wav
192,192,62784,1,2,0:0:0:0:
320,192,62784,1,0,0:0:0:0:
64,192,62942,128,8,63258:0:0:0:0:
448,192,62942,1,0,0:0:0:70:HHOpen.wav
192,192,63258,1,2,0:0:0:0:
320,192,63258,1,0,0:0:0:70:CrashRight.wav
448,192,63258,128,0,63890:0:0:0:0:
64,192,63416,1,2,0:0:0:0:
192,192,63574,1,8,0:0:0:0:
320,192,63574,1,0,0:0:0:70:HHOpen.wav
64,192,63732,1,0,0:0:0:0:
192,192,63811,1,0,0:0:0:0:
320,192,63890,1,0,0:0:0:70:HHOpen.wav
64,192,64048,1,2,0:0:0:0:
448,192,64048,1,0,0:0:0:0:
192,192,64205,1,8,0:0:0:0:
320,192,64205,1,0,0:0:0:70:HHOpen.wav
64,192,64363,1,0,0:0:0:0:
320,192,64521,1,2,0:0:0:0:
448,192,64521,1,0,0:0:0:70:HHOpen.wav
192,192,64679,1,0,0:0:0:0:
64,192,64837,1,8,0:0:0:0:
320,192,64837,128,0,64995:0:0:0:0:
448,192,64995,1,2,0:0:0:0:
64,192,65153,1,0,0:0:0:70:HHOpen.wav
192,192,65153,128,0,65311:0:0:0:0:
320,192,65311,1,2,0:0:0:0:
64,192,65469,128,8,65784:0:0:0:0:
448,192,65469,1,0,0:0:0:70:HHOpen.wav
192,192,65784,1,2,0:0:0:0:
320,192,65784,128,0,66100:0:0:0:70:CrashRight.wav
448,192,65784,1,0,0:0:0:0:
64,192,65942,1,2,0:0:0:0:
192,192,66100,1,8,0:0:0:0:
448,192,66100,1,0,0:0:0:0:
64,192,66416,1,2,0:0:0:0:
192,192,66416,128,0,66732:0:0:0:70:CrashRight.wav
448,192,66416,1,0,0:0:0:0:
320,192,66574,1,2,0:0:0:0:
64,192,66732,1,8,0:0:0:0:
448,192,66732,1,0,0:0:0:0:
64,192,67048,128,2,67363:0:0:0:0:
320,192,67048,1,0,0:0:0:70:CrashRight.wav
448,192,67048,1,0,0:0:0:0:
192,192,67205,1,2,0:0:0:0:
320,192,67363,1,8,0:0:0:0:
448,192,67363,1,0,0:0:0:0:
64,192,67521,1,2,0:0:0:0:
192,192,67521,1,0,0:0:0:0:
448,192,67679,128,0,67995:0:0:0:70:Tom1.wav
320,192,67837,1,0,0:0:0:70:Tom2.wav
64,192,67995,1,0,0:0:0:70:Tom3.wav
192,192,67995,1,0,0:0:0:0:
64,192,68311,1,2,0:0:0:0:
320,192,68311,1,0,0:0:0:70:CrashRight.wav
448,192,68311,1,0,0:0:0:0:
192,192,68469,1,2,0:0:0:0:
320,192,68469,1,0,0:0:0:0:
64,192,68627,1,8,0:0:0:0:
448,192,68627,1,0,0:0:0:70:HHOpen.wav
192,192,68784,1,0,0:0:0:0:
448,192,68942,1,0,0:0:0:70:HHOpen.wav
64,192,69100,1,2,0:0:0:0:
320,192,69100,1,0,0:0:0:0:
192,192,69258,1,8,0:0:0:0:
448,192,69258,1,0,0:0:0:70:HHOpen.wav
320,192,69416,1,0,0:0:0:0:
64,192,69574,1,2,0:0:0:0:
192,192,69574,1,0,0:0:0:70:CrashRight.wav
448,192,69574,1,0,0:0:0:0:
192,192,69732,1,2,0:0:0:0:
320,192,69732,1,0,0:0:0:0:
64,192,69890,1,8,0:0:0:0:
448,192,69890,1,0,0:0:0:70:HHOpen.wav
192,192,70048,1,2,0:0:0:0:
320,192,70048,1,0,0:0:0:0:
64,192,70205,1,0,0:0:0:70:HHOpen.wav
192,192,70363,1,2,0:0:0:0:
448,192,70363,1,0,0:0:0:0:
64,192,70521,1,8,0:0:0:0:
320,192,70521,1,0,0:0:0:70:HHOpen.wav
448,192,70679,1,0,0:0:0:0:
64,192,70837,128,2,70995:0:0:0:0:
192,192,70837,1,0,0:0:0:70:CrashRight.wav
320,192,70837,1,0,0:0:0:0:
448,192,70995,1,2,0:0:0:0:
192,192,71153,128,8,71311:0:0:0:0:
320,192,71153,1,0,0:0:0:70:HHOpen.wav
64,192,71311,1,0,0:0:0:0:
320,192,71469,1,0,0:0:0:70:HHOpen.wav
448,192,71469,128,0,71627:0:0:0:0:
192,192,71627,1,2,0:0:0:0:
64,192,71784,1,8,0:0:0:0:
320,192,71784,128,0,71942:0:0:0:70:HHOpen.wav
192,192,71942,1,0,0:0:0:0:
64,192,72100,128,2,72416:0:0:0:0:
448,192,72100,1,0,0:0:0:0:
192,192,72258,1,2,0:0:0:0:
320,192,72416,1,8,0:0:0:0:
448,192,72416,128,0,72732:0:0:0:0:
64,192,72574,1,2,0:0:0:0:
64,192,72732,128,8,72890:0:0:0:0:
192,192,72732,1,0,0:0:0:0:
320,192,72890,128,0,73048:0:0:0:0:
64,192,73048,1,8,0:0:0:0:
192,192,73048,128,0,73205:0:0:0:0:
448,192,73205,128,0,73363:0:0:0:0:
64,192,73363,1,0,0:0:0:70:CrashRight.wav
192,192,73363,1,0,0:0:0:0:
320,192,73363,1,0,0:0:0:0:
448,192,73521,1,2,0:0:0:0:
64,192,73679,1,8,0:0:0:0:
192,192,73679,1,0,0:0:0:70:HHOpen.wav
320,192,73679,1,0,0:0:0:0:
320,192,73837,1,2,0:0:0:0:
64,192,73995,1,8,0:0:0:0:
192,192,73995,1,0,0:0:0:70:HHOpen.wav
448,192,73995,1,0,0:0:0:0:
320,192,74153,1,2,0:0:0:0:
64,192,74311,1,8,0:0:0:0:
192,192,74311,1,0,0:0:0:70:HHOpen.wav
448,192,74311,1,0,0:0:0:0:
64,192,74469,1,2,0:0:0:0:
192,192,74627,1,0,0:0:0:70:HHOpen.wav
320,192,74627,1,0,0:0:0:0:
448,192,74627,1,0,0:0:0:0:
64,192,74784,1,2,0:0:0:0:
192,192,74942,1,8,0:0:0:0:
320,192,74942,1,0,0:0:0:70:HHOpen.wav
448,192,74942,1,0,0:0:0:0:
192,192,75100,1,2,0:0:0:0:
64,192,75258,1,8,0:0:0:0:
320,192,75258,1,0,0:0:0:70:HHOpen.wav
448,192,75258,1,0,0:0:0:0:
192,192,75416,1,2,0:0:0:0:
64,192,75574,128,8,75890:0:0:0:0:
320,192,75574,1,0,0:0:0:70:HHOpen.wav
448,192,75574,1,0,0:0:0:0:
192,192,75890,1,0,0:0:0:70:CrashRight.wav
320,192,75890,1,0,0:0:0:0:
448,192,75890,128,0,76048:0:0:0:0:
64,192,76048,128,2,76205:0:0:0:0:
320,192,76205,1,8,0:0:0:0:
448,192,76205,1,0,0:0:0:70:HHOpen.wav
192,192,76363,128,2,76521:0:0:0:0:
64,192,76521,1,8,0:0:0:0:
448,192,76521,1,0,0:0:0:70:HHOpen.wav
320,192,76679,1,2,0:0:0:0:
448,192,76679,1,0,0:0:0:0:
64,192,76837,1,2,0:0:0:0:
192,192,76837,1,0,0:0:0:0:
64,192,76995,1,8,0:0:0:0:
320,192,76995,1,0,0:0:0:70:CrashRight.wav
448,192,76995,128,0,77311:0:0:0:0:
64,192,77311,128,0,77469:0:0:0:0:
320,192,77469,128,2,77627:0:0:0:0:
448,192,77469,1,0,0:0:0:0:
192,192,77627,128,0,77784:0:0:0:0:
448,192,77784,1,10,0:0:0:0:
64,192,77863,1,8,0:0:0:0:
320,192,77942,128,10,78100:0:0:0:0:
64,192,78100,1,10,0:0:0:0:
448,192,78179,1,8,0:0:0:0:
192,192,78258,128,10,78416:0:0:0:0:
64,192,78416,1,0,0:0:0:70:CrashRight.wav
320,192,78416,1,0,0:0:0:0:
448,192,78416,1,0,0:0:0:0:
192,192,78574,1,0,0:0:0:0:
64,192,78732,1,0,0:0:0:0:
320,192,78890,1,0,0:0:0:0:
64,192,79205,1,0,0:0:0:0:
448,192,79363,1,0,0:0:0:0:
320,192,79521,1,0,0:0:0:0:
64,192,79679,1,0,0:0:0:0:
192,192,79679,1,0,0:0:0:0:
448,192,79995,1,0,0:0:0:0:
320,192,80311,1,0,0:0:0:0:
192,192,80627,1,0,0:0:0:0:
64,192,80784,1,0,0:0:0:0:
320,192,80942,1,0,0:0:0:0:
448,192,80942,1,0,0:0:0:0:
64,192,81100,1,0,0:0:0:0:
192,192,81258,1,0,0:0:0:0:
320,192,81416,1,0,0:0:0:0:
192,192,81732,1,0,0:0:0:0:
64,192,81890,1,0,0:0:0:0:
320,192,82048,1,0,0:0:0:0:
192,192,82205,1,0,0:0:0:0:
448,192,82205,1,0,0:0:0:0:
64,192,82521,1,0,0:0:0:0:
192,192,82837,1,0,0:0:0:0:
320,192,83153,1,0,0:0:0:0:
64,192,83469,1,0,0:0:0:0:
448,192,83469,1,0,0:0:0:0:
192,192,83627,1,0,0:0:0:0:
320,192,83784,1,0,0:0:0:0:
448,192,83942,1,0,0:0:0:0:
448,192,84416,1,0,0:0:0:0:
320,192,84574,1,0,0:0:0:0:
64,192,84732,1,0,0:0:0:0:
192,192,84732,1,0,0:0:0:0:
448,192,85048,1,0,0:0:0:0:
320,192,85363,1,0,0:0:0:0:
192,192,85679,1,0,0:0:0:0:
64,192,85995,1,0,0:0:0:0:
448,192,85995,128,0,86627:0:0:0:0:
192,192,86153,1,0,0:0:0:0:
64,192,86311,1,0,0:0:0:0:
320,192,86469,1,0,0:0:0:0:
64,192,86627,128,0,87258:0:0:0:0:
192,192,86627,1,0,0:0:0:0:
320,192,87258,128,0,87890:0:0:0:0:
448,192,87258,1,0,0:0:0:0:
64,192,87890,1,0,0:0:0:0:
192,192,87890,128,0,88521:0:0:0:0:
64,192,88521,128,0,89784:0:0:0:0:
448,192,88521,1,0,0:0:0:0:
448,192,89784,128,0,90100:0:0:0:80:D#7S_Eb7S.wav
320,192,90100,128,0,90416:0:0:0:0:
64,192,90416,128,0,90732:0:0:0:80:F#7S_Gb7S_s.wav
192,192,90732,128,0,91048:0:0:0:80:F7S_s.wav
320,192,91048,1,0,0:0:0:80:A#6S_Bb6S.wav
448,192,91048,128,0,92311:0:0:0:0:
64,192,92311,128,0,93574:0:0:0:80:G#6S_Ab6S.wav
192,192,92311,1,0,0:0:0:0:
448,192,92942,1,0,0:0:0:80:C#6S_Db6S_s.wav
192,192,93100,1,0,0:0:0:80:D#6S_Eb6S_s.wav
448,192,93258,1,0,0:0:0:80:G#6S_Ab6S_s.wav
192,192,93574,1,0,0:0:0:80:C#7S_Db7S.wav
448,192,93574,128,0,96100:0:0:0:0:
320,192,94048,1,0,0:0:0:80:C7S.wav
192,192,94521,1,0,0:0:0:80:G#6S_Ab6S_s.wav
320,192,94837,1,0,0:0:0:80:F6S.wav
64,192,94995,1,0,0:0:0:80:A#5S_Bb5S_s.wav
192,192,95311,1,0,0:0:0:80:D#6S_Eb6S.wav
64,192,95627,1,0,0:0:0:80:G#5S_Ab5S_s.wav
192,192,95784,1,0,0:0:0:80:G#6S_Ab6S_s.wav
64,192,96100,1,0,0:0:0:80:C#7S_Db7S.wav
320,192,96100,1,0,0:0:0:0:
