osu file format v14

[General]
AudioFilename: audio.mp3
AudioLeadIn: 0
PreviewTime: 57044
Countdown: 0
SampleSet: Soft
StackLeniency: 0.7
Mode: 2
LetterboxInBreaks: 0
WidescreenStoryboard: 1

[Editor]
Bookmarks: 22149,42360,92886
DistanceSpacing: 1.2
BeatDivisor: 4
GridSize: 16
TimelineZoom: 1.5

[Metadata]
Title:Re:TrymenT
TitleUnicode:Re:TrymenT
Artist:Murasaki Hotaru
ArtistUnicode:紫咲ほたる
Creator:AJamez
Version:Spec's OverdosE
Source:Re:LieF~親愛なるあなたへ~
Tags:SpectatoR _MeeP_ ErogE Re LieF LifE ReLeiF ReTrymenT DeaR YoU VisuaL NoveL TrymenT RasK 甘利紗陽 SayO AmarI OpeninG レリーフ Shin'ainaru Anata e
BeatmapID:1667978
BeatmapSetID:794111

[Difficulty]
HPDrainRate:7
CircleSize:3.8
OverallDifficulty:9.3
ApproachRate:9.3
SliderMultiplier:1.85
SliderTickRate:2

[Events]
//Background and Video events
0,0,"relief.jpg",0,0
//Break Periods
//Storyboard Layer 0 (Background)
//Storyboard Layer 1 (Fail)
//Storyboard Layer 2 (Pass)
//Storyboard Layer 3 (Foreground)
//Storyboard Sound Samples

[TimingPoints]
1939,315.789473684211,4,2,1,30,1,0
10781,-100,4,2,1,50,0,0
12044,-100,4,2,1,30,0,0
22149,-100,4,2,1,35,0,0
42360,-100,4,2,1,40,0,0
56886,-100,4,2,0,60,0,0
57517,-100,4,1,1,70,0,1
77096,-90.9090909090909,4,1,1,70,0,1
77412,-100,4,1,1,70,0,1
77491,-100,4,1,1,30,0,1
77728,-100,4,2,1,40,0,0
87833,-100,4,2,1,30,0,0
92965,-100,4,2,1,55,0,0
93202,-100,4,2,1,50,0,0
93360,-100,4,2,1,65,0,0
93675,-100,4,2,1,35,0,0
93833,-100,4,2,1,30,0,0
94149,-100,4,2,1,25,0,0
94465,-100,4,2,1,20,0,0
94623,-100,4,2,1,15,0,0
94781,-100,4,2,1,12,0,0
94939,-100,4,2,1,8,0,0
95096,-100,4,2,1,10,0,0
95254,-100,4,2,1,15,0,0
95412,-100,4,2,1,30,0,0

[Colours]
Combo1 : 219,154,226
Combo2 : 141,142,201
Combo3 : 191,205,227

[HitObjects]
127,298,1939,5,2,0:0:0:0:
68,216,2096,1,0,0:0:0:0:
127,139,2254,1,0,0:0:0:0:
270,147,2412,2,0,P|327:208|265:274,1,185,2|0,0:0|0:0,0:0:0:0:
120,276,2886,1,2,0:0:0:0:
351,172,3202,1,2,0:0:0:0:
366,266,3360,1,0,0:0:0:0:
106,177,3675,1,0,0:0:0:0:
450,180,4149,1,2,0:0:0:0:
127,298,4465,5,2,0:0:0:0:
113,204,4622,1,0,0:0:0:0:
214,188,4780,1,0,0:0:0:0:
356,190,4939,2,0,B|365:98|365:98|265:88,1,185,2|0,0:0|0:0,0:0:0:0:
120,276,5412,1,2,0:0:0:0:
345,164,5728,1,2,0:0:0:0:
82,108,6202,1,0,0:0:0:0:
420,86,6675,1,2,0:0:0:0:
176,259,6991,5,2,0:0:0:0:
240,174,7149,1,0,0:0:0:0:
176,98,7307,1,0,0:0:0:0:
321,33,7465,2,0,P|378:100|294:154,1,185,2|0,0:0|0:0,0:0:0:0:
458,162,7939,1,2,0:0:0:0:
277,313,8254,1,2,0:0:0:0:
264,198,8570,1,0,0:0:0:0:
80,253,8886,1,0,0:0:0:0:
93,139,9202,1,2,0:0:0:0:
310,295,9517,6,0,P|392:260|416:153,1,185,2|0,0:0|0:0,0:0:0:0:
303,175,9991,2,0,P|221:140|197:33,1,185,2|0,0:0|0:0,0:0:0:0:
354,52,10465,1,2,0:0:0:0:
91,63,10781,6,0,L|75:261,1,185,2|0,0:0|0:0,0:0:0:0:
320,126,11254,2,0,L|336:324,1,185,2|0,0:0|0:0,0:0:0:0:
203,330,11728,1,2,0:0:0:0:
208,282,11807,1,0,0:0:0:0:
242,238,11886,1,0,0:0:0:0:
301,220,11965,1,0,0:0:0:0:
472,125,12044,6,0,L|480:320,1,185,0|0,1:0|1:0,1:0:0:0:
356,307,12517,1,0,0:0:0:0:
211,222,12675,2,0,L|309:215,1,92.5,4|2,1:3|0:0,0:0:0:0:
429,183,12991,1,0,1:0:0:0:
437,279,13149,1,0,0:0:0:0:
124,195,13307,6,0,P|62:149|142:98,1,185,4|0,1:2|0:0,0:0:0:0:
412,93,13781,1,4,1:3:0:0:
287,93,13939,1,0,0:0:0:0:
412,93,14096,1,4,1:3:0:0:
131,205,14254,1,0,1:0:0:0:
121,106,14412,1,0,1:0:0:0:
397,189,14570,6,0,L|184:167,1,185,4|0,0:1|1:0,0:0:0:0:
82,107,15044,2,0,L|295:85,2,185,2|0|0,2:2|1:0|1:0,0:0:0:0:
333,205,15833,5,0,1:0:0:0:
202,181,15991,2,0,L|196:117,1,46.25,2|0,0:0|0:0,0:0:0:0:
413,146,16149,1,0,1:0:0:0:
420,260,16307,1,4,0:3:0:0:
164,227,16465,1,0,1:0:0:0:
43,225,16623,1,8,0:3:0:0:
313,189,16781,1,0,1:0:0:0:
190,187,16939,1,8,0:3:0:0:
420,260,17096,6,0,P|462:211|368:162,1,185,4|0,1:0|1:0,0:0:0:0:
257,191,17570,2,0,P|265:116|373:73,1,185,0|2,1:0|0:0,0:0:0:0:
496,72,18044,1,0,1:0:0:0:
356,69,18202,1,2,0:0:0:0:
303,68,18281,1,0,0:0:0:0:
51,90,18360,6,0,L|39:203,1,92.5,0|2,1:0|0:0,0:0:0:0:
177,182,18675,1,0,1:0:0:0:
458,182,18833,1,2,0:0:0:0:
332,181,18991,1,0,1:0:0:0:
458,182,19149,1,2,2:0:0:0:
116,210,19307,2,0,L|104:323,1,92.5,0|4,1:0|0:3,0:0:0:0:
370,343,19623,5,4,0:0:0:0:
450,296,19781,1,0,0:0:0:0:
472,206,19939,1,2,0:0:0:0:
429,124,20096,1,0,0:0:0:0:
296,100,20254,1,4,0:3:0:0:
308,191,20412,1,0,0:0:0:0:
355,270,20570,1,2,0:0:0:0:
440,305,20728,1,0,0:0:0:0:
309,349,20886,2,0,P|234:302|357:103,1,370,2|0,0:0|0:0,0:0:0:0:
48,88,22149,5,0,1:0:0:0:
422,128,24044,5,2,0:0:0:0:
429,220,24202,1,0,0:0:0:0:
437,312,24360,1,0,0:0:0:0:
162,328,24675,1,2,0:0:0:0:
460,76,26570,5,0,0:0:0:0:
482,221,26886,1,2,0:0:0:0:
237,278,27202,1,0,2:0:0:0:
431,274,28781,5,2,0:0:0:0:
228,136,29096,1,2,0:0:0:0:
429,127,29411,1,0,0:0:0:0:
163,295,29728,5,0,0:0:0:0:
160,261,31149,1,0,0:0:0:0:
408,179,31307,2,0,L|417:282,1,92.5,2|0,0:0|0:0,0:0:0:0:
196,233,31623,1,2,2:3:0:0:
203,126,31781,1,0,2:3:0:0:
318,121,31939,2,0,L|307:29,1,92.5,2|0,0:0|0:0,0:0:0:0:
61,318,32254,6,0,P|59:237|143:164,1,185,0|0,1:0|0:0,0:0:0:0:
357,127,32886,2,0,L|367:226,1,92.5,2|0,0:0|0:0,0:0:0:0:
184,239,33360,2,0,L|174:338,1,92.5,0|2,0:0|0:0,0:0:0:0:
411,206,33833,1,0,0:0:0:0:
255,211,34149,1,2,0:0:0:0:
461,212,34465,1,0,0:0:0:0:
170,262,34781,6,0,L|149:71,1,185,0|0,1:0|0:0,0:0:0:0:
391,142,35412,1,2,0:0:0:0:
303,120,35570,1,0,0:0:0:0:
53,240,35886,1,0,0:0:0:0:
141,218,36044,1,2,0:0:0:0:
363,282,36360,1,0,0:0:0:0:
203,289,36675,1,2,0:0:0:0:
363,282,36991,1,0,0:0:0:0:
141,298,37307,6,0,L|135:193,1,92.5,0|0,1:0|0:0,0:0:0:0:
236,126,37623,2,0,L|242:238,1,92.5
124,79,37939,2,0,P|71:140|131:215,1,185,2|0,0:0|0:0,0:0:0:0:
231,215,38412,1,2,0:0:0:0:
462,217,38886,1,0,0:0:0:0:
292,214,39202,1,2,0:0:0:0:
462,217,39517,1,0,0:0:0:0:
186,356,39833,6,0,P|289:320|244:101,1,370,2|0,0:0|0:0,0:0:0:0:
99,79,40781,2,0,L|83:198,1,92.5
338,112,41254,1,0,0:0:0:0:
217,110,41412,1,2,0:0:0:0:
338,112,41570,1,0,0:0:0:0:
206,260,41728,1,2,0:0:0:0:
158,180,41886,1,0,0:0:0:0:
202,98,42044,1,2,0:0:0:0:
294,72,42202,1,0,0:0:0:0:
58,257,42360,6,0,P|28:197|132:131,1,185,4|0,1:0|3:0,0:0:0:0:
241,126,42833,2,0,L|49:111,1,185,0|0,1:0|0:0,0:0:0:0:
292,124,43307,1,0,3:0:0:0:
435,82,43465,2,0,L|439:195,1,92.5,8|0,1:3|0:0,0:0:0:0:
180,198,43781,1,4,1:3:0:0:
322,235,43939,1,0,1:0:0:0:
92,176,44254,2,0,L|81:303,1,92.5,2|0,0:0|0:0,0:0:0:0:
179,328,44570,1,2,0:0:0:0:
463,190,44886,6,0,L|277:209,1,185,4|0,1:0|3:0,0:0:0:0:
43,216,45360,1,0,1:0:0:0:
165,197,45517,1,0,0:0:0:0:
43,216,45675,1,0,3:0:0:0:
333,176,45833,1,2,3:2:0:0:
204,229,45991,2,0,P|151:173|218:102,1,185,8|0,1:3|0:0,0:0:0:0:
380,70,46465,2,0,L|394:172,1,92.5,0|2,1:0|0:0,0:0:0:0:
126,95,46781,1,0,1:0:0:0:
256,161,46939,1,0,1:0:0:0:
129,210,47096,1,0,1:0:0:0:
430,306,47254,1,0,3:3:0:0:
200,333,47412,6,0,P|124:290|148:205,1,185,4|2,1:0|0:0,0:0:0:0:
312,333,48044,2,0,P|388:290|364:205,1,185,0|2,1:0|0:0,0:0:0:0:
226,99,48517,2,0,L|220:303,1,185,0|0,1:0|2:0,0:0:0:0:
340,207,48991,1,0,1:0:0:0:
67,260,49307,1,0,1:0:0:0:
187,252,49465,1,2,0:0:0:0:
307,245,49623,1,0,1:0:0:0:
427,238,49781,1,0,3:0:0:0:
123,272,49939,6,0,P|69:222|141:148,1,185,4|2,1:0|0:0,0:0:0:0:
331,227,50570,2,0,P|398:206|445:98,1,185,0|0,1:0|3:0,0:0:0:0:
312,237,51044,2,0,P|249:174|355:44,1,277.5,2|0,0:0|1:0,0:0:0:0:
99,51,51833,1,0,1:0:0:0:
238,53,51991,1,0,3:0:0:0:
99,51,52149,1,0,1:0:0:0:
388,142,52465,6,0,L|401:250,1,92.5,4|0,1:0|0:0,0:0:0:0:
267,251,52781,1,0,1:0:0:0:
401,253,52939,1,0,0:0:0:0:
127,240,53096,2,0,L|233:229,1,92.5,0|0,1:0|0:0,0:0:0:0:
358,213,53412,1,0,1:0:0:0:
372,311,53570,1,2,2:0:0:0:
121,154,53728,6,0,L|11:143,1,92.5,4|0,1:0|0:0,0:0:0:0:
176,105,54044,1,0,1:0:0:0:
29,143,54202,1,0,0:0:0:0:
368,62,54360,2,0,L|377:173,1,92.5,0|0,1:0|0:0,0:0:0:0:
61,243,54675,1,0,1:0:0:0:
201,269,54833,1,4,2:3:0:0:
471,58,54991,6,0,L|480:167,1,92.5,4|0,1:0|0:0,0:0:0:0:
206,93,55307,1,0,1:0:0:0:
345,135,55465,1,0,0:0:0:0:
78,183,55623,1,0,1:0:0:0:
220,227,55781,1,0,3:0:0:0:
78,183,55939,1,0,3:0:0:0:
449,164,56096,2,0,P|447:277|151:378,1,462.5,4|0,1:0|1:0,0:0:0:0:
156,309,57202,2,0,L|214:299,1,46.25,2|0,0:0|0:0,0:0:0:0:
365,278,57360,2,0,L|432:269,1,46.25
96,252,57517,6,0,P|29:203|97:140,1,185,4|0,1:0|1:0,0:0:0:0:
238,177,57991,2,0,P|305:128|237:65,1,185,0|0,3:0|3:0,3:0:0:0:
103,56,58465,2,0,L|96:180,1,92.5,0|2,1:0|2:0,0:0:0:0:
447,83,58781,5,0,1:0:0:0:
464,202,58939,1,0,2:0:0:0:
196,167,59096,1,2,1:0:0:0:
341,196,59254,1,0,2:0:0:0:
65,83,59412,1,2,1:0:0:0:
48,202,59570,1,0,2:0:0:0:
316,167,59727,1,10,1:0:0:0:
171,196,59885,1,0,3:0:0:0:
402,111,60044,6,0,P|456:175|395:243,1,185,4|0,1:0|1:0,0:0:0:0:
143,282,60517,2,0,L|343:297,1,185,0|0,3:0|3:0,3:0:0:0:
474,189,60991,1,0,1:0:0:0:
328,264,61149,1,2,2:0:0:0:
62,164,61307,5,0,1:0:0:0:
55,295,61465,1,0,1:0:0:0:
394,209,61623,1,2,1:0:0:0:
402,341,61781,1,0,2:0:0:0:
139,226,61939,1,2,1:0:0:0:
131,358,62096,1,0,3:0:0:0:
401,243,62254,2,0,L|416:98,1,138.75,2|0,0:0|2:0,0:0:0:0:
183,158,62570,6,0,P|121:104|202:70,1,185,4|0,0:0|1:0,0:0:0:0:
327,128,63044,2,0,L|399:143,1,46.25,2|0,2:0|2:0,2:0:0:0:
183,279,63202,1,0,0:0:0:0:
169,172,63360,1,0,3:0:0:0:
397,75,63517,1,2,0:0:0:0:
237,172,63675,6,0,P|179:129|255:65,1,185,0|0,0:0|3:0,0:0:0:0:
390,107,64149,1,2,1:0:0:0:
243,104,64307,1,0,2:0:0:0:
390,209,64465,1,2,1:0:0:0:
410,75,64623,1,0,3:0:0:0:
183,176,64781,1,2,1:0:0:0:
91,124,64939,1,0,2:0:0:0:
477,132,65096,6,0,L|364:116,1,92.5,4|0,0:0|2:0,0:0:0:0:
115,238,65412,1,2,0:0:0:0:
271,206,65570,1,0,3:0:0:0:
35,132,65728,6,0,L|148:116,1,92.5,4|0,0:0|2:0,0:0:0:0:
395,174,66044,1,2,0:0:0:0:
245,161,66202,1,0,3:0:0:0:
477,132,66360,6,0,L|364:116,1,92.5,4|0,0:0|2:0,0:0:0:0:
162,206,66676,1,2,0:0:0:0:
292,192,66834,1,0,3:0:0:0:
48,192,66991,1,8,3:0:0:0:
19,138,67070,1,0,2:0:0:0:
47,84,67149,1,0,3:0:0:0:
105,68,67228,1,0,2:0:0:0:
374,35,67307,1,0,1:0:0:0:
189,308,67623,6,0,P|139:264|201:179,1,185,4|0,1:0|1:0,0:0:0:0:
336,184,68096,1,0,3:0:0:0:
193,179,68254,2,0,P|243:135|181:50,1,185,0|2,3:0|1:0,0:0:0:0:
56,54,68728,1,2,2:0:0:0:
323,308,68886,6,0,P|373:264|311:179,1,185,4|0,1:0|1:0,0:0:0:0:
97,182,69359,1,0,3:0:0:0:
319,179,69517,2,0,P|269:135|331:50,1,185,0|2,3:0|1:0,0:0:0:0:
456,54,69991,1,2,2:0:0:0:
63,60,70149,6,0,L|56:168,1,92.5,4|0,1:0|2:0,0:0:0:0:
323,120,70465,1,0,1:0:0:0:
195,165,70623,1,0,2:0:0:0:
453,168,70781,1,0,3:0:0:0:
470,274,70939,1,0,3:0:0:0:
248,243,71096,1,0,1:0:0:0:
372,276,71254,1,0,2:0:0:0:
77,332,71412,5,4,1:0:0:0:
59,243,71570,1,0,2:0:0:0:
351,177,71728,1,2,1:0:0:0:
364,86,71886,1,0,3:0:0:0:
131,48,72044,1,2,1:0:0:0:
124,136,72202,1,0,2:0:0:0:
244,135,72360,1,2,1:0:0:0:
124,136,72517,1,8,3:0:0:0:
347,150,72675,5,4,1:0:0:0:
479,179,72833,1,0,2:0:0:0:
184,232,72991,1,2,1:2:0:0:
318,261,73149,1,0,3:0:0:0:
29,114,73307,1,6,1:2:0:0:
165,143,73465,1,0,2:0:0:0:
394,181,73623,1,6,1:2:0:0:
170,238,73781,1,0,3:0:0:0:
455,77,73939,5,4,1:0:0:0:
472,202,74096,1,0,2:0:0:0:
167,321,74254,1,2,1:2:0:0:
25,321,74412,1,0,3:0:0:0:
345,321,74570,1,2,1:2:0:0:
487,321,74728,1,0,2:0:0:0:
161,249,74886,1,0,1:0:0:0:
117,214,74965,1,0,0:0:0:0:
127,159,75044,1,0,3:0:0:0:
180,143,75123,1,0,3:0:0:0:
410,132,75202,5,4,1:0:0:0:
190,75,75360,1,0,3:0:0:0:
53,111,75517,1,0,1:0:0:0:
446,155,75675,2,0,L|460:272,1,92.5,0|0,1:0|3:0,0:0:0:0:
203,286,75991,1,0,3:0:0:0:
355,283,76149,1,0,1:0:0:0:
91,339,76307,6,0,P|99:227|179:176,1,185,4|2,1:0|2:0,0:0:0:0:
212,185,76702,1,0,2:0:0:0:
376,215,76781,1,0,1:0:0:0:
418,179,76860,1,0,2:0:0:0:
418,123,76939,1,0,2:0:0:0:
373,91,77017,1,0,2:0:0:0:
201,290,77096,2,0,L|283:290,1,50.8750015525818,0|0,1:0|2:0,2:0:0:0:
407,292,77254,2,0,L|482:293,1,50.8750015525818,0|0,2:0|2:0,2:0:0:0:
249,166,77412,1,0,1:0:0:0:
196,165,77491,1,0,1:0:0:0:
266,214,77570,1,0,1:0:0:0:
320,214,77649,1,0,1:0:0:0:
109,309,77728,5,2,1:0:0:0:
47,239,77886,1,0,2:0:0:0:
109,309,78044,1,2,2:0:0:0:
228,307,78202,2,0,B|286:233|286:233|223:312,1,185,2|0,2:0|0:0,0:0:0:0:
109,309,78675,1,2,0:0:0:0:
95,204,78833,1,0,0:0:0:0:
428,252,78991,5,2,0:0:0:0:
311,252,79307,1,0,0:0:0:0:
195,252,79623,1,2,0:0:0:0:
78,252,79939,1,0,0:0:0:0:
70,351,80096,1,0,0:0:0:0:
311,298,80254,6,0,L|502:263,1,185,2|0,0:0|0:0,0:0:0:0:
365,200,80728,1,2,0:0:0:0:
274,183,80885,1,0,0:0:0:0:
183,166,81043,1,0,0:0:0:0:
405,100,81202,1,2,0:0:0:0:
418,231,81360,1,0,0:0:0:0:
154,305,81517,6,0,P|97:242|172:186,1,185,2|2,0:0|0:0,0:0:0:0:
268,183,81991,1,0,0:0:0:0:
156,184,82149,1,2,0:0:0:0:
402,160,82465,1,0,0:0:0:0:
160,96,82781,5,2,0:0:0:0:
101,154,82939,1,0,0:0:0:0:
80,234,83096,1,0,0:0:0:0:
115,309,83254,1,0,0:0:0:0:
201,348,83412,2,0,L|301:349,1,92.5,2|0,0:0|0:0,0:0:0:0:
179,350,83728,2,0,L|79:351,1,92.5,2|0,0:0|0:0,0:0:0:0:
343,266,84044,6,0,P|401:220|338:149,1,185,2|0,0:0|0:0,0:0:0:0:
145,86,84675,2,0,L|132:290,1,185,2|0,0:0|0:0,0:0:0:0:
380,315,85307,5,2,0:0:0:0:
448,267,85465,1,0,0:0:0:0:
467,185,85623,1,0,0:0:0:0:
445,104,85781,1,0,0:0:0:0:
373,62,85939,1,2,0:0:0:0:
186,109,86254,2,0,L|181:219,1,92.5
305,284,86570,2,0,P|303:210|220:141,1,185,2|0,0:0|0:0,0:0:0:0:
403,130,87202,1,2,0:0:0:0:
414,251,87517,1,2,0:0:0:0:
230,327,87833,6,0,P|56:222|244:13,1,555,2|0,0:0|0:0,0:0:0:0:
431,87,89096,1,2,0:0:0:0:
439,214,89412,1,0,0:0:0:0:
232,185,89728,1,2,0:0:0:0:
444,216,90044,1,2,0:0:0:0:
52,351,90360,6,0,P|49:256|402:15,1,555,2|0,0:0|0:0,0:0:0:0:
271,359,91623,2,0,P|113:259|115:158,1,277.5,2|0,0:0|0:0,0:0:0:0:
282,156,92254,1,2,0:0:0:0:
387,156,92412,1,0,0:0:0:0:
282,156,92570,1,2,0:0:0:0:
156,155,92728,1,2,0:0:0:0:
473,158,92886,5,2,0:0:0:0:
256,192,93044,12,2,95412,0:0:0:0:
