osu file format v14

[General]
AudioFilename: audio.mp3
AudioLeadIn: 0
PreviewTime: 57044
Countdown: 0
SampleSet: Soft
StackLeniency: 0.7
Mode: 2
LetterboxInBreaks: 0
WidescreenStoryboard: 1

[Editor]
Bookmarks: 42360,92886
DistanceSpacing: 2
BeatDivisor: 4
GridSize: 16
TimelineZoom: 1

[Metadata]
Title:Re:TrymenT
TitleUnicode:Re:TrymenT
Artist:Murasaki Hotaru
ArtistUnicode:紫咲ほたる
Creator:AJamez
Version:SalaD
Source:Re:LieF~親愛なるあなたへ~
Tags:SpectatoR _MeeP_ ErogE Re LieF LifE ReLeiF ReTrymenT DeaR YoU VisuaL NoveL TrymenT RasK 甘利紗陽 SayO AmarI OpeninG レリーフ Shin'ainaru Anata e
BeatmapID:1667976
BeatmapSetID:794111

[Difficulty]
HPDrainRate:4
CircleSize:3.2
OverallDifficulty:7
ApproachRate:7
SliderMultiplier:1.42
SliderTickRate:1

[Events]
//Background and Video events
0,0,"relief.jpg",0,0
//Break Periods
//Storyboard Layer 0 (Background)
//Storyboard Layer 1 (Fail)
//Storyboard Layer 2 (Pass)
//Storyboard Layer 3 (Foreground)
//Storyboard Sound Samples

[TimingPoints]
1939,315.789473684211,4,2,1,40,1,0
2096,-100,4,2,1,30,0,0
2254,-100,4,2,1,40,0,0
2412,-100,4,2,1,50,0,0
2728,-100,4,2,1,30,0,0
2886,-100,4,2,1,50,0,0
3044,-100,4,2,1,25,0,0
3202,-100,4,2,1,55,0,0
3360,-100,4,2,1,40,0,0
3517,-100,4,2,1,30,0,0
3675,-100,4,2,1,60,0,0
3991,-100,4,2,1,25,0,0
4149,-100,4,2,1,65,0,0
4307,-100,4,2,1,35,0,0
4465,-100,4,2,1,75,0,0
4623,-100,4,2,1,30,0,0
4781,-100,4,2,1,55,0,0
4939,-100,4,2,1,40,0,0
5096,-100,4,2,1,30,0,0
5254,-100,4,2,1,50,0,0
5412,-100,4,2,1,60,0,0
5570,-100,4,2,1,30,0,0
5728,-100,4,2,1,60,0,0
6044,-100,4,2,1,25,0,0
6202,-100,4,2,1,70,0,0
6360,-100,4,2,1,55,0,0
6517,-100,4,2,1,35,0,0
6675,-100,4,2,1,60,0,0
6833,-100,4,2,1,30,0,0
6991,-100,4,2,1,65,0,0
7149,-100,4,2,1,45,0,0
7307,-100,4,2,1,55,0,0
7465,-100,4,2,1,60,0,0
7781,-100,4,2,1,30,0,0
7939,-100,4,2,1,60,0,0
8096,-100,4,2,1,35,0,0
8254,-100,4,2,1,55,0,0
8570,-100,4,2,1,60,0,0
8886,-100,4,2,1,70,0,0
9202,-100,4,2,1,60,0,0
9517,-100,4,2,1,55,0,0
9833,-100,4,2,1,50,0,0
9991,-100,4,2,1,45,0,0
10307,-100,4,2,1,30,0,0
10465,-100,4,2,1,65,0,0
10702,-100,4,2,1,15,0,0
10781,-100,4,2,1,70,0,0
11096,-100,4,2,1,25,0,0
11254,-100,4,2,1,60,0,0
11570,-100,4,2,1,30,0,0
11728,-100,4,2,1,80,0,0
11807,-100,4,2,1,30,0,0
11886,-100,4,2,1,28,0,0
11965,-100,4,2,1,38,0,0
12044,-100,4,2,1,65,0,0
12202,-100,4,2,1,30,0,0
12360,-100,4,2,1,50,0,0
12517,-100,4,2,1,35,0,0
12675,-100,4,2,1,50,0,0
12833,-100,4,2,1,45,0,0
12991,-100,4,2,1,60,0,0
13149,-100,4,2,1,30,0,0
13307,-100,4,2,1,70,0,0
13465,-100,4,2,1,35,0,0
13623,-100,4,2,1,60,0,0
13781,-100,4,2,1,75,0,0
13939,-100,4,2,1,50,0,0
14096,-100,4,2,1,60,0,0
14254,-100,4,2,1,70,0,0
14412,-100,4,2,1,30,0,0
14570,-100,4,2,1,65,0,0
14886,-100,4,2,1,70,0,0
15044,-100,4,2,1,60,0,0
15202,-100,4,2,1,50,0,0
15360,-100,4,2,1,70,0,0
15517,-100,4,2,1,60,0,0
15675,-100,4,2,1,70,0,0
15833,-100,4,2,1,50,0,0
15991,-100,4,2,1,60,0,0
16070,-100,4,2,1,35,0,0
16149,-100,4,2,1,50,0,0
16307,-100,4,2,1,60,0,0
16465,-100,4,2,1,50,0,0
16623,-100,4,2,1,60,0,0
16781,-100,4,2,1,65,0,0
16939,-100,4,2,1,55,0,0
17017,-100,4,2,1,35,0,0
17096,-100,4,2,1,60,0,0
17254,-100,4,2,1,30,0,0
17412,-100,4,2,1,50,0,0
17570,-100,4,2,1,60,0,0
17728,-100,4,2,1,50,0,0
17886,-100,4,2,1,60,0,0
18044,-100,4,2,1,70,0,0
18202,-100,4,2,1,40,0,0
18281,-100,4,2,1,20,0,0
18360,-100,4,2,1,55,0,0
18517,-100,4,2,1,45,0,0
18675,-100,4,2,1,50,0,0
18833,-100,4,2,1,60,0,0
18991,-100,4,2,1,40,0,0
19149,-100,4,2,1,55,0,0
19307,-100,4,2,1,65,0,0
19465,-100,4,2,1,35,0,0
19623,-100,4,2,1,55,0,0
19781,-100,4,2,1,45,0,0
19939,-100,4,2,1,55,0,0
20096,-100,4,2,1,40,0,0
20254,-100,4,2,1,60,0,0
20412,-100,4,2,1,30,0,0
20570,-100,4,2,1,40,0,0
20728,-100,4,2,1,30,0,0
20886,-100,4,2,1,60,0,0
21517,-100,4,2,1,40,0,0
22149,-100,4,2,1,80,0,0
22465,-100,4,2,1,50,0,0
22781,-100,4,2,1,30,0,0
23096,-100,4,2,1,25,0,0
23254,-100,4,2,1,35,0,0
23412,-100,4,2,1,45,0,0
23570,-100,4,2,1,30,0,0
23728,-100,4,2,1,35,0,0
23886,-100,4,2,1,25,0,0
24044,-100,4,2,1,30,0,0
24202,-100,4,2,1,25,0,0
24360,-100,4,2,1,40,0,0
24517,-100,4,2,1,25,0,0
24675,-100,4,2,1,60,0,0
24991,-100,4,2,1,35,0,0
25149,-100,4,2,1,40,0,0
25623,-100,4,2,1,30,0,0
25939,-100,4,2,1,40,0,0
26254,-100,4,2,1,30,0,0
26570,-100,4,2,1,45,0,0
26728,-100,4,2,1,25,0,0
26886,-100,4,2,1,45,0,0
27044,-100,4,2,1,25,0,0
27202,-100,4,2,1,50,0,0
27360,-100,4,2,1,25,0,0
27517,-100,4,2,1,30,0,0
27675,-100,4,2,1,35,0,0
27833,-100,4,2,1,40,0,0
28149,-100,4,2,1,50,0,0
28307,-100,4,2,1,45,0,0
28465,-100,4,2,1,25,0,0
28623,-100,4,2,1,20,0,0
28781,-100,4,2,1,35,0,0
28939,-100,4,2,1,25,0,0
29096,-100,4,2,1,40,0,0
29254,-100,4,2,1,20,0,0
29412,-100,4,2,1,30,0,0
29570,-100,4,2,1,25,0,0
29728,-100,4,2,1,50,0,0
30044,-100,4,2,1,25,0,0
30202,-100,4,2,1,20,0,0
30675,-100,4,2,1,40,0,0
31149,-100,4,2,1,30,0,0
31228,-100,4,2,1,15,0,0
31307,-100,4,2,1,60,0,0
31465,-100,4,2,1,30,0,0
31623,-100,4,2,1,50,0,0
31781,-100,4,2,1,40,0,0
31939,-100,4,2,1,45,0,0
32096,-100,4,2,1,25,0,0
32254,-100,4,2,1,70,0,0
32412,-100,4,2,1,40,0,0
32570,-100,4,2,1,30,0,0
32728,-100,4,2,1,35,0,0
32886,-100,4,2,1,45,0,0
33044,-100,4,2,1,40,0,0
33202,-100,4,2,1,45,0,0
33517,-100,4,2,1,35,0,0
33596,-100,4,2,1,30,0,0
33833,-100,4,2,1,25,0,0
34149,-100,4,2,1,40,0,0
34307,-100,4,2,1,25,0,0
34465,-100,4,2,1,30,0,0
34623,-100,4,2,1,25,0,0
34781,-100,4,2,1,60,0,0
35096,-100,4,2,1,40,0,0
35254,-100,4,2,1,30,0,0
35412,-100,4,2,1,35,0,0
35570,-100,4,2,1,25,0,0
35728,-100,4,2,1,40,0,0
35886,-100,4,2,1,35,0,0
35965,-100,4,2,1,25,0,0
36044,-100,4,2,1,40,0,0
36360,-100,4,2,1,35,0,0
36517,-100,4,2,1,40,0,0
36675,-100,4,2,1,50,0,0
36833,-100,4,2,1,25,0,0
36991,-100,4,2,1,30,0,0
37307,-100,4,2,1,60,0,0
37465,-100,4,2,1,35,0,0
37623,-100,4,2,1,30,0,0
37781,-100,4,2,1,35,0,0
38254,-100,4,2,1,40,0,0
38570,-100,4,2,1,25,0,0
38728,-100,4,2,1,30,0,0
38886,-100,4,2,1,40,0,0
39202,-100,4,2,1,60,0,0
39360,-100,4,2,1,30,0,0
39517,-100,4,2,1,40,0,0
39675,-100,4,2,1,30,0,0
39833,-100,4,2,1,60,0,0
40149,-100,4,2,1,30,0,0
40465,-100,4,2,1,25,0,0
40781,-100,4,2,1,40,0,0
40939,-100,4,2,1,35,0,0
41254,-100,4,2,1,25,0,0
41412,-100,4,2,1,50,0,0
41570,-100,4,2,1,35,0,0
41728,-100,4,2,1,40,0,0
41886,-100,4,2,1,35,0,0
42044,-100,4,2,1,45,0,0
42202,-100,4,2,1,25,0,0
42360,-100,4,2,1,60,0,0
42675,-100,4,2,1,30,0,0
42833,-100,4,2,1,40,0,0
42991,-100,4,2,1,30,0,0
43149,-100,4,2,1,35,0,0
43307,-100,4,2,1,45,0,0
43465,-100,4,2,1,55,0,0
43623,-100,4,2,1,35,0,0
43781,-100,4,2,1,45,0,0
43939,-100,4,2,1,30,0,0
44096,-100,4,2,1,25,0,0
44254,-100,4,2,1,35,0,0
44412,-100,4,2,1,20,0,0
44570,-100,4,2,1,40,0,0
44728,-100,4,2,1,25,0,0
44807,-100,4,2,1,15,0,0
44886,-100,4,2,1,60,0,0
45202,-100,4,2,1,40,0,0
45360,-100,4,2,1,20,0,0
45517,-100,4,2,1,35,0,0
45675,-100,4,2,1,25,0,0
45833,-100,4,2,1,40,0,0
45991,-100,4,2,1,45,0,0
46149,-100,4,2,1,30,0,0
46307,-100,4,2,1,35,0,0
46465,-100,4,2,1,25,0,0
46623,-100,4,2,1,40,0,0
46939,-100,4,2,1,35,0,0
47096,-100,4,2,1,30,0,0
47175,-100,4,2,1,15,0,0
47254,-100,4,2,1,25,0,0
47333,-100,4,2,1,10,0,0
47412,-100,4,2,1,60,0,0
47728,-100,4,2,1,30,0,0
47886,-100,4,2,1,35,0,0
48044,-100,4,2,1,50,0,0
48202,-100,4,2,1,25,0,0
48360,-100,4,2,1,35,0,0
48517,-100,4,2,1,40,0,0
48675,-100,4,2,1,20,0,0
48833,-100,4,2,1,50,0,0
48991,-100,4,2,1,25,0,0
49149,-100,4,2,1,30,0,0
49307,-100,4,2,1,45,0,0
49465,-100,4,2,1,40,0,0
49623,-100,4,2,1,35,0,0
49781,-100,4,2,1,37,0,0
49939,-100,4,2,1,50,0,0
50254,-100,4,2,1,35,0,0
50412,-100,4,2,1,45,0,0
50728,-100,4,2,1,25,0,0
50886,-100,4,2,1,35,0,0
51044,-100,4,2,1,45,0,0
51202,-100,4,2,1,35,0,0
51360,-100,4,2,1,25,0,0
51517,-100,4,2,1,40,0,0
51675,-100,4,2,1,35,0,0
51833,-100,4,2,1,50,0,0
51991,-100,4,2,1,40,0,0
52149,-100,4,2,1,50,0,0
52307,-100,4,2,1,45,0,0
52465,-100,4,2,1,70,0,0
52623,-100,4,2,1,35,0,0
52781,-100,4,2,1,40,0,0
52939,-100,4,2,1,30,0,0
53017,-100,4,2,1,25,0,0
53096,-100,4,2,1,45,0,0
53254,-100,4,2,1,30,0,0
53412,-100,4,2,1,40,0,0
53570,-100,4,2,1,37,0,0
53649,-100,4,2,1,25,0,0
53728,-100,4,2,1,45,0,0
53886,-100,4,2,1,35,0,0
54044,-100,4,2,1,40,0,0
54202,-100,4,2,1,30,0,0
54360,-100,4,2,1,45,0,0
54517,-100,4,2,1,25,0,0
54675,-100,4,2,1,40,0,0
54833,-100,4,2,1,25,0,0
54912,-100,4,2,1,15,0,0
54991,-100,4,2,1,70,0,0
55228,-100,4,2,1,15,0,0
55307,-100,4,2,1,45,0,0
55465,-100,4,2,1,30,0,0
55623,-100,4,2,1,40,0,0
55781,-100,4,2,1,30,0,0
55939,-100,4,2,1,50,0,0
56096,-100,4,2,1,60,0,0
56886,-100,4,2,1,40,0,0
57281,-100,4,2,1,20,0,0
57360,-100,4,2,1,30,0,0
57439,-100,4,2,1,15,0,0
57517,-100,4,1,1,70,0,1
57675,-100,4,1,1,40,0,1
57833,-100,4,1,1,60,0,1
57991,-100,4,1,1,50,0,1
58070,-100,4,1,1,55,0,1
58149,-100,4,1,1,60,0,1
58307,-100,4,1,1,45,0,1
58465,-100,4,1,1,55,0,1
58623,-100,4,1,1,40,0,1
58781,-100,4,1,1,60,0,1
58939,-100,4,1,1,30,0,1
59096,-100,4,1,1,50,0,1
59254,-100,4,1,1,35,0,1
59412,-100,4,1,1,45,0,1
59570,-100,4,1,1,35,0,1
59728,-100,4,1,1,50,0,1
59886,-100,4,1,1,40,0,1
59965,-100,4,1,1,30,0,1
60044,-100,4,1,1,70,0,1
60202,-100,4,1,1,55,0,1
60360,-100,4,1,1,65,0,1
60517,-100,4,1,1,40,0,1
60675,-100,4,1,1,30,0,1
60833,-100,4,1,1,55,0,1
60991,-100,4,1,1,60,0,1
61149,-100,4,1,1,40,0,1
61307,-100,4,1,1,60,0,1
61465,-100,4,1,1,30,0,1
61623,-100,4,1,1,55,0,1
61781,-100,4,1,1,45,0,1
61939,-100,4,1,1,50,0,1
62096,-100,4,1,1,55,0,1
62254,-100,4,1,1,60,0,1
62412,-100,4,1,1,30,0,1
62491,-100,4,1,1,20,0,1
62570,-100,4,1,1,70,0,1
62728,-100,4,1,1,45,0,1
62886,-100,4,1,1,65,0,1
63044,-100,4,1,1,45,0,1
63123,-100,4,1,1,60,0,1
63202,-100,4,1,1,45,0,1
63360,-100,4,1,1,55,0,1
63517,-100,4,1,1,65,0,1
63675,-100,4,1,1,40,0,1
63833,-100,4,1,1,50,0,1
63991,-100,4,1,1,45,0,1
64149,-100,4,1,1,65,0,1
64307,-100,4,1,1,35,0,1
64465,-100,4,1,1,55,0,1
64623,-100,4,1,1,45,0,1
64781,-100,4,1,1,60,0,1
64860,-100,4,1,1,30,0,1
64939,-100,4,1,1,50,0,1
65017,-100,4,1,1,25,0,1
65096,-100,4,1,1,80,0,1
65254,-100,4,1,1,55,0,1
65412,-100,4,1,1,60,0,1
65570,-100,4,1,1,30,0,1
65728,-100,4,1,1,70,0,1
65886,-100,4,1,1,50,0,1
66044,-100,4,1,1,65,0,1
66202,-100,4,1,1,35,0,1
66360,-100,4,1,1,75,0,1
66517,-100,4,1,1,45,0,1
66675,-100,4,1,1,60,0,1
66833,-100,4,1,1,50,0,1
66991,-100,4,1,1,70,0,1
67149,-100,4,1,1,50,0,1
67307,-100,4,1,1,60,0,1
67465,-100,4,1,1,30,0,1
67544,-100,4,1,1,15,0,1
67623,-100,4,1,1,70,0,1
67939,-100,4,1,1,60,0,1
68096,-100,4,1,1,40,0,1
68254,-100,4,1,1,35,0,1
68412,-100,4,1,1,45,0,1
68570,-100,4,1,1,60,0,1
68728,-100,4,1,1,30,0,1
68807,-100,4,1,1,15,0,1
68886,-100,4,1,1,70,0,1
69202,-100,4,1,1,60,0,1
69360,-100,4,1,1,40,0,1
69517,-100,4,1,1,55,0,1
69675,-100,4,1,1,60,0,1
69991,-100,4,1,1,45,0,1
70149,-100,4,1,1,70,0,1
70307,-100,4,1,1,50,0,1
70465,-100,4,1,1,60,0,1
70623,-100,4,1,1,30,0,1
70781,-100,4,1,1,45,0,1
70939,-100,4,1,1,55,0,1
71017,-100,4,1,1,35,0,1
71096,-100,4,1,1,65,0,1
71254,-100,4,1,1,45,0,1
71412,-100,4,1,1,70,0,1
71570,-100,4,1,1,50,0,1
71728,-100,4,1,1,60,0,1
71886,-100,4,1,1,55,0,1
72044,-100,4,1,1,65,0,1
72123,-100,4,1,1,55,0,1
72202,-100,4,1,1,50,0,1
72281,-100,4,1,1,45,0,1
72360,-100,4,1,1,60,0,1
72439,-100,4,1,1,30,0,1
72517,-100,4,1,1,20,0,1
72596,-100,4,1,1,10,0,1
72675,-100,4,1,1,75,0,1
72833,-100,4,1,1,45,0,1
72991,-100,4,1,1,60,0,1
73149,-100,4,1,1,50,0,1
73307,-100,4,1,1,65,0,1
73465,-100,4,1,1,50,0,1
73623,-100,4,1,1,60,0,1
73781,-100,4,1,1,45,0,1
73860,-100,4,1,1,30,0,1
73939,-100,4,1,1,70,0,1
74096,-100,4,1,1,50,0,1
74254,-100,4,1,1,65,0,1
74412,-100,4,1,1,45,0,1
74570,-100,4,1,1,70,0,1
74728,-100,4,1,1,40,0,1
74886,-100,4,1,1,65,0,1
75044,-100,4,1,1,35,0,1
75123,-100,4,1,1,20,0,1
75202,-100,4,1,1,70,0,1
75360,-100,4,1,1,50,0,1
75517,-100,4,1,1,65,0,1
75675,-100,4,1,1,75,0,1
75833,-100,4,1,1,55,0,1
75991,-100,4,1,1,65,0,1
76149,-100,4,1,1,55,0,1
76307,-100,4,1,1,80,0,1
76465,-100,4,1,1,30,0,1
76623,-100,4,1,1,45,0,1
76702,-100,4,1,1,25,0,1
76781,-100,4,1,1,70,0,1
76860,-100,4,1,1,50,0,1
76939,-100,4,1,1,65,0,1
77017,-100,4,1,1,55,0,1
77096,-100,4,1,1,70,0,1
77175,-100,4,1,1,40,0,1
77254,-100,4,1,1,50,0,1
77333,-100,4,1,1,35,0,1
77412,-100,4,1,1,60,0,1
77491,-100,4,1,1,30,0,1
77570,-100,4,1,1,45,0,1
77649,-100,4,1,1,20,0,1
77728,-100,4,2,1,50,0,0
77886,-100,4,2,1,40,0,0
78202,-100,4,2,1,35,0,0
78517,-100,4,2,1,45,0,0
78991,-100,4,2,1,40,0,0
79307,-100,4,2,1,35,0,0
79623,-100,4,2,1,40,0,0
80096,-100,4,2,1,25,0,0
80254,-100,4,2,1,50,0,0
80412,-100,4,2,1,30,0,0
80570,-100,4,2,1,40,0,0
80728,-100,4,2,1,45,0,0
81044,-100,4,2,1,30,0,0
81202,-100,4,2,1,35,0,0
81360,-100,4,2,1,40,0,0
81517,-100,4,2,1,50,0,0
81675,-100,4,2,1,30,0,0
81833,-100,4,2,1,40,0,0
82149,-100,4,2,1,35,0,0
82465,-100,4,2,1,55,0,0
82623,-100,4,2,1,35,0,0
82781,-100,4,2,1,40,0,0
82939,-100,4,2,1,35,0,0
83096,-100,4,2,1,40,0,0
83254,-100,4,2,1,35,0,0
83570,-100,4,2,1,30,0,0
83728,-100,4,2,1,40,0,0
83886,-100,4,2,1,25,0,0
84044,-100,4,2,1,45,0,0
84360,-100,4,2,1,35,0,0
84517,-100,4,2,1,30,0,0
84675,-100,4,2,1,35,0,0
84991,-100,4,2,1,40,0,0
85307,-100,4,2,1,50,0,0
85465,-100,4,2,1,35,0,0
85623,-100,4,2,1,37,0,0
85781,-100,4,2,1,30,0,0
85939,-100,4,2,1,40,0,0
86096,-100,4,2,1,30,0,0
86254,-100,4,2,1,35,0,0
86412,-100,4,2,1,25,0,0
86570,-100,4,2,1,40,0,0
86886,-100,4,2,1,35,0,0
87044,-100,4,2,1,25,0,0
87202,-100,4,2,1,50,0,0
87360,-100,4,2,1,30,0,0
87517,-100,4,2,1,40,0,0
87675,-100,4,2,1,30,0,0
87833,-100,4,2,1,45,0,0
88623,-100,4,2,1,20,0,0
88781,-100,4,2,1,23,0,0
88939,-100,4,2,1,26,0,0
89096,-100,4,2,1,50,0,0
89412,-100,4,2,1,40,0,0
89728,-100,4,2,1,45,0,0
90044,-100,4,2,1,40,0,0
90360,-100,4,2,1,60,0,0
90675,-100,4,2,1,30,0,0
90991,-100,4,2,1,25,0,0
91307,-100,4,2,1,35,0,0
91623,-100,4,2,1,55,0,0
91939,-100,4,2,1,35,0,0
92254,-100,4,2,1,30,0,0
92412,-100,4,2,1,35,0,0
92570,-100,4,2,1,45,0,0
92728,-100,4,2,1,40,0,0
92807,-100,4,2,1,35,0,0
92886,-100,4,2,1,50,0,0
92965,-100,4,2,1,55,0,0
93202,-100,4,2,1,50,0,0
93360,-100,4,2,1,65,0,0
93675,-100,4,2,1,35,0,0
93833,-100,4,2,1,30,0,0
94149,-100,4,2,1,25,0,0
94465,-100,4,2,1,20,0,0
94623,-100,4,2,1,15,0,0
94781,-100,4,2,1,12,0,0
94939,-100,4,2,1,8,0,0
95096,-100,4,2,1,10,0,0
95254,-100,4,2,1,15,0,0
95412,-100,4,2,1,30,0,0

[Colours]
Combo1 : 219,154,226
Combo2 : 141,142,201
Combo3 : 191,205,227

[HitObjects]
187,327,1939,6,0,P|176:263|249:247,1,142,2|2,0:0|0:0,0:0:0:0:
326,240,2412,2,0,P|337:182|260:153,1,142,2|0,0:0|0:0,0:0:0:0:
189,151,2886,1,2,0:0:0:0:
331,302,3202,6,0,L|398:342,2,71,2|0|0,0:0|0:0|0:0,0:0:0:0:
238,233,3675,2,0,L|391:203,1,142,2|0,0:0|0:0,0:0:0:0:
445,159,4149,1,2,0:0:0:0:
202,86,4465,6,0,L|133:58,2,71,2|0|2,0:0|0:0|0:0,0:0:0:0:
294,145,4939,2,0,P|324:194|259:248,1,142,2|2,0:0|0:0,0:0:0:0:
190,267,5412,1,2,0:0:0:0:
353,330,5728,5,2,0:0:0:0:
190,267,6202,2,0,L|226:175,1,71,2|0,0:0|0:0,0:0:0:0:
372,125,6675,1,2,0:0:0:0:
95,89,6991,6,0,P|108:148|183:189,1,142,2|2,0:0|0:0,0:0:0:0:
251,210,7465,2,0,P|298:227|332:312,1,142,2|0,0:0|0:0,0:0:0:0:
250,297,7939,1,2,0:0:0:0:
92,355,8254,6,0,L|239:386,2,142,2|2|2,0:0|0:0|0:0,0:0:0:0:
162,297,9202,1,2,0:0:0:0:
453,274,9517,2,0,P|436:185|368:150,1,142,2|2,0:0|0:0,0:0:0:0:
323,95,9991,1,2,0:0:0:0:
184,69,10465,1,2,0:0:0:0:
443,193,10781,6,0,P|440:235|346:288,1,142,2|0,0:0|0:0,0:0:0:0:
279,296,11254,2,0,P|281:243|376:198,1,142,2|0,0:0|0:0,0:0:0:0:
426,196,11728,1,2,0:0:0:0:
156,252,12044,6,0,L|139:106,1,142,4|8,0:1|0:0,0:0:0:0:
303,108,12675,1,0,0:0:0:0:
146,28,12991,1,8,0:0:0:0:
312,236,13307,6,0,P|391:208|398:128,1,142,2|8,0:0|0:0,0:0:0:0:
329,129,13781,2,0,P|268:104|165:126,1,142,2|0,3:2|3:2,0:0:0:0:
127,190,14254,2,0,L|128:279,1,71,8|0,3:2|0:0,0:0:0:0:
306,322,14570,6,0,P|313:271|217:229,1,142,6|10,0:0|0:0,0:0:0:0:
178,239,15044,1,2,0:0:0:0:
312,79,15360,2,0,L|289:4,1,71,2|8,0:0|0:0,0:0:0:0:
202,13,15675,6,0,L|50:24,1,142,2|2,0:0|0:0,0:0:0:0:
126,42,16149,1,10,3:2:0:0:
158,103,16307,1,2,3:2:0:0:
134,168,16465,1,8,3:2:0:0:
63,197,16623,1,2,3:2:0:0:
127,212,16781,1,10,3:2:0:0:
191,226,16939,1,2,3:2:0:0:
387,208,17096,6,0,P|388:156|299:126,1,142,14|10,0:0|0:0,0:0:0:0:
244,111,17570,1,2,3:2:0:0:
97,193,17886,2,0,L|112:281,1,71,0|8,3:2|3:2,0:0:0:0:
193,296,18202,1,2,0:0:0:0:
284,351,18360,6,0,L|118:364,1,142,2|8,3:2|0:0,0:0:0:0:
46,349,18833,1,2,3:2:0:0:
259,226,19307,2,0,L|334:213,1,71,10|0,3:2|0:0,0:0:0:0:
259,226,19623,5,2,0:0:0:0:
226,166,19780,1,0,0:0:0:0:
257,105,19938,1,10,0:0:0:0:
325,98,20096,1,2,0:0:0:0:
411,165,20254,6,0,L|250:169,1,142,4|10,0:0|0:0,0:0:0:0:
105,328,20886,1,10,0:0:0:0:
384,363,21517,1,2,2:0:0:0:
43,245,22149,6,0,L|59:73,1,142,4|2,0:0|0:0,0:0:0:0:
227,104,22781,2,0,P|158:129|139:215,1,142,2|0,0:0|0:0,0:0:0:0:
226,233,23254,1,2,0:0:0:0:
320,291,23412,6,0,L|162:315,1,142,2|2,0:0|0:0,0:0:0:0:
357,186,24044,1,2,0:0:0:0:
206,162,24360,1,2,0:0:0:0:
454,284,24675,6,0,L|468:117,1,142,2|2,0:0|0:0,0:0:0:0:
307,113,25307,2,0,P|249:81|256:6,1,142,2|0,0:0|0:0,0:0:0:0:
343,26,25781,1,2,0:0:0:0:
248,206,25939,6,0,L|106:233,1,142,2|2,0:0|0:0,0:0:0:0:
245,318,26570,1,2,0:0:0:0:
381,318,26886,1,2,0:0:0:0:
129,326,27202,6,0,L|94:176,1,142,10|2,0:0|0:0,0:0:0:0:
239,177,27833,2,0,L|266:27,1,142,2|2,0:0|0:0,0:0:0:0:
184,25,28307,1,2,0:0:0:0:
399,152,28781,1,2,0:0:0:0:
257,291,29096,2,0,L|426:296,1,142,2|2,0:0|0:0,0:0:0:0:
151,248,29728,6,0,P|155:168|225:149,1,142,2|2,0:0|0:0,0:0:0:0:
287,82,30202,2,0,L|120:77,1,142,2|0,0:0|0:0,0:0:0:0:
75,130,30675,1,2,0:0:0:0:
274,255,30991,5,2,0:0:0:0:
169,284,31307,2,0,L|183:380,1,71,2|2,0:0|0:0,0:0:0:0:
281,346,31623,1,10,0:0:0:0:
307,283,31780,1,8,0:0:0:0:
273,223,31938,1,10,0:0:0:0:
205,216,32096,1,0,0:0:0:0:
283,142,32254,6,0,L|431:125,1,142,2|2,0:0|0:0,0:0:0:0:
283,71,32886,2,0,L|282:149,1,71,2|2,0:0|0:0,0:0:0:0:
152,226,33360,1,2,0:0:0:0:
137,314,33517,6,0,P|75:295|52:220,1,142,2|2,0:0|0:0,0:0:0:0:
230,135,34149,1,2,0:0:0:0:
88,100,34465,1,0,0:0:0:0:
258,306,34781,6,0,L|119:337,1,142,2|2,0:0|0:0,0:0:0:0:
292,214,35412,2,0,L|299:142,1,71,2|2,0:0|0:0,0:0:0:0:
445,123,35886,1,2,0:0:0:0:
424,212,36044,6,0,P|412:283|346:334,1,142,2|2,0:0|0:0,0:0:0:0:
203,357,36675,1,2,0:0:0:0:
345,338,36991,1,2,0:0:0:0:
90,296,37307,6,0,P|82:217|136:190,1,142,2|2,0:0|0:0,0:0:0:0:
272,147,37939,2,0,L|415:117,1,142,2|2,0:0|0:0,0:0:0:0:
338,128,38412,1,2,0:0:0:0:
185,253,38728,2,0,L|272:271,1,71,0|2,0:0|0:0,0:0:0:0:
426,349,39202,2,0,L|282:365,1,142,2|2,0:0|0:0,0:0:0:0:
31,134,39833,6,0,L|188:118,1,142,2|0,0:0|0:0,0:0:0:0:
326,156,40465,1,2,0:0:0:0:
174,243,40781,1,2,0:0:0:0:
100,275,40939,6,0,P|110:326|185:375,1,142,2|0,0:0|0:0,0:0:0:0:
246,354,41412,1,2,0:0:0:0:
270,290,41570,1,2,0:0:0:0:
234,232,41728,1,2,0:0:0:0:
166,225,41886,1,2,0:0:0:0:
234,232,42044,1,10,0:0:0:0:
491,92,42360,6,0,L|322:65,1,142,12|0,0:0|0:0,0:0:0:0:
261,87,42833,2,0,L|280:233,1,142,0|0,0:0|0:0,0:0:0:0:
372,240,43307,1,8,3:1:0:0:
280,227,43465,5,10,3:1:0:0:
244,169,43622,1,0,0:0:0:0:
279,111,43780,1,8,3:1:0:0:
347,115,43938,1,0,0:0:0:0:
477,263,44254,2,0,L|490:335,2,71,0|0|8,0:0|0:0|0:0,0:0:0:0:
200,268,44886,6,0,P|202:199|270:182,1,142,12|8,0:0|0:0,0:0:0:0:
157,173,45360,2,0,L|143:29,1,142,0|0,0:0|0:0,0:0:0:0:
232,35,45833,1,8,3:1:0:0:
155,173,45991,6,0,P|72:189|52:243,1,142,8|8,3:1|3:1,0:0:0:0:
119,271,46465,1,0,0:0:0:0:
286,338,46781,2,0,L|297:258,1,71,10|8,0:1|0:0,0:0:0:0:
199,228,47096,2,0,L|190:148,1,71,2|10,3:1|3:1,0:0:0:0:
354,150,47412,6,0,P|375:113|292:79,1,142,12|0,0:0|0:0,0:0:0:0:
455,106,48044,1,8,0:0:0:0:
306,241,48360,2,0,L|319:336,1,71,0|0,0:0|0:0,0:0:0:0:
174,339,48833,2,0,L|252:369,1,71,8|0,0:0|0:0,0:0:0:0:
75,361,49307,1,10,0:1:0:0:
43,299,49464,1,10,0:0:0:0:
63,233,49622,1,2,3:1:0:0:
125,202,49780,1,2,3:1:0:0:
191,223,49939,6,0,L|46:191,1,142,4|0,0:0|0:0,0:0:0:0:
230,80,50570,1,8,0:0:0:0:
61,80,50886,2,0,L|82:243,1,142,0|0,0:0|0:0,0:0:0:0:
248,251,51517,1,8,0:0:0:0:
77,333,51833,2,0,L|68:253,1,71,10|10,0:1|0:1,0:0:0:0:
137,197,52149,1,2,3:1:0:0:
403,106,52465,6,0,L|234:86,1,142,12|2,0:0|0:0,0:0:0:0:
415,226,53096,2,0,P|432:306|374:344,1,142,8|2,0:0|0:0,0:0:0:0:
306,331,53570,1,0,0:0:0:0:
226,331,53728,6,0,L|386:326,1,142,8|2,0:0|0:0,0:0:0:0:
220,217,54360,2,0,L|363:190,1,142,8|2,0:0|0:0,0:0:0:0:
95,129,54991,1,12,0:0:0:0:
256,192,55307,12,0,56886,0:0:0:0:
442,236,57517,6,0,P|453:181|375:133,1,142,4|8,0:1|0:1,0:0:0:0:
305,128,57991,1,0,0:1:0:0:
215,171,58149,2,0,L|230:325,1,142,0|8,0:1|0:1,0:0:0:0:
324,325,58623,2,0,L|246:333,1,71,0|0,0:1|0:0,0:0:0:0:
68,278,59096,6,0,L|210:244,2,142,10|2|10,0:1|0:1|0:0,0:0:0:0:
329,152,60044,2,0,L|155:124,1,142,2|8,0:1|0:1,0:0:0:0:
260,170,60517,2,0,L|423:149,1,142,0|0,0:1|0:1,0:0:0:0:
328,207,60991,1,8,0:1:0:0:
164,235,61149,6,0,P|135:296|162:377,1,142,0|0,0:1|0:1,0:0:0:0:
226,367,61623,1,10,0:1:0:0:
351,319,61939,1,2,0:1:0:0:
477,238,62254,2,0,L|455:140,1,71,10|0,0:1|0:0,0:0:0:0:
289,66,62570,6,0,L|148:125,1,142,2|8,0:1|0:1,0:0:0:0:
276,231,63202,1,0,0:1:0:0:
117,323,63517,1,8,0:1:0:0:
37,304,63675,2,0,P|42:244|130:218,1,142,0|0,0:1|0:1,0:0:0:0:
196,206,64149,1,10,0:1:0:0:
351,146,64465,2,0,L|342:321,1,142,2|10,0:1|0:1,0:0:0:0:
60,94,65096,6,0,L|214:51,1,142,6|8,0:1|0:1,0:0:0:0:
345,212,65728,2,0,L|184:198,1,142,6|8,3:1|0:1,0:0:0:0:
489,330,66360,6,0,L|480:178,1,142,6|8,3:1|0:1,0:0:0:0:
328,163,66991,2,0,L|329:85,1,71,10|0,3:1|3:1,0:0:0:0:
413,50,67307,1,10,3:1:0:0:
151,164,67623,6,0,P|132:224|207:264,1,142,6|8,0:1|0:1,0:0:0:0:
284,281,68096,1,0,0:1:0:0:
183,353,68254,2,0,P|110:344|58:264,1,142,2|8,0:1|0:1,0:0:0:0:
336,213,68886,6,0,L|346:60,1,142,6|8,0:1|0:1,0:0:0:0:
259,62,69360,1,0,0:1:0:0:
174,115,69517,2,0,P|175:195|238:209,1,142,2|8,0:1|0:1,0:0:0:0:
314,236,69991,1,0,0:1:0:0:
406,291,70149,6,0,L|247:317,1,142,6|8,0:1|0:1,0:0:0:0:
123,340,70781,1,2,0:1:0:0:
284,374,71096,1,8,0:1:0:0:
127,233,71412,2,0,L|157:84,1,142,2|8,0:1|0:1,0:0:0:0:
333,32,72044,2,0,L|180:18,1,142,10|8,0:1|0:1,0:0:0:0:
462,196,72675,6,0,L|310:225,1,142,14|10,0:1|0:1,0:0:0:0:
165,306,73307,1,10,0:1:0:0:
333,339,73623,1,10,0:1:0:0:
93,230,73939,6,0,L|66:77,1,142,14|10,0:1|0:1,0:0:0:0:
224,50,74570,1,10,0:1:0:0:
380,72,74886,1,10,0:1:0:0:
98,302,75202,6,0,L|257:295,1,142,2|8,0:1|0:1,0:0:0:0:
325,212,75675,2,0,L|157:199,1,142,0|0,0:0|0:1,0:0:0:0:
97,204,76149,1,2,0:1:0:0:
262,259,76307,6,0,P|294:167|205:127,1,213,14|10,0:1|0:1,0:0:0:0:
376,170,77096,2,0,L|450:185,1,71,10|2,0:1|0:1,0:0:0:0:
357,335,77412,2,0,L|270:341,1,71,8|0,0:1|0:1,0:0:0:0:
102,313,77728,6,0,P|58:240|161:208,1,213,2|0,0:1|0:1,0:0:0:0:
374,188,78675,1,2,0:0:0:0:
458,173,78833,2,0,P|468:108|327:51,1,213,2|2,0:0|0:0,0:0:0:0:
209,111,79623,1,2,0:0:0:0:
359,156,79939,1,2,0:0:0:0:
105,244,80254,6,0,P|92:302|168:355,1,142,2|2,0:0|0:0,0:0:0:0:
239,324,80728,2,0,P|255:257|175:228,1,142,2|0,0:0|0:0,0:0:0:0:
115,222,81202,1,2,0:0:0:0:
296,217,81517,2,0,L|270:64,1,142,0|2,0:0|0:0,0:0:0:0:
121,44,82149,1,0,0:0:0:0:
277,14,82465,1,2,0:0:0:0:
27,312,82781,6,0,L|185:306,1,142,2|2,0:0|0:0,0:0:0:0:
241,264,83254,1,2,0:0:0:0:
425,228,83728,2,0,L|430:155,1,71,2|2,0:0|0:0,0:0:0:0:
363,88,84044,2,0,L|206:86,1,142,2|2,0:0|0:0,0:0:0:0:
61,194,84675,2,0,L|83:350,1,142,2|2,0:0|0:0,0:0:0:0:
337,338,85307,6,0,P|338:283|254:260,1,142,2|0,0:0|0:0,0:0:0:0:
111,182,85939,2,0,L|260:138,1,142,2|2,0:0|0:0,0:0:0:0:
403,67,86570,2,0,L|241:46,1,142,0|0,0:0|0:0,0:0:0:0:
426,201,87202,2,0,L|295:285,1,142,2|2,0:0|0:0,0:0:0:0:
58,275,87833,6,0,P|103:243|48:350,1,426,2|0,0:0|0:0,0:0:0:0:
225,346,89096,2,0,L|230:200,1,142,2|2,0:0|0:0,0:0:0:0:
82,181,89728,2,0,L|83:34,1,142,2|2,0:0|0:0,0:0:0:0:
363,164,90360,6,0,P|350:114|289:247,1,426,2|0,0:0|0:0,0:0:0:0:
442,338,91623,2,0,P|213:311|268:209,1,426,2|0,0:0|0:0,0:0:0:0:
398,172,92886,1,2,0:0:0:0:
256,192,93202,12,6,95412,0:1:0:0:
