osu file format v14

[General]
AudioFilename: audio.mp3
AudioLeadIn: 0
PreviewTime: 38716
Countdown: 0
SampleSet: Soft
StackLeniency: 0.7
Mode: 0
LetterboxInBreaks: 0
WidescreenStoryboard: 1

[Editor]
Bookmarks: 26316,63116,77516,90316,103116,117516
DistanceSpacing: 2
BeatDivisor: 4
GridSize: 4
TimelineZoom: 2

[Metadata]
Title:Kurokami Midareshi Shura to Narite
TitleUnicode:黒髪乱れし修羅となりて
Artist:Muramasa Qualia
ArtistUnicode:村正クオリア
Creator:milr_
Version:Insane
Source:pop'n music 18 せんごく列伝
Tags:TOMOSUKE 茶太 Chata Sengoku Retsuden rock 撫子メタル nadeshiko metal japanese video game beatmania IIDX 18 Resort Anthem GuitarFreaks & DrumMania XG2 reflec beat jubeat saucer Athanasia Athanasia- acnozei Kyairie
BeatmapID:3939981
BeatmapSetID:1906993

[Difficulty]
HPDrainRate:5
CircleSize:4
OverallDifficulty:8
ApproachRate:8.5
SliderMultiplier:2
SliderTickRate:1

[Events]
//Background and Video events
0,0,"ummm.jpg",0,0
//Break Periods
2,103316,106641
//Storyboard Layer 0 (Background)
//Storyboard Layer 1 (Fail)
//Storyboard Layer 2 (Pass)
//Storyboard Layer 3 (Foreground)
//Storyboard Layer 4 (Overlay)
//Storyboard Sound Samples

[TimingPoints]
316,400,4,2,1,75,1,0
716,400,4,2,1,75,1,0
13516,-133.333333333333,4,2,1,70,0,0
24716,-100,4,2,1,80,0,0
39116,-100,4,2,1,85,0,1
50316,-100,4,2,1,80,0,0
90316,-133.333333333333,4,2,1,80,0,0
93916,-100,4,2,1,80,0,0
96716,-133.333333333333,4,2,1,80,0,0
100316,-100,4,2,1,80,0,0
107316,-133.333333333333,4,2,1,80,0,0
107916,-100,4,2,1,85,0,1
114316,-100,4,2,1,80,0,0
118716,-100,4,2,1,80,0,0

[Colours]
Combo1 : 108,52,239
Combo2 : 199,46,199
Combo3 : 249,142,26
Combo4 : 208,13,13

[HitObjects]
209,203,316,6,0,P|216:184|223:166,5,33.3333333333333
258,139,716,5,12,0:0:0:0:
258,139,816,1,8,0:0:0:0:
258,139,916,1,8,0:0:0:0:
190,67,1116,2,0,P|203:27|211:-2,2,50,8|8|8,0:0|0:0|0:0,0:0:0:0:
15,209,1716,5,8,0:0:0:0:
15,209,1816,1,8,0:0:0:0:
15,209,1916,2,0,P|60:196|82:190,3,50,8|8|8|0,0:0|0:0|0:0|0:0,0:0:0:0:
108,237,2316,5,12,0:0:0:0:
108,237,2416,1,8,0:0:0:0:
108,237,2516,1,8,0:0:0:0:
167,155,2716,2,0,P|205:163|227:168,2,50,8|8|8,0:0|0:0|0:0,0:0:0:0:
265,369,3316,5,8,0:0:0:0:
265,369,3416,1,8,0:0:0:0:
265,369,3516,2,0,P|274:330|278:313,3,50,8|8|8|0,0:0|0:0|0:0|0:0,0:0:0:0:
243,299,3916,5,12,0:0:0:0:
243,299,4016,1,8,0:0:0:0:
243,299,4116,1,8,0:0:0:0:
162,241,4316,2,0,L|150:189,2,50,8|8|8,0:0|0:0|0:0,0:0:0:0:
382,129,4916,5,8,0:0:0:0:
382,129,5016,1,8,0:0:0:0:
382,129,5116,2,0,P|410:134|443:142,3,50,8|8|8|0,0:0|0:0|0:0|0:0,0:0:0:0:
471,185,5516,5,12,0:0:0:0:
471,185,5616,1,8,0:0:0:0:
471,185,5716,1,8,0:0:0:0:
512,94,5916,2,0,P|506:67|500:39,2,50,8|8|8,0:0|0:0|0:0,0:0:0:0:
471,185,6316,6,0,P|455:260|446:313,1,100,2|8,0:0|0:0,0:0:0:0:
486,312,6616,1,8,0:0:0:0:
477,358,6716,1,8,0:0:0:0:
434,380,6816,1,8,0:0:0:0:
390,361,6916,2,0,P|378:316|371:295,1,50,8|0,0:0|0:0,0:0:0:0:
337,292,7116,5,12,0:0:0:0:
337,292,7216,1,8,0:0:0:0:
337,292,7316,1,8,0:0:0:0:
255,347,7516,2,0,P|223:355|186:365,2,50,8|8|8,0:0|0:0|0:0,0:0:0:0:
99,151,8116,5,8,0:0:0:0:
53,160,8216,1,8,0:0:0:0:
19,196,8316,1,8,0:0:0:0:
13,247,8416,1,8,0:0:0:0:
44,289,8516,2,0,P|86:274|108:268,1,50,8|0,0:0|0:0,0:0:0:0:
135,244,8716,5,12,0:0:0:0:
135,244,8816,1,8,0:0:0:0:
135,244,8916,1,8,0:0:0:0:
188,327,9116,2,0,P|231:338|259:346,2,50,8|8|8,0:0|0:0|0:0,0:0:0:0:
305,142,9716,5,8,0:0:0:0:
288,97,9816,1,8,0:0:0:0:
301,53,9916,1,8,0:0:0:0:
344,27,10016,1,8,0:0:0:0:
396,31,10116,2,0,P|405:65|412:91,1,50,8|0,0:0|0:0,0:0:0:0:
393,132,10316,5,12,0:0:0:0:
393,132,10416,1,8,0:0:0:0:
393,132,10516,1,8,0:0:0:0:
490,164,10716,2,0,P|478:201|470:233,2,50,8|8|8,0:0|0:0|0:0,0:0:0:0:
351,366,11316,5,8,0:0:0:0:
302,361,11416,1,8,0:0:0:0:
264,326,11516,1,8,0:0:0:0:
272,277,11616,1,8,0:0:0:0:
304,239,11716,2,0,P|346:250|374:255,1,50,8|0,0:0|0:0,0:0:0:0:
397,292,11916,5,12,0:0:0:0:
397,292,12016,1,8,0:0:0:0:
397,292,12116,1,8,0:0:0:0:
464,215,12316,2,0,P|492:221|522:228,2,50,8|8|8,0:0|0:0|0:0,0:0:0:0:
304,41,12916,5,8,0:0:0:0:
341,12,13016,1,8,0:0:0:0:
388,5,13116,1,8,0:0:0:0:
426,35,13216,1,8,0:0:0:0:
438,82,13316,2,0,L|419:154,1,50,8|0,0:0|0:0,0:0:0:0:
395,159,13516,5,12,0:3:0:0:
395,159,14116,5,2,0:0:0:0:
336,99,14316,1,2,0:0:0:0:
336,99,14516,6,0,P|273:114|231:124,1,75.0000028610231,2|0,0:0|0:0,0:0:0:0:
187,224,14916,1,2,0:0:0:0:
298,314,15116,2,0,P|316:353|422:348,1,150.000005722046,2|0,0:0|0:0,0:0:0:0:
481,327,15716,2,0,P|489:270|512:166,1,150.000005722046,2|2,0:0|0:0,0:0:0:0:
448,134,16316,1,0,0:0:0:0:
406,196,16516,1,2,0:0:0:0:
362,259,16716,5,2,0:0:0:0:
243,207,16916,1,0,0:0:0:0:
300,92,17116,1,2,0:0:0:0:
300,92,17316,2,0,P|303:51|202:13,1,150.000005722046,2|0,0:0|0:0,0:0:0:0:
213,17,17816,2,0,P|204:66|184:155,1,112.500004291535
28,168,18316,6,0,P|17:129|12:109,2,37.5000014305115
109,200,18716,1,2,0:0:0:0:
106,212,18816,1,0,0:0:0:0:
104,223,18916,1,0,0:0:0:0:
102,233,19016,1,0,0:0:0:0:
100,244,19116,6,0,P|64:235|40:230,3,37.5000014305115,2|0|0|2,0:0|0:0|0:0|0:0,0:0:0:0:
22,268,19516,1,0,0:0:0:0:
11,315,19616,1,0,0:0:0:0:
31,352,19716,1,2,0:0:0:0:
70,373,19816,1,0,0:0:0:0:
116,356,19916,1,8,0:0:0:0:
197,300,20116,5,0,0:0:0:0:
197,300,20216,1,0,0:0:0:0:
197,300,20316,1,0,0:0:0:0:
249,376,20516,1,2,0:0:0:0:
328,337,20716,1,2,0:0:0:0:
328,337,20916,6,0,P|317:277|311:239,1,75.0000028610231,2|0,0:0|0:0,0:0:0:0:
201,199,21316,1,2,0:0:0:0:
290,94,21516,2,0,P|354:106|443:126,1,150.000005722046,2|0,0:0|0:0,0:0:0:0:
469,192,22116,2,0,P|504:211|494:319,1,150.000005722046,2|2,0:0|0:0,0:0:0:0:
461,371,22716,1,0,0:0:0:0:
387,344,22916,1,2,0:0:0:0:
319,310,23116,5,2,0:0:0:0:
388,198,23316,1,0,0:0:0:0:
250,161,23516,1,2,0:0:0:0:
250,161,23716,2,0,P|263:94|281:13,1,150.000005722046,2|0,0:0|0:0,0:0:0:0:
272,6,24216,2,0,P|241:54|174:48,1,112.500004291535
53,9,24716,5,12,1:3:0:0:
53,9,24816,1,8,0:2:0:0:
53,9,24916,1,8,0:2:0:0:
2,91,25116,2,0,P|13:124|22:153,3,50,0|8|8|8,1:0|0:2|0:2|0:2,0:0:0:0:
50,164,25516,5,0,1:0:0:0:
94,144,25616,1,8,0:2:0:0:
140,159,25716,1,8,0:2:0:0:
159,204,25816,1,8,0:2:0:0:
137,248,25916,1,8,0:2:0:0:
94,268,26016,1,8,0:2:0:0:
50,255,26116,1,8,0:2:0:0:
11,286,26216,1,8,0:0:0:0:
17,336,26316,6,0,P|92:360|116:369,1,100,12|8,1:3|0:0,0:0:0:0:
281,311,26716,1,0,1:0:0:0:
242,239,26916,5,10,0:0:0:0:
242,239,27016,1,10,0:0:0:0:
242,239,27116,1,0,1:0:0:0:
200,384,27316,1,8,0:0:0:0:
363,334,27516,1,0,1:0:0:0:
501,196,27716,5,10,0:0:0:0:
501,196,27816,1,10,0:0:0:0:
501,196,27916,1,0,1:0:0:0:
451,120,28116,1,8,0:0:0:0:
372,161,28316,2,0,P|387:216|399:266,1,100,0|10,1:0|0:0,0:0:0:0:
397,257,28616,1,10,0:0:0:0:
397,257,28716,5,0,1:0:0:0:
268,356,28916,1,8,0:0:0:0:
156,231,29116,1,0,1:0:0:0:
261,109,29316,1,10,0:0:0:0:
425,68,29516,6,0,P|472:79|513:33,2,100,0|8|0,1:0|0:0|1:0,0:0:0:0:
358,15,30116,5,10,0:0:0:0:
358,15,30216,1,10,0:0:0:0:
358,15,30316,1,0,1:0:0:0:
296,176,30516,1,8,0:0:0:0:
490,258,30716,1,0,1:0:0:0:
458,189,30916,5,10,0:0:0:0:
458,189,31016,1,10,0:0:0:0:
458,189,31116,1,0,1:0:0:0:
382,223,31316,1,8,0:0:0:0:
330,373,31516,2,0,P|271:353|225:341,1,100,0|10,1:0|0:0,0:0:0:0:
225,336,31816,1,10,0:0:0:0:
215,329,31916,6,0,P|203:280|198:266,3,50,4|8|8|8,1:3|0:0|0:0|0:0,0:0:0:0:
165,252,32316,1,0,1:0:0:0:
150,205,32416,1,8,0:0:0:0:
172,161,32516,1,8,0:0:0:0:
220,143,32616,1,8,0:0:0:0:
266,166,32716,6,0,P|310:137|309:93,1,100,12|8,1:3|0:0,0:0:0:0:
149,0,33116,1,0,1:0:0:0:
211,67,33316,5,10,0:0:0:0:
211,67,33416,1,10,0:0:0:0:
211,67,33516,1,0,1:0:0:0:
380,0,33716,1,8,0:0:0:0:
309,93,33916,1,0,1:0:0:0:
491,182,34116,5,10,0:0:0:0:
491,182,34216,1,10,0:0:0:0:
491,182,34316,1,0,1:0:0:0:
446,107,34516,1,8,0:0:0:0:
377,150,34716,2,0,P|391:209|401:254,1,100,0|10,1:0|0:0,0:0:0:0:
399,247,35016,1,10,0:0:0:0:
399,247,35116,5,0,1:0:0:0:
325,376,35316,1,8,0:0:0:0:
181,321,35516,1,0,1:0:0:0:
198,177,35716,1,10,0:0:0:0:
252,37,35916,6,0,P|317:22|354:15,2,100,0|8|0,1:0|0:0|1:0,0:0:0:0:
175,4,36516,5,10,0:0:0:0:
175,4,36616,1,10,0:0:0:0:
175,4,36716,1,0,1:0:0:0:
24,80,36916,1,8,0:0:0:0:
134,221,37116,1,0,1:0:0:0:
203,175,37316,5,10,0:0:0:0:
203,175,37416,1,10,0:0:0:0:
203,175,37516,1,0,1:0:0:0:
81,126,37716,1,8,0:0:0:0:
33,260,37916,1,0,1:0:0:0:
4,302,38016,1,8,0:0:0:0:
10,353,38116,1,8,0:0:0:0:
46,379,38216,1,8,0:0:0:0:
94,380,38316,1,0,1:0:0:0:
156,305,38716,5,8,0:0:0:0:
236,359,39116,6,0,P|251:290|266:243,1,100,12|8,1:3|0:0,0:0:0:0:
144,181,39516,1,2,1:0:0:0:
65,313,39716,1,10,0:0:0:0:
19,293,39816,1,2,0:0:0:0:
30,245,39916,1,4,1:2:0:0:
68,168,40116,5,8,0:0:0:0:
215,247,40316,2,0,P|227:197|240:142,1,100,2|10,1:0|0:0,0:0:0:0:
96,12,40716,6,0,P|38:28|-3:42,2,100,4|8|2,1:2|0:0|1:0,0:0:0:0:
158,143,41316,1,10,0:0:0:0:
158,143,41416,1,2,0:0:0:0:
158,143,41516,1,4,1:2:0:0:
291,69,41716,1,8,0:0:0:0:
219,35,41916,5,2,1:0:0:0:
320,201,42116,1,10,0:0:0:0:
492,134,42316,2,0,P|479:73|473:27,1,100,4|8,1:2|0:0,0:0:0:0:
390,5,42716,1,2,1:0:0:0:
362,88,42916,1,10,0:0:0:0:
362,88,43016,1,2,0:0:0:0:
362,88,43116,1,4,1:2:0:0:
497,236,43316,5,8,0:0:0:0:
436,380,43516,1,2,1:0:0:0:
294,333,43716,1,10,0:0:0:0:
222,264,43916,6,0,P|231:237|239:206,2,50,12|8|8,1:3|0:0|0:0,0:0:0:0:
144,226,44216,2,0,P|134:191|124:164,2,50,0|8|8,1:0|0:0|0:0,0:0:0:0:
79,273,44516,2,0,P|56:256|26:238,2,50,4|8|8,1:3|0:0|0:0,0:0:0:0:
60,347,44816,2,0,P|26:357|-2:365,2,50,0|8|8,1:0|0:0|0:0,0:0:0:0:
138,208,45116,5,4,1:3:0:0:
172,174,45216,1,8,0:0:0:0:
182,134,45316,1,8,0:0:0:0:
157,94,45416,1,8,0:0:0:0:
117,71,45516,6,0,P|54:61|-2:49,2,100,12|8|2,1:3|0:0|1:0,0:0:0:0:
229,185,46116,1,10,0:0:0:0:
229,185,46216,1,2,0:0:0:0:
229,185,46316,1,4,1:2:0:0:
330,16,46516,5,8,0:0:0:0:
174,112,46716,1,2,1:0:0:0:
267,259,46916,1,10,0:0:0:0:
473,200,47116,6,0,P|488:139|499:83,1,100,4|8,1:2|0:0,0:0:0:0:
425,56,47516,1,2,1:0:0:0:
381,131,47716,5,10,0:0:0:0:
381,131,47816,1,2,0:0:0:0:
381,131,47916,1,4,1:2:0:0:
512,0,48116,1,8,0:0:0:0:
425,56,48316,5,2,1:0:0:0:
272,0,48516,1,10,0:0:0:0:
196,160,48716,2,0,P|214:223|226:279,1,100,4|8,1:2|0:0,0:0:0:0:
267,331,49116,1,2,1:0:0:0:
199,377,49316,5,10,0:0:0:0:
199,377,49416,1,2,0:0:0:0:
199,377,49516,2,0,P|135:376|126:323,1,100,4|8,1:2|0:0,0:0:0:0:
28,363,49816,2,0,P|60:308|111:326,1,100,2|0,0:0|0:0,0:0:0:0:
151,260,50116,2,0,P|145:300|114:301,1,50,10|0,0:0|0:0,0:0:0:0:
0,215,50316,6,0,P|12:161|25:103,2,100,12|0|8,1:3|1:0|0:0,0:0:0:0:
83,13,50916,1,0,1:0:0:0:
133,37,51016,1,8,0:0:0:0:
119,81,51116,1,0,1:0:0:0:
172,163,51316,2,0,L|151:236,2,50,0|0|8,1:0|1:0|0:0,0:0:0:0:
260,128,51716,1,0,1:0:0:0:
294,38,51916,5,0,1:0:0:0:
338,14,52016,1,8,0:0:0:0:
384,22,52116,1,0,0:0:0:0:
415,59,52216,1,0,1:0:0:0:
408,106,52316,2,0,P|367:117|342:123,3,50,8|0|0|8,0:0|1:0|1:0|0:0,0:0:0:0:
407,235,52716,1,0,1:0:0:0:
419,239,52816,1,0,0:0:0:0:
432,242,52916,6,0,P|461:251|487:259,1,50,10|0,0:0|0:0,0:0:0:0:
358,339,53116,2,0,P|378:367|392:385,1,50,6|0,0:3|0:0,0:0:0:0:
257,283,53316,1,0,2:0:0:0:
257,283,53516,6,0,P|199:271|155:261,2,100,0|0|8,1:0|1:0|0:0,0:0:0:0:
44,384,54116,1,0,1:0:0:0:
3,355,54216,1,8,0:0:0:0:
29,309,54316,1,0,1:0:0:0:
129,219,54516,2,0,P|121:246|112:291,2,50,0|0|8,1:0|1:0|0:0,0:0:0:0:
46,159,54916,1,0,1:0:0:0:
23,66,55116,5,0,1:0:0:0:
57,28,55216,1,8,0:0:0:0:
108,25,55316,1,0,0:0:0:0:
148,55,55416,1,0,1:0:0:0:
155,103,55516,2,0,P|147:129|138:164,3,50,8|0|0|8,0:0|1:0|1:0|0:0,0:0:0:0:
281,209,55916,1,0,1:0:0:0:
290,200,56016,1,0,0:0:0:0:
301,190,56116,6,0,P|292:158|285:133,1,50,6|0,0:3|0:0,0:0:0:0:
402,100,56316,2,0,P|391:134|382:158,1,50,6|0,0:3|0:0,0:0:0:0:
512,59,56516,5,0,2:0:0:0:
512,59,56616,1,0,2:0:0:0:
512,59,56716,2,0,P|470:43|401:20,2,100,12|0|8,1:3|1:0|0:0,0:0:0:0:
412,185,57316,1,0,1:0:0:0:
369,154,57416,1,8,0:0:0:0:
395,110,57516,1,0,1:0:0:0:
487,234,57716,2,0,P|477:263|473:294,2,50,0|0|8,1:0|1:0|0:0,0:0:0:0:
286,267,58116,1,0,1:0:0:0:
336,71,58316,5,0,1:0:0:0:
321,27,58416,1,8,0:0:0:0:
280,0,58516,1,0,0:0:0:0:
229,0,58616,1,0,1:0:0:0:
191,26,58716,2,0,P|198:57|210:103,3,50,8|0|0|8,0:0|1:0|1:0|0:0,0:0:0:0:
282,175,59116,1,0,1:0:0:0:
292,170,59216,1,0,0:0:0:0:
303,165,59316,6,0,P|350:181|373:187,1,50,6|0,0:3|0:0,0:0:0:0:
226,278,59516,2,0,P|239:320|247:346,1,50,6|0,0:3|0:0,0:0:0:0:
88,236,59716,1,0,2:0:0:0:
88,236,59916,6,0,P|24:252|-13:261,2,100,0|0|8,1:0|1:0|0:0,0:0:0:0:
129,339,60516,1,0,1:0:0:0:
174,358,60616,1,8,0:0:0:0:
205,319,60716,1,0,1:0:0:0:
256,165,60916,2,0,P|299:174|319:180,2,50,0|0|8,1:0|1:0|0:0,0:0:0:0:
181,227,61316,1,0,1:0:0:0:
401,374,61516,5,0,1:0:0:0:
452,378,61616,1,8,0:0:0:0:
492,345,61716,1,0,0:0:0:0:
495,296,61816,1,0,1:0:0:0:
465,256,61916,2,0,P|440:261|401:268,3,50,8|0|0|8,0:0|1:0|1:0|0:0,0:0:0:0:
462,110,62316,1,0,1:0:0:0:
453,101,62416,1,8,0:0:0:0:
443,93,62516,6,0,P|450:64|460:30,1,50,10|8,0:0|0:0,0:0:0:0:
316,130,62716,2,0,P|323:155|333:190,1,50,10|8,0:0|0:0,0:0:0:0:
216,11,62916,1,8,0:0:0:0:
185,54,63016,1,8,0:0:0:0:
136,37,63116,1,12,1:3:0:0:
136,37,63916,6,0,P|127:78|120:108,3,50,0|8|8|8,1:0|0:0|0:0|0:0,0:0:0:0:
92,122,64316,1,0,1:0:0:0:
44,107,64416,1,8,0:0:0:0:
4,137,64516,1,8,0:0:0:0:
1,189,64616,1,8,0:0:0:0:
36,229,64716,6,0,P|61:272|124:256,1,100,4|8,1:3|0:0,0:0:0:0:
233,346,65116,1,0,1:0:0:0:
318,198,65316,1,10,0:0:0:0:
225,162,65516,5,0,1:0:0:0:
225,162,65716,2,0,P|240:213|256:269,1,100,10|0,0:0|1:0,0:0:0:0:
349,384,66116,1,10,0:0:0:0:
482,324,66316,2,0,P|493:266|506:203,1,100,0|8,1:0|0:0,0:0:0:0:
426,185,66716,1,0,1:0:0:0:
507,20,66916,6,0,P|444:39|390:56,1,100,10|0,0:0|1:0,0:0:0:0:
331,208,67316,1,10,0:0:0:0:
512,259,67516,1,0,1:0:0:0:
468,119,67716,5,10,0:0:0:0:
468,119,67816,1,0,0:0:0:0:
468,119,67916,1,0,1:0:0:0:
365,280,68116,1,10,0:0:0:0:
473,384,68316,2,0,P|451:311|442:282,1,100,0|10,1:0|0:0,0:0:0:0:
275,223,68716,5,0,1:0:0:0:
198,376,68916,1,8,0:0:0:0:
26,323,69116,1,0,1:0:0:0:
26,323,69216,1,0,1:0:0:0:
26,323,69316,1,8,0:0:0:0:
93,258,69516,6,0,P|125:264|147:267,2,50,0|8|8,1:0|0:0|0:0,0:0:0:0:
38,182,69916,1,0,1:0:0:0:
3,145,70016,1,8,0:0:0:0:
19,98,70116,1,8,0:0:0:0:
62,69,70216,1,8,0:0:0:0:
109,84,70316,6,0,P|118:117|125:149,3,50,0|8|8|8,1:0|0:0|0:0|0:0,0:0:0:0:
163,152,70716,1,8,0:0:0:0:
214,153,70816,1,8,0:0:0:0:
252,117,70916,1,0,1:0:0:0:
252,66,71016,1,0,1:0:0:0:
215,29,71116,6,0,P|165:21|106:11,1,100,4|8,1:3|0:0,0:0:0:0:
2,159,71516,1,0,1:0:0:0:
160,247,71716,1,10,0:0:0:0:
96,190,71916,5,0,1:0:0:0:
96,190,72116,2,0,P|106:135|115:75,1,100,10|0,0:0|1:0,0:0:0:0:
264,14,72516,1,10,0:0:0:0:
327,185,72716,2,0,P|316:243|305:299,1,100,0|8,1:0|0:0,0:0:0:0:
229,334,73116,1,0,1:0:0:0:
163,110,73316,6,0,P|236:125|279:136,1,100,10|0,0:0|1:0,0:0:0:0:
336,305,73716,1,10,0:0:0:0:
164,383,73916,1,0,1:0:0:0:
223,207,74116,5,10,0:0:0:0:
223,207,74216,1,0,0:0:0:0:
223,207,74316,1,0,1:0:0:0:
290,372,74516,1,10,0:0:0:0:
462,324,74716,2,0,P|476:252|489:210,1,100,0|10,1:0|0:0,0:0:0:0:
359,135,75116,5,0,1:0:0:0:
263,300,75316,1,8,0:0:0:0:
101,227,75516,1,0,1:0:0:0:
101,227,75616,1,0,1:0:0:0:
101,227,75716,1,8,0:0:0:0:
19,271,75916,6,0,P|10:300|1:331,2,50,0|8|8,1:0|0:0|0:0,0:0:0:0:
0,176,76316,1,0,1:0:0:0:
47,156,76416,1,8,0:0:0:0:
94,138,76516,1,8,0:0:0:0:
140,121,76616,1,8,0:0:0:0:
184,105,76716,6,0,P|198:148|203:171,3,50,0|8|8|8,1:0|0:0|0:0|0:0,0:0:0:0:
236,184,77116,1,8,0:0:0:0:
282,198,77216,1,8,0:0:0:0:
330,211,77316,1,0,1:0:0:0:
376,222,77416,1,0,1:0:0:0:
426,237,77516,6,0,P|441:156|454:115,1,100,12|8,1:3|0:0,0:0:0:0:
263,330,77916,1,0,1:0:0:0:
211,252,78116,5,10,0:0:0:0:
211,252,78216,1,10,0:0:0:0:
211,252,78316,1,0,1:0:0:0:
149,384,78516,1,8,0:0:0:0:
360,338,78716,1,0,1:0:0:0:
239,154,78916,5,10,0:0:0:0:
239,154,79016,1,10,0:0:0:0:
239,154,79116,1,0,1:0:0:0:
305,99,79316,1,8,0:0:0:0:
357,171,79516,2,0,P|341:238|333:275,1,100,0|10,1:0|0:0,0:0:0:0:
334,268,79816,1,10,0:0:0:0:
334,268,79916,5,0,1:0:0:0:
199,373,80116,1,8,0:0:0:0:
56,260,80316,1,0,1:0:0:0:
142,109,80516,1,10,0:0:0:0:
309,53,80716,6,0,P|349:65|391:10,2,100,0|8|0,1:0|0:0|1:0,0:0:0:0:
238,4,81316,5,10,0:0:0:0:
238,4,81416,1,10,0:0:0:0:
238,4,81516,1,0,1:0:0:0:
164,189,81716,1,8,0:0:0:0:
0,95,81916,1,0,1:0:0:0:
80,55,82116,5,10,0:0:0:0:
80,55,82216,1,10,0:0:0:0:
80,55,82316,1,0,1:0:0:0:
110,135,82516,1,8,0:0:0:0:
17,258,82716,2,0,P|35:322|44:373,1,100,0|10,1:0|0:0,0:0:0:0:
50,362,83016,1,10,0:0:0:0:
59,368,83116,6,0,P|97:356|130:351,3,50,0|8|8|8,1:0|0:0|0:0|0:0,0:0:0:0:
149,328,83516,1,0,1:0:0:0:
186,366,83616,1,8,0:0:0:0:
236,369,83716,1,8,0:0:0:0:
277,339,83816,1,8,0:0:0:0:
289,294,83916,6,0,P|277:246|267:195,1,100,12|8,1:3|0:0,0:0:0:0:
85,117,84316,1,0,1:0:0:0:
135,192,84516,5,10,0:0:0:0:
135,192,84616,1,10,0:0:0:0:
135,192,84716,1,0,1:0:0:0:
225,0,84916,1,8,0:0:0:0:
8,97,85116,1,0,1:0:0:0:
120,295,85316,5,10,0:0:0:0:
120,295,85416,1,10,0:0:0:0:
120,295,85516,1,0,1:0:0:0:
197,243,85716,1,8,0:0:0:0:
234,327,85916,2,0,P|308:306|345:299,1,100,0|10,1:0|0:0,0:0:0:0:
330,301,86216,1,10,0:0:0:0:
330,301,86316,5,0,1:0:0:0:
243,155,86516,1,8,0:0:0:0:
66,208,86716,1,0,1:0:0:0:
0,384,86916,1,10,0:0:0:0:
151,281,87116,6,0,P|164:217|175:170,2,100,0|8|0,1:0|0:0|1:0,0:0:0:0:
74,327,87716,5,10,0:0:0:0:
74,327,87816,1,10,0:0:0:0:
74,327,87916,1,0,1:0:0:0:
0,172,88116,1,8,0:0:0:0:
181,86,88316,1,0,1:0:0:0:
119,23,88516,5,10,0:0:0:0:
119,23,88616,1,10,0:0:0:0:
119,23,88716,1,0,1:0:0:0:
71,163,88916,1,8,0:0:0:0:
209,232,89116,1,0,1:0:0:0:
319,124,89316,2,0,P|333:83|341:64,1,50,10|2,0:0|0:0,0:0:0:0:
304,38,89516,5,0,1:0:0:0:
347,9,89616,1,2,0:0:0:0:
396,14,89716,1,10,0:0:0:0:
424,54,89816,1,2,0:0:0:0:
418,104,89916,1,8,0:0:0:0:
392,154,90016,1,8,0:0:0:0:
403,209,90116,1,8,0:0:0:0:
451,233,90216,1,8,0:0:0:0:
500,220,90316,6,0,P|508:130|521:52,2,150.000005722046,12|2|2,1:3|0:0|0:0,0:0:0:0:
338,315,91516,1,2,0:0:0:0:
338,315,91916,5,12,1:3:0:0:
403,368,92116,1,2,0:0:0:0:
350,108,92516,1,2,0:0:0:0:
81,232,92916,1,2,0:0:0:0:
141,297,93116,2,0,P|127:335|118:358,1,37.5000014305115
91,358,93316,6,0,P|68:291|37:199,1,150.000005722046,14|8,1:3|0:0,0:0:0:0:
115,155,93916,1,0,1:0:0:0:
115,155,94016,1,0,1:0:0:0:
115,155,94116,1,8,0:0:0:0:
167,232,94316,5,0,1:0:0:0:
217,248,94416,1,0,1:0:0:0:
258,223,94516,1,8,0:0:0:0:
270,177,94616,1,0,1:0:0:0:
246,134,94716,1,0,1:0:0:0:
81,232,94916,1,8,0:0:0:0:
0,28,95116,6,0,P|66:46|109:56,1,100,0|8,1:0|0:0,0:0:0:0:
169,118,95516,1,0,1:0:0:0:
169,118,95616,1,0,1:0:0:0:
169,118,95716,1,8,0:0:0:0:
217,35,95916,1,0,1:0:0:0:
304,81,96116,5,8,0:0:0:0:
292,125,96216,1,8,0:0:0:0:
277,170,96316,1,8,0:0:0:0:
264,216,96416,1,8,0:0:0:0:
249,262,96516,1,8,0:0:0:0:
235,307,96616,1,8,0:0:0:0:
220,351,96716,6,0,P|136:366|65:381,2,150.000005722046,12|2|2,1:3|0:0|0:0,0:0:0:0:
356,247,97916,1,2,0:0:0:0:
356,247,98316,5,12,1:3:0:0:
278,212,98516,1,2,0:0:0:0:
466,348,98916,1,2,0:0:0:0:
512,74,99316,1,2,0:0:0:0:
428,103,99516,2,0,P|417:64|411:42,1,37.5000014305115
434,24,99716,6,0,P|367:40|275:61,1,150.000005722046,14|8,1:3|0:0,0:0:0:0:
232,133,100316,1,0,1:0:0:0:
232,133,100416,1,0,1:0:0:0:
232,133,100516,1,8,0:0:0:0:
153,83,100716,5,0,1:0:0:0:
143,37,100816,1,0,1:0:0:0:
102,10,100916,1,8,0:0:0:0:
52,23,101016,1,0,1:0:0:0:
22,62,101116,1,0,1:0:0:0:
234,2,101316,1,8,0:0:0:0:
86,228,101516,6,0,P|74:158|65:116,1,100,0|8,1:0|0:0,0:0:0:0:
153,83,101916,1,0,1:0:0:0:
153,83,102016,1,0,1:0:0:0:
153,83,102116,1,8,0:0:0:0:
199,163,102316,5,2,0:0:0:0:
11,240,102716,1,2,0:0:0:0:
102,384,103116,1,4,0:3:0:0:
382,275,107316,6,0,P|391:218|313:184,1,150.000005722046,4|0,0:0|0:0,0:0:0:0:
260,127,107916,6,0,L|236:184,2,50,12|8|8,1:3|0:0|0:0,0:0:0:0:
331,44,108216,2,0,P|297:50|263:56,2,50,0|8|8,1:0|0:0|0:0,0:0:0:0:
435,30,108516,2,0,P|408:10|386:-4,2,50,4|8|8,1:3|0:0|0:0,0:0:0:0:
503,87,108816,2,0,P|513:37|521:14,2,50,0|8|8,1:0|0:0|0:0,0:0:0:0:
350,139,109116,5,4,1:3:0:0:
362,180,109216,1,8,0:0:0:0:
371,224,109316,1,8,0:0:0:0:
381,268,109416,1,8,0:0:0:0:
395,313,109516,6,0,P|458:323|514:335,2,100,12|8|2,1:3|0:0|1:0,0:0:0:0:
249,228,110116,1,10,0:0:0:0:
249,228,110216,1,2,0:0:0:0:
249,228,110316,1,4,1:2:0:0:
164,381,110516,5,8,0:0:0:0:
324,284,110716,1,2,1:0:0:0:
226,104,110916,1,10,0:0:0:0:
64,244,111116,6,0,P|47:169|39:134,1,100,4|8,1:2|0:0,0:0:0:0:
116,95,111516,1,2,1:0:0:0:
160,189,111716,5,10,0:0:0:0:
160,189,111816,1,2,0:0:0:0:
160,189,111916,1,4,1:2:0:0:
0,56,112116,1,8,0:0:0:0:
212,0,112316,5,2,1:0:0:0:
41,146,112516,1,10,0:0:0:0:
216,259,112716,2,0,P|226:319|236:375,1,100,4|8,1:2|0:0,0:0:0:0:
145,384,113116,1,2,1:0:0:0:
90,320,113316,5,10,0:0:0:0:
90,320,113416,1,2,0:0:0:0:
90,320,113516,2,0,P|56:265|97:229,1,100,4|8,1:2|0:0,0:0:0:0:
11,167,113816,2,0,P|74:164|86:217,1,100,2|0,0:0|0:0,0:0:0:0:
163,217,114116,2,0,P|125:233|108:207,1,50,10|0,0:0|0:0,0:0:0:0:
200,117,114316,5,4,1:2:0:0:
200,117,114416,1,8,0:0:0:0:
200,117,114516,1,8,0:0:0:0:
332,207,114716,2,0,P|335:181|345:143,2,50,8|8|8,0:0|0:0|0:0,0:0:0:0:
257,257,115116,5,2,0:0:0:0:
392,23,115316,1,8,0:0:0:0:
440,4,115416,1,8,0:0:0:0:
486,19,115516,1,8,0:0:0:0:
512,64,115616,1,8,0:0:0:0:
499,106,115716,1,8,0:0:0:0:
430,164,115916,5,4,1:2:0:0:
430,164,116016,1,8,0:0:0:0:
430,164,116116,1,8,0:0:0:0:
511,211,116316,2,0,P|500:246|492:272,2,50,8|8|8,0:0|0:0|0:0,0:0:0:0:
321,307,116716,5,2,0:0:0:0:
455,384,116916,1,8,0:0:0:0:
439,338,117016,1,8,0:0:0:0:
424,291,117116,1,8,0:0:0:0:
411,246,117216,1,8,0:0:0:0:
397,197,117316,1,8,0:0:0:0:
380,149,117416,1,0,0:0:0:0:
366,99,117516,1,12,1:3:0:0:
256,192,117616,12,0,118716,0:0:0:0:
