osu file format v14

[General]
AudioFilename: audio.mp3
AudioLeadIn: 0
PreviewTime: 38716
Countdown: 0
SampleSet: Soft
StackLeniency: 0.7
Mode: 0
LetterboxInBreaks: 0
WidescreenStoryboard: 1

[Editor]
Bookmarks: 13516,26316,63116,77516,90316,103116,117516
DistanceSpacing: 1
BeatDivisor: 4
GridSize: 4
TimelineZoom: 2

[Metadata]
Title:Kurokami Midareshi Shura to Narite
TitleUnicode:黒髪乱れし修羅となりて
Artist:Muramasa Qualia
ArtistUnicode:村正クオリア
Creator:milr_
Version:Easy
Source:pop'n music 18 せんごく列伝
Tags:TOMOSUKE 茶太 Chata Sengoku Retsuden rock 撫子メタル nadeshiko metal japanese video game beatmania IIDX 18 Resort Anthem GuitarFreaks & DrumMania XG2 reflec beat jubeat saucer Athanasia Athanasia- acnozei Kyairie
BeatmapID:3937667
BeatmapSetID:1906993

[Difficulty]
HPDrainRate:2.5
CircleSize:2
OverallDifficulty:2.5
ApproachRate:3.5
SliderMultiplier:0.9
SliderTickRate:1

[Events]
//Background and Video events
0,0,"ummm.jpg",0,0
//Break Periods
2,103316,106536
//Storyboard Layer 0 (Background)
//Storyboard Layer 1 (Fail)
//Storyboard Layer 2 (Pass)
//Storyboard Layer 3 (Foreground)
//Storyboard Layer 4 (Overlay)
//Storyboard Sound Samples

[TimingPoints]
316,400,4,2,1,75,1,0
716,400,4,2,1,75,1,0
13516,-100,4,2,1,70,0,0
24716,-100,4,2,1,80,0,0
39116,-100,4,2,1,85,0,1
50316,-100,4,2,1,80,0,0
107916,-100,4,2,1,85,0,1
114316,-100,4,2,1,80,0,0
118716,-100,4,2,1,80,0,0

[Colours]
Combo1 : 108,52,239
Combo2 : 199,46,199
Combo3 : 249,142,26
Combo4 : 208,13,13

[HitObjects]
28,226,13516,5,12,0:3:0:0:
126,132,14116,2,0,P|182:147|270:172,1,135,2|0,0:0|0:0,0:0:0:0:
322,229,15116,2,0,P|370:242|419:166,1,135,2|2,0:0|0:0,0:0:0:0:
506,79,16316,1,0,0:0:0:0:
456,4,16716,6,0,P|406:14|312:30,1,135,2|2,0:0|0:0,0:0:0:0:
223,118,17916,1,2,0:0:0:0:
302,161,18316,2,0,P|320:212|334:353,1,180,0|2,0:0|0:0,0:0:0:0:
250,367,19516,1,0,0:0:0:0:
181,309,19916,5,8,0:0:0:0:
56,256,20516,2,0,P|65:195|97:122,1,135,2|0,0:0|0:0,0:0:0:0:
174,88,21516,2,0,P|224:95|283:37,1,135,2|2,0:0|0:0,0:0:0:0:
413,9,22716,1,0,0:0:0:0:
459,86,23116,6,0,P|447:128|427:232,1,135,2|2,0:0|0:0,0:0:0:0:
314,293,24316,1,2,0:0:0:0:
367,364,24716,2,0,P|403:354|458:343,1,90,12|0,1:3|1:0,0:0:0:0:
512,274,25516,2,0,P|512:238|465:201,1,90,0|8,1:0|0:2,0:0:0:0:
386,220,26316,6,0,P|344:207|300:192,1,90,12|0,1:3|1:0,0:0:0:0:
233,252,27116,2,0,P|248:298|259:348,1,90,0|0,1:0|1:0,0:0:0:0:
173,370,27916,2,0,P|130:376|84:343,1,90,0|0,1:0|1:0,0:0:0:0:
47,276,28716,1,0,1:0:0:0:
75,190,29116,1,0,1:0:0:0:
9,127,29516,6,0,P|26:93|81:78,1,90,0|0,1:0|1:0,0:0:0:0:
157,108,30316,2,0,P|176:142|235:145,1,90,0|0,1:0|1:0,0:0:0:0:
302,193,31116,2,0,P|319:133|334:93,1,90,0|0,1:0|1:0,0:0:0:0:
368,26,31916,1,4,1:3:0:0:
457,15,32316,1,0,1:0:0:0:
495,98,32716,6,0,P|506:129|466:185,1,90,12|0,1:3|1:0,0:0:0:0:
391,173,33516,2,0,P|340:173|325:216,1,90,0|0,1:0|1:0,0:0:0:0:
271,276,34316,2,0,P|212:262|171:253,1,90,0|0,1:0|1:0,0:0:0:0:
106,207,35116,1,0,1:0:0:0:
30,255,35516,1,0,1:0:0:0:
43,345,35916,6,0,P|121:364|139:370,1,90,0|0,1:0|1:0,0:0:0:0:
216,342,36716,2,0,P|271:332|312:328,1,90,0|0,1:0|1:0,0:0:0:0:
381,376,37516,1,0,1:0:0:0:
424,296,37916,1,0,1:0:0:0:
462,213,38316,1,0,1:0:0:0:
339,80,39116,6,0,P|291:89|239:101,1,90,12|2,1:3|1:0,0:0:0:0:
166,68,39916,1,4,1:2:0:0:
84,30,40316,1,2,1:0:0:0:
26,100,40716,2,0,P|39:143|51:186,1,90,4|2,1:2|1:0,0:0:0:0:
114,250,41516,2,0,P|104:290|94:338,1,90,4|2,1:2|1:0,0:0:0:0:
178,368,42316,6,0,P|214:372|259:326,1,90,4|2,1:2|1:0,0:0:0:0:
219,256,43116,1,4,1:2:0:0:
187,171,43516,1,2,1:0:0:0:
273,146,43916,2,0,P|282:100|306:1,2,135,12|4|4,1:3|1:3|1:3,0:0:0:0:
330,215,45516,6,0,P|372:206|411:248,1,90,12|2,1:3|1:0,0:0:0:0:
473,293,46316,1,4,1:2:0:0:
433,373,46716,1,2,1:0:0:0:
348,343,47116,2,0,P|302:353|254:366,1,90,4|2,1:2|1:0,0:0:0:0:
172,346,47916,1,4,1:2:0:0:
200,260,48316,1,2,1:0:0:0:
247,183,48716,6,0,P|235:131|221:79,1,90,4|2,1:2|1:0,0:0:0:0:
166,27,49516,2,0,P|127:28|107:58,2,67.5,4|2|10,1:2|0:0|0:0,0:0:0:0:
256,192,50316,12,0,51916,1:0:0:0:
147,187,53516,6,0,P|200:198|244:210,1,90,0|8,1:0|0:0,0:0:0:0:
283,283,54316,2,0,P|324:274|378:262,1,90,0|8,1:0|0:0,0:0:0:0:
447,311,55116,2,0,P|489:287|491:237,1,90,0|8,1:0|0:0,0:0:0:0:
454,168,55916,1,0,1:0:0:0:
508,96,56316,1,6,0:3:0:0:
431,46,56716,6,0,P|389:58|334:74,1,90,12|8,1:3|0:0,0:0:0:0:
292,145,57516,2,0,P|243:132|196:121,1,90,0|8,1:0|0:0,0:0:0:0:
141,59,58316,2,0,P|130:27|65:16,1,90,0|8,1:0|0:0,0:0:0:0:
4,60,59116,1,0,1:0:0:0:
36,144,59516,1,6,0:3:0:0:
65,230,59916,6,0,P|51:274|34:328,1,90,0|8,1:0|0:0,0:0:0:0:
104,377,60716,2,0,P|156:364|195:356,1,90,0|8,1:0|0:0,0:0:0:0:
279,379,61516,2,0,P|329:350|331:302,1,90,0|8,1:0|0:0,0:0:0:0:
280,250,62316,1,0,1:0:0:0:
239,169,62716,1,10,0:0:0:0:
324,139,63116,5,12,1:3:0:0:
324,139,64716,6,0,P|330:85|298:54,1,90,4|0,1:3|1:0,0:0:0:0:
226,23,65516,2,0,P|182:53|189:95,1,90,0|0,1:0|1:0,0:0:0:0:
208,171,66316,2,0,P|216:216|237:323,1,135,0|10,1:0|0:0,0:0:0:0:
174,372,67316,1,10,0:0:0:0:
40,350,67916,6,0,P|24:304|53:270,1,90,0|0,1:0|1:0,0:0:0:0:
119,221,68716,1,0,1:0:0:0:
164,300,69116,1,0,1:0:0:0:
246,264,69516,2,0,P|257:213|268:170,1,90,0|0,1:0|1:0,0:0:0:0:
349,143,70316,1,0,1:0:0:0:
293,72,70716,1,8,0:0:0:0:
236,1,71116,6,0,P|302:11|341:18,1,90,4|0,1:3|1:0,0:0:0:0:
413,30,71916,2,0,P|453:58|447:112,1,90,0|0,1:0|1:0,0:0:0:0:
414,178,72716,2,0,P|427:230|446:316,1,135,0|10,1:0|0:0,0:0:0:0:
388,380,73716,1,10,0:0:0:0:
278,305,74316,6,0,P|231:315|182:324,1,90,0|0,1:0|1:0,0:0:0:0:
119,379,75116,1,0,1:0:0:0:
39,337,75516,1,0,1:0:0:0:
74,254,75916,2,0,P|63:213|48:157,1,90,0|0,1:0|1:0,0:0:0:0:
113,103,76716,1,0,1:0:0:0:
33,60,77116,1,8,0:0:0:0:
102,1,77516,6,0,P|145:15|198:27,1,90,12|0,1:3|1:0,0:0:0:0:
267,69,78316,2,0,P|307:96|295:135,1,90,0|0,1:0|1:0,0:0:0:0:
220,175,79116,2,0,P|205:226|190:272,1,90,0|0,1:0|1:0,0:0:0:0:
217,348,79916,1,0,1:0:0:0:
303,372,80316,1,0,1:0:0:0:
375,318,80716,6,0,P|434:320|449:294,1,90,0|0,1:0|1:0,0:0:0:0:
491,220,81516,2,0,P|485:175|477:126,1,90,0|0,1:0|1:0,0:0:0:0:
512,48,82316,2,0,P|442:31|425:26,1,90,0|0,1:0|1:0,0:0:0:0:
336,9,83116,1,0,1:0:0:0:
271,71,83516,1,0,1:0:0:0:
321,145,83916,6,0,P|304:200|294:244,1,90,12|0,1:3|1:0,0:0:0:0:
317,319,84716,2,0,P|304:353|252:353,1,90,0|0,1:0|1:0,0:0:0:0:
170,324,85516,2,0,P|127:314|81:304,1,90,0|0,1:0|1:0,0:0:0:0:
8,252,86316,1,0,1:0:0:0:
31,165,86716,1,0,1:0:0:0:
116,129,87116,6,0,P|171:136|186:105,1,90,0|0,1:0|1:0,0:0:0:0:
196,21,87916,2,0,P|242:30|290:40,1,90,0|0,1:0|1:0,0:0:0:0:
333,114,88716,2,0,P|316:168|306:211,1,90,0|0,1:0|1:0,0:0:0:0:
224,233,89516,1,0,1:0:0:0:
139,263,89916,1,8,0:0:0:0:
183,342,90316,6,0,P|260:352|375:371,2,180,12|2|12,1:3|0:0|1:3,0:0:0:0:
59,287,92516,2,0,P|29:255|46:204,1,90,2|2,0:0|0:0,0:0:0:0:
100,148,93316,6,0,P|150:157|243:172,1,135,14|0,1:3|1:0,0:0:0:0:
281,247,94316,2,0,P|330:237|378:230,1,90,0|0,1:0|1:0,0:0:0:0:
442,177,95116,2,0,P|479:153|469:96,1,90,0|0,1:0|1:0,0:0:0:0:
446,27,95916,1,0,1:0:0:0:
361,57,96316,1,8,0:0:0:0:
276,86,96716,6,0,P|261:163|240:284,2,180,12|2|12,1:3|0:0|1:3,0:0:0:0:
152,28,98916,2,0,P|110:21|76:71,1,90,2|2,0:0|0:0,0:0:0:0:
19,120,99716,6,0,P|28:157|46:253,1,135,14|0,1:3|1:0,0:0:0:0:
9,334,100716,2,0,P|23:367|77:368,1,90,0|0,1:0|1:0,0:0:0:0:
140,310,101516,1,0,1:0:0:0:
195,382,101916,1,0,1:0:0:0:
271,332,102316,2,0,P|260:293|251:245,2,90,2|2|4,0:0|0:0|0:3,0:0:0:0:
205,150,107916,6,0,P|159:159|61:180,2,135,12|4|4,1:3|1:3|1:3,0:0:0:0:
264,221,109516,2,0,P|305:227|364:240,1,90,12|2,1:3|1:0,0:0:0:0:
429,283,110316,1,4,1:2:0:0:
503,231,110716,1,2,1:0:0:0:
462,151,111116,2,0,P|477:113|441:74,1,90,4|2,1:2|1:0,0:0:0:0:
386,12,111916,1,4,1:2:0:0:
319,72,112316,1,2,1:0:0:0:
250,132,112716,6,0,P|261:175|274:225,1,90,4|2,1:2|1:0,0:0:0:0:
328,289,113516,2,0,P|320:320|310:362,2,67.5,4|2|10,1:2|0:0|0:0,0:0:0:0:
369,271,114316,6,0,P|413:267|431:21,1,360,4|4,1:2|1:2,0:0:0:0:
362,73,116316,2,0,P|298:82|282:160,1,135,8|8,0:0|0:0,0:0:0:0:
178,235,117516,6,0,P|152:282|48:179,1,270,12|0,1:3|0:0,0:0:0:0:
