osu file format v14

[General]
AudioFilename: Swinging.mp3
AudioLeadIn: 2000
PreviewTime: 30401
Countdown: 0
SampleSet: Normal
StackLeniency: 0.9
Mode: 0
LetterboxInBreaks: 1
WidescreenStoryboard: 0

[Editor]
Bookmarks: 10613,20155,39145,40581,67230,70581,77602
DistanceSpacing: 1
BeatDivisor: 2
GridSize: 8
TimelineZoom: 1

[Metadata]
Title:Swinging (TV Size)
TitleUnicode:Swinging (TV Size)
Artist:Muramasa
ArtistUnicode:Muramasa
Creator:roflninja
Version:Normal
Source:Tower of Druaga
Tags:Ahmey Jil Melt Coopa Teras Sallad4ever samiljul
BeatmapID:65543
BeatmapSetID:18525

[Difficulty]
HPDrainRate:4
CircleSize:3
OverallDifficulty:4
ApproachRate:5
SliderMultiplier:0.7
SliderTickRate:1

[Events]
//Background and Video events
0,0,"wallpaper-26784.jpg",0,0
Video,0,"swinging.avi"
//Break Periods
//Storyboard Layer 0 (Background)
//Storyboard Layer 1 (Fail)
//Storyboard Layer 2 (Pass)
//Storyboard Layer 3 (Foreground)
//Storyboard Sound Samples

[TimingPoints]
1007,319.148936170213,4,1,0,50,1,0
41858,-100,4,1,0,50,0,1
62283,-100,4,1,0,50,0,0
80076,-100,4,2,0,5,0,0

[Colours]
Combo1 : 127,0,255
Combo2 : 0,0,255
Combo3 : 183,183,183
Combo4 : 255,255,98

[HitObjects]
116,96,11219,6,0,B|196:96,1,70,8|0,0:0|0:0,0:0:0:0:
256,96,11858,1,0,0:0:0:0:
325,96,12177,1,8,0:0:0:0:
325,96,12336,2,0,B|412:96,1,70
348,192,13134,5,8,0:0:0:0:
298,241,13453,1,0,0:0:0:0:
228,241,13772,5,0,0:0:0:0:
178,191,14092,1,8,0:0:0:0:
140,136,14411,2,0,B|156:96|204:96|228:136,2,105
108,200,15687,2,0,B|44:264,2,70,4|4|0,0:0|0:0|0:0,0:0:0:0:
172,224,16645,5,0,0:0:0:0:
244,224,16964,2,0,B|244:336,2,105,8|0|8,0:0|0:0|0:0,0:0:0:0:
314,224,18241,1,0,0:0:0:0:
363,174,18560,1,0,0:0:0:0:
412,128,18879,2,0,B|420:24|212:24|220:128,1,280,8|4,0:0|0:0,0:0:0:0:
132,240,20794,5,0,0:0:0:0:
180,288,21113,1,4,0:0:0:0:
244,312,21432,2,0,B|340:312|340:312|380:256,1,140,8|0,0:0|0:0,0:0:0:0:
365,206,22389,2,0,B|339:170|339:170|243:170,1,140,8|0,0:0|0:0,0:0:0:0:
44,208,23985,6,0,B|124:208,1,70,0|8,0:0|0:0,0:0:0:0:
188,208,24624,2,0,B|268:208,2,70,0|0|8,0:0|0:0|0:0,0:0:0:0:
180,72,25900,6,0,B|100:72,2,70,0|8|4,0:0|0:0|0:0,0:0:0:0:
324,72,27177,2,0,B|436:72,2,105,8|0|8,0:0|0:0|0:0,0:0:0:0:
260,104,28453,1,0,0:0:0:0:
204,144,28772,1,0,0:0:0:0:
256,192,29092,12,4,30368,0:0:0:0:
196,176,31645,6,0,B|196:96|292:96,1,140,0|4,0:0|0:0,0:0:0:0:
340,224,32921,2,0,B|340:304|244:304,1,140,0|4,0:0|0:0,0:0:0:0:
176,303,33879,1,0,0:0:0:0:
106,303,34198,2,0,B|50:303|50:239|50:191,2,140,4|4|4,0:0|0:0|0:0,0:0:0:0:
140,208,35953,2,0,B|140:120,1,70,0|4,0:0|0:0,0:0:0:0:
76,112,36592,2,0,B|68:48|212:48|204:112,1,175,0|4,0:0|0:0,0:0:0:0:
204,176,37709,6,0,B|204:248,1,70
268,280,38347,2,0,B|268:136,1,140
256,192,39145,8,4,40581,0:0:0:0:
204,192,41858,6,0,B|172:136|236:96|276:128|284:168,1,140,4|0,0:0|0:0,0:0:0:0:
236,248,42975,2,0,B|196:288|116:288,1,105
84,248,43772,5,0,0:0:0:0:
84,177,44092,1,0,0:0:0:0:
84,107,44411,5,4,0:0:0:0:
188,104,44889,2,0,B|332:104,1,140,0|4,0:0|0:0,0:0:0:0:
492,160,46326,5,0,0:0:0:0:
492,229,46645,1,0,0:0:0:0:
436,192,46964,2,0,B|356:192|356:192|356:224|356:264|316:304|260:304,2,245,4|0|0,0:0|0:0|0:0,0:0:0:0:
436,122,49517,6,0,B|308:122,1,105
225,122,50475,2,0,B|113:122,1,105,0|4,0:0|0:0,0:0:0:0:
20,160,51432,5,0,0:0:0:0:
20,229,51751,1,0,0:0:0:0:
84,192,52070,2,0,B|164:192|164:192|164:224|164:264|204:304|260:304,1,245,4|4,0:0|0:0,0:0:0:0:
388,192,53985,5,0,0:0:0:0:
388,122,54304,1,0,0:0:0:0:
388,48,54624,2,0,B|244:48,1,140,4|0,0:0|0:0,0:0:0:0:
180,48,55581,2,0,B|92:48|92:136,1,140
68,200,56538,5,8,0:0:0:0:
108,256,56858,1,0,0:0:0:0:
177,258,57177,2,0,B|241:258|241:258|241:282|260:312|292:320|324:320|356:320|356:320,1,210,8|0,0:0|0:0,0:0:0:0:
404,248,58453,2,0,B|412:168|356:136|300:168|308:248,1,210,8|0,0:0|0:0,0:0:0:0:
236,248,59730,2,0,B|124:248,2,105,8|4|4,0:0|0:0|0:0,0:0:0:0:
236,177,61007,5,8,0:0:0:0:
186,127,61326,1,4,0:0:0:0:
235,77,61645,1,12,0:0:0:0:
284,126,61964,1,0,0:0:0:0:
348,152,62283,6,0,B|436:144|436:288|348:280,2,210,4|0|0,0:0|0:0|0:0,0:0:0:0:
284,120,64517,6,0,B|188:120|188:120|188:40|76:40|76:120,1,280
132,168,66113,2,0,B|132:344,1,175
256,192,67230,12,4,70581,0:0:0:0:
156,192,71219,5,8,0:0:0:0:
225,192,71538,1,0,0:0:0:0:
295,192,71858,1,8,0:0:0:0:
364,192,72177,1,0,0:0:0:0:
364,120,72496,2,0,B|212:120,1,140,8|8,0:0|0:0,0:0:0:0:
84,120,73772,2,0,B|84:264,1,140,8|8,0:0|0:0,0:0:0:0:
204,192,75049,6,0,B|204:104|204:104|276:80|308:136|260:168,1,210,8|0,0:0|0:0,0:0:0:0:
276,224,76326,2,0,B|309:243|277:299|205:275|205:275|205:187,1,210,4|0,0:0|0:0,0:0:0:0:
256,192,77602,12,0,80155,0:0:0:0:
