osu file format v14

[General]
AudioFilename: 01. Distance.ogg
AudioLeadIn: 0
PreviewTime: 57239
Countdown: 0
SampleSet: Soft
StackLeniency: 0.7
Mode: 0
LetterboxInBreaks: 0
WidescreenStoryboard: 1

[Editor]
Bookmarks: 35,712,87493,96985,122747,152578,166137,170035,171561,213595
DistanceSpacing: 0.75
BeatDivisor: 4
GridSize: 32
TimelineZoom: 3.500005

[Metadata]
Title:Distance
TitleUnicode:Distance
Artist:Murakawa Rie
ArtistUnicode:村川梨衣
Creator:Age17
Version:Insane
Source:ヒナまつり
Tags:pop j-pop jpop japanese anime anison full ver version female vocals vocalist hinamatsuri op
BeatmapID:4380345
BeatmapSetID:2081505

[Difficulty]
HPDrainRate:5
CircleSize:3.8
OverallDifficulty:8
ApproachRate:9
SliderMultiplier:1.67
SliderTickRate:1

[Events]
//Background and Video events
0,0,"hinamatsuri_06_ed_waifu2x_art_scan_noise3 (1)-min.png",0,0
//Break Periods
//Storyboard Layer 0 (Background)
//Storyboard Layer 1 (Fail)
//Storyboard Layer 2 (Pass)
//Storyboard Layer 3 (Foreground)
//Storyboard Layer 4 (Overlay)
//Storyboard Sound Samples

[TimingPoints]
-637,338.983050847458,4,2,1,30,1,0
379,-100,4,2,4,30,0,0
718,-166.666666666667,4,2,1,50,0,0
5295,-166.666666666667,4,2,6,50,0,0
6142,-166.666666666667,4,2,1,50,0,0
8346,-166.666666666667,4,2,2,50,0,0
8854,-166.666666666667,4,2,1,50,0,0
9871,-166.666666666667,4,2,4,50,0,0
10210,-166.666666666667,4,2,1,50,0,0
10379,-166.666666666667,4,2,1,30,0,0
10549,-166.666666666667,4,2,1,35,0,0
10718,-166.666666666667,4,2,1,40,0,0
10888,-166.666666666667,4,2,1,45,0,0
11057,-166.666666666667,4,2,1,50,0,0
11566,-100,4,2,3,60,0,0
13939,-100,4,2,4,60,0,0
14278,-100,4,2,2,60,0,0
15295,-100,4,2,4,60,0,0
15634,-100,4,2,3,60,0,0
16651,-83.3333333333333,4,2,3,60,0,0
16735,-83.3333333333333,4,2,1,60,0,0
16990,-83.3333333333333,4,2,3,60,0,0
18007,-100,4,2,5,60,0,0
18346,-100,4,2,2,60,0,0
19193,-100,4,2,5,60,0,0
19701,-100,4,2,3,60,0,0
20210,-100,4,2,6,60,0,0
21057,-142.857142857143,4,2,3,60,0,0
22244,-142.857142857143,4,2,2,60,0,0
22413,-125,4,2,1,60,0,0
22752,-125,4,2,1,40,0,0
25125,-125,4,2,5,40,0,0
27329,-125,4,2,1,40,0,0
27668,-125,4,2,2,40,0,0
31735,-125,4,2,1,40,0,0
31905,-125,4,2,1,60,0,0
32074,-125,4,2,2,60,0,0
32413,-125,4,2,6,60,0,0
32922,-100,4,2,4,60,0,0
33261,-100,4,2,4,50,0,0
33600,-100,4,2,2,50,0,0
43600,-100,4,2,6,50,0,0
44108,-100,4,2,3,60,0,0
46481,-100,4,2,1,60,0,0
46820,-100,4,2,3,60,0,0
51735,-100,4,2,6,60,0,0
52244,-100,4,2,3,65,0,0
54617,-83.3333333333333,4,2,1,65,0,0
56651,-83.3333333333333,4,2,5,65,0,0
57159,-83.3333333333333,4,2,5,55,0,0
57329,-83.3333333333333,4,2,3,55,0,0
57668,-90.9090909090909,4,2,3,75,0,1
61396,-90.9090909090909,4,2,4,75,0,1
61735,-90.9090909090909,4,2,3,75,0,1
62752,-76.9230769230769,4,2,3,75,0,1
63091,-90.9090909090909,4,2,3,75,0,1
67668,-90.9090909090909,4,2,6,75,0,1
68007,-90.9090909090909,4,2,3,75,0,1
68176,-76.9230769230769,4,2,3,75,0,1
68515,-90.9090909090909,4,2,3,75,0,1
72244,-90.9090909090909,4,2,4,75,0,1
72583,-90.9090909090909,4,2,3,75,0,1
73600,-76.9230769230769,4,2,3,75,0,1
73939,-90.9090909090909,4,2,3,75,0,1
74956,-90.9090909090909,4,2,4,75,0,1
75295,-90.9090909090909,4,2,3,75,0,1
75464,-76.9230769230769,4,2,3,75,0,1
75973,-133.333333333333,4,2,6,75,0,1
76142,-133.333333333333,4,2,3,75,0,1
76651,-100,4,2,3,75,0,0
79024,-100,4,2,4,75,0,0
79363,-100,4,2,2,75,0,0
80379,-100,4,2,4,75,0,0
80718,-100,4,2,3,75,0,0
81735,-83.3333333333333,4,2,3,75,0,0
81820,-83.3333333333333,4,2,1,75,0,0
82074,-83.3333333333333,4,2,3,75,0,0
83091,-100,4,2,5,75,0,0
83430,-100,4,2,2,75,0,0
84278,-100,4,2,5,75,0,0
84786,-100,4,2,3,75,0,0
85295,-100,4,2,6,75,0,0
86142,-142.857142857143,4,2,3,75,0,0
86651,-142.857142857143,4,2,3,60,0,0
86990,-142.857142857143,4,2,6,60,0,0
87413,-142.857142857143,4,2,6,20,0,0
87498,-142.857142857143,4,2,1,60,0,0
88176,-200,4,2,1,40,0,0
96990,-142.857142857143,4,2,7,45,0,0
97498,-142.857142857143,4,2,6,45,0,0
98007,-142.857142857143,4,2,5,45,0,0
98091,-142.857142857143,4,2,4,45,0,0
98346,-111.111111111111,4,2,8,50,0,0
98515,-111.111111111111,4,2,5,50,0,0
99024,-111.111111111111,4,2,1,50,0,0
99363,-111.111111111111,4,2,2,50,0,0
99701,-111.111111111111,4,2,5,50,0,0
100040,-111.111111111111,4,2,1,50,0,0
100210,-111.111111111111,4,2,5,50,0,0
100379,-111.111111111111,4,2,2,50,0,0
101057,-111.111111111111,4,2,5,50,0,0
101396,-111.111111111111,4,2,1,50,0,0
101566,-111.111111111111,4,2,5,50,0,0
101735,-111.111111111111,4,2,1,50,0,0
102074,-111.111111111111,4,2,2,50,0,0
102413,-111.111111111111,4,2,5,50,0,0
102752,-111.111111111111,4,2,1,50,0,0
102922,-111.111111111111,4,2,5,50,0,0
103091,-111.111111111111,4,2,1,50,0,0
103430,-111.111111111111,4,2,2,50,0,0
103769,-111.111111111111,4,2,5,50,0,0
104108,-111.111111111111,4,2,1,50,0,0
104278,-111.111111111111,4,2,5,50,0,0
104447,-111.111111111111,4,2,1,50,0,0
104786,-111.111111111111,4,2,2,50,0,0
105634,-111.111111111111,4,2,5,50,0,0
105803,-111.111111111111,4,2,1,50,0,0
105973,-111.111111111111,4,2,5,50,0,0
106142,-111.111111111111,4,2,2,50,0,0
106481,-90.9090909090908,4,2,2,50,0,0
106651,-90.9090909090908,4,2,5,50,0,0
106735,-90.9090909090908,4,2,1,50,0,0
106990,-90.9090909090908,4,2,5,50,0,0
107159,-90.9090909090908,4,2,2,50,0,0
107498,-90.9090909090908,4,2,6,50,0,0
107837,-90.9090909090908,4,2,7,50,0,0
108007,-90.9090909090908,4,2,2,50,0,0
108346,-90.9090909090908,4,2,6,50,0,0
108430,-90.9090909090908,4,2,1,50,0,0
108515,-133.333333333333,4,2,1,50,0,0
109024,-133.333333333333,4,2,2,50,0,0
109193,-133.333333333333,4,2,3,60,0,0
110379,-100,4,2,3,60,0,0
111566,-100,4,2,1,60,0,0
111905,-100,4,2,3,60,0,0
116820,-100,4,2,6,60,0,0
117329,-100,4,2,3,65,0,0
119701,-83.3333333333333,4,2,1,65,0,0
121905,-83.3333333333333,4,2,2,65,0,0
122244,-83.3333333333333,4,2,2,55,0,0
122413,-133.333333333333,4,2,2,55,0,0
122752,-90.9090909090909,4,2,3,75,0,1
126566,-90.9090909090909,4,2,4,75,0,1
126820,-90.9090909090909,4,2,3,75,0,1
127837,-76.9230769230769,4,2,3,75,0,1
128176,-90.9090909090909,4,2,3,75,0,1
132752,-90.9090909090909,4,2,6,75,0,1
133091,-90.9090909090909,4,2,3,75,0,1
133261,-76.9230769230769,4,2,3,75,0,1
133600,-90.9090909090909,4,2,3,75,0,1
137413,-90.9090909090909,4,2,4,75,0,1
137668,-90.9090909090909,4,2,3,75,0,1
138685,-76.9230769230769,4,2,3,75,0,1
139024,-90.9090909090909,4,2,3,75,0,1
140040,-90.9090909090909,4,2,4,75,0,1
140379,-90.9090909090909,4,2,3,75,0,1
140549,-76.9230769230769,4,2,3,75,0,1
141057,-76.9230769230769,4,2,6,75,0,1
141227,-76.9230769230769,4,2,3,75,0,1
141735,-111.111111111111,4,2,3,75,0,0
142074,-111.111111111111,4,2,3,50,0,0
142668,-111.111111111111,4,2,1,50,0,0
142752,-111.111111111111,4,2,2,50,0,0
144447,-90.9090909090908,4,2,2,50,0,0
145125,-111.111111111111,4,2,2,50,0,0
146481,-111.111111111111,4,2,1,50,0,0
146651,-111.111111111111,4,2,2,50,0,0
146820,-90.9090909090908,4,2,1,50,0,0
147498,-111.111111111111,4,2,1,50,0,0
148091,-111.111111111111,4,2,2,50,0,0
148515,-90.9090909090908,4,2,2,50,0,0
149871,-111.111111111111,4,2,2,50,0,0
151227,-111.111111111111,4,2,7,60,0,0
151396,-111.111111111111,4,2,2,60,0,0
152074,-111.111111111111,4,2,6,60,0,0
152583,-111.111111111111,4,2,3,70,0,0
153769,-100,4,2,3,70,0,0
154193,-100,4,2,9,70,0,0
154278,-100,4,2,4,70,0,0
154617,-100,4,2,4,70,0,0
154701,-100,4,2,4,70,0,0
154786,-100,4,2,4,70,0,0
154871,-100,4,2,4,70,0,0
155125,-100,4,2,4,70,0,0
155210,-100,4,2,4,70,0,0
155295,-100,4,2,9,70,0,0
156481,-100,4,2,4,70,0,0
156990,-83.3333333333333,4,2,9,70,0,0
157668,-83.3333333333333,4,2,9,70,0,0
158007,-83.3333333333333,4,2,3,70,0,0
159193,-100,4,2,3,70,0,0
160210,-100,4,2,6,70,0,0
160718,-100,4,2,3,70,0,0
161057,-100,4,2,3,60,0,0
161396,-100,4,2,3,65,0,0
161735,-100,4,2,3,70,0,0
162074,-100,4,2,3,75,0,0
163091,-83.3333333333333,4,2,1,75,0,0
163430,-83.3333333333333,4,2,10,80,0,0
163769,-83.3333333333333,4,2,2,80,0,0
164447,-71.4285714285714,4,2,3,80,0,0
166142,-71.4285714285714,4,2,7,40,0,0
166481,-71.4285714285714,4,2,7,30,0,0
170718,-71.4285714285714,4,2,6,40,0,0
171312,-71.4285714285714,4,2,5,40,0,0
171566,-133.333333333333,4,2,1,40,0,0
173261,-133.333333333333,4,2,7,40,0,0
173430,-133.333333333333,4,2,6,40,0,0
174108,-133.333333333333,4,2,1,40,0,0
174617,-133.333333333333,4,2,7,40,0,0
175634,-133.333333333333,4,2,3,40,0,0
175803,-133.333333333333,4,2,3,35,0,0
175973,-133.333333333333,4,2,3,30,0,0
176142,-133.333333333333,4,2,3,35,0,0
176312,-133.333333333333,4,2,3,40,0,0
176481,-133.333333333333,4,2,3,45,0,0
176651,-133.333333333333,4,2,3,50,0,0
176820,-133.333333333333,4,2,3,55,0,0
176990,-133.333333333333,4,2,3,60,0,0
177498,-133.333333333333,4,2,6,60,0,0
177837,-133.333333333333,4,2,3,55,0,0
178007,-100,4,2,3,55,0,0
178346,-90.9090909090909,4,2,3,75,0,1
182074,-90.9090909090909,4,2,4,75,0,1
182413,-90.9090909090909,4,2,3,75,0,1
183430,-76.9230769230769,4,2,3,75,0,1
183769,-90.9090909090909,4,2,3,75,0,1
187498,-90.9090909090909,4,2,4,75,0,1
187837,-90.9090909090909,4,2,1,75,0,1
188176,-90.9090909090909,4,2,10,75,0,1
188346,-90.9090909090909,4,2,6,75,0,1
188685,-90.9090909090909,4,2,3,75,0,1
188854,-76.9230769230769,4,2,3,75,0,1
189193,-90.9090909090909,4,2,3,75,0,1
191566,-90.9090909090909,4,2,4,75,0,1
191905,-90.9090909090909,4,2,2,75,0,1
192922,-90.9090909090909,4,2,4,75,0,1
193261,-90.9090909090909,4,2,3,75,0,1
194278,-76.9230769230769,4,2,3,75,0,1
194617,-90.9090909090909,4,2,3,75,0,0
195634,-90.9090909090909,4,2,4,75,0,0
195973,-90.9090909090909,4,2,3,75,0,0
196651,-133.333333333333,4,2,1,70,0,0
196820,-133.333333333333,4,2,2,65,0,0
196990,-133.333333333333,4,2,1,60,0,0
197159,-133.333333333333,4,2,2,55,0,0
197329,-133.333333333333,4,2,1,50,0,0
197668,-133.333333333333,4,2,7,50,0,0
198007,-133.333333333333,4,2,2,50,0,0
198346,-133.333333333333,4,2,7,50,0,0
198515,-83.3333333333333,4,2,3,50,0,0
199024,-100,4,2,3,50,0,0
199871,-100,4,2,2,50,0,0
200040,-100,4,2,1,60,0,0
200379,-100,4,2,5,50,0,0
200549,-100,4,2,5,55,0,0
200718,-100,4,2,5,60,0,0
200888,-100,4,2,5,65,0,0
201057,-100,4,2,5,70,0,0
201227,-100,4,2,5,75,0,0
201396,-100,4,2,2,80,0,0
201735,-100,4,2,2,50,0,0
202752,-100,4,2,3,70,0,0
205125,-100,4,2,4,70,0,0
205464,-100,4,2,2,70,0,0
206481,-100,4,2,4,70,0,0
206820,-100,4,2,3,70,0,0
209193,-100,4,2,5,70,0,0
209532,-100,4,2,2,70,0,0
210379,-100,4,2,5,70,0,0
210888,-100,4,2,3,70,0,0
211396,-100,4,2,6,70,0,0
212244,-100,4,2,1,70,0,0
213600,-100,4,2,1,10,0,0

[Colours]
Combo1 : 255,176,98
Combo2 : 255,255,128
Combo3 : 255,128,128

[HitObjects]
34,51,718,6,0,P|180:62|174:195,1,300.599990826416,6|2,3:2|3:2,0:0:0:0:
133,250,1905,1,0,3:3:0:0:
133,250,2074,2,0,P|215:370|327:299,1,300.599990826416,2|2,3:2|2:2,0:0:0:0:
426,206,3261,1,0,3:3:0:0:
456,309,3430,6,0,B|319:337|311:209|315:206|319:201|268:60|135:122,1,400.799987768555,6|2,3:2|2:2,0:0:0:0:
157,114,5125,5,0,3:3:0:0:
69,90,5295,2,0,P|84:138|99:200,1,100.199996942139,12|8,2:2|2:2,0:0:0:0:
79,263,5803,2,0,P|105:275|143:297,1,50.0999984710694,6|0,2:2|0:0,0:0:0:0:
10,310,6142,6,0,P|184:245|301:211,1,300.599990826416,6|2,3:2|3:2,0:0:0:0:
425,225,7329,1,0,1:1:0:0:
362,155,7498,2,0,P|320:213|348:279,1,150.299995413208,6|8,3:2|2:2,0:0:0:0:
440,314,8176,5,10,2:2:0:0:
440,314,8346,1,4,2:2:0:0:
361,376,8515,1,6,2:2:0:0:
361,376,8685,1,0,3:3:0:0:
271,328,8854,2,0,P|219:340|172:356,3,100.199996942139,6|0|2|2,3:2|1:1|3:2|2:2,0:0:0:0:
174,355,10210,6,0,P|168:326|160:297,1,50.0999984710694,6|2,3:2|3:2,0:0:0:0:
209,237,10549,1,2,3:2:0:0:
213,224,10718,1,2,3:2:0:0:
101,183,10888,1,2,3:2:0:0:
97,170,11057,1,0,3:3:0:0:
211,90,11227,2,0,P|217:52|229:15,1,75.1499977066041,2|0,1:2|0:1,0:0:0:0:
228,17,11566,6,0,P|187:9|146:0,1,83.5,14|0,3:2|0:0,0:0:0:0:
19,63,11905,2,0,P|59:70|100:81,1,83.5,8|0,3:2|0:0,0:0:0:0:
281,182,12244,5,10,2:2:0:0:
300,72,12413,1,0,3:3:0:0:
401,138,12583,5,8,2:2:0:0:
420,28,12752,1,0,3:3:0:0:
505,206,12922,6,0,B|417:215|463:280|344:284,1,167,10|8,3:2|3:2,0:0:0:0:
258,356,13430,2,0,P|251:314|237:271,1,83.5,2|10,0:0|2:2,0:0:0:0:
370,381,13769,1,0,3:3:0:0:
370,381,13854,1,0,3:3:0:0:
370,381,13939,1,10,2:2:0:0:
452,281,14108,1,2,3:2:0:0:
312,176,14278,6,0,P|268:171|220:162,1,83.5,10|0,3:2|0:0,0:0:0:0:
119,88,14617,1,8,3:2:0:0:
153,214,14786,1,2,0:0:0:0:
58,306,14956,5,10,2:2:0:0:
160,220,15125,1,0,3:3:0:0:
15,140,15295,2,0,P|27:180|38:226,1,83.5,10|2,2:2|3:2,0:0:0:0:
205,356,15634,6,0,P|279:337|304:255,1,167,10|10,3:2|3:2,0:0:0:0:
448,152,16142,2,0,P|410:174|401:220,1,83.5,2|10,0:0|2:2,0:0:0:0:
295,146,16481,1,0,3:3:0:0:
295,146,16566,1,0,3:3:0:0:
295,146,16651,2,0,P|222:126|125:105,1,150.299995413208,14|0,2:2|0:1,0:0:0:0:
149,109,16990,6,0,P|136:55|120:5,1,100.199996942139,14|0,3:2|0:0,0:0:0:0:
50,171,17329,1,8,3:2:0:0:
21,69,17498,1,0,0:0:0:0:
46,183,17668,5,10,2:2:0:0:
149,210,17837,1,0,3:3:0:0:
49,332,18007,2,0,P|13:314|0:276,1,83.5,10|2,2:2|3:2,0:0:0:0:
138,381,18346,6,0,B|231:366|187:310|301:290,1,167,10|8,3:2|3:2,0:0:0:0:
401,211,18854,2,0,P|439:222|451:280,1,83.5,2|10,0:0|2:2,0:0:0:0:
385,384,19193,1,2,3:2:0:0:
385,384,19278,1,0,3:3:0:0:
385,384,19363,2,0,P|376:336|366:300,1,83.5,10|2,2:2|3:2,0:0:0:0:
304,88,19701,5,6,2:2:0:0:
491,153,19871,1,8,2:2:0:0:
304,88,20040,1,8,2:2:0:0:
424,25,20210,5,8,2:2:0:0:
424,25,20295,1,8,2:2:0:0:
424,25,20379,2,0,P|410:71|399:117,1,83.5,10|8,2:2|2:2,0:0:0:0:
236,212,20718,2,0,P|225:171|213:131,1,83.5,4|4,2:2|2:2,0:0:0:0:
81,0,21057,6,0,B|44:14|8:23|8:23|33:91|54:176,1,233.79999286499,6|0,3:2|0:0,0:0:0:0:
135,86,21905,1,0,3:3:0:0:
135,86,21990,1,8,2:2:0:0:
135,86,22074,1,0,3:3:0:0:
0,20,22244,1,4,2:2:0:0:
3,252,22413,6,0,P|39:260|76:271,1,66.8,4|0,3:2|0:0,0:0:0:0:
130,356,22752,2,0,P|162:346|195:339,1,66.8,0|0,3:3|0:0,0:0:0:0:
252,262,23091,2,0,P|288:270|325:281,2,66.8,2|2|2,3:2|2:2|3:2,0:0:0:0:
380,352,23600,1,2,2:2:0:0:
470,303,23769,1,0,3:3:0:0:
470,303,24108,6,0,P|479:266|494:218,1,66.8,2|0,3:2|0:0,0:0:0:0:
399,242,24447,2,0,P|408:205|423:157,1,66.8,2|0,3:2|0:0,0:0:0:0:
328,181,24786,2,0,P|337:144|352:96,1,66.8,2|0,3:2|0:0,0:0:0:0:
512,15,25125,6,0,P|500:69|416:84,1,133.6,2|2,3:2|3:2,0:0:0:0:
315,18,25634,1,2,2:2:0:0:
308,16,25803,2,0,P|275:32|272:79,1,66.8,2|2,3:2|2:2,0:0:0:0:
181,92,26142,2,0,P|177:124|198:150,1,66.8,2|2,3:2|2:2,0:0:0:0:
180,248,26481,6,0,P|243:266|319:295,1,133.6,0|0,3:3|3:3,0:0:0:0:
113,175,26990,1,8,2:2:0:0:
45,265,27159,2,0,P|37:232|28:200,1,66.8,0|8,3:3|2:2,0:0:0:0:
96,110,27498,2,0,P|103:142|112:174,1,66.8,0|4,3:3|2:2,0:0:0:0:
42,39,27837,6,0,P|76:30|124:13,1,66.8,0|0,3:3|0:0,0:0:0:0:
198,98,28176,2,0,P|232:107|280:124,1,66.8,0|0,3:3|0:0,0:0:0:0:
344,21,28515,2,0,P|378:12|426:-5,2,66.8,2|2|2,3:2|2:2|3:2,0:0:0:0:
484,56,29023,1,2,2:2:0:0:
452,143,29193,1,0,3:3:0:0:
452,143,29532,6,0,P|461:180|476:228,1,66.8,2|0,3:2|0:0,0:0:0:0:
366,164,29871,2,0,P|375:201|390:249,1,66.8,2|0,3:2|0:0,0:0:0:0:
281,182,30210,2,0,P|290:219|305:267,1,66.8,2|0,3:2|0:0,0:0:0:0:
188,384,30549,6,0,P|120:369|106:288,1,133.6,0|0,3:3|3:3,0:0:0:0:
169,244,31057,1,0,0:0:0:0:
47,225,31227,2,0,L|16:121,1,100.2,2|8,3:2|2:2,0:0:0:0:
16,122,31566,1,0,3:3:0:0:
118,155,31735,1,8,2:2:0:0:
96,57,31905,5,6,3:2:0:0:
47,225,32074,1,8,2:2:0:0:
96,57,32244,1,8,2:2:0:0:
216,183,32413,1,8,2:2:0:0:
216,183,32498,1,8,2:2:0:0:
216,183,32583,1,10,2:2:0:0:
118,155,32752,1,4,2:2:0:0:
228,274,32922,6,0,B|298:260|265:222|357:206,1,125.25,12|2,3:2|2:2,0:0:0:0:
340,206,33261,2,0,P|350:167|366:113,1,83.5,4|0,3:2|0:0,0:0:0:0:
283,4,33600,2,0,B|254:37|254:37|292:88,1,83.5,10|0,2:2|0:0,0:0:0:0:
456,47,33938,1,2,3:2:0:0:
456,47,34108,1,0,3:3:0:0:
500,128,34278,1,10,2:2:0:0:
430,190,34447,6,0,P|355:166|251:149,1,167,2|0,3:2|3:3,0:0:0:0:
172,0,34956,2,0,P|124:16|111:57,1,83.5,10|0,2:2|0:0,0:0:0:0:
173,172,35295,1,2,3:2:0:0:
188,87,35464,1,0,3:3:0:0:
173,172,35634,2,0,L|160:258,1,83.5,10|2,2:2|3:2,0:0:0:0:
59,362,35973,6,0,P|14:343|5:293,1,83.5,0|0,3:3|0:0,0:0:0:0:
149,345,36312,1,8,2:2:0:0:
149,345,36651,5,2,3:2:0:0:
225,317,36820,1,2,3:2:0:0:
301,289,36990,1,10,2:2:0:0:
348,205,37159,6,0,B|442:228|400:273|495:299,1,167,2|0,3:2|3:3,0:0:0:0:
512,123,37668,2,0,P|504:162|495:211,1,83.5,10|0,2:2|0:0,0:0:0:0:
468,384,38007,1,2,3:2:0:0:
468,384,38176,1,0,3:3:0:0:
395,336,38346,2,0,P|403:297|412:248,1,83.5,10|2,2:2|3:2,0:0:0:0:
348,116,38685,6,0,P|302:130|256:143,1,83.5,0|0,3:3|0:0,0:0:0:0:
108,69,39024,1,8,2:2:0:0:
176,176,39193,2,0,P|186:129|198:82,2,83.5,2|2|2,2:2|3:2|3:2,0:0:0:0:
271,46,39701,1,8,2:2:0:0:
191,85,39871,6,0,P|171:163|147:263,1,167,2|2,3:2|3:2,0:0:0:0:
18,171,40379,2,0,P|30:215|41:264,1,83.5,10|0,2:2|0:0,0:0:0:0:
127,342,40718,1,0,3:3:0:0:
43,381,40888,1,0,3:3:0:0:
127,342,41057,2,0,P|168:334|218:326,1,83.5,10|2,2:2|2:2,0:0:0:0:
363,199,41396,6,0,P|406:217|419:257,1,83.5,2|0,3:2|0:0,0:0:0:0:
320,379,41735,2,0,P|313:339|302:295,1,83.5,10|2,2:2|2:2,0:0:0:0:
412,339,42074,1,2,3:2:0:0:
412,339,42244,1,0,3:3:0:0:
495,281,42413,2,0,P|502:322|512:362,1,83.5,10|0,2:2|0:0,0:0:0:0:
363,199,42752,5,2,3:2:0:0:
512,97,42922,1,8,2:2:0:0:
363,199,43091,1,8,2:2:0:0:
433,32,43261,5,2,3:2:0:0:
433,32,43346,1,8,2:2:0:0:
433,32,43430,2,0,P|425:73|418:117,1,83.5,10|8,2:2|2:2,0:0:0:0:
328,95,43769,2,0,P|336:54|343:10,1,83.5,8|4,2:2|2:2,0:0:0:0:
465,195,44108,5,14,3:2:0:0:
297,291,44278,1,14,3:2:0:0:
297,301,44786,5,10,3:2:0:0:
465,205,44956,1,8,3:2:0:0:
258,382,45295,6,0,B|164:365|216:315|102:301,1,167,6|2,3:2|3:2,0:0:0:0:
0,384,45803,2,0,P|14:342|27:291,1,83.5,10|2,2:2|2:2,0:0:0:0:
3,171,46142,1,2,3:2:0:0:
3,171,46312,1,0,3:3:0:0:
69,229,46481,2,0,P|112:215|163:192,1,83.5,0|0,1:1|3:3,0:0:0:0:
190,63,46820,5,14,3:2:0:0:
358,159,46990,1,14,3:2:0:0:
359,169,47498,5,10,3:2:0:0:
191,73,47668,1,10,3:2:0:0:
441,124,48007,6,0,P|385:168|415:269,1,167,6|0,3:2|3:3,0:0:0:0:
491,369,48515,2,0,P|456:341|408:344,1,83.5,10|0,2:2|0:0,0:0:0:0:
485,261,48854,1,2,3:2:0:0:
338,377,49024,1,0,3:3:0:0:
338,377,49108,1,0,3:3:0:0:
338,377,49193,2,0,P|325:324|313:284,1,83.5,14|0,2:2|0:0,0:0:0:0:
280,95,49532,5,14,3:2:0:0:
104,146,49701,1,14,3:2:0:0:
100,156,50210,5,10,3:2:0:0:
276,105,50379,1,10,3:2:0:0:
22,93,50718,6,0,P|11:50|-3:7,2,83.5,6|2|0,3:2|3:2|3:3,0:0:0:0:
180,203,51227,2,0,P|191:246|205:289,1,83.5,8|2,2:2|3:2,0:0:0:0:
100,156,51566,5,10,2:2:0:0:
7,189,51735,1,10,2:2:0:0:
104,146,51905,5,10,2:2:0:0:
197,113,52074,1,6,2:2:0:0:
292,216,52244,5,6,3:2:0:0:
292,216,52583,6,0,P|332:199|377:183,1,83.5,10|0,3:2|0:0,0:0:0:0:
439,39,52922,2,0,P|399:56|354:72,1,83.5,10|2,2:2|3:2,0:0:0:0:
467,191,53261,1,10,2:2:0:0:
512,110,53430,1,2,3:2:0:0:
369,185,53600,6,0,P|384:228|398:274,1,83.5,10|0,2:2|3:3,0:0:0:0:
235,374,53939,2,0,P|247:334|261:294,1,83.5,8|2,2:2|2:2,0:0:0:0:
352,349,54278,1,10,2:2:0:0:
266,201,54447,1,2,3:2:0:0:
266,201,54532,1,0,3:3:0:0:
266,201,54617,2,0,P|188:177|109:160,1,150.299995413208,6|0,1:2|0:0,0:0:0:0:
94,166,54956,6,0,P|190:186|288:217,1,200.399993884278,6|0,3:2|1:1,0:0:0:0:
358,16,55464,6,0,P|292:89|216:158,1,200.399993884278,6|0,3:2|1:1,0:0:0:0:
356,319,55973,6,0,P|325:225|303:125,1,200.399993884278,6|0,3:2|1:1,0:0:0:0:
372,327,56481,1,6,3:2:0:0:
372,327,57159,5,8,3:2:0:0:
374,316,57244,1,8,3:2:0:0:
376,306,57329,2,0,B|350:292|350:292|216:333,1,150.299995413208,10|0,2:2|2:2,0:0:0:0:
227,334,57668,6,0,P|181:318|135:307,1,91.8500028030396,14|0,3:2|0:0,0:0:0:0:
87,150,58007,2,0,P|41:166|-5:177,1,91.8500028030396,10|0,2:2|0:0,0:0:0:0:
101,55,58346,1,2,3:2:0:0:
186,176,58515,1,0,3:3:0:0:
297,42,58685,2,0,P|282:87|268:139,1,91.8500028030396,10|0,2:2|3:3,0:0:0:0:
405,18,59024,6,0,P|464:42|474:85,1,91.8500028030396,2|0,3:2|0:0,0:0:0:0:
375,137,59363,1,10,2:2:0:0:
496,171,59532,1,0,3:3:0:0:
406,236,59701,2,0,P|395:191|384:139,1,91.8500028030396,2|0,2:2|3:2,0:0:0:0:
424,323,60040,2,0,P|374:334|322:349,1,91.8500028030396,10|0,2:2|2:2,0:0:0:0:
147,221,60379,6,0,P|97:209|45:195,1,91.8500028030396,2|0,3:2|0:0,0:0:0:0:
199,384,60718,2,0,P|207:335|221:287,1,91.8500028030396,10|0,2:2|0:0,0:0:0:0:
364,92,61057,6,0,P|413:80|466:66,1,91.8500028030396,2|0,3:2|3:3,0:0:0:0:
312,255,61396,2,0,P|303:206|290:158,1,91.8500028030396,10|0,2:2|2:2,0:0:0:0:
96,0,61735,6,0,P|19:37|12:139,1,183.700005606079,2|8,3:2|2:2,0:0:0:0:
91,197,62244,1,0,3:3:0:0:
177,59,62413,2,0,P|218:92|203:154,1,91.8500028030396,2|0,2:2|3:3,0:0:0:0:
100,108,62752,2,0,P|120:179|143:279,1,162.824992546463,14|0,2:2|0:3,0:0:0:0:
136,272,63091,6,0,P|88:285|36:302,1,91.8500028030396,6|0,3:2|0:0,0:0:0:0:
219,138,63430,2,0,P|267:125|319:108,1,91.8500028030396,10|0,2:2|0:0,0:0:0:0:
462,146,63769,1,2,3:2:0:0:
356,36,63939,1,0,3:3:0:0:
284,212,64108,2,0,P|299:263|312:315,1,91.8500028030396,10|0,2:2|2:2,0:0:0:0:
497,337,64447,6,0,P|500:262|429:242,1,137.775004204559,2|0,3:2|0:0,0:0:0:0:
443,240,64786,1,8,2:2:0:0:
388,355,64956,1,0,3:3:0:0:
284,212,65125,2,0,P|299:263|312:315,1,91.8500028030396,2|0,2:2|3:3,0:0:0:0:
206,384,65464,2,0,P|194:339|181:295,1,91.8500028030396,10|0,2:2|0:0,0:0:0:0:
7,149,65803,6,0,P|75:164|87:235,1,137.775004204559,6|0,3:2|0:0,0:0:0:0:
91,232,66142,2,0,P|137:215|188:201,1,91.8500028030396,10|0,2:2|0:0,0:0:0:0:
238,29,66481,1,2,3:2:0:0:
344,65,66651,1,0,3:3:0:0:
230,38,66820,2,0,P|243:85|257:143,1,91.8500028030396,10|0,2:2|3:3,0:0:0:0:
438,306,67159,5,6,3:2:0:0:
431,126,67329,1,8,2:2:0:0:
279,222,67498,1,8,2:2:0:0:
389,216,67668,5,10,2:2:0:0:
389,216,67752,1,8,2:2:0:0:
389,216,67837,1,6,2:2:0:0:
316,334,68007,1,0,3:3:0:0:
191,186,68176,2,0,P|106:163|10:145,1,162.824992546463,8|0,2:2|2:2,0:0:0:0:
25,143,68515,6,0,P|15:187|1:237,1,91.8500028030396,14|0,3:2|0:0,0:0:0:0:
201,183,68854,2,0,P|211:138|223:93,1,91.8500028030396,10|0,2:2|0:0,0:0:0:0:
105,241,69193,1,2,3:2:0:0:
228,326,69363,1,0,3:3:0:0:
53,374,69532,2,0,P|102:358|162:345,1,91.8500028030396,10|0,2:2|0:0,0:0:0:0:
292,235,69871,6,0,P|341:250|401:264,1,91.8500028030396,2|0,3:2|0:0,0:0:0:0:
485,380,70210,2,0,P|436:370|417:319,1,91.8500028030396,10|0,2:2|3:3,0:0:0:0:
512,158,70549,1,2,2:2:0:0:
488,287,70718,1,0,3:3:0:0:
400,160,70888,2,0,P|355:148|311:135,1,91.8500028030396,10|0,2:2|2:2,0:0:0:0:
30,17,71227,6,0,P|42:65|50:114,1,91.8500028030396,2|0,3:2|0:0,0:0:0:0:
218,166,71566,2,0,P|225:120|237:76,1,91.8500028030396,10|0,2:2|0:0,0:0:0:0:
104,214,71905,6,0,P|116:262|124:311,1,91.8500028030396,2|0,3:2|3:3,0:0:0:0:
288,363,72244,2,0,P|295:317|307:273,1,91.8500028030396,10|0,2:2|2:2,0:0:0:0:
471,55,72583,6,0,P|496:130|416:179,1,183.700005606079,2|8,3:2|2:2,0:0:0:0:
345,76,73091,1,0,3:3:0:0:
300,171,73261,2,0,P|256:180|194:198,1,91.8500028030396,2|0,2:2|3:3,0:0:0:0:
31,20,73600,2,0,P|107:21|135:110,1,162.824992546463,14|0,2:2|0:3,0:0:0:0:
134,96,73939,6,0,P|98:124|104:180,1,91.8500028030396,6|0,3:2|0:0,0:0:0:0:
122,276,74278,2,0,P|77:263|32:254,1,91.8500028030396,8|0,2:2|0:0,0:0:0:0:
138,375,74617,1,0,3:3:0:0:
138,375,74786,1,0,3:3:0:0:
299,294,74956,2,0,P|254:303|209:315,1,91.8500028030396,10|0,2:2|2:2,0:0:0:0:
359,208,75295,5,2,3:2:0:0:
414,363,75464,2,0,P|437:285|477:185,1,162.824992546463,14|0,2:2|0:0,0:0:0:0:
472,206,75803,1,2,3:2:0:0:
335,114,75973,6,0,P|326:69|313:18,1,93.9375035834314,14|0,2:2|0:0,0:0:0:0:
320,18,76312,2,0,P|289:10|252:-5,1,62.6250023889543,10|0,2:2|2:2,0:0:0:0:
511,87,76651,6,0,P|464:97|407:121,1,83.5,14|0,3:2|0:0,0:0:0:0:
352,219,76990,2,0,P|312:204|272:195,1,83.5,8|0,3:2|0:0,0:0:0:0:
161,219,77329,5,10,2:2:0:0:
191,123,77498,1,0,3:3:0:0:
78,131,77668,5,8,2:2:0:0:
108,35,77837,1,0,3:3:0:0:
7,221,78007,6,0,B|91:237|49:294|151:320,1,167,10|8,3:2|3:2,0:0:0:0:
24,381,78515,2,0,P|37:343|50:294,1,83.5,2|10,0:0|2:2,0:0:0:0:
169,226,78854,1,0,3:3:0:0:
169,226,78939,1,0,3:3:0:0:
169,226,79024,1,10,2:2:0:0:
240,351,79193,1,2,3:2:0:0:
375,253,79363,6,0,P|385:212|399:173,1,83.5,10|0,3:2|0:0,0:0:0:0:
512,289,79701,1,8,3:2:0:0:
409,346,79871,1,2,0:0:0:0:
375,253,80040,5,10,2:2:0:0:
272,196,80210,1,0,3:3:0:0:
354,91,80379,2,0,P|396:85|444:74,1,83.5,10|0,2:2|3:2,0:0:0:0:
270,14,80718,6,0,B|181:34|229:87|126:116,1,167,10|10,3:2|3:2,0:0:0:0:
25,2,81227,2,0,P|66:25|66:81,1,83.5,2|10,0:0|2:2,0:0:0:0:
4,170,81566,1,2,3:2:0:0:
2,162,81651,1,2,3:2:0:0:
0,154,81735,2,0,B|52:167|52:167|74:203|74:203|148:223,1,150.299995413208,14|0,2:2|0:1,0:0:0:0:
132,224,82074,6,0,P|171:209|240:189,1,100.199996942139,14|0,3:2|0:0,0:0:0:0:
259,21,82413,1,8,3:2:0:0:
286,118,82583,1,2,0:0:0:0:
390,134,82752,5,10,2:2:0:0:
293,109,82922,1,0,3:3:0:0:
484,5,83091,2,0,P|472:46|465:96,1,83.5,10|2,2:2|3:2,0:0:0:0:
512,203,83430,6,0,P|428:211|386:295,1,167,10|8,3:2|3:2,0:0:0:0:
498,383,83939,2,0,P|458:369|398:355,1,83.5,0|10,0:0|2:2,0:0:0:0:
304,249,84278,1,2,3:2:0:0:
304,249,84363,1,0,3:3:0:0:
304,249,84447,2,0,P|264:262|204:277,1,83.5,10|2,2:2|3:2,0:0:0:0:
372,182,84786,5,6,2:2:0:0:
290,348,84956,1,8,2:2:0:0:
156,211,85125,1,8,2:2:0:0:
88,317,85295,1,8,2:2:0:0:
88,317,85379,1,8,2:2:0:0:
88,317,85464,2,0,P|77:271|64:233,1,83.5,8|8,2:2|2:2,0:0:0:0:
156,211,85803,2,0,P|166:256|180:295,1,83.5,4|4,2:2|2:2,0:0:0:0:
216,101,86142,6,0,P|180:27|85:19,1,175.349994648743,6|0,3:2|3:3,0:0:0:0:
89,21,86735,1,0,3:3:0:0:
86,27,86820,1,8,2:2:0:0:
1,62,86990,1,8,2:2:0:0:
27,147,87159,2,0,P|73:134|125:123,1,87.6749973243714,4|0,2:2|0:0,0:0:0:0:
119,125,87498,1,4,3:2:0:0:
119,125,88176,6,0,P|136:132|176:143,2,41.75,2|2|2,0:0|0:0|0:0,0:0:0:0:
221,84,88685,1,2,0:0:0:0:
221,84,89193,5,2,0:0:0:0:
298,174,89532,1,2,0:0:0:0:
414,152,89871,2,0,B|315:120|279:221|285:227|290:234|242:320|135:279,1,334,2|0,0:0|0:0,0:0:0:0:
141,281,91566,6,0,P|123:205|94:117,2,167,2|2|2,0:0|0:0|0:0,0:0:0:0:
141,281,93600,6,0,L|95:319,2,41.75,2|2|2,0:0|0:0|0:0,0:0:0:0:
47,262,94108,1,2,0:0:0:0:
47,262,94617,6,0,P|86:272|109:325,2,83.5,2|2|2,0:0|0:0|0:0,0:0:0:0:
162,234,95634,6,0,P|200:208|214:165,1,83.5,2|0,0:0|0:0,0:0:0:0:
283,127,96312,2,0,P|279:81|249:47,1,83.5,2|0,0:0|0:0,0:0:0:0:
191,0,96990,1,6,2:2:0:0:
146,211,97329,5,0,3:3:0:0:
172,108,97498,2,0,P|232:127|308:158,1,116.899996432495,14|8,2:2|2:2,0:0:0:0:
402,149,98007,2,0,P|393:111|335:93,1,87.6749973243714,6|0,2:2|2:2,0:0:0:0:
345,90,98346,6,0,P|322:150|290:255,1,150.299995413208,6|0,3:2|3:3,0:0:0:0:
224,280,98854,1,2,2:2:0:0:
365,359,99024,2,0,P|358:323|351:274,1,75.1499977066041,2|2,3:2|2:2,0:0:0:0:
357,276,99278,1,8,2:2:0:0:
361,269,99363,1,6,3:2:0:0:
446,311,99532,1,2,2:2:0:0:
269,354,99701,6,0,B|188:346|215:289|115:278,1,150.299995413208,2|2,3:2|3:2,0:0:0:0:
32,301,100210,1,2,2:2:0:0:
113,360,100379,2,0,P|121:323|132:285,1,75.1499977066041,2|0,3:2|0:0,0:0:0:0:
41,85,100718,1,10,3:2:0:0:
41,85,101057,6,0,P|68:155|153:157,1,150.299995413208,2|2,3:2|3:2,0:0:0:0:
186,76,101566,1,2,2:2:0:0:
273,132,101735,2,0,P|316:119|356:110,1,75.1499977066041,2|2,3:2|2:2,0:0:0:0:
345,112,101990,1,8,2:2:0:0:
345,112,102074,1,6,3:2:0:0:
418,39,102244,1,2,2:2:0:0:
492,108,102413,6,0,P|474:186|458:282,1,150.299995413208,2|2,3:2|3:2,0:0:0:0:
301,326,102922,1,2,1:2:0:0:
393,343,103091,2,0,P|382:306|374:270,1,75.1499977066041,10|8,3:2|2:2,0:0:0:0:
210,312,103430,2,0,P|220:348|228:384,1,75.1499977066041,6|6,3:2|2:2,0:0:0:0:
282,230,103769,6,0,B|194:212|239:176|141:156,1,150.299995413208,2|2,3:2|3:2,0:0:0:0:
71,216,104278,1,2,2:2:0:0:
21,140,104447,2,0,P|30:101|66:82,1,75.1499977066041,2|2,3:2|2:2,0:0:0:0:
58,83,104701,1,8,2:2:0:0:
58,83,104786,1,4,3:2:0:0:
225,85,104956,1,2,2:2:0:0:
129,40,105125,6,0,P|145:95|156:149,1,112.724996559906,2|2,3:2|2:2,0:0:0:0:
163,154,105464,1,2,3:2:0:0:
190,235,105634,1,2,2:2:0:0:
125,296,105803,2,0,P|87:286|52:279,1,75.1499977066041,2|2,3:2|2:2,0:0:0:0:
46,281,106057,1,8,2:2:0:0:
40,284,106142,1,10,3:2:0:0:
160,374,106312,1,2,2:2:0:0:
255,290,106481,6,0,P|319:268|389:249,1,137.775004204559,2|2,3:2|2:2,0:0:0:0:
391,243,106820,2,0,B|429:273|429:273|415:337,1,91.8500028030396,2|2,3:2|2:2,0:0:0:0:
310,223,107159,2,0,B|316:175|316:175|379:155,1,91.8500028030396,2|2,3:2|2:2,0:0:0:0:
364,160,107413,1,8,2:2:0:0:
371,158,107498,1,2,3:2:0:0:
412,0,107668,1,4,2:2:0:0:
325,21,107837,5,6,3:2:0:0:
456,146,108007,1,8,2:2:0:0:
482,53,108176,5,8,2:2:0:0:
306,103,108346,1,2,3:2:0:0:
160,2,108515,6,0,L|144:73,1,62.6250023889543,2|8,1:2|2:2,0:0:0:0:
224,76,108854,2,0,L|239:4,1,62.6250023889543,8|4,3:2|2:2,0:0:0:0:
57,159,109193,5,14,3:2:0:0:
124,342,109363,1,14,3:2:0:0:
132,342,109870,5,10,3:2:0:0:
65,159,110040,1,8,3:2:0:0:
300,246,110379,6,0,P|383:264|465:287,1,167,6|2,3:2|3:2,0:0:0:0:
300,365,110888,2,0,P|258:354|244:308,1,83.5,10|2,2:2|2:2,0:0:0:0:
383,303,111227,1,2,3:2:0:0:
383,303,111396,1,0,3:3:0:0:
407,213,111566,2,0,P|397:253|389:302,1,83.5,0|0,1:1|3:3,0:0:0:0:
306,155,111905,5,14,3:2:0:0:
107,106,112074,1,14,3:2:0:0:
104,97,112583,5,10,3:2:0:0:
303,146,112752,1,10,3:2:0:0:
41,33,113091,6,0,P|60:115|80:214,1,167,6|0,3:2|3:3,0:0:0:0:
191,61,113600,2,0,P|165:16|125:12,1,83.5,10|0,2:2|0:0,0:0:0:0:
24,143,113939,1,2,3:2:0:0:
24,143,114108,1,0,3:3:0:0:
151,170,114278,2,0,P|191:177|245:194,1,83.5,14|0,2:2|0:0,0:0:0:0:
464,239,114617,5,14,3:2:0:0:
269,291,114786,1,14,3:2:0:0:
272,302,115295,5,10,3:2:0:0:
467,250,115464,1,10,3:2:0:0:
184,367,115803,6,0,P|174:322|159:270,2,83.5,6|2|0,3:2|3:2|3:3,0:0:0:0:
213,207,116312,5,8,2:2:0:0:
18,155,116481,1,2,3:2:0:0:
4,265,116651,6,0,P|43:250|83:240,1,83.5,10|10,2:2|2:2,0:0:0:0:
150,121,116990,2,0,P|190:110|229:96,1,83.5,10|6,2:2|2:2,0:0:0:0:
359,218,117329,1,6,3:2:0:0:
359,218,117668,6,0,P|416:237|490:267,1,125.25,10|0,3:2|0:0,0:0:0:0:
476,261,118007,2,0,P|459:306|446:358,1,83.5,10|2,2:2|3:2,0:0:0:0:
359,218,118346,2,0,P|375:172|389:121,1,83.5,10|2,2:2|3:2,0:0:0:0:
245,314,118685,2,0,B|149:297|198:251|91:225,1,167,10|8,2:2|2:2,0:0:0:0:
246,221,119193,1,2,2:2:0:0:
82,324,119363,1,10,2:2:0:0:
20,168,119531,1,2,3:2:0:0:
20,168,119616,1,0,3:3:0:0:
20,168,119701,2,0,P|46:240|79:349,1,150.299995413208,6|0,1:2|0:0,0:0:0:0:
82,324,120040,6,0,P|59:247|10:114,1,200.399993884278,6|0,3:2|1:1,0:0:0:0:
222,11,120549,6,0,P|187:105|158:200,1,200.399993884278,6|0,3:2|1:1,0:0:0:0:
351,370,121057,6,0,P|328:293|279:160,1,200.399993884278,6|0,3:2|1:1,0:0:0:0:
488,32,121566,6,0,P|453:126|424:221,1,200.399993884278,6|4,3:2|3:2,0:0:0:0:
424,221,122244,5,0,3:3:0:0:
452,319,122413,2,0,P|482:329|511:342,1,62.6250023889543,10|0,2:2|2:2,0:0:0:0:
352,163,122752,6,0,P|305:176|238:186,1,91.8500028030396,14|0,3:2|0:0,0:0:0:0:
134,354,123091,2,0,P|87:341|20:331,1,91.8500028030396,10|0,2:2|0:0,0:0:0:0:
164,238,123430,1,2,3:2:0:0:
249,358,123600,1,0,3:3:0:0:
158,233,123769,2,0,P|170:191|179:141,1,91.8500028030396,10|0,2:2|3:3,0:0:0:0:
25,24,124108,6,0,P|37:77|81:96,1,91.8500028030396,2|0,3:2|0:0,0:0:0:0:
179,32,124447,2,0,P|224:15|276:4,1,91.8500028030396,10|0,2:2|3:2,0:0:0:0:
312,127,124786,1,2,2:2:0:0:
410,37,124956,1,0,3:3:0:0:
473,186,125125,2,0,P|479:141|494:98,1,91.8500028030396,10|0,2:2|2:2,0:0:0:0:
366,359,125464,6,0,P|413:371|472:391,1,91.8500028030396,2|0,3:2|0:0,0:0:0:0:
317,210,125803,2,0,P|305:257|285:316,1,91.8500028030396,10|0,2:2|0:0,0:0:0:0:
93,238,126142,6,0,P|46:250|-13:270,1,91.8500028030396,2|0,3:2|3:3,0:0:0:0:
142,89,126481,2,0,P|154:136|174:195,1,91.8500028030396,10|0,2:2|2:2,0:0:0:0:
377,3,126820,6,0,P|459:27|470:128,1,183.700005606079,2|8,3:2|2:2,0:0:0:0:
327,167,127329,1,0,3:3:0:0:
292,39,127498,2,0,P|248:61|241:117,1,91.8500028030396,2|0,2:2|3:3,0:0:0:0:
383,94,127837,2,0,P|359:163|339:259,1,162.824992546463,14|0,2:2|0:3,0:0:0:0:
338,260,128176,6,0,P|279:277|228:298,1,91.8500028030396,6|0,3:2|0:0,0:0:0:0:
106,134,128515,2,0,P|47:117|-4:96,1,91.8500028030396,10|0,2:2|0:0,0:0:0:0:
157,240,128854,1,2,3:2:0:0:
253,88,129024,1,0,3:3:0:0:
148,248,129193,2,0,P|162:290|174:342,1,91.8500028030396,10|0,2:2|3:3,0:0:0:0:
380,365,129532,6,0,P|449:363|476:291,1,137.775004204559,2|0,3:2|0:0,0:0:0:0:
475,302,129871,1,8,2:2:0:0:
357,194,130040,1,0,3:3:0:0:
476,108,130210,2,0,P|466:155|458:201,1,91.8500028030396,2|0,2:2|3:2,0:0:0:0:
335,288,130549,2,0,P|286:272|227:260,1,91.8500028030396,10|0,2:2|0:0,0:0:0:0:
95,102,130888,6,0,P|35:137|42:220,1,137.775004204559,6|0,3:2|0:0,0:0:0:0:
36,203,131227,2,0,P|82:214|129:229,1,91.8500028030396,10|0,2:2|0:0,0:0:0:0:
199,51,131566,1,2,3:2:0:0:
320,87,131735,1,0,3:3:0:0:
218,150,131905,2,0,P|209:105|200:61,1,91.8500028030396,10|0,2:2|3:3,0:0:0:0:
325,185,132244,5,6,3:2:0:0:
246,375,132413,1,8,2:2:0:0:
329,178,132583,1,8,2:2:0:0:
360,369,132752,5,10,2:2:0:0:
360,369,132837,1,8,2:2:0:0:
360,369,132922,1,6,2:2:0:0:
245,237,133091,1,0,3:3:0:0:
413,117,133261,2,0,B|445:153|445:153|411:271,1,162.824992546463,8|0,2:2|2:2,0:0:0:0:
424,274,133600,6,0,L|450:184,1,91.8500028030396,14|0,3:2|0:0,0:0:0:0:
359,24,133939,2,0,B|314:41|314:41|297:105,1,91.8500028030396,10|0,2:2|0:0,0:0:0:0:
495,84,134278,1,2,3:2:0:0:
332,178,134447,1,0,3:3:0:0:
233,16,134617,2,0,L|208:124,1,91.8500028030396,10|0,2:2|0:0,0:0:0:0:
88,247,134956,6,0,P|49:234|-20:220,1,91.8500028030396,2|0,3:2|0:0,0:0:0:0:
197,363,135295,2,0,P|235:350|305:336,1,91.8500028030396,10|0,2:2|3:3,0:0:0:0:
110,384,135634,1,2,2:2:0:0:
196,242,135803,1,0,3:3:0:0:
43,147,135973,2,0,P|5:173|2:223,1,91.8500028030396,10|0,2:2|2:3,0:0:0:0:
197,363,136312,6,0,P|235:350|305:336,1,91.8500028030396,2|0,3:2|0:0,0:0:0:0:
456,180,136651,2,0,P|417:192|348:207,1,91.8500028030396,10|0,2:2|0:0,0:0:0:0:
196,373,136990,6,0,P|234:360|304:346,1,91.8500028030396,2|0,3:2|3:3,0:0:0:0:
461,169,137329,2,0,P|422:181|353:196,1,91.8500028030396,10|0,2:2|2:2,0:0:0:0:
148,24,137668,6,0,P|228:31|269:136,1,183.700005606079,2|8,3:2|2:2,0:0:0:0:
83,152,138176,1,0,3:3:0:0:
166,210,138346,2,0,P|173:167|191:91,1,91.8500028030396,2|0,2:2|3:3,0:0:0:0:
0,258,138685,2,0,B|91:273|48:335|147:345,1,162.824992546463,14|0,2:2|0:3,0:0:0:0:
138,336,139024,6,0,P|187:319|240:306,1,91.8500028030396,6|0,3:2|0:0,0:0:0:0:
400,208,139363,2,0,P|449:225|502:238,1,91.8500028030396,8|0,2:2|0:0,0:0:0:0:
358,355,139701,1,0,3:3:0:0:
358,355,139871,1,0,3:3:0:0:
286,208,140040,2,0,P|277:160|261:100,1,91.8500028030396,10|0,2:2|2:2,0:0:0:0:
290,214,140379,5,2,3:2:0:0:
184,37,140549,2,0,B|70:66|131:126|0:151,1,217.099990061951,14|2,2:2|3:2,0:0:0:0:
10,31,141057,1,14,2:2:0:0:
187,142,141227,1,8,2:2:0:0:
187,142,141312,1,8,2:2:0:0:
187,142,141396,1,10,2:2:0:0:
100,210,141566,1,8,2:2:0:0:
272,76,141735,1,14,3:2:0:0:
256,192,141820,12,0,143091,3:3:0:0:
149,25,143430,6,0,P|149:61|175:87,1,75.1499977066041,2|0,3:2|0:0,0:0:0:0:
223,201,143769,2,0,P|249:175|249:138,1,75.1499977066041,2|0,3:2|0:0,0:0:0:0:
346,32,144108,2,0,P|293:19|252:56,1,112.724996559906,8|0,3:2|0:0,0:0:0:0:
248,63,144447,6,0,B|304:62|325:100|313:117|349:162|413:145,1,183.700005606079,2|0,3:2|3:2,0:0:0:0:
512,21,144956,1,2,0:0:0:0:
512,21,145040,1,2,0:0:0:0:
512,21,145125,2,0,P|494:77|481:136,1,112.724996559906,2|4,3:2|2:2,0:0:0:0:
482,129,145464,1,4,3:2:0:0:
365,372,145803,6,0,P|438:366|471:288,1,150.299995413208,2|2,3:2|3:2,0:0:0:0:
309,158,146312,1,0,1:1:0:0:
388,285,146481,1,10,3:2:0:0:
417,177,146651,1,4,2:2:0:0:
286,261,146820,2,0,P|217:242|139:228,1,137.775004204559,6|0,3:2|0:0,0:0:0:0:
142,234,147159,1,6,3:2:0:0:
13,109,147498,6,0,P|54:103|78:69,1,75.1499977066041,2|0,3:2|0:0,0:0:0:0:
230,68,147837,2,0,P|237:22|207:-7,1,75.1499977066041,2|0,3:2|0:0,0:0:0:0:
211,0,148091,1,8,2:3:0:0:
202,1,148176,2,0,P|157:43|168:105,1,112.724996559906,6|0,3:2|0:0,0:0:0:0:
152,100,148515,6,0,P|240:135|257:221,2,183.700005606079,2|0|0,3:2|3:0|3:0,0:0:0:0:
262,229,149363,2,0,P|276:206|309:200,1,45.9250014015198,2|8,0:0|0:0,0:0:0:0:
325,122,149532,1,8,3:2:0:0:
404,209,149701,1,2,0:0:0:0:
495,143,149871,6,0,P|503:103|519:53,1,75.1499977066041,2|0,3:2|0:0,0:0:0:0:
397,213,150210,2,0,P|389:253|373:303,1,75.1499977066041,2|0,3:2|0:0,0:0:0:0:
319,113,150549,2,0,P|354:71|419:95,1,112.724996559906,0|8,3:3|2:2,0:0:0:0:
410,86,150888,1,8,3:2:0:0:
496,240,151057,5,6,2:2:0:0:
496,240,151142,1,2,0:2:0:0:
496,240,151227,1,6,3:2:0:0:
374,300,151396,1,8,2:2:0:0:
289,193,151566,1,8,2:2:0:0:
159,262,151735,5,0,3:3:0:0:
159,262,151820,1,8,2:2:0:0:
159,262,151905,2,0,P|147:217|127:169,1,75.1499977066041,8|8,2:2|2:2,0:0:0:0:
300,112,152244,2,0,P|287:147|277:183,1,75.1499977066041,4|4,2:2|2:2,0:0:0:0:
246,28,152583,5,14,3:2:0:0:
444,96,152752,1,14,3:2:0:0:
438,106,153261,5,10,3:2:0:0:
240,37,153430,1,10,3:2:0:0:
512,43,153769,6,0,P|482:121|458:200,1,167,6|0,3:2|3:3,0:0:0:0:
443,218,154193,1,2,0:0:0:0:
443,218,154278,2,0,L|387:233,3,41.75,10|2|2|2,0:2|0:0|0:0|0:0,0:0:0:0:
373,304,154617,2,0,L|317:319,3,41.75,2|2|2|2,3:2|0:0|3:2|0:0,0:0:0:0:
275,257,154956,2,0,L|219:272,3,41.75,10|2|2|2,0:2|0:0|0:0|0:0,0:0:0:0:
179,335,155295,6,0,P|155:339|131:323,1,41.75,6|2,3:2|0:0,0:0:0:0:
60,338,155464,2,0,P|44:319|46:290,1,41.75,10|2,0:2|0:0,0:0:0:0:
0,236,155634,1,2,0:0:0:0:
1,215,155718,1,2,0:0:0:0:
9,196,155803,1,2,0:0:0:0:
22,180,155888,1,2,0:0:0:0:
40,170,155973,6,0,P|69:164|87:135,1,41.75,10|2,0:2|0:0,0:0:0:0:
154,147,156142,2,0,P|163:118|147:88,1,41.75,10|2,0:0|0:0,0:0:0:0:
181,32,156312,2,0,P|161:9|127:8,1,41.75,2|2,0:0|0:0,0:0:0:0:
72,42,156481,5,6,3:2:0:0:
54,42,156566,1,2,0:0:0:0:
40,49,156651,2,0,P|26:60|21:86,3,41.75,2|2|2|2,0:0|0:0|0:0|0:0,0:0:0:0:
77,143,156990,6,0,B|139:119|139:119|170:57|170:57|249:32,1,200.399993884278,6|2,3:2|3:2,0:0:0:0:
349,59,157498,1,0,3:3:0:0:
352,35,157583,1,0,3:3:0:0:
333,20,157668,2,0,B|312:96|312:96|314:100|314:100|296:166,1,150.299995413208,12|0,2:2|0:0,0:0:0:0:
242,232,158007,5,14,3:2:0:0:
449,146,158176,1,14,3:2:0:0:
446,134,158685,5,10,3:2:0:0:
238,220,158854,1,10,3:2:0:0:
38,29,159193,6,0,P|54:95|163:119,1,167,6|2,3:2|3:2,0:0:0:0:
303,23,159701,1,8,2:2:0:0:
199,5,159871,1,0,3:3:0:0:
199,5,159956,1,0,3:3:0:0:
199,5,160040,2,0,P|215:53|227:103,1,83.5,8|8,2:2|2:2,0:0:0:0:
358,167,160379,2,0,P|368:126|382:87,1,83.5,8|4,2:2|2:2,0:0:0:0:
256,192,160718,1,6,3:2:0:0:
256,192,161057,6,0,P|272:240|284:290,1,83.5,8|0,2:2|3:3,0:0:0:0:
358,167,161396,5,8,2:2:0:0:
202,314,161566,1,0,3:3:0:0:
159,166,161735,5,10,2:2:0:0:
347,331,161905,1,2,3:2:0:0:
437,191,162074,6,0,P|397:181|355:166,1,83.5,10|2,2:2|3:2,0:0:0:0:
122,289,162413,2,0,P|162:299|204:314,1,83.5,8|2,2:2|3:2,0:0:0:0:
253,102,162752,5,10,2:2:0:0:
47,29,162922,1,2,3:2:0:0:
42,36,163007,1,0,3:3:0:0:
37,42,163091,2,0,P|57:99|73:150,1,100.199996942139,6|2,1:2|2:2,0:0:0:0:
130,296,163430,5,14,3:2:0:0:
130,296,163515,1,10,2:2:0:0:
130,296,163600,1,10,2:2:0:0:
6,207,163769,1,6,3:2:0:0:
69,384,163939,5,10,3:2:0:0:
224,238,164108,1,10,2:2:0:0:
157,175,164278,1,6,3:2:0:0:
277,335,164447,6,0,B|335:313|335:313|359:265|359:265|440:237,1,175.349994648743,14|0,2:2|2:2,0:0:0:0:
476,292,164786,1,14,3:2:0:0:
256,192,164871,12,6,166142,3:2:0:0:
256,192,170040,5,0,3:3:0:0:
256,192,170210,1,2,3:2:0:0:
170,24,170718,5,8,2:2:0:0:
168,12,170803,1,8,2:2:0:0:
166,0,170888,1,10,2:2:0:0:
92,86,171057,1,4,2:2:0:0:
90,74,171142,1,4,2:2:0:0:
88,62,171227,1,6,2:2:0:0:
10,131,171396,5,2,3:2:0:0:
43,210,171566,2,0,P|217:248|420:327,1,375.750014333726,6|2,3:2|2:2,0:0:0:0:
286,307,172752,5,4,3:2:0:0:
377,197,172922,2,0,P|394:257|406:318,1,125.250004777909,6|4,3:2|2:2,0:0:0:0:
285,159,173430,5,8,2:2:0:0:
273,156,173515,1,8,2:2:0:0:
261,153,173600,1,10,2:2:0:0:
385,81,173769,1,4,2:2:0:0:
397,78,173854,1,4,2:2:0:0:
409,75,173939,1,6,2:2:0:0:
298,22,174108,5,0,3:3:0:0:
475,157,174278,2,0,P|490:96|512:38,3,125.250004777909,6|6|2|6,3:2|2:2|2:2|2:2,0:0:0:0:
396,217,175634,5,6,3:2:0:0:
396,217,175973,5,2,3:2:0:0:
512,255,176142,1,2,3:2:0:0:
343,314,176312,5,2,3:2:0:0:
294,165,176481,1,2,3:2:0:0:
328,40,176651,5,2,3:2:0:0:
175,195,176820,1,2,3:2:0:0:
172,203,177159,5,8,2:2:0:0:
23,73,177329,1,8,2:2:0:0:
54,190,177498,1,8,2:2:0:0:
54,190,177583,1,8,2:2:0:0:
54,190,177668,1,4,2:2:0:0:
229,76,177837,1,0,3:3:0:0:
118,0,178007,2,0,P|126:43|135:102,1,83.5,10|0,2:2|2:2,0:0:0:0:
90,302,178346,6,0,P|42:292|-6:285,1,91.8500028030396,14|0,3:2|0:0,0:0:0:0:
172,203,178685,2,0,P|217:196|262:186,1,91.8500028030396,10|0,2:2|0:0,0:0:0:0:
319,384,179024,1,2,3:2:0:0:
188,299,179193,1,0,3:3:0:0:
358,140,179363,2,0,P|400:158|412:202,1,91.8500028030396,10|0,2:2|0:3,0:0:0:0:
315,376,179701,6,0,P|309:321|335:295,1,91.8500028030396,2|0,3:2|0:0,0:0:0:0:
512,272,180040,2,0,P|467:303|431:294,1,91.8500028030396,10|0,2:2|3:0,0:0:0:0:
277,200,180379,1,2,2:2:0:0:
358,115,180549,1,0,3:3:0:0:
210,23,180718,2,0,P|197:76|189:126,1,91.8500028030396,10|0,2:2|2:2,0:0:0:0:
49,313,181057,6,0,P|41:268|30:224,1,91.8500028030396,2|0,3:2|0:0,0:0:0:0:
183,214,181396,2,0,P|191:169|203:125,1,91.8500028030396,10|0,2:2|0:0,0:0:0:0:
330,276,181735,6,0,P|343:329|351:379,1,91.8500028030396,2|0,3:2|3:3,0:0:0:0:
503,177,182074,2,0,P|490:230|482:280,1,91.8500028030396,10|0,2:2|2:2,0:0:0:0:
472,19,182413,6,0,B|377:26|417:99|317:112,1,183.700005606079,2|8,3:2|2:2,0:0:0:0:
301,5,182922,1,0,3:3:0:0:
418,102,183091,2,0,P|404:154|394:207,1,91.8500028030396,2|0,2:2|3:3,0:0:0:0:
197,362,183430,2,0,P|126:348|94:265,1,162.824992546463,14|0,2:2|0:3,0:0:0:0:
99,263,183769,6,0,P|150:247|174:199,1,91.8500028030396,6|0,3:2|0:0,0:0:0:0:
31,97,184108,2,0,P|21:52|9:7,1,91.8500028030396,10|0,2:2|0:0,0:0:0:0:
151,83,184447,1,2,3:2:0:0:
4,209,184617,1,0,3:3:0:0:
160,95,184786,2,0,P|206:105|262:118,1,91.8500028030396,10|0,2:2|0:3,0:0:0:0:
355,272,185125,6,0,B|432:262|392:206|492:194,1,137.775004204559,2|0,3:2|0:0,0:0:0:0:
474,201,185464,1,8,2:2:0:0:
403,354,185634,1,0,3:3:0:0:
507,373,185803,2,0,P|499:334|484:280,1,91.8500028030396,2|0,2:2|3:2,0:0:0:0:
286,197,186142,2,0,P|249:234|265:286,1,91.8500028030396,10|0,2:2|0:0,0:0:0:0:
474,201,186481,6,0,P|411:190|370:118,1,137.775004204559,6|0,3:2|0:0,0:0:0:0:
378,126,186820,2,0,P|389:78|399:29,1,91.8500028030396,10|0,2:2|0:0,0:0:0:0:
483,103,187159,5,2,3:2:0:0:
286,197,187329,1,0,3:3:0:0:
281,51,187498,5,10,2:2:0:0:
389,241,187668,1,2,3:2:0:0:
275,40,187837,5,6,3:2:0:0:
191,274,188007,1,0,3:3:0:0:
31,99,188176,5,14,2:2:0:0:
88,221,188346,1,10,2:2:0:0:
166,117,188515,5,6,2:2:0:0:
0,271,188685,1,8,3:2:0:0:
2,281,188769,1,8,2:2:0:0:
5,291,188854,2,0,B|61:308|61:308|80:342|80:342|147:362,1,162.824992546463,10|0,2:2|0:0,0:0:0:0:
152,372,189193,6,0,P|198:359|252:348,1,91.8500028030396,6|0,3:2|0:0,0:0:0:0:
388,228,189532,2,0,P|434:241|488:252,1,91.8500028030396,10|0,2:2|0:0,0:0:0:0:
346,380,189871,1,2,3:2:0:0:
275,212,190040,1,0,3:3:0:0:
346,380,190210,2,0,P|326:326|311:289,1,91.8500028030396,10|0,2:2|0:0,0:0:0:0:
415,126,190549,6,0,P|461:139|515:150,1,91.8500028030396,2|0,3:2|0:0,0:0:0:0:
270,36,190888,2,0,P|314:26|359:13,1,91.8500028030396,10|0,2:2|3:3,0:0:0:0:
207,133,191227,1,2,2:2:0:0:
134,1,191396,1,0,3:3:0:0:
13,85,191566,2,0,P|57:94|102:107,1,91.8500028030396,10|0,2:2|2:2,0:0:0:0:
136,293,191905,6,0,P|122:241|106:191,1,91.8500028030396,2|0,3:2|0:0,0:0:0:0:
301,295,192244,2,0,P|287:339|276:384,1,91.8500028030396,10|0,2:2|0:0,0:0:0:0:
128,298,192583,6,0,P|116:253|102:209,1,91.8500028030396,2|0,3:2|3:3,0:0:0:0:
310,294,192922,2,0,P|296:337|284:382,1,91.8500028030396,10|0,2:2|2:2,0:0:0:0:
248,120,193261,6,0,B|355:128|303:198|409:207,1,183.700005606079,2|8,3:2|2:2,0:0:0:0:
253,213,193769,1,0,3:3:0:0:
417,118,193939,2,0,P|431:73|448:31,1,91.8500028030396,2|0,2:2|3:3,0:0:0:0:
510,209,194278,2,0,P|434:223|408:314,1,162.824992546463,14|0,2:2|0:3,0:0:0:0:
403,295,194617,6,0,P|354:309|305:325,1,91.8500028030396,6|0,3:2|0:0,0:0:0:0:
138,222,194956,2,0,P|88:208|39:192,1,91.8500028030396,8|0,2:2|0:0,0:0:0:0:
124,327,195295,1,0,3:3:0:0:
124,327,195464,1,0,3:3:0:0:
242,204,195634,2,0,P|234:248|225:303,1,91.8500028030396,10|0,2:2|2:2,0:0:0:0:
292,114,195973,5,6,3:2:0:0:
401,89,196142,1,14,2:2:0:0:
219,34,196312,5,10,2:2:0:0:
110,9,196481,1,2,3:2:0:0:
312,38,196651,6,0,P|302:73|293:117,1,62.6250023889543,10|4,2:2|3:2,0:0:0:0:
201,111,196990,2,0,P|210:75|219:31,1,62.6250023889543,10|4,2:2|3:2,0:0:0:0:
11,121,197329,6,0,P|62:140|86:211,2,125.250004777909,6|4|8,3:2|2:2|2:2,0:0:0:0:
96,300,198176,1,2,3:2:0:0:
96,300,198346,1,6,2:2:0:0:
0,292,198515,6,0,B|107:273|64:211|182:196,1,200.399993884278,6|0,3:2|3:3,0:0:0:0:
301,334,199024,2,0,P|346:341|399:355,1,83.5,8|2,2:2|3:2,0:0:0:0:
284,178,199363,1,10,2:2:0:0:
204,362,199532,1,8,2:2:0:0:
204,362,199617,1,8,2:2:0:0:
204,362,199701,1,10,2:2:0:0:
352,250,199871,1,4,3:2:0:0:
157,120,200040,1,6,3:2:0:0:
149,107,200379,5,4,1:2:0:0:
246,77,200549,1,4,1:2:0:0:
474,68,200718,5,4,1:2:0:0:
313,9,200888,1,4,1:2:0:0:
256,236,201057,5,6,1:2:0:0:
315,0,201227,1,6,1:2:0:0:
53,78,201396,5,10,1:2:0:0:
330,160,201566,1,10,1:2:0:0:
91,371,202752,6,0,P|78:328|62:281,1,83.5,14|0,3:2|0:0,0:0:0:0:
135,113,203091,1,8,3:2:0:0:
0,230,203261,1,2,2:2:0:0:
42,138,203430,5,10,2:2:0:0:
171,230,203600,1,2,3:2:0:0:
288,102,203769,2,0,P|333:90|376:76,1,83.5,10|0,2:2|3:3,0:0:0:0:
480,270,204108,6,0,P|408:260|362:175,1,167,10|10,3:2|3:2,0:0:0:0:
512,130,204617,2,0,P|474:141|459:183,1,83.5,2|10,2:2|2:2,0:0:0:0:
298,274,204956,1,2,3:2:0:0:
298,274,205040,1,0,3:3:0:0:
298,274,205125,1,10,2:2:0:0:
391,372,205295,1,2,3:2:0:0:
366,167,205464,6,0,P|322:154|269:140,1,83.5,10|0,3:2|0:0,0:0:0:0:
47,93,205803,1,10,3:2:0:0:
73,168,205973,1,2,2:2:0:0:
177,49,206142,1,10,2:2:0:0:
99,33,206312,1,2,3:2:0:0:
151,184,206481,1,10,2:2:0:0:
203,124,206651,1,2,3:2:0:0:
0,231,206820,6,0,B|90:246|44:308|162:320,1,167,10|10,3:2|3:2,0:0:0:0:
266,211,207329,2,0,P|306:197|353:185,1,83.5,2|10,2:2|2:2,0:0:0:0:
464,353,207668,1,2,3:2:0:0:
464,353,207752,1,0,3:3:0:0:
464,353,207837,1,14,2:2:0:0:
339,292,208007,1,0,3:3:0:0:
509,162,208176,6,0,P|495:204|480:261,1,83.5,14|0,3:2|0:0,0:0:0:0:
383,79,208515,2,0,P|396:39|407:0,1,83.5,10|2,3:2|2:2,0:0:0:0:
280,81,208854,5,10,2:2:0:0:
415,184,209024,1,2,3:2:0:0:
311,180,209193,5,10,2:2:0:0:
481,74,209363,1,2,3:2:0:0:
297,190,209532,6,0,B|203:186|254:131|125:113,1,167,10|10,3:2|3:2,0:0:0:0:
31,4,210040,2,0,P|41:48|47:97,1,83.5,2|10,2:2|2:2,0:0:0:0:
148,251,210379,1,2,3:2:0:0:
141,109,210549,1,10,2:2:0:0:
27,279,210718,1,2,3:2:0:0:
148,98,210888,5,6,2:2:0:0:
236,331,211057,1,8,2:2:0:0:
154,89,211227,1,8,2:2:0:0:
67,186,211396,5,8,2:2:0:0:
67,186,211481,1,8,2:2:0:0:
67,186,211566,1,10,2:2:0:0:
121,343,211735,1,8,2:2:0:0:
277,243,211905,1,4,2:2:0:0:
349,363,212074,1,4,2:2:0:0:
445,306,212244,1,6,3:2:0:0:
256,192,212329,12,0,213600,0:0:0:0:
