osu file format v14

[General]
AudioFilename: audio.mp3
AudioLeadIn: 0
PreviewTime: -1
Countdown: 0
SampleSet: Normal
StackLeniency: 0.7
Mode: 3
LetterboxInBreaks: 0
SpecialStyle: 0
WidescreenStoryboard: 0

[Editor]
DistanceSpacing: 1.3
BeatDivisor: 8
GridSize: 16
TimelineZoom: 1

[Metadata]
Title:Isotope But Sarv And Ruv Sing It
TitleUnicode:Isotope But Sarv And Ruv Sing It
Artist:Mungong
ArtistUnicode:Mungong
Creator:Springtrap_YT83
Version:Isotope
Source:https://www.youtube.com/watch?v=HnPsJafRh0A
Tags:fnf
BeatmapID:4219735
BeatmapSetID:2025451

[Difficulty]
HPDrainRate:5
CircleSize:4
OverallDifficulty:5
ApproachRate:5
SliderMultiplier:1.4
SliderTickRate:1

[Events]
//Background and Video events
0,0,"download (1).jpeg",0,0
//Break Periods
2,151780,158557
//Storyboard Layer 0 (Background)
//Storyboard Layer 1 (Fail)
//Storyboard Layer 2 (Pass)
//Storyboard Layer 3 (Foreground)
//Storyboard Layer 4 (Overlay)
//Storyboard Sound Samples

[TimingPoints]
0,319.148936170213,4,3,1,50,1,0
25053,-100,4,1,0,50,0,0
29656,-100,4,3,0,50,0,0
35425,-100,4,1,0,50,0,0
45430,-100,4,3,0,50,0,0
50625,-100,4,1,0,50,0,0
55731,-100,4,3,0,50,0,0
60837,-100,4,1,0,50,0,0
65744,-100,4,2,1,50,0,0
65904,-100,4,3,1,50,0,0
71010,-100,4,3,0,50,0,0
75634,-100,4,3,0,50,0,0
81702,-100,4,1,0,50,0,0
85531,-100,4,2,1,50,0,0
86090,4000,4,2,1,50,1,0
86170,-10000,4,1,0,50,0,0
87590,319.148936170213,4,3,1,40,1,1
108015,-100,4,1,1,40,0,0
108495,-100,4,1,0,40,0,0
159597,-100,4,3,1,40,0,0
164784,-100,4,1,0,40,0,0
169292,-100,4,3,0,40,0,0
174398,-100,4,1,0,40,0,0
179026,-100,4,3,0,40,0,0
184651,-100,4,1,0,40,0,0
191273,-100,4,3,0,40,0,0
191793,-100,4,3,0,40,0,0
193708,-100,4,3,1,40,0,0
196419,-100,4,1,0,40,0,0

[HitObjects]
448,192,19986,128,0,20305:0:0:0:0:
64,192,20305,1,0,0:0:0:0:
448,192,20465,128,0,20784:0:0:0:0:
64,192,20784,1,0,0:0:0:0:
320,192,20944,1,0,0:0:0:0:
192,192,21103,1,0,0:0:0:0:
64,192,21263,1,0,0:0:0:0:
448,192,21422,1,0,0:0:0:0:
448,192,21582,1,0,0:0:0:0:
64,192,21742,1,0,0:0:0:0:
448,192,21821,1,0,0:0:0:0:
320,192,21901,1,0,0:0:0:0:
192,192,22061,1,0,0:0:0:0:
448,192,22220,1,0,0:0:0:0:
320,192,22380,1,0,0:0:0:0:
448,192,22539,128,0,22859:0:0:0:0:
64,192,22859,1,0,0:0:0:0:
448,192,23018,1,0,0:0:0:0:
448,192,23178,1,0,0:0:0:0:
64,192,23337,1,0,0:0:0:0:
448,192,23497,1,0,0:0:0:0:
320,192,23656,1,0,0:0:0:0:
192,192,23816,1,0,0:0:0:0:
192,192,23976,1,0,0:0:0:0:
448,192,24135,1,0,0:0:0:0:
192,192,24295,1,0,0:0:0:0:
192,192,24454,1,0,0:0:0:0:
320,192,24614,1,0,0:0:0:0:
192,192,24773,1,0,0:0:0:0:
320,192,24933,1,0,0:0:0:0:
64,192,25093,128,0,25412:0:0:0:0:
192,192,25412,1,0,0:0:0:0:
64,192,25571,128,0,25890:0:0:0:0:
192,192,25890,1,0,0:0:0:0:
320,192,26050,1,0,0:0:0:0:
64,192,26210,1,0,0:0:0:0:
448,192,26369,1,0,0:0:0:0:
192,192,26529,1,0,0:0:0:0:
192,192,26688,1,0,0:0:0:0:
64,192,26848,1,0,0:0:0:0:
192,192,26928,1,0,0:0:0:0:
448,192,27007,1,0,0:0:0:0:
64,192,27167,1,0,0:0:0:0:
192,192,27327,1,0,0:0:0:0:
320,192,27486,1,0,0:0:0:0:
192,192,27646,128,0,27965:0:0:0:0:
64,192,27965,1,0,0:0:0:0:
192,192,28125,1,0,0:0:0:0:
192,192,28284,1,0,0:0:0:0:
320,192,28444,1,0,0:0:0:0:
192,192,28603,1,0,0:0:0:0:
64,192,28763,1,0,0:0:0:0:
192,192,28922,1,0,0:0:0:0:
192,192,29082,1,0,0:0:0:0:
64,192,29242,1,0,0:0:0:0:
192,192,29401,1,0,0:0:0:0:
192,192,29561,1,0,0:0:0:0:
64,192,29720,1,0,0:0:0:0:
320,192,29880,1,0,0:0:0:0:
64,192,30039,1,0,0:0:0:0:
320,192,30199,1,0,0:0:0:0:
448,192,30359,1,0,0:0:0:0:
448,192,30518,1,0,0:0:0:0:
64,192,30598,1,0,0:0:0:0:
448,192,30678,1,0,0:0:0:0:
320,192,30837,1,0,0:0:0:0:
192,192,30997,1,0,0:0:0:0:
320,192,31156,1,0,0:0:0:0:
448,192,31316,1,0,0:0:0:0:
64,192,31476,1,0,0:0:0:0:
448,192,31635,1,0,0:0:0:0:
448,192,31795,1,0,0:0:0:0:
64,192,31875,1,0,0:0:0:0:
448,192,31954,1,0,0:0:0:0:
320,192,32114,128,0,32433:0:0:0:0:
192,192,32433,1,0,0:0:0:0:
448,192,32513,1,0,0:0:0:0:
192,192,32593,1,0,0:0:0:0:
64,192,32672,1,0,0:0:0:0:
448,192,32752,1,0,0:0:0:0:
320,192,32912,1,0,0:0:0:0:
64,192,33071,1,0,0:0:0:0:
448,192,33231,1,0,0:0:0:0:
64,192,33390,1,0,0:0:0:0:
320,192,33470,1,0,0:0:0:0:
448,192,33550,1,0,0:0:0:0:
448,192,33710,1,0,0:0:0:0:
64,192,33869,1,0,0:0:0:0:
192,192,34029,1,0,0:0:0:0:
192,192,34188,1,0,0:0:0:0:
448,192,34348,1,0,0:0:0:0:
192,192,34507,1,0,0:0:0:0:
192,192,34667,1,0,0:0:0:0:
192,192,34827,1,0,0:0:0:0:
448,192,34906,1,0,0:0:0:0:
320,192,34986,1,0,0:0:0:0:
448,192,35066,1,0,0:0:0:0:
192,192,35146,1,0,0:0:0:0:
448,192,35226,1,0,0:0:0:0:
64,192,35305,1,0,0:0:0:0:
192,192,35465,1,0,0:0:0:0:
320,192,35625,1,0,0:0:0:0:
192,192,35704,1,0,0:0:0:0:
64,192,35784,1,0,0:0:0:0:
320,192,35944,1,0,0:0:0:0:
64,192,36103,1,0,0:0:0:0:
448,192,36263,1,0,0:0:0:0:
320,192,36422,1,0,0:0:0:0:
64,192,36582,1,0,0:0:0:0:
192,192,36742,1,0,0:0:0:0:
320,192,36901,1,0,0:0:0:0:
192,192,36981,1,0,0:0:0:0:
64,192,37061,1,0,0:0:0:0:
448,192,37220,128,0,37539:0:0:0:0:
64,192,37539,1,0,0:0:0:0:
320,192,37619,1,0,0:0:0:0:
192,192,37699,1,0,0:0:0:0:
64,192,37779,1,0,0:0:0:0:
192,192,37859,1,0,0:0:0:0:
64,192,38018,1,0,0:0:0:0:
448,192,38178,1,0,0:0:0:0:
192,192,38337,1,0,0:0:0:0:
64,192,38417,1,0,0:0:0:0:
448,192,38497,1,0,0:0:0:0:
64,192,38577,1,0,0:0:0:0:
192,192,38656,1,0,0:0:0:0:
192,192,38816,1,0,0:0:0:0:
448,192,38976,1,0,0:0:0:0:
320,192,39135,1,0,0:0:0:0:
320,192,39295,1,0,0:0:0:0:
64,192,39454,1,0,0:0:0:0:
320,192,39614,1,0,0:0:0:0:
192,192,39773,1,0,0:0:0:0:
64,192,39853,1,0,0:0:0:0:
448,192,39933,1,0,0:0:0:0:
320,192,40013,1,0,0:0:0:0:
192,192,40093,1,0,0:0:0:0:
448,192,40172,1,0,0:0:0:0:
64,192,40252,1,0,0:0:0:0:
320,192,40332,1,0,0:0:0:0:
64,192,40412,128,0,42007:0:0:0:0:
192,192,41210,128,0,42007:0:0:0:0:
192,192,45518,1,0,0:0:0:0:
448,192,45678,1,0,0:0:0:0:
448,192,45997,1,0,0:0:0:0:
64,192,46156,1,0,0:0:0:0:
320,192,46236,1,0,0:0:0:0:
192,192,46316,1,0,0:0:0:0:
320,192,46476,1,0,0:0:0:0:
448,192,46635,1,0,0:0:0:0:
64,192,46795,1,0,0:0:0:0:
448,192,46954,1,0,0:0:0:0:
64,192,47114,1,0,0:0:0:0:
448,192,47273,1,0,0:0:0:0:
320,192,47433,1,0,0:0:0:0:
320,192,47593,1,0,0:0:0:0:
448,192,47752,1,0,0:0:0:0:
320,192,47912,1,0,0:0:0:0:
64,192,48071,1,0,0:0:0:0:
448,192,48231,1,0,0:0:0:0:
448,192,48550,1,0,0:0:0:0:
448,192,48710,1,0,0:0:0:0:
320,192,48789,1,0,0:0:0:0:
448,192,48869,1,0,0:0:0:0:
320,192,49029,1,0,0:0:0:0:
448,192,49188,1,0,0:0:0:0:
64,192,49268,1,0,0:0:0:0:
320,192,49348,128,0,49587:0:0:0:0:
320,192,49667,1,0,0:0:0:0:
64,192,49827,1,0,0:0:0:0:
448,192,49986,128,0,50465:0:0:0:0:
320,192,50465,1,0,0:0:0:0:
192,192,50545,1,0,0:0:0:0:
64,192,50625,1,0,0:0:0:0:
192,192,50784,1,0,0:0:0:0:
192,192,51103,1,0,0:0:0:0:
64,192,51263,1,0,0:0:0:0:
320,192,51343,1,0,0:0:0:0:
64,192,51422,128,0,51582:0:0:0:0:
320,192,51582,1,0,0:0:0:0:
448,192,51662,1,0,0:0:0:0:
320,192,51742,1,0,0:0:0:0:
64,192,51901,1,0,0:0:0:0:
192,192,52061,1,0,0:0:0:0:
64,192,52220,1,0,0:0:0:0:
192,192,52380,1,0,0:0:0:0:
448,192,52539,1,0,0:0:0:0:
448,192,52699,1,0,0:0:0:0:
320,192,52859,1,0,0:0:0:0:
64,192,53018,1,0,0:0:0:0:
192,192,53178,1,0,0:0:0:0:
64,192,53337,1,0,0:0:0:0:
64,192,53656,1,0,0:0:0:0:
192,192,53816,1,0,0:0:0:0:
448,192,53896,1,0,0:0:0:0:
192,192,53976,1,0,0:0:0:0:
320,192,54135,1,0,0:0:0:0:
448,192,54215,1,0,0:0:0:0:
320,192,54295,1,0,0:0:0:0:
192,192,54375,1,0,0:0:0:0:
64,192,54454,128,0,54694:0:0:0:0:
64,192,54773,1,0,0:0:0:0:
448,192,54933,1,0,0:0:0:0:
192,192,55093,128,0,55571:0:0:0:0:
64,192,55571,1,0,0:0:0:0:
320,192,55651,1,0,0:0:0:0:
64,192,55731,1,0,0:0:0:0:
448,192,55890,1,0,0:0:0:0:
192,192,56050,1,0,0:0:0:0:
320,192,56210,128,0,56369:0:0:0:0:
320,192,56529,1,0,0:0:0:0:
320,192,56609,1,0,0:0:0:0:
448,192,56688,1,0,0:0:0:0:
320,192,56848,1,0,0:0:0:0:
64,192,57007,1,0,0:0:0:0:
192,192,57087,1,0,0:0:0:0:
320,192,57167,1,0,0:0:0:0:
448,192,57247,1,0,0:0:0:0:
192,192,57327,1,0,0:0:0:0:
64,192,57406,1,0,0:0:0:0:
320,192,57486,1,0,0:0:0:0:
64,192,57566,1,0,0:0:0:0:
448,192,57646,1,0,0:0:0:0:
192,192,57726,1,0,0:0:0:0:
64,192,57805,1,0,0:0:0:0:
192,192,57885,1,0,0:0:0:0:
448,192,57965,1,0,0:0:0:0:
64,192,58045,1,0,0:0:0:0:
192,192,58125,1,0,0:0:0:0:
64,192,58204,1,0,0:0:0:0:
448,192,58284,1,0,0:0:0:0:
448,192,58444,1,0,0:0:0:0:
320,192,58603,1,0,0:0:0:0:
448,192,58683,1,0,0:0:0:0:
320,192,58763,1,0,0:0:0:0:
64,192,58843,1,0,0:0:0:0:
448,192,58922,128,0,59242:0:0:0:0:
192,192,59242,1,0,0:0:0:0:
64,192,59401,1,0,0:0:0:0:
320,192,59561,128,0,59880:0:0:0:0:
320,192,60039,1,0,0:0:0:0:
448,192,60119,1,0,0:0:0:0:
320,192,60199,1,0,0:0:0:0:
64,192,60279,1,0,0:0:0:0:
192,192,60359,1,0,0:0:0:0:
448,192,60438,1,0,0:0:0:0:
320,192,60518,1,0,0:0:0:0:
448,192,60598,1,0,0:0:0:0:
64,192,60678,1,0,0:0:0:0:
192,192,60757,1,0,0:0:0:0:
64,192,60837,1,0,0:0:0:0:
192,192,60997,1,0,0:0:0:0:
64,192,61156,1,0,0:0:0:0:
320,192,61316,128,0,61555:0:0:0:0:
448,192,61635,1,0,0:0:0:0:
320,192,61715,1,0,0:0:0:0:
64,192,61795,1,0,0:0:0:0:
320,192,61954,1,0,0:0:0:0:
192,192,62114,1,0,0:0:0:0:
320,192,62194,1,0,0:0:0:0:
448,192,62273,1,0,0:0:0:0:
64,192,62353,1,0,0:0:0:0:
320,192,62433,1,0,0:0:0:0:
448,192,62513,1,0,0:0:0:0:
320,192,62593,1,0,0:0:0:0:
64,192,62672,1,0,0:0:0:0:
448,192,62752,1,0,0:0:0:0:
192,192,62832,1,0,0:0:0:0:
64,192,62912,1,0,0:0:0:0:
448,192,62992,1,0,0:0:0:0:
64,192,63071,1,0,0:0:0:0:
192,192,63151,1,0,0:0:0:0:
448,192,63231,1,0,0:0:0:0:
64,192,63311,1,0,0:0:0:0:
192,192,63390,1,0,0:0:0:0:
192,192,63550,1,0,0:0:0:0:
320,192,63710,1,0,0:0:0:0:
192,192,63789,1,0,0:0:0:0:
64,192,63869,1,0,0:0:0:0:
320,192,63949,1,0,0:0:0:0:
448,192,64029,128,0,64348:0:0:0:0:
64,192,64348,1,0,0:0:0:0:
192,192,64507,1,0,0:0:0:0:
320,192,64667,128,0,64986:0:0:0:0:
320,192,65146,1,0,0:0:0:0:
448,192,65226,1,0,0:0:0:0:
192,192,65305,1,0,0:0:0:0:
64,192,65385,1,0,0:0:0:0:
448,192,65465,1,0,0:0:0:0:
192,192,65545,1,0,0:0:0:0:
64,192,65625,1,0,0:0:0:0:
448,192,65704,1,0,0:0:0:0:
320,192,65784,1,0,0:0:0:0:
64,192,65864,1,0,0:0:0:0:
448,192,65944,128,0,66263:0:0:0:0:
64,192,66263,1,0,0:0:0:0:
448,192,66422,128,0,66742:0:0:0:0:
64,192,66742,1,0,0:0:0:0:
320,192,66901,1,0,0:0:0:0:
192,192,67061,1,0,0:0:0:0:
64,192,67220,1,0,0:0:0:0:
448,192,67380,1,0,0:0:0:0:
448,192,67539,1,0,0:0:0:0:
64,192,67699,1,0,0:0:0:0:
448,192,67779,1,0,0:0:0:0:
320,192,67859,1,0,0:0:0:0:
192,192,68018,1,0,0:0:0:0:
448,192,68178,1,0,0:0:0:0:
320,192,68337,1,0,0:0:0:0:
448,192,68497,128,0,68816:0:0:0:0:
64,192,68816,1,0,0:0:0:0:
448,192,68976,1,0,0:0:0:0:
448,192,69135,1,0,0:0:0:0:
64,192,69295,1,0,0:0:0:0:
448,192,69454,1,0,0:0:0:0:
320,192,69614,1,0,0:0:0:0:
192,192,69773,1,0,0:0:0:0:
192,192,69933,1,0,0:0:0:0:
448,192,70093,1,0,0:0:0:0:
192,192,70252,1,0,0:0:0:0:
192,192,70412,1,0,0:0:0:0:
320,192,70571,1,0,0:0:0:0:
192,192,70731,1,0,0:0:0:0:
320,192,70890,1,0,0:0:0:0:
64,192,71050,128,0,71369:0:0:0:0:
192,192,71369,1,0,0:0:0:0:
64,192,71529,128,0,71848:0:0:0:0:
192,192,71848,1,0,0:0:0:0:
320,192,72007,1,0,0:0:0:0:
64,192,72167,1,0,0:0:0:0:
448,192,72327,1,0,0:0:0:0:
192,192,72486,1,0,0:0:0:0:
192,192,72646,1,0,0:0:0:0:
64,192,72805,1,0,0:0:0:0:
192,192,72885,1,0,0:0:0:0:
448,192,72965,1,0,0:0:0:0:
64,192,73125,1,0,0:0:0:0:
192,192,73284,1,0,0:0:0:0:
320,192,73444,1,0,0:0:0:0:
192,192,73603,128,0,73922:0:0:0:0:
64,192,73922,1,0,0:0:0:0:
192,192,74082,1,0,0:0:0:0:
192,192,74242,1,0,0:0:0:0:
320,192,74401,1,0,0:0:0:0:
192,192,74561,1,0,0:0:0:0:
64,192,74720,1,0,0:0:0:0:
192,192,74880,1,0,0:0:0:0:
192,192,75039,1,0,0:0:0:0:
64,192,75199,1,0,0:0:0:0:
192,192,75359,1,0,0:0:0:0:
192,192,75518,1,0,0:0:0:0:
64,192,75678,1,0,0:0:0:0:
320,192,75837,1,0,0:0:0:0:
64,192,75997,1,0,0:0:0:0:
320,192,76156,1,0,0:0:0:0:
448,192,76316,1,0,0:0:0:0:
448,192,76476,1,0,0:0:0:0:
64,192,76555,1,0,0:0:0:0:
448,192,76635,1,0,0:0:0:0:
320,192,76795,1,0,0:0:0:0:
192,192,76954,1,0,0:0:0:0:
320,192,77114,1,0,0:0:0:0:
448,192,77273,1,0,0:0:0:0:
64,192,77433,1,0,0:0:0:0:
448,192,77593,1,0,0:0:0:0:
448,192,77752,1,0,0:0:0:0:
64,192,77832,1,0,0:0:0:0:
448,192,77912,1,0,0:0:0:0:
320,192,78071,128,0,78390:0:0:0:0:
192,192,78390,1,0,0:0:0:0:
448,192,78470,1,0,0:0:0:0:
192,192,78550,1,0,0:0:0:0:
64,192,78630,1,0,0:0:0:0:
448,192,78710,1,0,0:0:0:0:
320,192,78869,1,0,0:0:0:0:
64,192,79029,1,0,0:0:0:0:
448,192,79188,1,0,0:0:0:0:
64,192,79348,1,0,0:0:0:0:
320,192,79428,1,0,0:0:0:0:
448,192,79507,1,0,0:0:0:0:
448,192,79667,1,0,0:0:0:0:
64,192,79827,1,0,0:0:0:0:
192,192,79986,1,0,0:0:0:0:
192,192,80146,1,0,0:0:0:0:
448,192,80305,1,0,0:0:0:0:
192,192,80465,1,0,0:0:0:0:
64,192,80625,128,0,80784:0:0:0:0:
448,192,80784,128,0,80944:0:0:0:0:
64,192,80944,128,14,81103:0:0:0:0:
448,192,81103,128,0,81263:0:0:0:0:
64,192,81263,1,8,0:0:0:0:
192,192,81422,1,0,0:0:0:0:
192,192,81582,1,8,0:0:0:0:
192,192,81662,1,0,0:0:0:0:
64,192,81742,1,0,0:0:0:0:
320,192,81901,1,8,0:0:0:0:
64,192,82061,1,0,0:0:0:0:
448,192,82220,1,8,0:0:0:0:
320,192,82380,1,0,0:0:0:0:
64,192,82539,1,8,0:0:0:0:
192,192,82699,1,0,0:0:0:0:
320,192,82859,1,8,0:0:0:0:
192,192,82938,1,0,0:0:0:0:
64,192,83018,1,0,0:0:0:0:
448,192,83178,128,8,83497:0:0:0:0:
64,192,83497,1,8,0:0:0:0:
320,192,83577,1,0,0:0:0:0:
192,192,83656,1,0,0:0:0:0:
64,192,83736,1,0,0:0:0:0:
192,192,83816,1,8,0:0:0:0:
64,192,83976,1,8,0:0:0:0:
448,192,84135,1,8,0:0:0:0:
192,192,84295,1,8,0:0:0:0:
64,192,84375,1,0,0:0:0:0:
448,192,84454,1,8,0:0:0:0:
64,192,84534,1,0,0:0:0:0:
192,192,84614,1,8,0:0:0:0:
192,192,84773,1,8,0:0:0:0:
448,192,84933,1,8,0:0:0:0:
320,192,85093,1,0,0:0:0:0:
320,192,85252,1,0,0:0:0:0:
64,192,85412,1,0,0:0:0:0:
320,192,85571,1,0,0:0:0:0:
64,192,85731,1,0,0:0:0:0:
192,192,85890,128,0,86050:0:0:0:0:
448,192,87949,128,0,88268:0:0:0:0:
320,192,88427,128,0,88746:0:0:0:0:
192,192,88906,128,0,89225:0:0:0:0:
448,192,89225,1,0,0:0:0:0:
64,192,89385,128,0,89704:0:0:0:0:
192,192,89704,1,0,0:0:0:0:
320,192,89863,1,0,0:0:0:0:
192,192,90023,1,0,0:0:0:0:
448,192,90183,1,0,0:0:0:0:
320,192,90342,1,0,0:0:0:0:
448,192,90502,1,0,0:0:0:0:
320,192,90661,1,0,0:0:0:0:
64,192,90821,1,0,0:0:0:0:
192,192,90980,1,0,0:0:0:0:
448,192,91140,1,0,0:0:0:0:
320,192,91300,1,0,0:0:0:0:
192,192,91459,128,0,92097:0:0:0:0:
320,192,92097,128,0,92736:0:0:0:0:
448,192,92736,128,0,93055:0:0:0:0:
64,192,93055,128,0,93374:0:0:0:0:
448,192,93534,128,0,93853:0:0:0:0:
64,192,94012,128,0,94332:0:0:0:0:
320,192,94332,1,0,0:0:0:0:
192,192,94491,128,0,94810:0:0:0:0:
64,192,94810,1,0,0:0:0:0:
320,192,94970,1,0,0:0:0:0:
64,192,95129,1,0,0:0:0:0:
192,192,95289,1,0,0:0:0:0:
320,192,95449,1,0,0:0:0:0:
192,192,95608,1,0,0:0:0:0:
320,192,95768,1,0,0:0:0:0:
448,192,95927,1,0,0:0:0:0:
64,192,96087,1,0,0:0:0:0:
192,192,96246,1,0,0:0:0:0:
64,192,96406,1,0,0:0:0:0:
64,192,96566,128,0,97204:0:0:0:0:
320,192,97204,128,0,97842:0:0:0:0:
64,192,97842,128,8,98480:0:0:0:0:
448,192,98480,1,8,0:0:0:0:
192,192,98800,1,0,0:0:0:0:
320,192,99119,1,0,0:0:0:0:
192,192,99438,1,8,0:0:0:0:
64,192,99757,1,8,0:0:0:0:
192,192,100076,1,0,0:0:0:0:
448,192,100715,1,8,0:0:0:0:
320,192,101034,1,0,0:0:0:0:
448,192,101353,1,8,0:0:0:0:
192,192,101672,1,8,0:0:0:0:
64,192,101752,1,8,0:0:0:0:
192,192,101832,1,8,0:0:0:0:
448,192,101991,1,8,0:0:0:0:
192,192,102151,1,0,0:0:0:0:
448,192,102470,1,8,0:0:0:0:
192,192,102629,1,0,0:0:0:0:
64,192,102789,1,8,0:0:0:0:
448,192,102949,128,0,103587:0:0:0:0:
64,192,103587,1,0,0:0:0:0:
192,192,103906,1,0,0:0:0:0:
320,192,104225,1,0,0:0:0:0:
192,192,104544,1,0,0:0:0:0:
64,192,104863,1,0,0:0:0:0:
448,192,105183,1,0,0:0:0:0:
192,192,105821,1,0,0:0:0:0:
320,192,106140,1,0,0:0:0:0:
192,192,106459,1,0,0:0:0:0:
320,192,106778,1,0,0:0:0:0:
448,192,106858,1,0,0:0:0:0:
320,192,106938,1,0,0:0:0:0:
64,192,107097,1,0,0:0:0:0:
320,192,107257,1,0,0:0:0:0:
64,192,107576,1,0,0:0:0:0:
320,192,107736,1,0,0:0:0:0:
448,192,107895,1,0,0:0:0:0:
64,192,108055,128,0,109651:0:0:0:0:
320,192,109651,1,0,0:0:0:0:
192,192,109810,1,0,0:0:0:0:
320,192,109970,1,0,0:0:0:0:
64,192,110129,1,0,0:0:0:0:
448,192,110289,1,0,0:0:0:0:
64,192,110449,1,0,0:0:0:0:
448,192,110608,128,0,110927:0:0:0:0:
448,192,111087,1,0,0:0:0:0:
448,192,111406,1,0,0:0:0:0:
448,192,111725,1,0,0:0:0:0:
64,192,111885,128,0,112523:0:0:0:0:
320,192,112523,128,0,113161:0:0:0:0:
192,192,113161,128,0,114438:0:0:0:0:
448,192,114438,128,0,115236:0:0:0:0:
448,192,115395,1,0,0:0:0:0:
320,192,115715,128,0,116034:0:0:0:0:
64,192,116034,128,0,116353:0:0:0:0:
320,192,116353,128,0,116672:0:0:0:0:
448,192,116672,128,0,116991:0:0:0:0:
64,192,116991,128,0,117310:0:0:0:0:
192,192,117310,128,0,117629:0:0:0:0:
448,192,117629,128,0,117949:0:0:0:0:
320,192,117949,128,0,118268:0:0:0:0:
192,192,118268,128,0,119863:0:0:0:0:
64,192,119863,1,0,0:0:0:0:
448,192,120023,1,0,0:0:0:0:
320,192,120183,1,0,0:0:0:0:
64,192,120342,1,0,0:0:0:0:
320,192,120502,1,0,0:0:0:0:
64,192,120661,1,0,0:0:0:0:
320,192,120821,128,0,121140:0:0:0:0:
320,192,121300,1,0,0:0:0:0:
320,192,121619,1,0,0:0:0:0:
320,192,121938,1,0,0:0:0:0:
192,192,122097,128,0,122736:0:0:0:0:
448,192,122736,128,0,123374:0:0:0:0:
192,192,123374,128,0,124651:0:0:0:0:
64,192,124651,128,0,125449:0:0:0:0:
192,192,125608,1,0,0:0:0:0:
64,192,125927,128,0,126246:0:0:0:0:
320,192,126246,128,0,126566:0:0:0:0:
64,192,126566,128,0,126885:0:0:0:0:
448,192,126885,128,0,127204:0:0:0:0:
192,192,127204,128,0,127523:0:0:0:0:
320,192,127523,128,0,127842:0:0:0:0:
64,192,127842,128,0,128161:0:0:0:0:
192,192,128161,128,0,128480:0:0:0:0:
64,192,128480,128,0,129597:0:0:0:0:
448,192,129597,1,0,0:0:0:0:
320,192,129757,128,0,130076:0:0:0:0:
320,192,130236,1,0,0:0:0:0:
320,192,130715,1,0,0:0:0:0:
448,192,130874,1,0,0:0:0:0:
64,192,131034,1,0,0:0:0:0:
448,192,131193,1,0,0:0:0:0:
64,192,131353,1,0,0:0:0:0:
192,192,131672,128,0,131991:0:0:0:0:
64,192,131991,128,0,132310:0:0:0:0:
448,192,132310,1,0,0:0:0:0:
64,192,132470,1,0,0:0:0:0:
192,192,132629,1,0,0:0:0:0:
64,192,132789,1,0,0:0:0:0:
320,192,132949,1,0,0:0:0:0:
448,192,133108,1,0,0:0:0:0:
192,192,133268,1,0,0:0:0:0:
448,192,133427,1,0,0:0:0:0:
192,192,133587,128,0,133906:0:0:0:0:
448,192,133906,1,0,0:0:0:0:
320,192,134066,1,0,0:0:0:0:
448,192,134225,1,0,0:0:0:0:
320,192,134544,1,0,0:0:0:0:
64,192,134704,1,0,0:0:0:0:
192,192,134863,1,0,0:0:0:0:
448,192,135023,1,0,0:0:0:0:
320,192,135183,1,0,0:0:0:0:
192,192,135342,1,0,0:0:0:0:
448,192,135502,1,0,0:0:0:0:
320,192,135661,1,0,0:0:0:0:
64,192,135821,1,0,0:0:0:0:
448,192,135980,1,0,0:0:0:0:
64,192,136140,1,0,0:0:0:0:
320,192,136459,1,0,0:0:0:0:
320,192,136619,1,0,0:0:0:0:
448,192,136778,1,0,0:0:0:0:
320,192,137097,1,0,0:0:0:0:
64,192,137417,1,0,0:0:0:0:
320,192,137576,1,0,0:0:0:0:
64,192,137736,128,0,138055:0:0:0:0:
448,192,138055,128,0,138374:0:0:0:0:
320,192,138374,128,0,138693:0:0:0:0:
192,192,138693,128,0,139810:0:0:0:0:
64,192,139810,1,0,0:0:0:0:
320,192,139970,1,0,0:0:0:0:
320,192,140449,1,0,0:0:0:0:
320,192,140927,1,0,0:0:0:0:
64,192,141087,1,0,0:0:0:0:
448,192,141246,1,0,0:0:0:0:
320,192,141406,1,0,0:0:0:0:
448,192,141566,1,0,0:0:0:0:
192,192,141885,128,0,142204:0:0:0:0:
64,192,142204,128,0,142443:0:0:0:0:
320,192,142523,1,0,0:0:0:0:
192,192,142683,1,0,0:0:0:0:
64,192,142842,1,0,0:0:0:0:
320,192,143002,1,0,0:0:0:0:
448,192,143161,1,0,0:0:0:0:
64,192,143321,1,0,0:0:0:0:
192,192,143480,1,0,0:0:0:0:
64,192,143640,1,0,0:0:0:0:
448,192,143800,128,0,144119:0:0:0:0:
192,192,144119,1,0,0:0:0:0:
64,192,144278,1,0,0:0:0:0:
192,192,144438,1,0,0:0:0:0:
64,192,144757,1,0,0:0:0:0:
192,192,145076,1,0,0:0:0:0:
64,192,145236,1,0,0:0:0:0:
320,192,145395,1,0,0:0:0:0:
192,192,145555,1,0,0:0:0:0:
64,192,145715,1,0,0:0:0:0:
320,192,145874,1,0,0:0:0:0:
448,192,146034,1,0,0:0:0:0:
192,192,146193,1,0,0:0:0:0:
64,192,146353,1,0,0:0:0:0:
192,192,146672,1,0,0:0:0:0:
192,192,146832,1,0,0:0:0:0:
320,192,146991,1,0,0:0:0:0:
64,192,147310,1,0,0:0:0:0:
64,192,147629,1,0,0:0:0:0:
448,192,147789,1,0,0:0:0:0:
64,192,147949,128,0,148268:0:0:0:0:
192,192,148268,128,0,148587:0:0:0:0:
64,192,148587,128,0,148906:0:0:0:0:
192,192,148906,128,0,151140:0:0:0:0:
64,192,159757,5,0,0:0:0:0:
448,192,159917,1,0,0:0:0:0:
64,192,160076,1,0,0:0:0:0:
320,192,160236,1,0,0:0:0:0:
320,192,160555,128,0,160874:0:0:0:0:
192,192,160874,1,0,0:0:0:0:
448,192,161034,1,0,0:0:0:0:
64,192,161193,1,0,0:0:0:0:
448,192,161353,1,0,0:0:0:0:
320,192,161512,1,0,0:0:0:0:
320,192,161832,128,0,162151:0:0:0:0:
192,192,162151,1,0,0:0:0:0:
448,192,162310,1,0,0:0:0:0:
64,192,162470,1,0,0:0:0:0:
448,192,162629,1,0,0:0:0:0:
320,192,162789,1,0,0:0:0:0:
192,192,162789,1,0,0:0:0:0:
64,192,162949,1,0,0:0:0:0:
448,192,163028,1,0,0:0:0:0:
64,192,163108,1,0,0:0:0:0:
320,192,163268,1,0,0:0:0:0:
448,192,163427,1,0,0:0:0:0:
192,192,163587,1,0,0:0:0:0:
320,192,163627,1,0,0:0:0:0:
448,192,163667,1,0,0:0:0:0:
64,192,163746,1,0,0:0:0:0:
192,192,163906,1,0,0:0:0:0:
64,192,164066,1,0,0:0:0:0:
448,192,164225,128,8,164863:0:0:0:0:
64,192,164863,1,0,0:0:0:0:
192,192,165023,1,0,0:0:0:0:
64,192,165183,1,0,0:0:0:0:
320,192,165342,1,0,0:0:0:0:
448,192,165661,128,0,165980:0:0:0:0:
192,192,165980,1,0,0:0:0:0:
64,192,166140,1,0,0:0:0:0:
192,192,166300,1,0,0:0:0:0:
64,192,166459,1,0,0:0:0:0:
320,192,166619,1,0,0:0:0:0:
448,192,166938,128,0,167257:0:0:0:0:
192,192,167257,1,0,0:0:0:0:
64,192,167417,1,0,0:0:0:0:
192,192,167576,1,0,0:0:0:0:
448,192,167736,1,0,0:0:0:0:
320,192,167895,1,0,0:0:0:0:
64,192,168055,1,0,0:0:0:0:
320,192,168135,1,0,0:0:0:0:
64,192,168215,1,0,0:0:0:0:
64,192,168374,1,0,0:0:0:0:
448,192,168534,1,0,0:0:0:0:
320,192,168693,1,0,0:0:0:0:
64,192,168853,1,0,0:0:0:0:
448,192,169012,1,0,0:0:0:0:
64,192,169172,1,0,0:0:0:0:
448,192,169332,128,0,169651:0:0:0:0:
64,192,169651,1,0,0:0:0:0:
448,192,169810,128,0,170129:0:0:0:0:
64,192,170129,1,0,0:0:0:0:
320,192,170289,1,0,0:0:0:0:
192,192,170449,1,0,0:0:0:0:
64,192,170608,1,0,0:0:0:0:
448,192,170768,1,0,0:0:0:0:
448,192,170927,1,0,0:0:0:0:
64,192,171087,1,0,0:0:0:0:
448,192,171167,1,0,0:0:0:0:
320,192,171246,1,0,0:0:0:0:
192,192,171406,1,0,0:0:0:0:
448,192,171566,1,0,0:0:0:0:
320,192,171725,1,0,0:0:0:0:
448,192,171885,128,0,172204:0:0:0:0:
64,192,172204,1,0,0:0:0:0:
448,192,172363,1,0,0:0:0:0:
448,192,172523,1,0,0:0:0:0:
64,192,172683,1,0,0:0:0:0:
448,192,172842,1,0,0:0:0:0:
320,192,173002,1,0,0:0:0:0:
192,192,173161,1,0,0:0:0:0:
192,192,173321,1,0,0:0:0:0:
448,192,173480,1,0,0:0:0:0:
192,192,173640,1,0,0:0:0:0:
192,192,173800,1,0,0:0:0:0:
320,192,173959,1,0,0:0:0:0:
192,192,174119,1,0,0:0:0:0:
320,192,174278,1,0,0:0:0:0:
64,192,174438,128,0,174757:0:0:0:0:
192,192,174757,1,0,0:0:0:0:
64,192,174917,128,0,175236:0:0:0:0:
192,192,175236,1,0,0:0:0:0:
320,192,175395,1,0,0:0:0:0:
64,192,175555,1,0,0:0:0:0:
448,192,175715,1,0,0:0:0:0:
192,192,175874,1,0,0:0:0:0:
192,192,176034,1,0,0:0:0:0:
64,192,176193,1,0,0:0:0:0:
192,192,176273,1,0,0:0:0:0:
448,192,176353,1,0,0:0:0:0:
64,192,176512,1,0,0:0:0:0:
192,192,176672,1,0,0:0:0:0:
320,192,176832,1,0,0:0:0:0:
192,192,176991,128,0,177310:0:0:0:0:
64,192,177310,1,0,0:0:0:0:
192,192,177470,1,0,0:0:0:0:
192,192,177629,1,0,0:0:0:0:
320,192,177789,1,0,0:0:0:0:
192,192,177949,1,0,0:0:0:0:
64,192,178108,1,0,0:0:0:0:
192,192,178268,1,0,0:0:0:0:
192,192,178427,1,0,0:0:0:0:
64,192,178587,1,0,0:0:0:0:
192,192,178746,1,0,0:0:0:0:
192,192,178906,1,0,0:0:0:0:
64,192,179066,1,0,0:0:0:0:
320,192,179225,1,0,0:0:0:0:
64,192,179385,1,0,0:0:0:0:
320,192,179544,1,0,0:0:0:0:
448,192,179704,1,0,0:0:0:0:
448,192,179863,1,0,0:0:0:0:
64,192,179943,1,0,0:0:0:0:
448,192,180023,1,0,0:0:0:0:
320,192,180183,1,0,0:0:0:0:
192,192,180342,1,0,0:0:0:0:
320,192,180502,1,0,0:0:0:0:
448,192,180661,1,0,0:0:0:0:
64,192,180821,1,0,0:0:0:0:
448,192,180980,1,0,0:0:0:0:
448,192,181140,1,0,0:0:0:0:
64,192,181220,1,0,0:0:0:0:
448,192,181300,1,0,0:0:0:0:
320,192,181459,128,0,181778:0:0:0:0:
192,192,181778,1,0,0:0:0:0:
448,192,181858,1,0,0:0:0:0:
192,192,181938,1,0,0:0:0:0:
64,192,182018,1,0,0:0:0:0:
448,192,182097,1,0,0:0:0:0:
320,192,182257,1,0,0:0:0:0:
64,192,182417,1,0,0:0:0:0:
448,192,182576,1,0,0:0:0:0:
64,192,182736,1,0,0:0:0:0:
320,192,182816,1,0,0:0:0:0:
448,192,182895,1,0,0:0:0:0:
448,192,183055,1,0,0:0:0:0:
64,192,183215,1,0,0:0:0:0:
192,192,183374,1,0,0:0:0:0:
192,192,183534,1,0,0:0:0:0:
448,192,183693,1,0,0:0:0:0:
192,192,183853,1,0,0:0:0:0:
192,192,184012,1,0,0:0:0:0:
192,192,184172,1,0,0:0:0:0:
448,192,184252,1,0,0:0:0:0:
320,192,184332,1,0,0:0:0:0:
448,192,184411,1,0,0:0:0:0:
192,192,184491,1,0,0:0:0:0:
448,192,184571,1,0,0:0:0:0:
64,192,184651,1,0,0:0:0:0:
192,192,184810,1,0,0:0:0:0:
320,192,184970,1,0,0:0:0:0:
192,192,185050,1,0,0:0:0:0:
64,192,185129,1,0,0:0:0:0:
320,192,185289,1,0,0:0:0:0:
64,192,185449,1,0,0:0:0:0:
448,192,185608,1,0,0:0:0:0:
320,192,185768,1,0,0:0:0:0:
64,192,185927,1,0,0:0:0:0:
192,192,186087,1,0,0:0:0:0:
320,192,186246,1,0,0:0:0:0:
192,192,186326,1,0,0:0:0:0:
64,192,186406,1,0,0:0:0:0:
448,192,186566,128,0,186885:0:0:0:0:
64,192,186885,1,0,0:0:0:0:
320,192,186965,1,0,0:0:0:0:
192,192,187044,1,0,0:0:0:0:
64,192,187124,1,0,0:0:0:0:
192,192,187204,1,0,0:0:0:0:
64,192,187363,1,0,0:0:0:0:
448,192,187523,1,0,0:0:0:0:
64,192,187683,1,0,0:0:0:0:
64,192,187842,1,0,0:0:0:0:
320,192,187922,1,0,0:0:0:0:
64,192,188002,1,0,0:0:0:0:
448,192,188161,1,0,0:0:0:0:
192,192,188321,1,0,0:0:0:0:
320,192,188480,1,0,0:0:0:0:
320,192,188800,1,0,0:0:0:0:
320,192,189119,1,0,0:0:0:0:
320,192,189438,128,0,189757:0:0:0:0:
192,192,189597,128,0,189757:0:0:0:0:
448,192,191353,1,0,0:0:0:0:
320,192,191672,1,0,0:0:0:0:
448,192,191991,1,0,0:0:0:0:
320,192,192310,1,0,0:0:0:0:
64,192,192629,1,0,0:0:0:0:
448,192,192789,1,0,0:0:0:0:
320,192,192949,1,0,0:0:0:0:
192,192,193268,1,8,0:0:0:0:
64,192,193268,1,8,0:0:0:0:
448,192,193268,1,0,0:0:0:0:
320,192,193746,1,0,0:0:0:0:
448,192,193906,1,0,0:0:0:0:
320,192,194066,1,0,0:0:0:0:
448,192,194225,128,0,194385:0:0:0:0:
192,192,194704,128,0,194863:0:0:0:0:
448,192,195183,128,0,195342:0:0:0:0:
320,192,195502,128,0,195741:0:0:0:0:
64,192,195821,128,0,196060:0:0:0:0:
448,192,196140,128,0,196300:0:0:0:0:
192,192,196459,1,0,0:0:0:0:
320,192,196778,1,0,0:0:0:0:
192,192,197097,1,0,0:0:0:0:
448,192,197417,1,0,0:0:0:0:
64,192,197736,1,0,0:0:0:0:
320,192,197895,1,0,0:0:0:0:
192,192,198055,128,0,198294:0:0:0:0:
64,192,198374,128,0,198613:0:0:0:0:
320,192,198853,1,0,0:0:0:0:
448,192,199012,1,0,0:0:0:0:
320,192,199172,1,0,0:0:0:0:
192,192,199332,1,0,0:0:0:0:
64,192,199411,1,0,0:0:0:0:
192,192,199491,1,0,0:0:0:0:
448,192,199651,1,0,0:0:0:0:
192,192,199810,1,0,0:0:0:0:
320,192,199970,1,0,0:0:0:0:
192,192,200129,1,0,0:0:0:0:
448,192,200449,128,0,200608:0:0:0:0:
192,192,200608,1,0,0:0:0:0:
