osu file format v14

[General]
AudioFilename: audio.ogg
AudioLeadIn: 0
PreviewTime: 77249
Countdown: 0
SampleSet: Soft
StackLeniency: 0.7
Mode: 0
LetterboxInBreaks: 0
WidescreenStoryboard: 1

[Editor]
Bookmarks: 3980,18749,26826,27980,29134,30288,31441,32595,33518,48288,63057,77826,101826
DistanceSpacing: 0.3
BeatDivisor: 8
GridSize: 32
TimelineZoom: 3.799999

[Metadata]
Title:Medveditsa (feat. Linda Leen i Yana Kay) (Cut Ver.)
TitleUnicode:Медведица (feat. Linda Leen и Yana Kay) (Cut Ver.)
Artist:Mumiy Troll
ArtistUnicode:Мумий Тролль
Creator:defreeyay
Version:Hachiko's Expert
Source:Похитители книг
Tags:russian русский поп рок pop rock short version medvedica she-bear pokhititeli pohititeli knig илья лагутенко il'ya ilya lagutenko линда лин яна кей кай hachiko icuke aqilmanuar
BeatmapID:4447218
BeatmapSetID:2109196

[Difficulty]
HPDrainRate:5.5
CircleSize:4.1
OverallDifficulty:8
ApproachRate:8.6
SliderMultiplier:1.8
SliderTickRate:1

[Events]
//Background and Video events
0,0,"bg.jpg",0,0
//Break Periods
//Storyboard Layer 0 (Background)
//Storyboard Layer 1 (Fail)
//Storyboard Layer 2 (Pass)
//Storyboard Layer 3 (Foreground)
//Storyboard Layer 4 (Overlay)
//Storyboard Sound Samples

[TimingPoints]
288,461.538461538462,4,2,1,60,1,0
288,-399.999999999997,4,2,1,60,0,0
749,-133.333333333333,4,2,1,60,0,0
1211,-399.999999999997,4,2,1,60,0,0
1672,-133.333333333333,4,2,1,60,0,0
2134,-399.999999999997,4,2,1,60,0,0
2595,-133.333333333333,4,2,1,60,0,0
3057,-399.999999999997,4,2,1,60,0,0
3518,-133.333333333333,4,2,1,60,0,0
3980,-117.647058823529,4,2,1,65,0,0
18749,-117.647058823529,4,2,1,65,0,0
27864,-117.647058823529,4,2,1,5,0,0
27980,-117.647058823529,4,2,1,65,0,0
33518,-105.263157894737,4,2,1,60,0,0
48288,-105.263157894737,4,2,1,65,0,0
63057,-95.2380952380952,4,2,1,70,0,0
70441,-95.2380952380952,4,2,1,70,0,1
72057,-95.2380952380952,4,2,1,70,0,0
77826,-181.818181818181,4,2,1,75,0,0
78518,-83.3333333333333,4,2,1,75,0,0
79441,-90.9090909090909,4,2,1,75,0,0
81518,-83.3333333333333,4,2,1,75,0,0
81980,-90.9090909090909,4,2,1,75,0,0
82441,-181.818181818181,4,2,1,75,0,0
83134,-90.9090909090909,4,2,1,75,0,0
85211,-83.3333333333333,4,2,1,75,0,1
85903,-90.9090909090909,4,2,1,75,0,1
86826,-90.9090909090909,4,2,1,75,0,0
92595,-222.222222222221,4,2,1,70,0,1
93057,-100,4,2,1,70,0,1
93288,-71.4285714285714,4,2,1,70,0,1
94441,-222.222222222221,4,2,1,70,0,1
94672,-71.4285714285714,4,2,1,70,0,1
95134,-222.222222222221,4,2,1,70,0,1
95595,-71.4285714285714,4,2,1,70,0,1
95826,-222.222222222221,4,2,1,70,0,1
96057,-100,4,2,1,70,0,1
96288,-71.4285714285714,4,2,1,70,0,1
96980,-71.4285714285714,4,2,1,70,0,1
99518,-285.714285714284,4,2,1,70,0,1
99980,-222.222222222221,4,2,1,70,0,1
100442,-100,4,2,1,70,0,1
100673,-71.4285714285714,4,2,1,70,0,1
107364,-222.222222222221,4,2,1,60,0,0
109364,-399.999999999997,4,2,1,60,0,0
109903,-399.999999999997,4,2,1,30,0,0
111057,-399.999999999997,4,2,1,30,0,0
112903,-399.999999999997,4,2,1,5,0,0

[Colours]
Combo1 : 154,167,167
Combo2 : 213,210,159
Combo3 : 157,203,139
Combo4 : 205,116,138

[HitObjects]
56,337,289,5,0,3:2:0:0:
56,337,519,1,0,0:0:0:0:
113,286,749,6,0,B|119:251|119:251|92:269,1,67.5000025749208,8|0,3:2|0:0,0:0:0:0:
286,368,1211,6,0,P|298:357|312:354,1,22.5,0|0,3:2|0:0,0:0:0:0:
379,348,1672,6,0,P|401:364|374:372,1,67.5000025749208,8|0,3:2|0:0,0:0:0:0:
463,198,2134,5,0,3:2:0:0:
463,198,2364,1,0,0:0:0:0:
477,118,2595,6,0,B|493:91|493:91|496:127,1,67.5000025749208,8|0,3:2|0:0,0:0:0:0:
292,29,3057,6,0,P|282:17|269:12,1,22.5,0|0,3:2|0:0,0:0:0:0:
182,108,3518,6,0,B|219:97|231:73|231:73|206:83|204:130,1,118.125004506111,10|0,3:2|0:0,0:0:0:0:
199,129,3980,6,0,B|199:162|235:172|245:202,1,76.5000014591217,6|2,3:2|0:2,0:0:0:0:
151,361,4441,1,10,0:2:0:0:
208,263,4672,1,2,0:2:0:0:
200,265,4788,1,0,0:0:0:0:
193,269,4903,2,0,B|164:296|164:296|137:338,1,76.5000014591217,2|2,3:2|0:2,0:0:0:0:
0,220,5364,2,0,B|-1:203|-1:203|13:220,1,38.2500007295609,10|0,0:2|0:0,0:0:0:0:
74,286,5595,2,0,B|75:269|75:269|61:286,1,38.2500007295609,2|0,0:2|0:0,0:0:0:0:
63,303,5826,5,2,3:2:0:0:
247,335,6057,2,0,B|272:353|272:353|282:364|282:364|311:386,1,76.5000014591217,2|10,0:2|0:2,0:0:0:0:
512,230,6518,1,2,0:2:0:0:
435,253,6749,2,0,P|418:263|408:280,1,38.2500007295609,2|0,3:2|0:0,0:0:0:0:
315,384,6980,2,0,P|336:358|337:299,1,76.5000014591217,2|10,0:2|0:2,0:0:0:0:
442,249,7441,5,2,0:2:0:0:
432,245,7557,1,0,0:0:0:0:
442,237,7672,2,0,P|458:228|471:209,14,38.2500007295609,2|0|2|0|10|0|2|0|0|0|0|0|8|0|0,3:2|0:0|0:2|0:0|0:2|0:0|0:2|0:0|3:2|0:0|0:0|0:0|0:2|0:0|0:0,0:0:0:0:
392,161,9403,5,0,0:0:0:0:
382,159,9518,2,0,P|366:150|353:131,14,38.2500007295609,2|0|0|0|10|0|2|0|0|0|0|0|8|0|0,3:2|0:0|0:0|0:0|0:2|0:0|0:2|0:0|3:2|0:0|0:0|0:0|0:2|0:0|0:0,0:0:0:0:
487,50,11249,5,0,0:0:0:0:
494,50,11364,2,0,B|504:59|470:62|479:39,1,38.2500007295609,6|0,3:2|0:0,0:0:0:0:
476,28,11595,2,0,B|442:38|447:62|416:76,1,76.5000014591217,0|10,0:0|0:2,0:0:0:0:
237,6,12056,1,2,0:2:0:0:
238,13,12172,1,0,0:0:0:0:
243,18,12288,1,2,3:2:0:0:
328,50,12518,1,2,0:2:0:0:
467,155,12748,2,0,P|477:172|485:198,1,38.2500007295609,10|0,0:2|0:0,0:0:0:0:
472,146,12980,2,0,P|458:160|436:176,1,38.2500007295609,2|0,0:2|0:0,0:0:0:0:
427,257,13210,5,2,3:2:0:0:
312,374,13441,2,0,B|326:382|360:354|359:310,1,76.5000014591217,0|8,0:0|0:2,0:0:0:0:
434,254,13902,1,0,0:0:0:0:
299,373,14134,2,0,P|266:354|252:311,1,76.5000014591217,0|0,3:2|0:0,0:0:0:0:
18,377,14595,2,0,P|51:358|65:315,1,76.5000014591217,8|0,0:2|0:0,0:0:0:0:
175,215,14941,5,0,0:0:0:0:
171,221,15056,2,0,L|159:257,14,38.2500007295609,2|0|0|0|8|0|0|0|0|0|0|0|8|0|0,3:2|0:0|0:0|0:0|0:2|0:0|0:0|0:0|3:2|0:0|0:0|0:0|0:2|0:0|0:0,0:0:0:0:
22,137,16788,5,0,0:0:0:0:
26,143,16903,2,0,L|38:179,14,38.2500007295609,2|0|0|0|8|0|2|0|0|0|0|0|8|0|0,3:2|0:0|0:0|0:0|0:2|0:0|0:2|0:0|3:2|0:0|0:0|0:0|0:2|0:0|0:0,0:0:0:0:
69,70,18633,5,0,0:0:0:0:
76,70,18749,2,0,B|107:50|95:27|130:6,1,76.5000014591217,2|0,3:2|0:0,0:0:0:0:
230,62,19211,2,0,P|218:57|213:38,1,19.1250003647804,10|0,0:2|0:0,0:0:0:0:
235,70,19441,2,0,P|237:56|255:47,1,19.1250003647804,2|0,0:2|0:0,0:0:0:0:
323,8,19672,1,0,3:2:0:0:
460,73,19903,2,0,P|469:83|473:98,1,19.1250003647804,2|0,0:2|0:0,0:0:0:0:
438,163,20134,1,8,0:2:0:0:
462,67,20364,2,0,P|454:78|441:86,1,19.1250003647804,2|0,0:2|0:0,0:0:0:0:
352,105,20595,5,2,3:2:0:0:
343,109,20826,1,0,0:0:0:0:
472,301,21057,2,0,B|460:279|430:271|415:240,2,76.5000014591217,10|0|0,0:2|0:0|3:2,0:0:0:0:
312,337,21749,6,0,B|288:310|317:310|317:326,1,38.2500007295609,2|0,0:2|0:0,0:0:0:0:
404,378,21980,2,0,B|427:351|398:351|398:367,1,38.2500007295609,8|0,0:2|0:0,0:0:0:0:
479,300,22211,2,0,B|502:273|473:273|473:289,1,38.2500007295609,2|0,0:2|0:0,0:0:0:0:
318,345,22441,6,0,P|306:343|299:336,1,19.1250003647804,2|0,3:2|0:0,0:0:0:0:
327,347,22672,2,0,P|321:358|313:363,1,19.1250003647804
69,380,22903,2,0,B|78:358|118:357|129:326,1,76.5000014591217,10|0,0:2|0:0,0:0:0:0:
43,146,23364,1,0,3:2:0:0:
11,220,23595,2,0,P|15:232|32:240,1,19.1250003647804,2|0,0:2|0:0,0:0:0:0:
94,260,23826,1,8,0:2:0:0:
4,219,24057,2,0,P|16:218|28:203,1,19.1250003647804,2|0,0:2|0:0,0:0:0:0:
93,267,24288,6,0,P|117:236|162:207,1,76.5000014591217,2|0,3:2|0:0,0:0:0:0:
86,19,24749,2,0,P|74:19|81:29,1,19.1250003647804,10|0,0:2|0:0,0:0:0:0:
147,108,24980,1,0,0:0:0:0:
153,115,25211,1,0,3:2:0:0:
280,22,25441,6,0,B|271:17|243:22|268:34,1,38.2500007295609,2|0,0:2|0:0,0:0:0:0:
365,92,25672,2,0,B|379:99|382:112|396:119,1,38.2500007295609,8|0,0:2|0:0,0:0:0:0:
490,40,25903,2,0,B|490:25|490:25|476:46,1,38.2500007295609,2|0,0:2|0:0,0:0:0:0:
408,121,26134,5,2,3:2:0:0:
417,128,26364,1,0,0:0:0:0:
496,228,26595,2,0,P|498:208|482:219,1,38.2500007295609,10|0,0:2|0:0,0:0:0:0:
427,255,26826,1,2,0:2:0:0:
356,310,27057,1,2,3:2:0:0:
276,234,27288,1,2,0:2:0:0:
159,211,27518,1,10,0:2:0:0:
44,42,27749,6,0,L|18:101,1,57.3750010943413,2|0,0:2|0:0,0:0:0:0:
27,101,27980,6,0,L|43:120,1,19.1250003647804,2|0,3:2|0:0,0:0:0:0:
119,121,28211,2,0,L|116:145,1,19.1250003647804,2|0,0:2|0:0,0:0:0:0:
159,217,28441,2,0,L|140:233,1,19.1250003647804,10|0,0:2|0:0,0:0:0:0:
113,317,28672,2,0,L|88:314,1,19.1250003647804,2|0,0:2|0:0,0:0:0:0:
14,373,28903,2,0,L|-1:354,1,19.1250003647804,2|0,3:2|0:0,0:0:0:0:
189,355,29134,5,2,0:2:0:0:
189,355,29364,2,0,B|211:374|211:374|190:377,1,38.2500007295609,10|0,0:2|0:0,0:0:0:0:
300,310,29595,2,0,B|278:329|278:329|299:332,1,38.2500007295609,2|0,0:2|0:0,0:0:0:0:
475,338,29826,6,0,P|463:346|470:330,1,38.2500007295609,2|0,3:2|0:0,0:0:0:0:
377,279,30057,2,0,P|391:286|387:270,1,38.2500007295609,2|0,0:2|0:0,0:0:0:0:
489,229,30288,2,0,B|501:217|500:204|518:190,1,38.2500007295609,10|0,0:2|0:0,0:0:0:0:
483,235,30518,2,0,B|471:223|472:210|454:196,1,38.2500007295609,2|0,0:2|0:0,0:0:0:0:
410,46,30749,2,0,B|407:34|382:37|408:58,1,38.2500007295609,2|0,3:2|0:0,0:0:0:0:
468,118,30980,2,0,B|471:130|496:127|470:106,1,38.2500007295609,2|0,0:2|0:0,0:0:0:0:
488,19,31211,2,0,B|491:7|516:10|490:31,1,38.2500007295609,10|0,0:2|0:0,0:0:0:0:
306,60,31441,5,2,0:2:0:0:
295,48,31557,1,0,0:0:0:0:
280,43,31672,1,2,3:2:0:0:
191,70,31903,1,0,0:0:0:0:
10,4,32134,1,10,0:2:0:0:
83,49,32364,1,2,0:2:0:0:
88,54,32480,1,0,0:0:0:0:
90,61,32595,6,0,P|103:44|108:20,1,38.2500007295609,2|0,3:2|0:0,0:0:0:0:
0,147,32826,1,2,0:2:0:0:
19,135,32941,1,0,0:0:0:0:
28,113,33057,1,10,0:2:0:0:
1,10,33288,1,2,0:2:0:0:
128,155,33518,6,0,B|155:177|151:203|177:226,1,85.4999977169037,0|0,3:2|0:0,0:0:0:0:
21,258,33980,2,0,B|1:249|28:234|37:265,1,42.7499988584519,8|0,0:2|0:0,0:0:0:0:
114,289,34211,1,2,0:2:0:0:
119,305,34326,1,0,0:0:0:0:
111,320,34441,2,0,B|85:355|85:355|38:354,1,85.4999977169037,2|0,3:2|0:0,0:0:0:0:
184,223,34903,1,10,0:2:0:0:
276,257,35134,6,0,P|302:288|325:326,1,85.4999977169037,2|0,0:2|3:2,0:0:0:0:
323,343,35480,1,0,0:0:0:0:
336,353,35595,2,0,P|362:322|385:283,1,85.4999977169037,2|8,0:2|0:0,0:0:0:0:
459,360,36057,1,2,0:2:0:0:
345,179,36288,2,0,B|353:152|389:148|408:109,1,85.4999977169037,2|0,3:2|0:0,0:0:0:0:
402,100,36634,1,0,0:0:0:0:
389,88,36749,1,10,0:2:0:0:
249,42,36980,5,0,0:0:0:0:
263,50,37095,1,2,0:2:0:0:
274,62,37211,2,0,P|314:47|347:-2,2,85.4999977169037,2|0|8,3:2|0:0|0:2,0:0:0:0:
482,111,37903,2,0,P|500:72|488:14,2,85.4999977169037,2|0|0,0:2|3:2|0:0,0:0:0:0:
242,168,38595,1,10,0:2:0:0:
167,191,38826,2,0,P|124:166|94:130,1,85.4999977169037,2|0,0:2|3:2,0:0:0:0:
31,328,39288,2,0,P|18:280|22:234,1,85.4999977169037,2|8,0:2|0:2,0:0:0:0:
446,294,41595,6,0,B|433:282|456:269|462:305,1,42.7499988584519,2|0,0:2|0:0,0:0:0:0:
496,378,41825,2,0,B|464:360|469:334|419:310,1,85.4999977169037,2|0,3:2|0:0,0:0:0:0:
269,379,42287,1,10,0:2:0:0:
331,323,42518,2,0,P|330:284|283:291,1,85.4999977169037,2|0,0:2|3:2,0:0:0:0:
252,381,42864,1,0,0:0:0:0:
238,373,42979,2,0,P|210:339|186:287,1,85.4999977169037,2|8,0:2|0:2,0:0:0:0:
1,382,43441,1,2,0:2:0:0:
72,347,43672,2,0,P|87:329|88:301,1,42.7499988584519,2|0,3:2|0:0,0:0:0:0:
89,297,43903,2,0,B|77:268|32:262|18:228,1,85.4999977169037,2|8,0:2|0:2,0:0:0:0:
146,0,44364,5,2,0:2:0:0:
153,15,44479,1,0,0:0:0:0:
153,32,44595,2,0,P|137:73|112:107,1,85.4999977169037,0|0,3:2|0:0,0:0:0:0:
97,113,44941,1,0,0:0:0:0:
80,116,45057,1,10,0:2:0:0:
295,59,45288,2,0,B|348:30|274:-8|288:39,1,85.4999977169037,2|0,0:2|3:2,0:0:0:0:
113,119,45749,2,0,B|137:139|137:166|163:189,1,85.4999977169037,2|8,0:2|0:2,0:0:0:0:
322,263,46210,2,0,P|353:245|362:185,1,85.4999977169037,2|0,0:2|3:2,0:0:0:0:
476,79,46672,2,0,P|445:61|436:1,1,85.4999977169037,2|8,0:2|0:2,0:0:0:0:
178,8,48288,6,0,B|149:82|149:82|149:95|149:95|115:171,1,170.999995433807,6|8,3:2|0:2,0:0:0:0:
38,17,48980,1,2,0:2:0:0:
49,29,49095,1,0,0:0:0:0:
66,31,49211,2,0,B|82:53|60:83|16:89,1,85.4999977169037,2|0,3:2|0:0,0:0:0:0:
22,172,49557,1,0,0:0:0:0:
30,186,49672,1,10,0:2:0:0:
130,313,49903,6,0,B|139:292|139:292|117:311,1,42.7499988584519,2|0,0:2|0:0,0:0:0:0:
67,363,50134,2,0,B|33:346|43:314|-5:294,2,85.4999977169037,0|0|8,3:2|0:0|0:2,0:0:0:0:
319,318,50826,2,0,B|336:301|305:283|310:303,1,42.7499988584519,2|0,0:2|0:0,0:0:0:0:
245,355,51057,1,2,3:2:0:0:
147,281,51288,1,2,0:2:0:0:
143,272,51518,1,8,0:2:0:0:
331,314,51749,2,0,B|360:329|362:359|404:380,1,85.4999977169037,2|0,0:2|3:2,0:0:0:0:
510,281,52211,5,2,0:2:0:0:
501,289,52326,1,0,0:0:0:0:
483,295,52441,1,8,0:2:0:0:
464,285,52557,1,0,0:0:0:0:
459,261,52672,2,0,L|483:225,2,42.7499988584519,2|0|0,0:2|0:0|3:2,0:0:0:0:
337,304,53018,5,0,0:0:0:0:
350,299,53134,2,0,P|373:258|381:215,1,85.4999977169037,2|8,0:2|0:2,0:0:0:0:
490,5,53595,2,0,P|451:31|425:66,1,85.4999977169037,2|0,0:2|3:2,0:0:0:0:
440,156,53941,1,0,0:0:0:0:
428,158,54057,2,0,P|353:100|302:40,1,170.999995433807,2|0,0:2|0:0,0:0:0:0:
496,366,56364,5,2,0:2:0:0:
392,278,56595,1,2,3:2:0:0:
321,309,56826,1,0,0:0:0:0:
310,322,56941,1,2,0:2:0:0:
304,338,57057,2,0,P|286:328|272:309,1,42.7499988584519,8|0,0:2|0:0,0:0:0:0:
140,384,57288,6,0,P|169:359|197:307,1,85.4999977169037,2|0,0:2|3:2,0:0:0:0:
13,270,57749,2,0,B|-24:297|22:311|42:256,1,85.4999977169037,2|8,0:2|0:2,0:0:0:0:
187,311,58211,2,0,B|224:338|177:352|158:297,1,85.4999977169037,0|0,0:0|3:2,0:0:0:0:
23,153,58672,2,0,B|17:177|17:177|39:161,1,42.7499988584519,2|0,0:2|0:0,0:0:0:0:
92,44,58903,2,0,B|98:68|98:68|76:52,1,42.7499988584519,10|0,0:2|0:0,0:0:0:0:
9,11,59134,6,0,B|38:33|38:33|44:55|44:55|72:79,1,85.4999977169037,2|4,0:2|3:2,0:0:0:0:
210,55,59480,1,0,0:0:0:0:
204,42,59595,2,0,B|171:21|171:21|197:77,2,85.4999977169037,2|8|0,0:2|0:2|0:0,0:0:0:0:
358,26,60288,2,0,P|347:47|318:65,1,42.7499988584519,6|0,3:2|0:0,0:0:0:0:
313,67,60518,1,0,0:0:0:0:
469,198,60749,2,0,P|445:192|420:169,1,42.7499988584519,10|0,0:2|0:0,0:0:0:0:
432,90,60980,5,0,0:0:0:0:
439,76,61095,1,0,0:0:0:0:
458,69,61211,2,0,B|480:70|480:102|458:86,1,42.7499988584519,6|0,3:2|0:0,0:0:0:0:
419,177,61441,2,0,B|393:199|390:223|363:252,1,85.4999977169037,2|8,0:2|0:2,0:0:0:0:
245,355,61788,1,0,0:0:0:0:
254,362,61903,2,0,P|299:336|281:298,1,85.4999977169037,2|0,0:2|3:2,0:0:0:0:
235,257,62249,1,0,0:0:0:0:
215,253,62364,1,2,0:2:0:0:
20,310,62595,1,10,0:2:0:0:
0,129,62826,5,0,0:0:0:0:
13,121,62941,1,0,0:0:0:0:
90,127,63057,2,0,B|101:100|153:82|158:47,1,94.499997116089,6|0,3:2|0:0,0:0:0:0:
70,11,63403,1,0,0:0:0:0:
70,11,63518,1,10,0:2:0:0:
55,241,63749,6,0,B|28:216|84:201|103:257,1,94.499997116089,2|0,0:2|3:2,0:0:0:0:
261,374,64211,2,0,P|249:327|193:336,1,94.499997116089,0|8,0:0|0:2,0:0:0:0:
21,384,64672,5,0,0:0:0:0:
116,351,64903,1,0,3:2:0:0:
208,275,65134,1,0,0:0:0:0:
384,340,65364,1,8,0:2:0:0:
467,376,65595,6,0,P|436:358|416:298,1,94.499997116089,2|2,0:2|3:2,0:0:0:0:
453,174,66057,1,2,0:2:0:0:
512,218,66288,1,8,0:2:0:0:
269,34,66518,2,0,P|334:74|355:192,1,188.999994232178,2|0,0:2|0:0,0:0:0:0:
306,254,67095,1,0,0:0:0:0:
306,254,67211,1,10,0:2:0:0:
306,254,67672,5,2,3:2:0:0:
431,384,67903,2,0,P|417:339|379:313,1,94.499997116089,2|8,0:2|0:2,0:0:0:0:
152,369,68364,2,0,B|209:363|302:294|285:253,1,188.999994232178,2|0,0:2|0:0,0:0:0:0:
210,201,68941,1,0,0:0:0:0:
210,201,69057,1,10,0:2:0:0:
138,246,69288,1,2,0:2:0:0:
31,372,69518,6,0,P|50:356|56:336,1,47.2499985580445,0|0,3:2|0:0,0:0:0:0:
129,254,69749,2,0,P|119:231|101:219,1,47.2499985580445
21,259,69980,5,10,0:2:0:0:
142,367,70211,1,0,0:0:0:0:
91,221,70441,6,0,B|89:158|199:104|194:42,1,188.999994232178,6|8,3:2|0:2,0:0:0:0:
15,31,71134,2,0,B|12:21|75:23|70:91,1,94.499997116089,2|0,0:2|3:2,0:0:0:0:
279,13,71595,2,0,P|249:51|199:73,1,94.499997116089,0|8,0:0|0:2,0:0:0:0:
140,0,72057,5,0,0:0:0:0:
196,80,72288,1,0,3:2:0:0:
343,65,72518,1,0,0:0:0:0:
417,216,72749,1,8,0:2:0:0:
274,362,72980,6,0,B|265:337|265:337|286:348,1,47.2499985580445
380,352,73211,5,8,3:2:0:0:
397,359,73326,1,8,0:2:0:0:
396,342,73441,2,0,L|412:273,1,47.2499985580445,8|8,0:2|0:2,0:0:0:0:
281,189,73672,1,8,3:2:0:0:
228,241,73788,1,8,0:2:0:0:
253,331,73903,5,8,0:2:0:0:
261,325,74018,1,8,0:2:0:0:
250,317,74134,2,0,B|242:298|220:298|202:272,1,47.2499985580445,6|0,3:2|0:0,0:0:0:0:
414,207,74364,6,0,B|422:168|459:161|471:132,1,94.499997116089,2|8,0:2|0:2,0:0:0:0:
470,133,74826,1,2,0:2:0:0:
298,19,75057,1,2,3:2:0:0:
298,19,75288,2,0,P|326:60|377:84,1,94.499997116089,2|8,0:2|0:2,0:0:0:0:
364,81,75749,1,2,0:2:0:0:
134,140,75980,1,2,3:2:0:0:
134,140,76211,2,0,B|121:127|183:73|210:106,1,94.499997116089,2|8,0:2|0:2,0:0:0:0:
203,100,76672,6,0,L|188:54,1,47.2499985580445,2|0,0:2|0:0,0:0:0:0:
14,22,76903,5,10,3:2:0:0:
2,39,77018,1,8,0:2:0:0:
11,71,77134,1,10,0:2:0:0:
50,98,77249,1,8,0:2:0:0:
90,165,77364,5,10,3:2:0:0:
68,194,77480,1,8,0:2:0:0:
105,239,77595,1,8,0:2:0:0:
74,319,77711,1,8,0:2:0:0:
149,370,77826,6,0,B|187:361|201:329|201:329|177:317|171:336,1,99.0000030212403,6|10,3:2|0:2,0:0:0:0:
142,370,78518,6,0,P|247:224|372:133,1,323.999990112305,2|8,0:2|0:2,0:0:0:0:
361,138,79441,6,0,B|371:148|379:170|394:181,1,49.5000015106202
467,177,79672,1,0,3:2:0:0:
381,278,79903,1,0,0:0:0:0:
512,374,80134,1,8,0:2:0:0:
372,277,80364,6,0,P|350:287|325:311,1,49.5000015106202,2|0,0:2|0:0,0:0:0:0:
377,287,80595,2,0,L|357:336,1,49.5000015106202,10|8,3:2|0:2,0:0:0:0:
497,370,80826,5,10,0:2:0:0:
466,344,80941,1,8,0:2:0:0:
465,297,81057,1,8,3:2:0:0:
497,251,81172,1,8,0:2:0:0:
463,184,81288,5,10,0:2:0:0:
491,111,81403,1,8,0:2:0:0:
454,27,81518,2,0,B|423:54|286:54|278:153,1,215.999993408203,0|10,3:2|0:2,0:0:0:0:
280,138,82441,5,2,3:2:0:0:
53,54,82672,2,0,B|34:37|32:72|64:69,1,49.5000015106202,2|8,0:2|0:2,0:0:0:0:
115,10,83134,6,0,L|67:220,1,198.000006042481,2|0,0:2|0:0,0:0:0:0:
21,271,83711,1,0,0:0:0:0:
21,271,83826,1,10,0:2:0:0:
156,365,84057,2,0,B|174:364|143:306|77:325,2,99.0000030212403,2|0|0,0:2|3:2|0:0,0:0:0:0:
447,327,84749,5,10,0:2:0:0:
381,376,84980,1,0,0:0:0:0:
148,372,85211,6,0,B|128:355|203:256|308:243,1,215.999993408203,6|8,3:2|0:2,0:0:0:0:
499,383,85903,2,0,P|464:375|459:314,1,99.0000030212403,2|0,0:2|3:2,0:0:0:0:
307,237,86364,2,0,P|337:199|389:178,1,99.0000030212403,0|8,0:0|0:2,0:0:0:0:
486,28,86826,6,0,B|478:44|449:46|438:69,1,49.5000015106202
493,34,87057,2,0,P|467:40|443:35,1,49.5000015106202,0|0,3:2|0:0,0:0:0:0:
383,179,87288,2,0,P|341:151|314:103,1,99.0000030212403,0|8,0:0|0:2,0:0:0:0:
34,58,87749,2,0,B|20:35|20:35|47:55,1,49.5000015106202
113,87,87980,5,8,3:2:0:0:
136,97,88095,1,8,0:2:0:0:
172,88,88211,1,8,0:2:0:0:
194,37,88326,1,8,0:2:0:0:
114,0,88441,5,8,3:2:0:0:
114,53,88556,1,8,0:2:0:0:
111,119,88672,1,8,0:2:0:0:
108,198,88787,1,8,0:2:0:0:
31,247,88903,6,0,B|14:233|46:226|54:256,1,49.5000015106202,6|0,3:2|0:0,0:0:0:0:
53,266,89134,2,0,B|64:300|99:313|108:353,1,99.0000030212403,2|8,0:2|0:2,0:0:0:0:
300,352,89595,2,0,B|276:358|276:358|292:337,1,49.5000015106202,2|0,0:2|0:0,0:0:0:0:
459,302,89826,2,0,B|442:335|400:337|381:370,2,99.0000030212403,2|2|8,3:2|0:2|0:2,0:0:0:0:
280,62,90518,2,0,P|287:81|310:98,1,49.5000015106202,2|0,0:2|0:0,0:0:0:0:
471,30,90749,1,2,3:2:0:0:
471,30,90980,2,0,P|420:53|408:97,1,99.0000030212403,2|8,0:2|0:2,0:0:0:0:
386,371,91441,2,0,L|358:330,1,49.5000015106202,2|0,0:2|0:0,0:0:0:0:
268,365,91672,5,10,3:2:0:0:
239,375,91788,1,8,0:2:0:0:
192,359,91903,1,10,0:2:0:0:
157,318,92018,1,8,0:2:0:0:
81,297,92134,5,10,3:2:0:0:
111,242,92250,1,8,0:2:0:0:
66,181,92365,1,8,0:2:0:0:
103,106,92480,1,8,0:2:0:0:
19,57,92595,6,0,L|0:0,1,60.7499981460572,6|0,3:2|0:0,0:0:0:0:
107,98,93057,6,0,L|123:49,1,45,10|0,0:2|0:0,0:0:0:0:
105,246,93288,6,0,B|88:146|241:192|305:152|297:58|223:59,1,314.999990386963,2|0,0:2|0:0,0:0:0:0:
103,106,93980,2,0,P|117:136|148:160,1,62.9999980773926,8|0,0:2|0:0,0:0:0:0:
228,51,94211,2,0,B|226:20|170:5|202:45,1,62.9999980773926
379,33,94441,6,0,L|389:21,3,10.1249996910095,2|0|0|0,3:2|0:0|0:0|0:0,0:0:0:0:
336,5,94672,6,0,B|341:52|414:114|440:174,1,188.999994232178,2|0,0:2|0:0,0:0:0:0:
372,298,95134,6,0,L|368:308,3,10.1249996910095,2|0|0|0,0:2|0:0|0:0|0:0,0:0:0:0:
352,351,95364,6,0,L|358:360,3,10.1249996910095,0|0|0|0,3:2|0:0|0:0|0:0,0:0:0:0:
415,374,95595,6,0,B|434:353|464:354|467:326,1,62.9999980773926,2|0,0:2|0:0,0:0:0:0:
426,172,95826,6,0,L|421:162,3,10.1249996910095,10|0|0|0,0:2|0:0|0:0|0:0,0:0:0:0:
428,182,96057,2,0,P|422:202|393:216,1,45
170,383,96288,6,0,B|213:370|212:311|271:308,2,125.999996154785,2|0|8,3:2|0:0|0:2,0:0:0:0:
22,204,96864,2,0,B|22:189|22:189|34:204,1,31.4999990386963
36,212,96980,6,0,B|71:238|71:238|96:274|96:274|127:298,1,125.999996154785,2|0,0:2|3:2,0:0:0:0:
8,369,97326,1,2,0:2:0:0:
11,359,97441,2,0,B|49:324|49:324|107:321,1,94.499997116089
135,296,97672,2,0,L|116:151,1,125.999996154785,10|0,0:2|0:0,0:0:0:0:
0,0,98018,5,2,0:2:0:0:
9,5,98134,2,0,L|30:32,1,31.4999990386963,0|0,3:2|0:0,0:0:0:0:
186,293,98364,6,0,L|205:268,1,31.4999990386963,2|0,0:2|0:0,0:0:0:0:
511,384,98595,6,0,L|469:255,1,125.999996154785,8|0,0:2|0:0,0:0:0:0:
277,384,98941,1,0,0:0:0:0:
276,372,99057,2,0,P|301:348|333:343,1,62.9999980773926,2|0,3:2|0:0,0:0:0:0:
430,210,99288,2,0,P|458:229|471:259,1,62.9999980773926
283,189,99518,5,10,0:2:0:0:
353,220,99634,1,0,0:0:0:0:
434,174,99749,6,0,L|441:167,1,7.87499975967408
451,142,99864,6,0,L|448:128,1,7.87499975967408
480,83,99980,6,0,B|478:68|465:60|465:60|483:60|491:84,1,60.7499981460572,6|0,3:2|0:0,0:0:0:0:
271,194,100442,6,0,P|249:179|226:156,1,45,10|0,0:2|0:0,0:0:0:0:
365,0,100672,5,2,0:2:0:0:
318,55,100788,1,0,0:0:0:0:
360,136,100903,1,0,3:2:0:0:
467,269,101134,5,0,0:0:0:0:
230,154,101364,1,8,0:2:0:0:
499,378,101595,1,0,0:0:0:0:
89,225,101826,6,0,B|68:229|68:229|31:280,1,62.9999980773926,2|0,3:2|0:0,0:0:0:0:
36,269,101999,1,0,0:0:0:0:
26,269,102057,2,0,L|45:328,1,62.9999980773926
11,158,102288,6,0,L|59:98,1,62.9999980773926,8|0,0:2|0:0,0:0:0:0:
51,80,102461,1,0,0:0:0:0:
39,54,102518,2,0,B|33:38|33:38|5:25|5:25|-2:7,1,62.9999980773926,2|0,0:2|0:0,0:0:0:0:
187,97,102749,6,0,L|235:151,2,62.9999980773926,0|0|0,3:2|0:0|0:0,0:0:0:0:
375,10,103095,1,0,0:0:0:0:
370,17,103211,2,0,L|309:44,1,62.9999980773926,8|0,0:2|0:0,0:0:0:0:
411,85,103441,2,0,L|347:57,1,62.9999980773926
457,18,103672,5,12,3:2:0:0:
487,40,103788,1,8,0:2:0:0:
508,78,103903,1,8,0:2:0:0:
479,134,104019,1,8,0:2:0:0:
445,208,104134,5,8,3:2:0:0:
454,222,104249,5,8,0:2:0:0:
438,225,104364,5,8,0:2:0:0:
457,235,104480,5,8,0:2:0:0:
420,301,104595,5,8,3:2:0:0:
392,342,104711,1,8,0:2:0:0:
426,384,104826,1,8,0:2:0:0:
500,367,104941,1,8,0:2:0:0:
422,295,105057,6,0,B|399:295|385:314|355:318,1,62.9999980773926,10|8,3:2|0:2,0:0:0:0:
298,360,105288,2,0,B|275:360|261:341|231:337,1,62.9999980773926,10|8,0:2|0:2,0:0:0:0:
28,361,105518,6,0,B|27:375|27:375|40:363,1,31.4999990386963,10|0,3:2|0:0,0:0:0:0:
50,325,105634,2,0,L|39:295,1,31.4999990386963,8|0,0:2|0:0,0:0:0:0:
73,265,105749,2,0,L|92:241,1,31.4999990386963,8|0,0:2|0:0,0:0:0:0:
133,258,105864,2,0,L|173:266,1,31.4999990386963,8|0,0:2|0:0,0:0:0:0:
201,334,105980,6,0,B|211:342|211:342|211:350|211:350|226:363,3,31.4999990386963,8|0|8|0,3:2|0:0|0:2|0:0,0:0:0:0:
306,367,106211,2,0,B|316:359|316:359|316:351|316:351|331:338,3,31.4999990386963,8|0|8|0,0:2|0:0|0:2|0:0,0:0:0:0:
297,262,106441,6,0,B|313:260|313:260|331:266,1,31.4999990386963,10|0,3:2|0:0,0:0:0:0:
362,272,106557,2,0,L|380:299,1,31.4999990386963,8|0,0:2|0:0,0:0:0:0:
407,312,106672,2,0,L|440:299,1,31.4999990386963,8|0,0:2|0:0,0:0:0:0:
480,316,106788,2,0,L|504:286,1,31.4999990386963,8|0,0:2|0:0,0:0:0:0:
507,214,106903,5,8,3:2:0:0:
485,158,107018,1,8,0:2:0:0:
512,80,107133,1,10,0:2:0:0:
510,58,107249,2,0,L|487:36,1,31.4999990386963,10|0,0:2|0:0,0:0:0:0:
407,11,107364,5,14,3:2:0:0:
