osu file format v14

[General]
AudioFilename: audio.mp3
AudioLeadIn: 0
PreviewTime: -1
Countdown: 1
SampleSet: None
StackLeniency: 0.7
Mode: 0
LetterboxInBreaks: 0
WidescreenStoryboard: 0

[Editor]
DistanceSpacing: 1
BeatDivisor: 6
GridSize: 4
TimelineZoom: 1

[Metadata]
Title:Extreme Hardcore MIx
TitleUnicode:Extreme Hardcore MIx
Artist:Multiple of them,
ArtistUnicode:Multiple of them,
Creator:rexdo206
Version:EXtremeCore
Source:
Tags:
BeatmapID:2010455
BeatmapSetID:960284

[Difficulty]
HPDrainRate:7
CircleSize:4
OverallDifficulty:8
ApproachRate:10
SliderMultiplier:3.59999990463257
SliderTickRate:1

[Events]
//Background and Video events
//Break Periods
//Storyboard Layer 0 (Background)
//Storyboard Layer 1 (Fail)
//Storyboard Layer 2 (Pass)
//Storyboard Layer 3 (Foreground)
//Storyboard Sound Samples

[TimingPoints]
243.644398578269,334.448160535117,4,1,0,100,1,0
7271,-66.6666666666667,4,1,0,100,0,0
19530,-133.333333333333,4,1,0,100,0,0
20366,-500,4,1,0,100,0,0
21871,-46.9483568075117,4,1,0,100,0,0
37794,-66.6666666666667,4,1,0,100,0,1
72261,344.036697247706,4,1,0,100,1,0

[HitObjects]
152,300,1581,5,0,0:0:0:0:
200,251,1748,1,0,0:0:0:0:
246,197,1915,1,0,0:0:0:0:
297,139,2083,1,0,0:0:0:0:
346,96,2250,1,0,0:0:0:0:
89,222,2584,6,0,B|137:178|137:178|88:221,1,119.999996821086
256,192,3197,12,0,4424,0:0:0:0:
256,192,4702,12,0,5929,0:0:0:0:
134,329,6319,6,0,B|195:242|195:242|390:291,1,299.999992052714
115,307,7322,6,0,P|203:291|361:68,1,360.000004196167
354,56,7880,6,0,P|107:73|130:331,1,540.000006294251
200,293,8493,6,0,P|215:56|98:111,2,450.000005245209
154,315,9329,5,0,0:0:0:0:
121,274,9440,1,0,0:0:0:0:
103,226,9551,1,0,0:0:0:0:
139,193,9663,1,0,0:0:0:0:
191,190,9774,1,0,0:0:0:0:
243,194,9886,1,0,0:0:0:0:
295,200,9997,1,0,0:0:0:0:
346,207,10109,1,0,0:0:0:0:
398,213,10220,1,0,0:0:0:0:
450,215,10332,1,0,0:0:0:0:
489,194,10443,1,0,0:0:0:0:
449,161,10555,1,0,0:0:0:0:
402,138,10666,1,0,0:0:0:0:
353,120,10778,1,0,0:0:0:0:
304,104,10889,1,0,0:0:0:0:
253,90,11001,1,0,0:0:0:0:
202,79,11112,1,0,0:0:0:0:
151,70,11224,1,0,0:0:0:0:
113,108,11503,6,0,P|150:208|259:188,1,180.000002098084
113,108,11670,2,0,B|143:212|259:222|495:158,1,360.000004196167
311,262,12228,6,0,B|172:329|143:298|145:57|151:58|436:262,1,540.000006294251
394,304,12841,6,0,P|275:118|226:342,1,540.000006294251
279,291,13398,6,0,B|219:165|182:210|181:209|386:173|410:269|273:275,1,270.000003147125
120,338,13844,6,0,B|133:12|479:28|479:28|204:30|204:30|214:196|214:196|495:188|495:187|190:196|190:196|202:333|202:333|513:341,1,1800.00002098084
28,346,15238,6,0,B|57:-1|57:-1|63:355|63:358|133:-2|133:-2|170:372|170:372|258:367|258:367|255:30|255:30|258:366|258:366|402:364|319:22|319:22|442:378|442:378|339:389|339:389|453:-13,1,3240.0000377655
288,55,17634,6,0,B|145:63|150:68|186:289|186:289|384:253|125:366,1,540.000006294251
164,66,18192,6,0,B|187:180|331:143|332:29|330:29|312:342,1,360.000004196167
186,49,18749,6,0,B|356:157|147:208|134:208|134:208|377:203|377:203|378:203|105:322,1,720.000008392334
212,93,19530,2,0,B|301:111|183:235|183:235|194:275|194:275|397:271,1,405.000004720688
265,300,20366,6,0,L|262:18,1,275.999992688497
263,21,21927,6,0,P|66:239|310:32,1,1022.3999768158
206,19,22707,6,0,P|465:109|94:208,1,894.599979713821
68,33,23655,2,0,B|267:55|301:255|76:238|17:212|103:237|469:291,1,638.999985509872
146,332,24212,6,0,B|133:53|134:53|521:277|521:276|46:41,1,766.799982611847
190,144,24825,5,0,0:0:0:0:
190,144,24881,2,0,B|322:224|405:52|105:415,1,383.399991305923
248,82,25243,6,0,L|489:23,1,239.624994566202
480,25,25536,6,0,P|407:287|26:8,2,910.574979351568
47,131,26581,6,0,B|427:216|333:259|158:281|75:257|145:217|215:210|240:212|239:211|239:211|-41:156,1,718.874983698606
154,350,27187,6,0,B|158:30|158:30|458:55|457:54|179:162|179:161|243:80|233:66|199:60|182:69|184:282|184:282|163:313|163:313|312:102|312:102|197:134|232:195,1,1293.97497065749
164,89,28170,6,0,B|275:341|275:340|363:6|364:6|190:5,1,527.174988045645
232,356,28671,6,0,B|373:-2|373:-2|154:-2|154:-3|234:124|234:124|155:235|155:235|241:376,1,958.499978264809
449,298,29382,6,0,B|532:218|-20:195|-20:195|447:191,1,958.499978264809
177,348,30302,6,0,B|240:338|301:224|231:119|135:54|167:13|243:3|345:29|361:31|356:38|305:107|279:233|270:275|395:357,1,766.799982611847
56,343,30908,6,0,B|248:19|248:18|248:17|248:17|249:0|249:0|274:57|430:357|430:357|92:89|91:88|81:80|90:89|90:89|462:110|463:110|50:344,1,1869.07495761638
26,371,31995,5,0,0:0:0:0:
86,353,32037,1,0,0:0:0:0:
126,320,32573,6,0,P|261:202|228:102,6,255.599994203949
217,58,33688,6,0,L|363:102,21,127.799997101975
252,52,35918,6,0,B|120:54|99:256|440:246,1,383.399991305924
39,193,36419,6,0,B|232:151|286:148|297:169|287:219|187:276|126:241|106:193|103:139|168:118|239:120|277:146|312:164|347:168|371:160|423:162|445:159|469:155|478:111|460:85|384:60|328:75|297:119|302:195|332:246|423:219,1,766.799982611847
170,162,37200,6,0,B|278:229|452:240|461:157|404:126|316:160|224:224|99:233|91:169|261:129,1,511.199988407898
106,266,37813,6,0,P|227:264|381:4,1,450.000005245209
183,223,38482,2,0,P|327:253|314:286,1,180.000002098084
88,192,38816,6,4,L|244:76,11,180.000002098084,10|10|10|10|10|10|10|10|10|10|10|10,0:0|0:0|0:0|0:0|0:0|0:0|0:0|0:0|0:0|0:0|0:0|0:0,0:0:0:0:
292,224,40488,6,0,B|292:124|292:124|148:248|148:248|176:320|176:320|328:208,1,540.000006294251
156,316,41157,6,0,B|424:304|424:304|248:68|248:64|248:64|120:384,1,900.000010490418
136,196,41993,6,0,B|328:248|328:248|368:120|368:120|148:56|148:56|136:220|136:220|136:240,1,720.000008392335
376,248,43053,1,0,0:0:0:0:
56,304,43331,6,0,B|248:196|256:48|256:48|392:76|392:76|144:332,1,810.000009441377
80,272,44167,6,0,B|152:72|152:72|404:256|404:256|216:284|216:284|272:340|272:340|504:284|504:284|160:32|164:32|92:8|92:4|24:296,1,1710.00001993179
68,116,45505,6,0,B|184:124|352:192|404:140|404:140|400:64|400:64|472:100|472:100|484:200|448:272|380:284|232:232|156:192|56:200|36:224,1,990.00001153946
72,304,46676,5,0,0:0:0:0:
180,348,46954,5,0,0:0:0:0:
272,276,47233,5,0,0:0:0:0:
376,268,47568,5,0,0:0:0:0:
452,184,47846,5,0,0:0:0:0:
188,168,48181,6,0,L|300:120,42,90.0000010490418
52,288,51414,6,0,P|236:128|64:116,1,540.000006294251
52,288,51915,2,0,P|272:152|424:288,1,450.000005245209
404,244,52361,2,0,B|348:316|196:296|128:68,1,360.000004196167
141,106,52807,2,0,L|380:148,8,180.000002098084
20,328,54201,6,0,B|152:296|376:256|448:144|328:72|200:344|280:364|368:352|448:264|464:184|460:136|444:96|336:48|200:32|64:176|108:240|268:228|312:112|224:32,1,900.000010490418
8,16,55204,6,0,B|512:12|512:12|508:72|508:72|8:60|8:60|8:144|8:144|512:128|512:128|512:232|512:232|-4:216|-4:216|0:308|0:308|528:304,1,2880.00003356934
112,296,57322,6,0,L|184:224,6,90.0000010490418
276,156,57991,1,0,0:0:0:0:
420,216,58326,6,0,L|348:280,9,90.0000010490418
216,204,59273,6,0,B|312:192|304:252|304:252|296:156,14,180.000002098084
260,316,61280,6,0,B|140:312|48:188|196:92|320:80|324:80|316:80|144:264|120:216|136:264|244:352|408:208,1,720.000008392335
388,116,62005,6,0,B|188:72|180:264|400:60,1,360.000004196167
296,212,62618,6,0,B|516:248|104:112,1,360.000004196167
160,324,63231,5,0,0:0:0:0:
124,296,63287,5,0,0:0:0:0:
84,264,63342,1,0,0:0:0:0:
72,212,63398,1,0,0:0:0:0:
96,184,63454,1,0,0:0:0:0:
120,184,63510,1,0,0:0:0:0:
180,220,63565,1,0,0:0:0:0:
264,220,63621,1,0,0:0:0:0:
308,176,63677,1,0,0:0:0:0:
316,136,63733,1,0,0:0:0:0:
292,104,63788,1,0,0:0:0:0:
256,100,63844,1,0,0:0:0:0:
232,128,63900,1,0,0:0:0:0:
216,176,63956,1,0,0:0:0:0:
248,176,64011,1,0,0:0:0:0:
288,172,64067,1,0,0:0:0:0:
328,160,64123,1,0,0:0:0:0:
360,144,64178,1,0,0:0:0:0:
368,100,64234,1,0,0:0:0:0:
344,56,64290,1,0,0:0:0:0:
284,48,64346,1,0,0:0:0:0:
244,48,64401,1,0,0:0:0:0:
220,68,64457,1,0,0:0:0:0:
136,112,64792,6,0,L|224:136,33,90.0000010490418
80,280,69084,2,0,B|128:28|128:28|168:136,1,360.000004196167
160,204,69474,2,0,L|256:144,21,90.0000010490418
136,272,71369,2,0,L|372:72,4,270.000003147125
48,268,73153,5,0,0:0:0:0:
104,224,73522,5,0,0:0:0:0:
176,172,73694,1,0,0:0:0:0:
200,244,74210,6,0,P|312:140|264:16,2,299.999992052714
88,144,75070,6,0,P|168:212|388:80,2,359.999990463257
172,104,75988,6,0,B|308:264|308:264|288:88|288:88|140:272,1,599.999984105428
256,192,76905,12,0,77421,0:0:0:0:
72,248,77708,6,0,P|296:152|168:112,1,599.999984105428
104,216,78625,6,0,B|108:144|108:144|116:228|116:228|124:160|124:160|128:176|128:176|128:172|128:172|132:176|132:176|136:176|136:176|144:160|144:160|144:172|144:172|152:168|168:160|172:160|176:160|184:164|228:168|224:172|208:176|160:232|188:224|188:224|256:208|276:192|284:148|280:96|220:112,1,599.999984105428
120,296,79600,6,0,P|432:312|128:80,3,959.999974568685
100,52,82754,2,0,P|300:4|104:48,2,1199.99996821086
