osu file format v14

[General]
AudioFilename: audio.mp3
AudioLeadIn: 0
PreviewTime: 155716
Countdown: 0
SampleSet: Soft
StackLeniency: 0.7
Mode: 0
LetterboxInBreaks: 0
WidescreenStoryboard: 0

[Editor]
Bookmarks: 17827,46271,74716,103160,128049,156493,184938,206271,234716,263160
DistanceSpacing: 0.4
BeatDivisor: 4
GridSize: 4
TimelineZoom: 1.7

[Metadata]
Title:Makhluk Tuhan Paling Sexy
TitleUnicode:Makhluk Tuhan Paling Sexy
Artist:Mulan Jameela
ArtistUnicode:Mulan Jameela
Creator:Nakazawa
Version:Puncak Kenikmatan
Source:
Tags:The Sexiest God's Creature Mulan Kwok Ahmad Dhani GP Records Republic Cinta Records Philharmonic Orchestra Ahmad Dhani Guntur Nur Puspito Indonesia Indonesian Pop Rock Soncak dedekind
BeatmapID:4392726
BeatmapSetID:2095029

[Difficulty]
HPDrainRate:5.5
CircleSize:4.5
OverallDifficulty:8.2
ApproachRate:9
SliderMultiplier:2
SliderTickRate:1

[Events]
//Background and Video events
0,0,"BGMulan.jpg",0,0
//Break Periods
//Storyboard Layer 0 (Background)
//Storyboard Layer 1 (Fail)
//Storyboard Layer 2 (Pass)
//Storyboard Layer 3 (Foreground)
//Storyboard Layer 4 (Overlay)
//Storyboard Sound Samples

[TimingPoints]
50,444.444444444444,4,2,1,60,1,0
50,-250,4,2,1,60,0,0
3605,444.444444444444,4,2,1,60,1,0
3605,-166.666666666667,4,2,1,60,0,0
9160,-83.3333333333333,4,2,1,60,0,0
9827,-166.666666666667,4,2,1,60,0,0
10716,-83.3333333333333,4,2,1,60,0,0
11160,-166.666666666667,4,2,1,60,0,0
14271,-83.3333333333333,4,2,1,60,0,0
14716,-166.666666666667,4,2,1,60,0,0
16271,-83.3333333333333,4,2,1,60,0,0
16716,-166.666666666667,4,2,1,60,0,0
17827,-250,4,2,2,60,0,0
24049,-125,4,2,2,60,0,0
24493,-250,4,2,2,60,0,0
24938,-166.666666666667,4,2,2,60,0,0
28049,-100,4,2,2,60,0,0
28493,-166.666666666667,4,2,2,60,0,0
31604,-200,4,2,2,60,0,0
32049,-83.3333333333333,4,2,1,70,0,0
33382,-133.333333333333,4,2,1,70,0,0
33827,-83.3333333333333,4,2,1,70,0,0
34271,-66.6666666666667,4,2,1,70,0,0
34493,-100,4,2,1,70,0,0
35160,-133.333333333333,4,2,1,70,0,0
35604,-83.3333333333333,4,2,1,70,0,0
36938,-133.333333333333,4,2,1,70,0,0
37604,-66.6666666666667,4,2,1,70,0,0
38271,-100,4,2,1,70,0,0
39160,-83.3333333333333,4,2,1,70,0,0
40493,-133.333333333333,4,2,1,70,0,0
40938,-83.3333333333333,4,2,1,70,0,0
41382,-66.6666666666667,4,2,1,70,0,0
41604,-100,4,2,1,70,0,0
42271,-133.333333333333,4,2,1,70,0,0
42716,-83.3333333333333,4,2,1,70,0,0
44049,-133.333333333333,4,2,1,70,0,0
44716,-66.6666666666667,4,2,1,70,0,0
45382,-100,4,2,1,70,0,0
45827,-133.333333333333,4,2,1,70,0,0
46271,-181.818181818182,4,2,2,50,0,0
48049,-100,4,2,2,50,0,0
48716,-181.818181818182,4,2,2,50,0,0
51827,-100,4,2,2,50,0,0
53382,-181.818181818182,4,2,2,50,0,0
55160,-100,4,2,2,50,0,0
55827,-181.818181818182,4,2,2,50,0,0
56938,-62.5,4,2,2,50,0,0
57604,-181.818181818182,4,2,2,50,0,0
58938,-100,4,2,2,50,0,0
60493,-125,4,2,2,55,0,0
63049,-200,4,2,2,55,0,0
63604,-100,4,2,2,55,0,0
64049,-125,4,2,2,55,0,0
65493,-200,4,2,2,55,0,0
65827,-125,4,2,2,55,0,0
67271,-200,4,2,2,55,0,0
67604,-125,4,2,2,55,0,0
69049,-200,4,2,2,55,0,0
69382,-125,4,2,2,55,0,0
70827,-200,4,2,2,55,0,0
71160,-125,4,2,2,55,0,0
74382,-200,4,2,2,55,0,0
74715,-125,4,2,1,60,0,0
74716,-83.3333333333333,4,2,1,60,0,0
75604,-100,4,2,1,60,0,0
76049,-83.3333333333333,4,2,1,60,0,0
76493,-66.6666666666667,4,2,1,60,0,0
77160,-100,4,2,1,60,0,0
77827,-133.333333333333,4,2,1,60,0,0
78271,-83.3333333333333,4,2,1,60,0,0
78938,-133.333333333333,4,2,1,60,0,0
79604,-100,4,2,1,60,0,0
80271,-66.6666666666667,4,2,1,60,0,0
80938,-100,4,2,1,60,0,0
81827,-83.3333333333333,4,2,1,60,0,0
82716,-100,4,2,1,60,0,0
83160,-66.6666666666667,4,2,1,60,0,0
84493,-100,4,2,1,60,0,0
84938,-66.6666666666667,4,2,1,60,0,0
85382,-83.3333333333333,4,2,1,60,0,0
86271,-100,4,2,1,60,0,0
87382,-66.6666666666667,4,2,1,60,0,0
88049,-100,4,2,1,60,0,0
88493,-133.333333333333,4,2,1,60,0,0
88938,-133.333333333333,4,2,1,55,0,0
91382,-200,4,2,1,55,0,0
92160,-83.3333333333333,4,2,1,55,0,0
93938,-133.333333333333,4,2,1,55,0,0
95716,-100,4,2,1,55,0,0
96049,-133.333333333333,4,2,1,55,0,0
102493,-133.333333333333,4,2,1,65,0,0
102827,-133.333333333333,4,2,1,70,0,0
103160,-83.3333333333333,4,2,1,80,0,0
103604,-166.666666666667,4,2,1,80,0,0
103827,-100,4,2,1,80,0,0
104493,-83.3333333333333,4,2,1,80,0,0
104938,-71.4285714285714,4,2,1,80,0,0
105604,-100,4,2,1,80,0,0
106271,-125,4,2,1,80,0,0
106716,-83.3333333333333,4,2,1,80,0,0
107160,-166.666666666667,4,2,1,80,0,0
107382,-100,4,2,1,80,0,0
108049,-83.3333333333333,4,2,1,80,0,0
108493,-62.5,4,2,1,80,0,0
109382,-55.5555555555556,4,2,1,80,0,0
110271,-83.3333333333333,4,2,1,80,0,0
110715,-166.666666666667,4,2,1,80,0,0
110938,-100,4,2,1,80,0,0
111604,-83.3333333333333,4,2,1,80,0,0
112049,-71.4285714285714,4,2,1,80,0,0
112715,-100,4,2,1,80,0,0
113382,-125,4,2,1,80,0,0
113827,-83.3333333333333,4,2,1,80,0,0
114271,-166.666666666667,4,2,1,80,0,0
114493,-100,4,2,1,80,0,0
115160,-83.3333333333333,4,2,1,80,0,0
115604,-62.5,4,2,1,80,0,0
116493,-55.5555555555556,4,2,1,80,0,0
117382,-250,4,2,1,50,0,0
119382,-250,4,2,3,50,0,0
119456,-250,4,2,1,50,0,0
119827,-250,4,2,3,50,0,0
119901,-250,4,2,1,50,0,0
120271,-250,4,2,3,50,0,0
120345,-250,4,2,1,50,0,0
122938,-250,4,2,3,50,0,0
123012,-250,4,2,1,50,0,0
123382,-250,4,2,3,50,0,0
123456,-250,4,2,1,50,0,0
123827,-250,4,2,3,70,0,0
123901,-250,4,2,1,70,0,0
124493,-166.666666666667,4,2,1,45,0,0
127382,-166.666666666667,4,2,1,55,0,0
128049,-66.6666666666667,4,2,1,60,0,0
128938,-100,4,2,1,60,0,0
129382,-66.6666666666667,4,2,1,60,0,0
130716,-100,4,2,1,60,0,0
131160,-66.6666666666667,4,2,1,60,0,0
132493,-125,4,2,1,60,0,0
132938,-66.6666666666667,4,2,1,60,0,0
134271,-83.3333333333333,4,2,1,60,0,0
134716,-100,4,2,1,60,0,0
135160,-66.6666666666667,4,2,1,60,0,0
136049,-100,4,2,1,60,0,0
136493,-66.6666666666667,4,2,1,60,0,0
137604,-100,4,2,1,60,0,0
138716,-66.6666666666667,4,2,1,60,0,0
139604,-125,4,2,1,60,0,0
140049,-66.6666666666667,4,2,1,60,0,0
141382,-83.3333333333333,4,2,1,60,0,0
141827,-100,4,2,1,60,0,0
142271,-117.647058823529,4,2,1,55,0,0
148271,-153.846153846154,4,2,1,55,0,0
149049,-117.647058823529,4,2,1,55,0,0
152604,-166.666666666667,4,2,1,55,0,0
152938,-117.647058823529,4,2,1,55,0,0
155826,-117.647058823529,4,2,1,65,0,0
156160,-117.647058823529,4,2,1,70,0,0
156493,-83.3333333333333,4,2,1,80,0,0
156937,-166.666666666667,4,2,1,80,0,0
157160,-100,4,2,1,80,0,0
157826,-83.3333333333333,4,2,1,80,0,0
158271,-71.4285714285714,4,2,1,80,0,0
158937,-100,4,2,1,80,0,0
159604,-125,4,2,1,80,0,0
160049,-83.3333333333333,4,2,1,80,0,0
160493,-71.4285714285714,4,2,1,80,0,0
161382,-83.3333333333333,4,2,1,80,0,0
161826,-62.5,4,2,1,80,0,0
162715,-55.5555555555556,4,2,1,80,0,0
163604,-83.3333333333333,4,2,1,80,0,0
164048,-166.666666666667,4,2,1,80,0,0
164271,-100,4,2,1,80,0,0
164937,-83.3333333333333,4,2,1,80,0,0
165382,-71.4285714285714,4,2,1,80,0,0
166048,-100,4,2,1,80,0,0
166715,-125,4,2,1,80,0,0
167160,-83.3333333333333,4,2,1,80,0,0
167604,-71.4285714285714,4,2,1,80,0,0
168493,-83.3333333333333,4,2,1,80,0,0
168938,-62.5,4,2,1,80,0,0
169827,-55.5555555555556,4,2,1,80,0,0
170716,-71.4285714285714,4,2,1,70,0,0
172160,-166.666666666667,4,2,1,70,0,0
172716,-250,4,2,3,70,0,0
172790,-250,4,2,1,70,0,0
173160,-250,4,2,3,70,0,0
173234,-250,4,2,1,70,0,0
173604,-250,4,2,3,70,0,0
173678,-250,4,2,1,70,0,0
174271,-71.4285714285714,4,2,1,70,0,0
175716,-166.666666666667,4,2,1,70,0,0
176271,-250,4,2,3,70,0,0
176345,-250,4,2,1,70,0,0
176716,-250,4,2,3,70,0,0
176790,-250,4,2,1,70,0,0
177160,-250,4,2,3,70,0,0
177234,-250,4,2,1,70,0,0
177827,-71.4285714285714,4,2,1,70,0,0
179271,-166.666666666667,4,2,1,70,0,0
179826,-250,4,2,3,70,0,0
179901,-250,4,2,1,70,0,0
180271,-250,4,2,3,70,0,0
180345,-250,4,2,1,70,0,0
180716,-250,4,2,3,70,0,0
180790,-250,4,2,1,70,0,0
181382,-71.4285714285714,4,2,1,70,0,0
182826,-166.666666666667,4,2,1,70,0,0
183381,-62.5,4,2,3,70,0,0
183456,-62.5,4,2,1,70,0,0
183827,-62.5,4,2,3,70,0,0
183901,-62.5,4,2,1,70,0,0
184271,-62.5,4,2,3,70,0,0
184345,-62.5,4,2,1,70,0,0
184938,-133.333333333333,4,2,1,60,0,0
185382,-83.3333333333333,4,2,1,60,0,0
186382,-66.6666666666667,4,2,1,60,0,0
188271,-66.6666666666667,4,2,1,60,0,0
188493,-83.3333333333333,4,2,1,60,0,0
189160,-100,4,2,1,60,0,0
190049,-66.6666666666667,4,2,1,60,0,0
190271,-74.0740740740741,4,2,1,60,0,0
192049,-66.6666666666667,4,2,1,60,0,0
192493,-100,4,2,1,60,0,0
193382,-66.6666666666667,4,2,1,60,0,0
194493,-100,4,2,1,60,0,0
195604,-83.3333333333333,4,2,1,60,0,0
199160,-66.6666666666667,4,2,1,60,0,0
199827,-100,4,2,1,60,0,0
200604,-66.6666666666667,4,2,1,60,0,0
203827,-100,4,2,1,60,0,0
204493,-133.333333333333,4,2,1,60,0,0
206271,-62.5,4,2,1,60,0,1
206493,-100,4,2,1,60,0,1
208049,-62.5,4,2,1,60,0,1
208938,-100,4,2,1,60,0,1
209493,-166.666666666667,4,2,1,60,0,1
209827,-71.4285714285714,4,2,1,60,0,1
210493,-62.5,4,2,1,60,0,1
211604,-100,4,2,1,60,0,1
213382,-62.5,4,2,1,60,0,1
213604,-100,4,2,1,60,0,1
215160,-62.5,4,2,1,60,0,1
216049,-100,4,2,1,60,0,1
216604,-166.666666666667,4,2,1,60,0,1
216938,-71.4285714285714,4,2,1,60,0,1
217604,-62.5,4,2,1,60,0,1
218715,-100,4,2,1,60,0,1
220493,-83.3333333333333,4,2,1,80,0,0
220937,-166.666666666667,4,2,1,80,0,0
221160,-100,4,2,1,80,0,0
221826,-83.3333333333333,4,2,1,80,0,0
222271,-71.4285714285714,4,2,1,80,0,0
222937,-100,4,2,1,80,0,0
223604,-125,4,2,1,80,0,0
224049,-83.3333333333333,4,2,1,80,0,0
224493,-166.666666666667,4,2,1,80,0,0
224715,-100,4,2,1,80,0,0
225382,-83.3333333333333,4,2,1,80,0,0
225827,-62.5,4,2,1,80,0,0
226715,-55.5555555555556,4,2,1,80,0,0
227604,-83.3333333333333,4,2,1,80,0,0
228049,-166.666666666667,4,2,1,80,0,0
228272,-100,4,2,1,80,0,0
228938,-83.3333333333333,4,2,1,80,0,0
229382,-71.4285714285714,4,2,1,80,0,0
230049,-100,4,2,1,80,0,0
230716,-125,4,2,1,80,0,0
231161,-83.3333333333333,4,2,1,80,0,0
231605,-166.666666666667,4,2,1,80,0,0
232049,-100,4,2,1,80,0,0
232716,-83.3333333333333,4,2,1,80,0,0
233160,-62.5,4,2,1,80,0,0
234049,-55.5555555555556,4,2,1,80,0,0
234716,-66.6666666666667,4,2,1,80,0,0
235604,-100,4,2,1,80,0,0
236160,-66.6666666666667,4,2,1,80,0,0
238271,-66.6666666666667,4,2,1,80,0,0
239160,-50,4,2,1,80,0,0
240271,-55.5555555555556,4,2,1,80,0,0
241827,-66.6666666666667,4,2,1,80,0,0
243271,-83.3333333333333,4,2,1,80,0,0
243604,-66.6666666666667,4,2,1,80,0,0
244049,-100,4,2,1,80,0,0
245382,-66.6666666666667,4,2,1,80,0,0
245604,-66.6666666666667,4,2,1,80,0,0
246271,-50,4,2,1,80,0,0
246827,-66.6666666666667,4,2,1,80,0,0
247382,-55.5555555555556,4,2,1,80,0,0
248938,-71.4285714285714,4,2,1,70,0,0
250938,-200,4,2,3,70,0,0
251012,-200,4,2,1,70,0,0
251382,-200,4,2,3,70,0,0
251456,-200,4,2,1,70,0,0
251827,-200,4,2,3,70,0,0
251901,-200,4,2,1,70,0,0
252493,-71.4285714285714,4,2,1,70,0,0
253827,-100,4,2,1,70,0,0
254271,-200,4,2,1,70,0,0
254493,-200,4,2,3,70,0,0
254567,-200,4,2,1,70,0,0
254938,-200,4,2,3,70,0,0
255012,-200,4,2,1,70,0,0
255382,-200,4,2,3,70,0,0
255456,-200,4,2,1,70,0,0
256049,-71.4285714285714,4,2,1,70,0,0
258049,-200,4,2,3,70,0,0
258123,-200,4,2,1,70,0,0
258493,-200,4,2,3,70,0,0
258567,-200,4,2,1,70,0,0
258938,-200,4,2,3,70,0,0
259012,-200,4,2,1,70,0,0
259604,-71.4285714285714,4,2,1,70,0,0
261604,-66.6666666666667,4,2,3,70,0,0
261678,-66.6666666666667,4,2,1,70,0,0
262049,-66.6666666666667,4,2,3,70,0,0
262123,-66.6666666666667,4,2,1,70,0,0
262493,-66.6666666666667,4,2,3,70,0,0
262567,-66.6666666666667,4,2,1,70,0,0

[Colours]
Combo1 : 183,94,202
Combo2 : 255,132,193
Combo3 : 213,255,255
Combo4 : 43,70,181

[HitObjects]
7,250,50,5,0,0:0:0:0:
64,187,272,2,0,P|89:193|121:196,1,40
173,160,716,1,0,0:0:0:0:
7,250,938,2,0,P|1:275|-2:307,1,40
173,160,1383,1,0,0:0:0:0:
7,250,1827,5,0,0:0:0:0:
64,187,2049,2,0,P|89:193|121:196,1,40
173,160,2493,1,0,0:0:0:0:
7,250,2715,2,0,P|1:275|-2:307,1,40
173,160,3160,1,0,0:0:0:0:
173,160,3605,6,0,B|221:170|203:200|258:206,1,89.9999972534181,2|0,0:2|0:0,0:0:0:0:
261,227,4049,2,0,B|302:200|310:234|353:199,1,89.9999972534181,2|0,0:2|0:0,0:0:0:0:
370,212,4493,2,0,B|380:164|410:182|416:127,1,89.9999972534181,2|0,0:2|0:0,0:0:0:0:
436,124,4938,2,0,B|409:82|443:74|408:31,1,89.9999972534181,2|0,0:2|0:0,0:0:0:0:
416,10,5382,6,0,P|386:67|323:78,1,119.999996337891,2|2,0:2|0:2,0:0:0:0:
436,124,6049,1,0,0:0:0:0:
436,124,6271,2,0,P|380:64|278:27,1,179.999994506836,2|0,0:2|0:0,0:0:0:0:
0,9,7160,6,0,B|26:50|-7:58|27:101,1,89.9999972534181,2|0,0:2|0:0,0:0:0:0:
44,114,7604,2,0,B|66:70|90:95|110:43,1,89.9999972534181,2|0,0:2|0:0,0:0:0:0:
112,23,8049,2,0,B|63:25|72:-7|17:0,1,89.9999972534181,2|0,0:2|0:0,0:0:0:0:
0,9,8493,2,0,B|26:50|-7:58|27:101,1,89.9999972534181,2|0,0:2|0:0,0:0:0:0:
44,114,8938,1,0,0:0:0:0:
44,114,9160,6,0,B|111:115|91:152|162:157,2,119.999996337891,2|2|2,0:2|0:2|0:2,0:0:0:0:
59,295,9827,2,0,P|34:271|49:185,1,119.999996337891,2|2,0:2|0:2,0:0:0:0:
42,191,10493,2,0,L|46:151,1,29.9999990844727
228,271,10716,6,0,B|161:271|181:308|111:313,1,119.999996337891,2|0,0:2|0:0,0:0:0:0:
60,384,11160,6,0,B|56:328|24:346|23:288,1,89.9999972534181,2|0,0:2|0:0,0:0:0:0:
44,282,11604,2,0,B|80:240|45:230|85:188,1,89.9999972534181,2|0,0:2|0:0,0:0:0:0:
104,198,12049,2,0,B|159:194|141:162|199:161,1,89.9999972534181,2|0,0:2|0:0,0:0:0:0:
212,168,12493,2,0,P|211:217|262:262,1,119.999996337891,2|2,0:2|0:2,0:0:0:0:
164,317,13160,1,0,0:0:0:0:
164,317,13382,2,0,P|222:252|338:261,1,209.999993591309,2|0,0:2|0:0,0:0:0:0:
440,316,14271,6,0,P|422:371|417:304,1,179.999994506836,2|0,0:2|0:0,0:0:0:0:
432,300,14716,6,0,B|461:264|427:255|453:214,1,89.9999972534181,2|0,0:2|0:0,0:0:0:0:
448,187,15160,2,0,B|402:179|412:213|363:210,1,89.9999972534181,2|0,0:2|0:0,0:0:0:0:
342,229,15604,2,0,B|358:271|382:246|404:290,1,89.9999972534181,2|0,0:2|0:0,0:0:0:0:
432,300,16049,1,0,0:0:0:0:
432,300,16271,6,0,P|386:317|363:388,2,119.999996337891,2|2|2,0:2|0:2|0:2,0:0:0:0:
499,252,16938,2,0,P|486:201|479:158,1,89.9999972534181,2|0,0:2|0:0,0:0:0:0:
286,0,17382,2,0,P|278:44|266:87,1,89.9999972534181,2|0,0:2|0:0,0:0:0:0:
323,137,17827,5,0,1:2:0:0:
245,124,18049,1,0,0:0:0:0:
167,111,18271,1,8,0:2:0:0:
336,146,18493,2,0,P|343:170|347:188,2,40,0|0|0,1:2|0:0|0:0,0:0:0:0:
179,93,19160,2,0,P|183:73|195:31,1,60,8|0,0:2|0:0,0:0:0:0:
52,239,19604,5,0,1:2:0:0:
130,226,19826,1,0,1:2:0:0:
208,213,20048,1,8,0:2:0:0:
42,231,20271,2,0,P|37:211|9:140,1,80,0|0,1:2|1:2,0:0:0:0:
218,223,20938,2,0,P|209:251|202:281,1,60,8|0,0:2|0:0,0:0:0:0:
348,366,21382,5,0,1:2:0:0:
361,288,21604,1,0,0:0:0:0:
374,210,21826,1,8,0:2:0:0:
362,378,22049,2,0,P|386:371|404:367,2,40,0|0|0,1:2|0:0|0:0,0:0:0:0:
362,197,22716,2,0,P|333:205|303:212,1,60,8|0,0:2|0:0,0:0:0:0:
183,194,23160,5,0,1:2:0:0:
170,116,23382,1,0,1:2:0:0:
157,38,23604,1,8,0:2:0:0:
175,204,23827,5,0,1:2:0:0:
87,94,24049,2,0,P|53:89|13:129,1,80,0|0,0:0|1:2,0:0:0:0:
167,28,24494,6,0,P|195:36|225:43,1,60,8|0,0:2|0:0,0:0:0:0:
326,116,24938,5,0,1:2:0:0:
403,59,25160,1,0,0:0:0:0:
493,90,25382,1,8,0:2:0:0:
401,44,25604,1,0,1:2:0:0:
314,109,25827,1,0,0:0:0:0:
314,109,26049,1,0,0:0:0:0:
416,147,26271,2,0,P|424:177|435:245,1,89.9999972534181,8|0,0:2|0:0,0:0:0:0:
304,345,26716,5,0,1:2:0:0:
304,345,26938,1,0,1:2:0:0:
177,303,27160,1,8,0:2:0:0:
307,329,27382,2,0,P|349:318|386:341,1,89.9999972534181,0|0,1:2|0:0,0:0:0:0:
385,358,27827,1,0,1:2:0:0:
231,375,28049,6,0,P|191:322|197:264,1,100,8|0,0:2|0:0,0:0:0:0:
179,156,28493,5,0,1:2:0:0:
102,213,28715,1,0,0:0:0:0:
12,182,28937,1,8,0:2:0:0:
104,228,29159,1,0,1:2:0:0:
191,163,29382,1,0,0:0:0:0:
191,163,29604,1,0,0:0:0:0:
89,125,29826,2,0,P|81:95|69:26,1,89.9999972534181,8|0,0:2|0:0,0:0:0:0:
138,9,30271,5,0,1:2:0:0:
138,9,30493,1,0,1:2:0:0:
277,53,30716,1,8,0:2:0:0:
306,159,30938,1,0,1:2:0:0:
423,99,31160,5,0,0:0:0:0:
499,71,31382,1,0,1:2:0:0:
511,0,31604,2,0,P|490:25|495:77,1,75,8|0,0:2|0:0,0:0:0:0:
485,150,32049,6,0,P|448:137|410:127,1,59.9999981689454,2|0,1:2|0:0,0:0:0:0:
282,34,32271,1,0,0:0:0:0:
358,18,32493,1,8,0:2:0:0:
464,221,32716,2,0,P|435:212|407:202,1,59.9999981689454,2|0,1:2|0:0,0:0:0:0:
337,97,32938,1,0,0:0:0:0:
337,97,33160,1,0,0:0:0:0:
464,221,33382,2,0,B|437:280|474:272|444:337,1,112.500004291535,8|0,0:2|0:0,0:0:0:0:
506,364,33827,6,0,P|477:355|449:345,1,59.9999981689454,2|0,1:2|0:0,0:0:0:0:
379,288,34049,2,0,P|350:279|322:269,1,59.9999981689454,2|0,1:2|0:0,0:0:0:0:
171,208,34271,2,0,P|149:178|154:142,1,75.0000028610231,10|0,0:2|0:0,0:0:0:0:
216,95,34493,2,0,P|266:154|237:232,1,150,2|0,1:2|0:0,0:0:0:0:
261,232,34938,1,0,1:2:0:0:
21,366,35160,2,0,B|36:346|27:312|27:312|38:349|72:352,1,112.500004291535,8|0,0:2|0:0,0:0:0:0:
36,299,35604,6,0,P|64:291|92:281,1,59.9999981689454,2|0,1:2|0:0,0:0:0:0:
294,315,35827,1,0,0:0:0:0:
218,331,36049,1,8,0:2:0:0:
16,226,36271,2,0,P|44:218|73:208,1,59.9999981689454,2|0,1:2|0:0,0:0:0:0:
239,252,36494,1,0,0:0:0:0:
239,252,36716,1,0,0:0:0:0:
54,137,36938,2,0,B|27:77|64:86|34:20,1,112.500004291535,8|0,0:2|0:0,0:0:0:0:
264,33,37382,5,0,1:2:0:0:
264,33,37604,2,0,P|285:64|289:101,1,75.0000028610231,2|0,1:2|0:0,0:0:0:0:
427,164,37827,2,0,P|463:160|495:140,1,75.0000028610231,10|0,0:2|0:0,0:0:0:0:
410,21,38049,2,0,P|403:57|380:87,1,75.0000028610231,2|0,1:2|0:0,0:0:0:0:
181,190,38271,6,0,P|156:185|137:169,1,50,2|0,0:2|0:0,0:0:0:0:
298,115,38494,2,0,P|282:135|277:159,1,50,2|0,1:2|0:0,0:0:0:0:
206,95,38716,2,0,P|228:168|252:253,1,150,10|0,0:2|0:0,0:0:0:0:
260,256,39160,6,0,P|289:254|315:269,1,59.9999981689454,2|0,1:2|0:0,0:0:0:0:
464,361,39382,1,0,0:0:0:0:
391,383,39604,1,8,0:2:0:0:
312,278,39827,6,0,P|286:263|257:265,1,59.9999981689454,2|0,1:2|0:0,0:0:0:0:
89,298,40049,1,0,0:0:0:0:
89,298,40271,1,0,0:0:0:0:
299,383,40493,6,0,P|321:305|336:261,1,112.500004291535,8|0,0:2|0:0,0:0:0:0:
401,245,40938,2,0,P|430:217|434:171,1,59.9999981689454,2|0,1:2|0:0,0:0:0:0:
296,338,41160,2,0,P|334:349|376:329,1,59.9999981689454,2|0,1:2|0:0,0:0:0:0:
162,293,41382,2,0,P|171:332|183:385,1,75.0000028610231,10|0,0:2|0:0,0:0:0:0:
230,219,41604,2,0,P|221:182|199:71,1,150,2|0,1:2|0:0,0:0:0:0:
196,57,42049,1,0,1:2:0:0:
398,13,42271,2,0,B|413:33|404:67|404:67|415:30|449:27,1,112.500004291535,8|0,0:2|0:0,0:0:0:0:
332,49,42716,6,0,P|302:47|276:62,1,59.9999981689454,2|0,1:2|0:0,0:0:0:0:
128,154,42938,1,0,0:0:0:0:
201,176,43160,1,8,0:2:0:0:
279,71,43383,6,0,P|304:56|334:57,1,59.9999981689454,2|0,1:2|0:0,0:0:0:0:
503,91,43605,1,0,0:0:0:0:
503,91,43827,1,0,0:0:0:0:
323,130,44049,2,0,P|336:200|351:269,1,112.500004291535,8|0,0:2|0:0,0:0:0:0:
484,367,44493,5,0,1:2:0:0:
475,349,44716,2,0,P|422:338|385:331,1,75.0000028610231,2|0,1:2|0:0,0:0:0:0:
330,228,44938,2,0,P|277:217|240:210,1,75.0000028610231,10|0,0:2|0:0,0:0:0:0:
146,355,45160,2,0,P|93:344|56:337,1,75.0000028610231,2|0,1:2|0:0,0:0:0:0:
100,270,45382,6,0,P|131:275|163:282,1,50,2|0,0:2|0:0,0:0:0:0:
263,238,45604,2,0,P|294:243|326:250,1,50,2|0,1:2|0:0,0:0:0:0:
468,333,45827,2,0,P|413:321|358:311,1,112.500004291535,10|0,0:2|0:0,0:0:0:0:
290,364,46271,6,0,P|283:319|267:246,1,110.000003356934,0|10,1:2|0:2,0:0:0:0:
472,210,46938,1,2,1:2:0:0:
472,210,47160,2,0,P|465:240|458:298,1,82.5000025177003,2|0,0:2|0:0,0:0:0:0:
484,303,47604,1,10,0:2:0:0:
502,133,48049,6,0,P|473:157|399:150,2,100,0|2|10,1:2|1:2|0:2,0:0:0:0:
428,27,48716,2,0,P|439:64|443:96,1,55.0000016784668,2|2,1:2|0:2,0:0:0:0:
512,24,49160,1,0,1:2:0:0:
356,105,49382,2,0,P|338:73|351:21,1,82.5000025177003,10|0,0:2|0:0,0:0:0:0:
334,102,49827,6,0,P|280:91|216:83,1,110.000003356934,0|10,1:2|0:2,0:0:0:0:
108,0,50493,2,0,P|54:10|0:18,1,110.000003356934,2|0,1:2|0:0,0:0:0:0:
0,18,51160,1,10,0:2:0:0:
225,83,51604,5,0,1:2:0:0:
225,83,51827,2,0,P|186:52|180:0,2,100,2|10|2,1:2|0:2|1:2,0:0:0:0:
306,40,52493,2,0,P|353:32|408:25,1,100,2|2,0:2|1:2,0:0:0:0:
161,155,52938,2,0,P|104:146|11:136,1,150,10|0,0:2|0:0,0:0:0:0:
2,146,53382,6,0,P|16:201|22:269,1,110.000003356934,0|10,1:2|0:2,0:0:0:0:
235,194,54049,1,2,1:2:0:0:
235,194,54271,2,0,P|242:154|253:107,1,82.5000025177003,2|0,0:2|0:0,0:0:0:0:
274,97,54716,1,10,0:2:0:0:
17,254,55160,6,0,P|53:270|75:343,2,100,0|2|10,1:2|1:2|0:2,0:0:0:0:
12,384,55827,2,0,P|4:347|1:316,1,55.0000016784668,2|2,1:2|0:2,0:0:0:0:
77,322,56271,1,0,1:2:0:0:
235,194,56493,2,0,P|203:199|172:203,1,55.0000016784668,10|0,0:2|0:0,0:0:0:0:
316,363,56938,6,0,P|252:269|281:378,1,320,0|10,1:2|0:2,0:0:0:0:
512,338,57604,2,0,P|494:283|485:223,1,110.000003356934,2|0,1:2|0:0,0:0:0:0:
315,188,58271,2,0,P|310:215|301:241,1,55.0000016784668,10|0,0:2|0:0,0:0:0:0:
485,231,58716,1,0,1:2:0:0:
485,231,58938,2,0,P|437:235|406:288,2,100,0|10|2,1:2|0:2|1:2,0:0:0:0:
512,156,59604,1,2,0:2:0:0:
324,108,59827,1,2,1:2:0:0:
512,0,60049,2,0,P|504:44|441:47,1,100,10|0,0:2|0:0,0:0:0:0:
176,134,60493,6,0,B|213:128|240:88|240:88|233:141|258:174,1,160,2|8,1:2|0:2,0:0:0:0:
181,223,61160,1,2,1:2:0:0:
181,223,61271,1,0,0:0:0:0:
181,223,61382,2,0,P|127:241|54:249,1,120
46,237,61827,1,10,0:2:0:0:
0,178,61938,1,0,1:2:0:0:
0,384,62271,5,2,1:2:0:0:
64,248,62493,1,0,1:2:0:0:
223,296,62716,1,8,0:2:0:0:
162,384,62938,1,2,1:2:0:0:
162,384,63049,2,0,P|150:344|147:304,1,75,0|0,0:0|1:2,0:0:0:0:
351,348,63604,5,10,0:2:0:0:
415,384,63716,2,0,P|455:362|514:355,1,100,0|0,1:2|0:0,0:0:0:0:
512,320,64049,5,2,1:2:0:0:
512,320,64271,2,0,P|474:300|449:257,2,80,0|8|0,0:0|0:2|1:2,0:0:0:0:
425,90,64938,2,0,P|445:52|488:27,2,80,0|0|10,0:0|0:0|0:2,0:0:0:0:
490,134,65493,2,0,P|500:169|504:202,1,50,0|0,1:2|0:0,0:0:0:0:
507,214,65827,5,2,1:2:0:0:
384,275,66049,1,0,1:2:0:0:
285,184,66271,1,8,0:2:0:0:
202,217,66493,2,0,B|111:221|157:169|56:163,1,160,2|0,1:2|1:2,0:0:0:0:
277,96,67160,1,10,0:2:0:0:
307,25,67271,2,0,P|336:27|361:34,1,50,0|0,1:2|0:0,0:0:0:0:
387,6,67604,6,0,P|409:51|511:43,1,160,2|8,1:2|0:2,0:0:0:0:
365,112,68271,1,0,1:2:0:0:
365,112,68382,1,0,0:0:0:0:
365,112,68493,1,0,0:0:0:0:
507,306,68938,5,10,0:2:0:0:
477,278,69049,2,0,P|468:251|470:218,1,50,0|0,1:2|0:0,0:0:0:0:
498,202,69382,1,2,1:2:0:0:
383,193,69604,1,0,1:2:0:0:
330,295,69827,1,8,0:2:0:0:
249,319,70049,2,0,P|195:267|110:283,1,160,2|2,1:2|1:2,0:0:0:0:
28,174,70716,5,10,0:2:0:0:
62,204,70827,2,0,P|53:236|51:264,1,50,0|0,1:2|0:0,0:0:0:0:
84,278,71160,2,0,P|142:240|117:139,1,160,2|8,1:2|0:2,0:0:0:0:
0,81,71827,1,0,1:2:0:0:
0,81,71938,1,0,0:0:0:0:
0,81,72049,2,0,B|41:89|41:89|84:71,1,80
84,278,72493,1,8,0:2:0:0:
62,204,72604,1,0,1:2:0:0:
0,384,72938,5,0,1:2:0:0:
0,384,73160,1,2,1:2:0:0:
72,322,73382,1,10,0:2:0:0:
167,330,73604,1,2,1:2:0:0:
239,268,73827,1,2,0:2:0:0:
160,319,74049,1,2,1:2:0:0:
245,278,74272,1,10,0:2:0:0:
273,312,74382,2,0,P|279:348|292:367,1,50,0|0,1:2|0:0,0:0:0:0:
356,382,74716,6,0,P|370:332|378:308,1,59.9999981689454,0|0,1:2|0:0,0:0:0:0:
472,162,74938,1,2,0:2:0:0:
495,240,75160,1,10,0:2:0:0:
457,168,75382,2,0,P|443:118|435:94,1,59.9999981689454,2|0,1:2|0:0,0:0:0:0:
325,10,75604,2,0,P|338:50|242:83,1,150,2|0,0:2|0:0,0:0:0:0:
370,143,76049,2,0,P|312:125|253:113,1,119.999996337891,10|0,0:2|0:0,0:0:0:0:
101,214,76493,6,0,P|77:243|50:270,1,75.0000028610231,0|0,1:2|0:0,0:0:0:0:
229,183,76716,2,0,P|266:189|303:200,1,75.0000028610231,2|0,1:2|0:0,0:0:0:0:
138,87,76938,2,0,P|125:52|115:15,1,75.0000028610231,10|0,0:2|0:0,0:0:0:0:
221,189,77160,6,0,B|199:273|268:251|248:332,1,150,2|0,1:2|0:0,0:0:0:0:
258,337,77604,1,0,1:2:0:0:
336,289,77827,2,0,P|352:323|360:360,1,75.0000028610231,10|0,0:2|0:0,0:0:0:0:
173,315,78271,6,0,P|133:307|88:297,1,59.9999981689454,0|0,1:2|0:0,0:0:0:0:
20,139,78493,1,2,0:2:0:0:
93,153,78716,1,10,0:2:0:0:
70,369,78938,2,0,P|81:316|113:223,1,150,2|0,1:2|0:0,0:0:0:0:
255,198,79604,2,0,P|232:239|184:239,1,100,10|0,0:2|0:0,0:0:0:0:
309,29,80049,5,0,1:2:0:0:
309,29,80271,2,0,P|349:42|389:48,1,75.0000028610231,2|0,1:2|0:0,0:0:0:0:
492,118,80493,2,0,P|449:115|409:120,1,75.0000028610231,10|0,0:2|0:0,0:0:0:0:
343,216,80716,2,0,P|384:207|421:192,1,75.0000028610231,2|0,1:2|0:0,0:0:0:0:
188,214,80938,6,0,P|156:204|123:199,1,50,2|0,0:2|0:0,0:0:0:0:
50,265,81160,2,0,P|82:266|116:261,1,50,2|0,1:2|0:0,0:0:0:0:
185,323,81382,2,0,P|152:330|42:383,1,150,10|0,0:2|0:0,0:0:0:0:
37,378,81827,6,0,P|11:341|22:302,1,59.9999981689454,0|0,1:2|0:0,0:0:0:0:
79,107,82049,1,2,0:2:0:0:
69,186,82271,1,10,0:2:0:0:
75,92,82493,2,0,P|120:87|148:117,1,59.9999981689454,2|0,1:2|0:0,0:0:0:0:
312,195,82716,2,0,P|234:180|156:172,1,150,2|0,0:2|0:0,0:0:0:0:
149,167,83160,2,0,P|215:195|262:122,1,150,10|0,0:2|0:0,0:0:0:0:
480,12,83604,6,0,P|485:63|497:100,1,75.0000028610231,0|0,1:2|0:0,0:0:0:0:
371,103,83827,2,0,P|362:67|360:29,1,75.0000028610231,2|0,1:2|0:0,0:0:0:0:
239,46,84049,2,0,P|241:83|251:120,1,75.0000028610231,10|0,0:2|0:0,0:0:0:0:
456,190,84271,1,2,1:2:0:0:
456,190,84493,2,0,P|410:202|408:264,1,100,2|0,0:2|1:2,0:0:0:0:
433,384,84938,2,0,P|425:327|353:241,1,150.000005722046,10|0,0:2|0:0,0:0:0:0:
293,183,85382,6,0,P|261:199|228:186,1,59.9999981689454,0|0,1:2|0:0,0:0:0:0:
77,46,85604,1,2,0:2:0:0:
93,121,85827,1,10,0:2:0:0:
296,195,86049,2,0,P|264:211|231:198,1,59.9999981689454,2|0,1:2|0:0,0:0:0:0:
21,98,86271,2,0,P|87:83|180:65,1,150,2|0,0:2|0:0,0:0:0:0:
185,51,86716,2,0,P|171:119|162:167,1,100,10|0,0:2|0:0,0:0:0:0:
10,370,87160,5,0,1:2:0:0:
10,370,87382,2,0,P|55:359|72:308,1,75.0000028610231,0|0,1:2|0:0,0:0:0:0:
105,227,87604,2,0,P|151:223|183:266,1,75.0000028610231,10|0,0:2|0:0,0:0:0:0:
227,299,87827,2,0,P|272:288|289:237,1,75.0000028610231,2|0,1:2|0:0,0:0:0:0:
471,178,88049,6,0,P|441:170|429:136,1,50,2|0,0:2|0:0,0:0:0:0:
397,65,88271,2,0,P|366:62|344:91,1,50,2|0,1:2|0:0,0:0:0:0:
312,139,88493,2,0,P|282:131|221:66,1,112.500004291535,10|0,0:2|0:0,0:0:0:0:
165,29,88938,5,2,1:2:0:0:
165,29,89160,1,0,0:0:0:0:
19,65,89382,1,8,0:2:0:0:
112,93,89604,1,2,1:2:0:0:
99,129,89716,2,0,P|103:156|118:212,1,75.0000028610231
128,209,90049,1,0,0:0:0:0:
7,315,90271,5,10,0:2:0:0:
24,239,90382,2,0,P|64:269|94:296,1,75.0000028610231,0|0,1:2|0:0,0:0:0:0:
126,369,90716,5,2,1:2:0:0:
283,281,90938,1,0,1:2:0:0:
133,192,91160,1,8,0:2:0:0:
204,271,91382,1,2,1:2:0:0:
204,271,91493,2,0,P|207:315|228:342,1,75,0|0,0:0|1:2,0:0:0:0:
409,336,92049,5,10,0:2:0:0:
351,377,92160,2,0,P|356:327|400:259,1,119.999996337891,0|0,1:2|0:0,0:0:0:0:
477,228,92493,5,2,1:2:0:0:
352,130,92716,1,0,0:0:0:0:
218,199,92938,1,8,0:2:0:0:
231,204,93160,1,0,1:2:0:0:
351,144,93382,1,0,0:0:0:0:
464,230,93604,1,0,0:0:0:0:
431,119,93827,1,10,0:2:0:0:
444,114,93938,2,0,P|432:88|437:37,1,75.0000028610231,0|0,1:2|0:0,0:0:0:0:
366,9,94271,5,2,1:2:0:0:
366,9,94493,1,0,1:2:0:0:
208,92,94716,1,8,0:2:0:0:
316,123,94938,1,2,1:2:0:0:
313,112,95049,1,0,0:0:0:0:
310,101,95160,2,0,P|301:56|287:18,1,75.0000028610231,0|0,0:0|1:2,0:0:0:0:
158,154,95604,1,10,0:2:0:0:
96,108,95716,2,0,P|81:57|49:7,1,100,0|0,1:2|0:0,0:0:0:0:
17,121,96049,6,0,P|57:145|87:114,2,75.0000028610231,2|0|8,1:2|0:0|0:2,0:0:0:0:
120,225,96716,2,0,P|146:187|256:170,1,150.000005722046,0|0,1:2|0:0,0:0:0:0:
403,231,97382,1,10,0:2:0:0:
463,273,97493,2,0,P|470:315|477:357,1,75.0000028610231,0|0,1:2|0:0,0:0:0:0:
331,377,97827,6,0,B|334:299|390:332|391:239,1,150.000005722046,2|8,1:2|0:2,0:0:0:0:
312,142,98493,1,2,1:2:0:0:
312,142,98716,1,0,0:0:0:0:
376,95,98938,1,2,1:2:0:0:
255,0,99160,1,10,0:2:0:0:
244,24,99271,2,0,P|260:58|245:104,1,75.0000028610231,0|0,1:2|0:0,0:0:0:0:
169,157,99604,6,0,B|90:172|135:221|38:229,1,150.000005722046,2|8,1:2|0:2,0:0:0:0:
137,282,100271,1,0,1:2:0:0:
139,293,100382,1,0,0:0:0:0:
141,304,100493,1,0,0:0:0:0:
160,379,100716,1,0,0:0:0:0:
223,309,100938,1,8,0:2:0:0:
218,320,101049,2,0,P|263:316|295:339,1,75.0000028610231,0|0,1:2|0:0,0:0:0:0:
349,374,101382,5,0,1:2:0:0:
349,374,101604,1,2,1:2:0:0:
451,264,101827,1,10,0:2:0:0:
398,149,102049,1,2,1:2:0:0:
288,134,102271,1,2,0:2:0:0:
234,245,102493,5,10,1:2:0:0:
163,210,102604,1,8,0:2:0:0:
173,144,102716,1,10,0:2:0:0:
117,123,102827,1,8,0:2:0:0:
121,73,102938,1,8,0:2:0:0:
83,58,103049,1,8,0:2:0:0:
35,0,103160,6,0,B|36:108|105:67|109:164,1,179.999994506836,2|0,1:2|0:0,0:0:0:0:
53,204,103604,2,0,P|42:186|40:166,1,29.9999990844727,10|0,0:2|0:0,0:0:0:0:
240,82,103827,2,0,B|226:64|234:34|234:34|225:67|195:69,1,100,0|2,1:2|0:2,0:0:0:0:
198,153,104271,1,0,0:0:0:0:
431,5,104493,2,0,P|509:13|506:105,1,179.999994506836,10|0,0:2|0:0,0:0:0:0:
512,174,104938,6,0,L|428:157,1,69.9999978637696,2|0,1:2|0:0,0:0:0:0:
345,171,105160,2,0,L|261:154,1,69.9999978637696,0|0,1:2|0:0,0:0:0:0:
511,99,105382,6,0,L|494:183,1,69.9999978637696,10|0,0:2|0:0,0:0:0:0:
332,256,105604,2,0,P|414:254|450:366,1,200,0|0,1:2|1:2,0:0:0:0:
345,171,106271,1,8,0:2:0:0:
164,237,106493,2,0,B|157:218|157:218|169:202,1,40
174,384,106716,6,0,B|177:294|247:335|248:227,1,179.999994506836,2|0,1:2|0:0,0:0:0:0:
259,153,107160,2,0,P|239:151|223:162,1,29.9999990844727,10|0,0:2|0:0,0:0:0:0:
376,335,107382,2,0,P|419:312|423:262,1,100,0|2,1:2|0:2,0:0:0:0:
340,260,107827,1,0,0:0:0:0:
103,380,108049,2,0,P|34:339|23:241,1,179.999994506836,10|0,0:2|0:0,0:0:0:0:
42,176,108493,1,0,1:2:0:0:
42,176,108716,6,0,B|93:186|69:204|123:218,1,80,2|0,1:2|0:0,0:0:0:0:
183,141,108938,2,0,B|160:104|190:108|161:65,1,80,10|0,0:2|0:0,0:0:0:0:
323,70,109160,2,0,B|313:121|295:97|285:139,1,80,2|0,1:2|0:0,0:0:0:0:
370,201,109382,2,0,B|421:283|507:254|507:254|514:229,2,179.999994506836,2|0|10,0:2|1:2|0:2,0:0:0:0:
512,0,110271,6,0,B|511:108|442:67|438:164,1,179.999994506836,2|0,1:2|0:0,0:0:0:0:
463,233,110716,2,0,P|481:229|486:208,1,29.9999990844727,10|0,0:2|0:0,0:0:0:0:
431,13,110938,2,0,P|402:50|343:47,1,100,0|2,1:2|0:2,0:0:0:0:
286,0,111382,1,0,0:0:0:0:
440,160,111604,2,0,P|376:146|337:249,1,179.999994506836,10|0,0:2|0:0,0:0:0:0:
408,296,112049,6,0,L|400:223,1,69.9999978637696,2|0,1:2|0:0,0:0:0:0:
256,192,112271,2,0,L|248:119,1,69.9999978637696,0|0,1:2|0:0,0:0:0:0:
308,376,112493,2,0,L|381:368,1,69.9999978637696,10|0,0:2|0:0,0:0:0:0:
200,256,112716,2,0,P|170:289|113:282,1,100,0|2,1:2|0:2,0:0:0:0:
139,213,113160,1,0,1:2:0:0:
0,11,113382,1,8,0:2:0:0:
40,85,113604,6,0,L|31:137,1,40
117,34,113827,2,0,L|139:215,1,179.999994506836,2|0,1:2|0:0,0:0:0:0:
118,286,114271,2,0,P|94:278|86:261,1,29.9999990844727,10|0,0:2|0:0,0:0:0:0:
176,88,114493,2,0,B|236:92|217:137|268:131,1,100,0|2,1:2|0:2,0:0:0:0:
318,70,114938,1,0,0:0:0:0:
138,211,115160,2,0,P|69:193|11:286,1,179.999994506836,10|0,0:2|0:0,0:0:0:0:
19,344,115604,1,0,1:2:0:0:
19,344,115827,6,0,B|70:354|46:372|100:386,1,80,2|0,1:2|0:0,0:0:0:0:
214,287,116049,2,0,B|177:309|181:279|138:308,1,80,10|0,0:2|0:0,0:0:0:0:
138,211,116271,2,0,B|148:160|166:184|176:142,1,80,2|0,1:2|0:0,0:0:0:0:
58,0,116493,2,0,B|23:91|82:139|82:139|108:126,2,179.999994506836,2|0|10,0:2|1:2|0:2,0:0:0:0:
0,3,117382,5,2,1:2:0:0:
0,3,117604,1,0,0:0:0:0:
56,62,117827,1,8,0:2:0:0:
138,76,118049,1,2,1:2:0:0:
194,135,118272,1,0,0:0:0:0:
194,135,118494,1,0,0:0:0:0:
255,309,118716,5,8,0:2:0:0:
240,382,118827,1,0,1:2:0:0:
507,193,119160,5,0,1:2:0:0:
507,193,119382,2,0,L|511:147,1,40,2|8,1:2|0:2,0:0:0:0:
267,227,119827,2,0,L|229:200,1,40,2|0,1:2|0:0,0:0:0:0:
1,153,120271,2,0,L|4:182,1,20,10|8,0:2|0:2,0:0:0:0:
79,210,120493,2,0,L|77:190,1,20,8|8,0:2|1:2,0:0:0:0:
7,251,120716,2,0,L|9:279,1,20,8|8,0:2|0:2,0:0:0:0:
0,381,120938,5,2,1:2:0:0:
0,381,121160,1,0,0:0:0:0:
56,322,121383,1,8,0:2:0:0:
138,308,121605,1,2,1:2:0:0:
194,249,121828,1,0,0:0:0:0:
194,249,122050,1,0,0:0:0:0:
255,75,122272,5,8,0:2:0:0:
240,2,122383,1,0,1:2:0:0:
507,191,122716,5,0,1:2:0:0:
507,191,122938,2,0,L|463:200,1,40,2|8,1:2|0:2,0:0:0:0:
245,159,123382,2,0,L|253:198,1,40,2|0,1:2|0:0,0:0:0:0:
1,230,123827,2,0,L|4:202,1,20,10|8,0:2|0:2,0:0:0:0:
79,174,124049,2,0,L|77:193,1,20,8|8,0:2|1:2,0:0:0:0:
7,133,124272,2,0,L|9:104,1,20,8|8,0:2|0:2,0:0:0:0:
0,0,124493,6,0,P|24:27|51:35,1,59.9999981689454,0|0,1:2|0:0,0:0:0:0:
158,2,124938,1,8,0:2:0:0:
107,67,125160,1,0,1:2:0:0:
173,108,125382,2,0,P|149:81|122:73,2,59.9999981689454,0|0|8,0:0|0:0|0:2,0:0:0:0:
217,122,125938,1,0,1:2:0:0:
381,0,126271,5,0,1:2:0:0:
381,0,126493,1,0,1:2:0:0:
302,61,126716,1,8,0:2:0:0:
302,61,126827,1,0,0:0:0:0:
302,61,126938,2,0,P|336:71|372:75,1,59.9999981689454,0|0,1:2|0:0,0:0:0:0:
256,192,127382,5,8,0:2:0:0:
178,207,127493,1,8,0:2:0:0:
170,273,127605,1,8,0:2:0:0:
111,279,127716,1,8,1:2:0:0:
102,328,127827,1,8,0:2:0:0:
61,333,127938,1,8,0:2:0:0:
9,384,128049,6,0,P|28:344|38:301,1,75.0000028610231,0|0,1:2|0:0,0:0:0:0:
105,117,128271,1,2,0:2:0:0:
38,153,128493,1,10,0:2:0:0:
103,194,128716,2,0,P|113:230|129:263,1,75.0000028610231,2|0,1:2|0:0,0:0:0:0:
310,297,128938,6,0,B|348:312|410:287|399:221|345:214|343:244,1,150,2|0,0:2|0:0,0:0:0:0:
259,356,129382,2,0,P|203:306|132:285,1,150.000005722046,10|0,0:2|0:0,0:0:0:0:
433,250,129827,6,0,B|441:254|441:254|467:223|442:183,1,75.0000028610231,0|0,1:2|0:0,0:0:0:0:
457,53,130049,2,0,B|456:44|456:44|416:37|394:78,1,75.0000028610231,2|0,1:2|0:0,0:0:0:0:
274,130,130271,2,0,B|266:134|266:134|280:172|327:171,1,75.0000028610231,10|0,0:2|0:0,0:0:0:0:
387,144,130493,1,2,1:2:0:0:
233,20,130716,6,0,P|229:63|169:75,1,100,2|0,0:2|1:2,0:0:0:0:
172,95,131160,2,0,P|99:99|45:173,1,150.000005722046,10|0,0:2|0:0,0:0:0:0:
313,294,131604,6,0,P|262:286|223:277,1,75.0000028610231,0|0,1:2|0:0,0:0:0:0:
134,172,131827,1,2,0:2:0:0:
74,234,132049,1,10,0:2:0:0:
145,179,132271,2,0,P|181:186|218:191,1,75.0000028610231,2|0,1:2|0:0,0:0:0:0:
324,308,132493,6,0,B|338:247|338:247|404:261,1,120,2|0,0:2|0:0,0:0:0:0:
462,384,132938,2,0,P|415:306|413:228,1,150.000005722046,10|0,0:2|0:0,0:0:0:0:
259,18,133382,5,0,1:2:0:0:
258,18,133604,2,0,P|243:51|214:74,1,75.0000028610231,2|0,1:2|0:0,0:0:0:0:
18,181,133827,2,0,P|41:152|76:137,1,75.0000028610231,10|0,0:2|0:0,0:0:0:0:
281,129,134049,2,0,P|250:150|213:155,1,75.0000028610231,2|0,1:2|0:0,0:0:0:0:
202,169,134271,6,0,P|172:165|145:176,1,59.9999981689454,2|0,0:2|0:0,0:0:0:0:
283,236,134493,2,0,P|311:247|341:245,1,59.9999981689454,2|0,1:2|0:0,0:0:0:0:
181,245,134716,2,0,P|217:281|216:379,1,150,10|0,0:2|0:0,0:0:0:0:
407,299,135160,6,0,P|415:253|425:210,1,75.0000028610231,0|0,1:2|0:0,0:0:0:0:
500,90,135382,1,2,0:2:0:0:
422,74,135604,1,10,0:2:0:0:
495,101,135827,2,0,P|449:93|406:83,1,75.0000028610231,2|0,1:2|0:0,0:0:0:0:
296,32,136049,6,0,B|256:49|250:88|250:88|256:48|220:20,1,150,2|0,0:2|0:0,0:0:0:0:
150,24,136493,2,0,P|79:47|6:64,1,150.000005722046,10|0,0:2|0:0,0:0:0:0:
388,85,136938,6,0,B|360:108|360:108|321:104,1,75.0000028610231,0|0,1:2|0:0,0:0:0:0:
104,120,137160,2,0,B|137:106|137:106|174:120,1,75.0000028610231,2|0,1:2|0:0,0:0:0:0:
352,238,137382,2,0,B|313:242|313:242|285:220,1,75.0000028610231,10|0,0:2|0:0,0:0:0:0:
161,197,137604,2,0,B|183:225|183:225|168:283|154:352,1,150.000005722046,2|0,1:2|0:0,0:0:0:0:
168,353,138049,1,0,1:2:0:0:
40,178,138271,2,0,P|30:129|11:74,1,100,10|0,0:2|0:0,0:0:0:0:
0,318,138716,6,0,P|46:310|89:300,1,75.0000028610231,0|0,1:2|0:0,0:0:0:0:
209,225,138938,1,2,0:2:0:0:
225,303,139160,1,10,0:2:0:0:
198,230,139383,2,0,P|206:276|216:319,1,75.0000028610231,2|0,1:2|0:0,0:0:0:0:
325,371,139604,6,0,P|331:326|402:309,1,120,2|0,0:2|0:0,0:0:0:0:
395,305,140049,2,0,P|394:225|459:174,1,150.000005722046,10|0,0:2|0:0,0:0:0:0:
395,24,140493,1,0,1:2:0:0:
395,24,140716,6,0,P|361:67|341:100,1,75.0000028610231,0|0,1:2|0:0,0:0:0:0:
223,75,140938,2,0,P|216:39|212:1,1,75.0000028610231,10|0,0:2|0:0,0:0:0:0:
65,92,141160,2,0,P|108:126|141:146,1,75.0000028610231,2|0,1:2|0:0,0:0:0:0:
349,103,141382,6,0,P|339:131|328:159,1,59.9999981689454,2|0,0:2|0:0,0:0:0:0:
137,142,141604,2,0,P|157:164|175:188,1,59.9999981689454,2|0,1:2|0:0,0:0:0:0:
243,147,141827,2,0,P|249:176|270:297,1,150,10|0,0:2|0:0,0:0:0:0:
241,384,142271,6,0,B|240:321|295:335|289:268,1,127.50000243187,2|0,1:2|0:0,0:0:0:0:
300,261,142716,1,8,0:2:0:0:
364,322,142938,1,2,1:2:0:0:
372,320,143049,1,0,0:0:0:0:
380,319,143160,1,0,0:0:0:0:
454,306,143382,1,0,0:0:0:0:
374,230,143604,1,10,0:2:0:0:
396,217,143716,2,0,P|405:177|434:131,1,85.0000016212464,0|0,1:2|0:0,0:0:0:0:
490,84,144049,5,2,1:2:0:0:
339,63,144271,1,0,1:2:0:0:
188,42,144493,2,0,P|157:35|127:32,1,42.5000008106232,8|0,0:2|0:0,0:0:0:0:
321,8,144716,1,2,1:2:0:0:
318,20,144827,1,0,0:0:0:0:
315,32,144938,1,0,0:0:0:0:
201,61,145160,1,0,1:2:0:0:
89,95,145382,1,10,0:2:0:0:
155,134,145493,2,0,P|167:175|123:217,1,85.0000016212464,0|0,1:2|0:0,0:0:0:0:
7,267,145827,5,2,1:2:0:0:
153,225,146049,1,0,0:0:0:0:
227,358,146271,1,8,0:2:0:0:
167,217,146493,1,0,1:2:0:0:
98,297,146716,1,0,0:0:0:0:
210,321,146938,1,0,0:0:0:0:
279,232,147160,1,10,0:2:0:0:
296,248,147271,2,0,P|289:292|334:328,1,85.0000016212464,0|0,1:2|0:0,0:0:0:0:
366,381,147604,5,2,1:2:0:0:
473,332,147827,1,0,1:2:0:0:
372,365,148049,1,8,0:2:0:0:
414,250,148271,2,0,P|427:201|469:120,1,129.999994049073,2|0,1:2|1:2,0:0:0:0:
324,146,148938,1,10,0:2:0:0:
263,98,149049,2,0,P|225:97|209:42,1,85.0000016212464,0|0,1:2|0:0,0:0:0:0:
121,14,149382,6,0,B|72:18|92:55|28:56,2,85.0000016212464,2|0|8,1:2|0:0|0:2,0:0:0:0:
197,40,150049,1,0,1:2:0:0:
204,59,150160,2,0,P|169:121|148:184,1,127.50000243187
14,208,150716,1,10,0:2:0:0:
84,232,150827,2,0,P|133:254|136:301,1,85.0000016212464,0|0,1:2|0:0,0:0:0:0:
66,370,151160,6,0,P|36:325|74:221,1,170.000003242493,2|8,1:2|0:2,0:0:0:0:
214,305,151827,1,2,1:2:0:0:
214,305,152049,1,0,0:0:0:0:
282,233,152271,1,2,1:2:0:0:
405,339,152493,1,10,0:2:0:0:
461,285,152604,2,0,P|482:274|517:268,1,59.9999981689454,0|0,1:2|0:0,0:0:0:0:
479,366,152938,6,0,B|462:280|392:317|393:207,1,170.000003242493,2|8,1:2|0:2,0:0:0:0:
512,126,153604,1,0,1:2:0:0:
503,128,153716,1,0,0:0:0:0:
494,130,153827,1,0,0:0:0:0:
378,150,154049,1,0,0:0:0:0:
262,170,154271,1,8,0:2:0:0:
277,175,154382,2,0,P|271:117|240:92,1,85.0000016212464,0|0,1:2|0:0,0:0:0:0:
234,13,154716,5,0,1:2:0:0:
234,13,154938,1,2,1:2:0:0:
74,101,155160,1,10,0:2:0:0:
65,230,155382,1,2,1:2:0:0:
206,258,155604,1,2,0:2:0:0:
255,360,155827,5,10,1:2:0:0:
333,345,155938,1,8,0:2:0:0:
343,275,156050,1,10,0:2:0:0:
398,253,156161,1,8,0:2:0:0:
406,199,156272,1,8,0:2:0:0:
439,174,156383,1,8,0:2:0:0:
413,99,156493,6,0,B|419:197|479:173|483:268,1,179.999994506836,2|0,1:2|0:0,0:0:0:0:
455,328,156938,2,0,P|480:339|500:333,1,29.9999990844727,10|0,0:2|0:0,0:0:0:0:
307,160,157160,2,0,B|321:142|313:112|313:112|322:145|352:147,1,100,0|2,1:2|0:2,0:0:0:0:
350,229,157604,1,0,0:0:0:0:
152,136,157827,6,0,B|238:116|238:116|228:16,1,179.999994506836,10|0,0:2|0:0,0:0:0:0:
161,3,158271,2,0,L|87:15,1,69.9999978637696,2|0,1:2|0:0,0:0:0:0:
69,173,158493,2,0,L|-5:185,1,69.9999978637696,0|0,1:2|0:0,0:0:0:0:
186,8,158716,2,0,L|198:82,1,69.9999978637696,10|0,0:2|0:0,0:0:0:0:
289,288,158938,2,0,P|340:269|345:214,1,100,0|2,1:2|0:2,0:0:0:0:
307,160,159382,1,0,1:2:0:0:
66,384,159604,6,0,P|16:359|13:295,1,120,8|0,0:2|0:0,0:0:0:0:
70,259,160049,1,2,1:2:0:0:
233,379,160271,2,0,B|286:374|286:374|293:380|293:380|359:374,1,119.999996337891,0|10,0:0|0:2,0:0:0:0:
82,264,160716,1,0,1:2:0:0:
244,384,160938,2,0,B|312:377|312:377|322:385|322:385|407:377,1,139.999995727539,2|0,0:2|0:0,0:0:0:0:
206,136,161382,2,0,P|151:105|159:-4,1,179.999994506836,10|0,0:2|0:0,0:0:0:0:
229,10,161827,1,0,1:2:0:0:
229,10,162049,6,0,B|232:47|263:37|262:81,1,80,2|0,1:2|0:0,0:0:0:0:
334,144,162271,2,0,B|364:114|335:99|360:71,1,80,10|0,0:2|0:0,0:0:0:0:
407,205,162493,2,0,B|370:208|380:239|338:239,1,80,2|0,1:2|0:0,0:0:0:0:
185,384,162716,2,0,B|222:292|315:306|315:306|325:329,2,179.999994506836,2|0|10,0:2|1:2|0:2,0:0:0:0:
512,384,163604,6,0,P|481:317|368:286,1,179.999994506836,2|0,1:2|0:0,0:0:0:0:
320,318,164049,2,0,P|328:335|341:341,1,29.9999990844727,10|0,0:2|0:0,0:0:0:0:
512,239,164271,2,0,P|474:204|471:148,1,100,0|2,1:2|0:2,0:0:0:0:
512,84,164716,1,0,0:0:0:0:
325,236,164938,6,0,B|278:242|216:197|247:127|309:134|303:168,1,179.999994506836,10|0,0:2|0:0,0:0:0:0:
245,251,165382,2,0,L|169:240,1,69.9999978637696,2|0,1:2|0:0,0:0:0:0:
70,276,165604,2,0,L|-6:265,1,69.9999978637696,0|0,1:2|0:0,0:0:0:0:
222,266,165827,2,0,L|211:342,1,69.9999978637696,10|0,0:2|0:0,0:0:0:0:
37,184,166049,2,0,P|88:152|91:96,1,100,0|2,1:2|0:2,0:0:0:0:
9,103,166493,1,0,1:2:0:0:
220,0,166716,6,0,P|227:51|170:96,1,120,8|0,0:2|0:0,0:0:0:0:
124,52,167160,1,2,1:2:0:0:
321,5,167382,2,0,B|378:16|378:16|393:12|393:12|457:22,1,119.999996337891,0|10,0:0|0:2,0:0:0:0:
126,60,167827,1,0,1:2:0:0:
323,13,168049,2,0,B|384:24|384:24|400:20|400:20|468:31,1,139.999995727539,2|0,0:2|0:0,0:0:0:0:
363,284,168493,6,0,P|382:342|488:363,1,179.999994506836,10|0,0:2|0:0,0:0:0:0:
512,291,168938,1,0,1:2:0:0:
512,291,169160,6,0,B|473:261|468:289|438:264,1,80,2|0,1:2|0:0,0:0:0:0:
383,202,169382,2,0,B|408:172|380:167|410:128,1,80,10|0,0:2|0:0,0:0:0:0:
233,199,169604,2,0,B|272:229|277:201|307:226,1,80,2|0,1:2|0:0,0:0:0:0:
149,360,169827,2,0,B|108:375|108:375|46:326|70:247,2,179.999994506836,2|0|10,0:2|1:2|0:2,0:0:0:0:
209,0,170716,6,0,P|226:112|234:212,1,209.999993591309,2|0,1:2|0:0,0:0:0:0:
203,276,171160,1,8,0:2:0:0:
218,0,171382,6,0,P|235:112|243:212,1,209.999993591309,2|0,1:2|0:0,0:0:0:0:
212,276,171826,1,0,0:0:0:0:
272,56,172049,1,8,0:2:0:0:
325,111,172160,2,0,P|377:119|426:122,1,89.9999972534181,0|0,1:2|1:2,0:0:0:0:
39,196,172716,6,0,L|-7:187,1,40,2|8,1:2|0:2,0:0:0:0:
250,170,173160,2,0,L|262:207,1,40,2|0,1:2|0:0,0:0:0:0:
512,180,173604,2,0,L|496:197,1,20,10|8,0:2|0:2,0:0:0:0:
423,232,173827,2,0,L|416:213,1,20,8|8,0:2|1:2,0:0:0:0:
498,273,174049,2,0,L|505:294,1,20,8|8,0:2|0:2,0:0:0:0:
362,384,174271,6,0,P|345:272|337:172,1,209.999993591309,2|0,1:2|0:0,0:0:0:0:
368,108,174715,1,8,0:2:0:0:
350,384,174938,2,0,P|338:305|332:234,2,139.999995727539,2|0|0,1:2|0:0|0:0,0:0:0:0:
286,341,175604,1,8,0:2:0:0:
213,361,175716,2,0,P|172:383|125:382,1,89.9999972534181,0|0,1:2|1:2,0:0:0:0:
506,209,176271,6,0,L|512:169,1,40,2|8,1:2|0:2,0:0:0:0:
241,180,176716,2,0,L|273:206,1,40,2|0,1:2|0:0,0:0:0:0:
18,184,177160,2,0,L|0:191,1,20,10|8,0:2|0:2,0:0:0:0:
82,255,177382,2,0,L|75:237,1,20,8|8,0:2|1:2,0:0:0:0:
104,142,177604,2,0,L|101:162,1,20,8|8,0:2|0:2,0:0:0:0:
328,262,177827,6,0,P|364:182|281:106,1,209.999993591309,2|0,1:2|0:0,0:0:0:0:
213,109,178271,1,8,0:2:0:0:
336,260,178493,6,0,P|372:180|289:104,1,209.999993591309,2|0,1:2|0:0,0:0:0:0:
221,107,178937,1,0,0:0:0:0:
411,242,179160,1,8,0:2:0:0:
490,226,179271,2,0,P|480:283|475:330,1,89.9999972534181,0|0,1:2|1:2,0:0:0:0:
255,345,179827,6,0,L|260:390,1,40,2|8,1:2|0:2,0:0:0:0:
279,190,180271,2,0,L|234:195,1,40,2|0,1:2|0:0,0:0:0:0:
260,19,180716,2,0,L|257:-7,1,20,10|8,0:2|0:2,0:0:0:0:
309,79,180938,2,0,L|327:87,1,20,8|8,0:2|1:2,0:0:0:0:
220,92,181160,2,0,L|204:104,1,20,8|8,0:2|0:2,0:0:0:0:
0,241,181382,6,0,P|26:164|144:163,1,209.999993591309,2|0,1:2|0:0,0:0:0:0:
188,218,181827,1,8,0:2:0:0:
4,247,182049,6,0,P|30:170|148:169,1,209.999993591309,2|0,1:2|0:0,0:0:0:0:
192,224,182494,1,0,0:0:0:0:
0,168,182716,1,8,0:2:0:0:
59,115,182827,2,0,P|73:71|74:26,1,89.9999972534181,0|0,1:2|1:2,0:0:0:0:
268,204,183382,6,0,P|315:265|392:246,2,160,2|8|2,1:2|0:2|1:2,0:0:0:0:
412,43,184049,1,0,0:0:0:0:
508,220,184271,5,10,0:2:0:0:
432,193,184382,1,8,0:2:0:0:
388,249,184494,1,8,0:2:0:0:
330,240,184605,1,8,1:2:0:0:
296,283,184716,1,8,0:2:0:0:
255,289,184827,1,8,0:2:0:0:
208,344,184938,6,0,P|175:359|174:289,1,112.500004291535,0|0,1:2|0:0,0:0:0:0:
94,183,185382,2,0,P|98:212|103:242,1,59.9999981689454,8|0,0:2|0:0,0:0:0:0:
36,366,185604,1,0,1:2:0:0:
36,366,185827,1,0,0:0:0:0:
36,366,186049,1,0,0:0:0:0:
95,248,186271,1,8,0:2:0:0:
23,217,186382,2,0,P|12:154|73:170,1,150.000005722046,0|0,1:2|0:0,0:0:0:0:
206,186,186716,5,0,1:2:0:0:
206,186,186938,1,0,1:2:0:0:
113,87,187160,2,0,P|141:110|177:108,1,75.0000028610231,8|0,0:2|0:0,0:0:0:0:
364,49,187382,1,0,1:2:0:0:
297,23,187604,1,0,0:0:0:0:
319,141,187827,5,8,0:2:0:0:
378,148,187938,1,8,0:2:0:0:
428,179,188049,1,8,0:2:0:0:
452,233,188160,1,8,1:2:0:0:
443,292,188271,2,0,P|469:314|526:289,1,75.0000028610231,8|8,0:2|0:2,0:0:0:0:
341,336,188493,6,0,B|351:379|244:411|244:283|316:269,1,179.999994506836,0|0,1:2|0:0,0:0:0:0:
308,260,188938,2,0,P|340:251|365:243,1,59.9999981689454,8|0,0:2|0:0,0:0:0:0:
512,186,189160,2,0,P|424:205|443:292,1,200,0|0,1:2|0:0,0:0:0:0:
279,157,189827,1,8,0:2:0:0:
241,223,189938,1,0,1:2:0:0:
223,217,190049,2,0,P|196:236|139:218,1,75.0000028610231
143,103,190271,6,0,B|138:170|91:149|80:225,2,135.000000514984,0|0|8,1:2|1:2|0:2,0:0:0:0:
57,26,190938,1,0,1:2:0:0:
50,28,191049,1,0,0:0:0:0:
43,30,191160,1,0,0:0:0:0:
143,103,191382,5,8,0:2:0:0:
197,129,191493,1,8,0:2:0:0:
257,125,191604,1,8,0:2:0:0:
303,84,191716,1,8,1:2:0:0:
318,25,191827,1,8,0:2:0:0:
318,25,191938,1,8,0:2:0:0:
318,25,192049,6,0,B|394:3|426:76|410:75|437:144|507:108,1,225.000008583069,0|0,1:2|0:0,0:0:0:0:
511,88,192493,2,0,P|476:98|448:103,1,50,10|0,0:2|0:0,0:0:0:0:
333,155,192716,1,2,1:2:0:0:
300,227,192938,1,2,0:2:0:0:
366,271,193160,1,2,0:2:0:0:
512,261,193382,5,10,0:2:0:0:
501,187,193493,2,0,B|482:205|482:205|480:247|465:340,1,150.000005722046,0|0,1:2|0:0,0:0:0:0:
401,371,193827,5,2,1:2:0:0:
304,356,194049,1,0,1:2:0:0:
207,341,194271,2,0,P|199:296|190:255,1,75.0000028610231,10|0,0:2|0:0,0:0:0:0:
262,168,194493,6,0,P|242:153|217:147,1,50,2|0,1:2|0:0,0:0:0:0:
203,126,194716,2,0,P|180:135|163:154,1,50,2|0,0:2|0:0,0:0:0:0:
110,290,194938,5,8,0:2:0:0:
55,281,195049,1,8,0:2:0:0:
0,272,195160,1,10,0:2:0:0:
9,217,195271,1,8,1:2:0:0:
18,162,195382,1,8,0:2:0:0:
18,162,195493,1,8,0:2:0:0:
18,162,195604,6,0,P|88:141|49:57,1,179.999994506836,0|0,1:2|0:0,0:0:0:0:
45,63,196049,2,0,P|37:29|30:3,1,59.9999981689454,10|0,0:2|0:0,0:0:0:0:
172,118,196271,2,0,B|186:39|304:-28|339:117|259:113,1,239.999992675781,2|0,1:2|0:0,0:0:0:0:
459,115,196938,1,10,0:2:0:0:
407,64,197049,2,0,P|422:136|433:198,1,119.999996337891,0|0,1:2|0:0,0:0:0:0:
452,265,197382,5,0,1:2:0:0:
452,265,197604,1,0,1:2:0:0:
304,184,197827,1,10,0:2:0:0:
234,209,198049,1,2,1:2:0:0:
248,136,198271,1,2,0:2:0:0:
309,306,198493,5,10,0:2:0:0:
250,317,198604,1,8,0:2:0:0:
192,334,198716,1,10,0:2:0:0:
136,355,198827,1,8,1:2:0:0:
81,379,198938,1,8,0:2:0:0:
81,379,199049,1,8,0:2:0:0:
81,379,199160,6,0,B|122:319|115:218|25:210|-5:286|36:309,1,225.000008583069,0|0,1:2|0:0,0:0:0:0:
78,240,199604,2,0,P|85:194|93:157,1,75.0000028610231,10|0,0:2|0:0,0:0:0:0:
257,200,199827,2,0,P|209:214|161:229,2,100,2|2|2,1:2|0:2|0:2,0:0:0:0:
112,26,200493,5,10,0:2:0:0:
47,63,200604,2,0,P|66:131|115:84,1,150.000005722046,0|0,1:2|0:0,0:0:0:0:
255,35,200938,5,2,1:2:0:0:
418,22,201160,1,2,1:2:0:0:
437,96,201271,1,2,0:2:0:0:
444,54,201382,1,10,0:2:0:0:
311,108,201604,1,2,1:2:0:0:
299,151,201715,1,0,1:2:0:0:
295,126,201826,1,2,0:2:0:0:
491,192,202049,5,10,0:2:0:0:
431,189,202160,1,10,0:2:0:0:
378,218,202271,1,10,0:2:0:0:
362,275,202382,1,0,1:2:0:0:
386,329,202493,1,10,0:2:0:0:
386,329,202604,1,10,0:2:0:0:
386,329,202716,1,2,1:2:0:0:
178,258,202938,5,2,0:2:0:0:
230,207,203049,1,2,0:2:0:0:
249,278,203160,1,10,0:2:0:0:
49,334,203382,5,2,1:2:0:0:
75,359,203493,1,2,0:2:0:0:
84,324,203604,1,2,0:2:0:0:
89,200,203827,6,0,P|95:231|102:258,1,50,2|2,0:2|0:2,0:0:0:0:
141,96,204049,1,10,0:2:0:0:
63,137,204160,2,0,P|78:209|87:255,1,100,0|0,1:2|0:0,0:0:0:0:
44,365,204493,6,0,P|16:373|-11:380,1,37.5000014305115,2|2,1:2|0:2,0:0:0:0:
6,364,204716,2,0,P|24:359|43:354,1,37.5000014305115,2|2,1:2|0:2,0:0:0:0:
128,332,204938,5,10,0:2:0:0:
137,287,205049,1,2,0:2:0:0:
148,289,205160,1,2,1:2:0:0:
139,334,205271,1,2,0:2:0:0:
182,355,205382,5,2,0:2:0:0:
234,335,205493,1,2,0:2:0:0:
237,275,205604,1,10,0:2:0:0:
298,255,205716,1,10,0:2:0:0:
304,187,205827,1,10,0:2:0:0:
373,173,205938,1,2,1:2:0:0:
384,99,206049,1,10,0:2:0:0:
460,82,206160,1,10,0:2:0:0:
487,4,206271,6,0,L|476:104,1,80,2|0,1:2|0:0,0:0:0:0:
512,242,206493,1,2,0:2:0:0:
502,157,206716,1,10,0:2:0:0:
298,255,206938,1,2,1:2:0:0:
211,267,207160,2,0,B|109:281|109:281|159:263,1,150,2|0,0:2|0:0,0:0:0:0:
213,278,207604,2,0,L|266:288,1,50,10|0,0:2|0:0,0:0:0:0:
329,345,207827,2,0,L|382:355,1,50,2|0,0:2|0:0,0:0:0:0:
60,382,208049,6,0,B|-1:341|14:264|14:264|56:249,2,160,0|0|8,1:2|1:2|0:2,0:0:0:0:
257,341,208716,1,0,1:2:0:0:
94,209,208938,5,2,0:2:0:0:
38,255,209160,1,2,1:2:0:0:
0,73,209382,1,10,0:2:0:0:
13,116,209493,2,0,P|19:156|21:189,1,59.9999981689454
167,214,209827,5,2,1:2:0:0:
390,41,210049,2,0,B|358:50|339:87|339:87|339:40|314:15,1,139.999995727539,2|8,0:2|0:2,0:0:0:0:
172,231,210493,5,2,1:2:0:0:
376,97,210716,2,0,B|354:75|354:22|354:22|333:65|297:75,1,160,2|0,0:2|0:0,0:0:0:0:
512,0,211160,1,8,0:2:0:0:
511,20,211271,1,0,1:2:0:0:
488,8,211382,1,0,0:0:0:0:
512,280,211604,5,2,1:2:0:0:
432,252,211753,1,2,0:2:0:0:
496,196,211901,1,2,0:2:0:0:
502,272,212049,5,8,0:2:0:0:
418,287,212198,1,2,0:2:0:0:
446,207,212346,1,2,0:2:0:0:
489,270,212493,5,2,0:2:0:0:
424,325,212642,1,2,0:2:0:0:
408,241,212790,1,2,0:2:0:0:
476,274,212938,5,10,0:2:0:0:
447,354,213087,1,0,0:0:0:0:
392,290,213235,1,0,0:0:0:0:
496,196,213382,6,0,L|499:108,1,80,2|0,1:2|0:0,0:0:0:0:
250,0,213604,1,2,0:2:0:0:
332,16,213827,1,10,0:2:0:0:
180,164,214049,1,2,1:2:0:0:
110,204,214271,2,0,B|1:216|1:216|47:193,1,150,2|0,0:2|0:0,0:0:0:0:
113,219,214716,2,0,L|105:289,1,50,10|0,0:2|0:0,0:0:0:0:
163,335,214938,2,0,L|155:405,1,50,2|0,0:2|0:0,0:0:0:0:
302,193,215160,6,0,B|259:136|183:141|183:141|180:175,2,160,0|0|8,1:2|1:2|0:2,0:0:0:0:
361,384,215827,1,0,1:2:0:0:
512,212,216049,1,2,0:2:0:0:
451,275,216271,1,2,1:2:0:0:
346,159,216493,1,10,0:2:0:0:
376,195,216604,6,0,L|438:197,1,59.9999981689454
512,334,216938,5,2,1:2:0:0:
264,186,217160,2,0,B|222:192|222:192|286:103,1,139.999995727539,2|8,0:2|0:2,0:0:0:0:
510,349,217604,5,2,1:2:0:0:
274,181,217827,2,0,B|243:141|243:141|371:154,1,160,2|0,0:2|0:0,0:0:0:0:
250,371,218271,1,8,0:2:0:0:
264,384,218382,1,0,1:2:0:0:
272,359,218493,1,0,0:0:0:0:
110,381,218716,5,2,1:2:0:0:
75,312,218864,1,2,0:2:0:0:
0,300,219012,1,2,0:2:0:0:
145,304,219160,5,8,0:2:0:0:
80,261,219308,1,2,0:2:0:0:
9,288,219456,1,2,0:2:0:0:
136,219,219604,2,0,P|149:198|146:167,1,50,2|0,0:2|0:0,0:0:0:0:
0,6,219827,5,8,1:2:0:0:
2,58,219938,1,8,0:2:0:0:
45,88,220049,1,10,0:2:0:0:
114,70,220160,1,8,0:2:0:0:
178,100,220271,1,8,0:2:0:0:
184,170,220382,1,8,0:2:0:0:
136,219,220493,6,0,P|55:264|56:357,1,179.999994506836,2|0,1:2|0:0,0:0:0:0:
116,384,220938,2,0,P|124:364|121:341,1,29.9999990844727,10|0,0:2|0:0,0:0:0:0:
0,222,221160,1,0,1:2:0:0:
4,237,221271,1,8,0:2:0:0:
29,266,221382,2,0,L|85:272,1,50,2|0,1:2|0:0,0:0:0:0:
244,128,221604,1,0,1:2:0:0:
326,345,221827,5,10,0:2:0:0:
397,384,221938,2,0,P|401:329|368:275,1,119.999996337891,0|0,1:2|0:0,0:0:0:0:
410,275,222271,2,0,L|491:267,1,69.9999978637696,2|0,1:2|0:0,0:0:0:0:
244,128,222493,2,0,L|325:120,1,69.9999978637696,0|0,1:2|0:0,0:0:0:0:
136,219,222716,2,0,B|108:196|108:196|111:154,1,69.9999978637696,10|0,0:2|0:0,0:0:0:0:
363,21,222938,5,0,1:2:0:0:
354,51,223049,1,8,0:2:0:0:
225,238,223271,5,8,0:2:0:0:
216,208,223382,1,0,1:2:0:0:
398,383,223604,5,8,0:2:0:0:
436,355,223716,1,8,0:2:0:0:
473,358,223827,1,0,1:2:0:0:
170,384,224049,5,2,1:2:0:0:
410,275,224271,2,0,B|394:272|394:272|339:292,1,59.9999981689454
179,374,224493,1,10,0:2:0:0:
391,314,224716,1,0,1:2:0:0:
388,303,224827,1,8,0:2:0:0:
410,275,224938,2,0,B|416:267|416:267|419:219,1,50,2|0,1:2|0:0,0:0:0:0:
336,94,225160,1,0,1:2:0:0:
512,231,225382,5,10,0:2:0:0:
448,188,225493,2,0,L|324:176,1,119.999996337891,0|0,1:2|0:0,0:0:0:0:
251,185,225827,1,0,1:2:0:0:
251,185,226049,6,0,B|244:140|262:149|255:103,1,80,2|0,1:2|0:0,0:0:0:0:
113,146,226271,2,0,B|148:171|129:178|165:205,1,80,10|0,0:2|0:0,0:0:0:0:
120,280,226493,2,0,B|74:287|84:269|40:275,1,80,2|8,1:2|0:2,0:0:0:0:
297,384,226716,2,0,B|287:375|287:375|292:356|292:356|372:315|327:217,2,179.999994506836,2|0|10,0:2|1:2|0:2,0:0:0:0:
333,369,227271,1,8,0:2:0:0:
365,376,227382,1,0,1:2:0:0:
512,83,227604,6,0,P|436:92|404:187,1,179.999994506836,2|0,1:2|0:0,0:0:0:0:
464,219,228049,2,0,P|474:200|468:179,1,29.9999990844727,10|0,0:2|0:0,0:0:0:0:
367,0,228271,1,0,1:2:0:0:
370,12,228382,1,8,0:2:0:0:
387,39,228493,2,0,P|420:41|452:47,1,50,2|0,1:2|0:0,0:0:0:0:
333,230,228716,1,0,1:2:0:0:
196,0,228938,5,10,0:2:0:0:
264,43,229049,2,0,P|262:103|258:177,1,119.999996337891,0|0,1:2|0:0,0:0:0:0:
255,240,229382,2,0,P|212:236|191:215,1,69.9999978637696,2|0,1:2|0:0,0:0:0:0:
149,48,229604,2,0,P|179:30|195:-1,1,69.9999978637696,0|0,1:2|0:0,0:0:0:0:
0,166,229827,2,0,L|85:156,1,69.9999978637696,10|0,0:2|0:0,0:0:0:0:
274,315,230049,5,0,1:2:0:0:
268,347,230160,1,8,0:2:0:0:
157,155,230382,5,8,0:2:0:0:
151,123,230493,1,0,1:2:0:0:
0,380,230716,5,8,0:2:0:0:
38,357,230827,1,8,0:2:0:0:
49,322,230938,1,0,1:2:0:0:
338,384,231160,5,2,1:2:0:0:
130,344,231382,2,0,B|147:350|147:350|160:346|160:346|201:355,1,59.9999981689454
360,380,231604,1,10,0:2:0:0:
149,383,231827,1,0,1:2:0:0:
152,372,231938,1,8,0:2:0:0:
130,344,232049,2,0,B|126:329|126:329|129:321|129:321|127:289,1,50,2|0,1:2|0:0,0:0:0:0:
198,174,232271,1,0,1:2:0:0:
0,195,232493,5,10,0:2:0:0:
20,211,232604,1,0,1:2:0:0:
25,182,232716,2,0,P|6:215|1:252,1,59.9999981689454,0|0,1:2|0:0,0:0:0:0:
11,314,232938,1,0,1:2:0:0:
11,314,233160,6,0,B|59:323|38:344|87:350,1,80,2|0,1:2|0:0,0:0:0:0:
147,288,233382,2,0,B|120:253|149:253|122:213,1,80,10|0,0:2|0:0,0:0:0:0:
272,221,233604,2,0,B|263:269|242:248|236:290,1,80,10|8,0:2|0:2,0:0:0:0:
299,357,233827,2,0,B|333:330|333:359|373:332,1,80,2|0,0:2|0:0,0:0:0:0:
512,384,234049,5,8,0:2:0:0:
441,349,234160,1,8,0:2:0:0:
451,283,234272,1,10,0:2:0:0:
395,262,234383,1,8,0:2:0:0:
399,212,234494,1,8,0:2:0:0:
361,197,234605,1,8,0:2:0:0:
374,121,234716,6,0,P|362:81|497:28,1,225.000008583069,2|0,1:2|0:0,0:0:0:0:
501,36,235160,2,0,P|451:40|409:45,1,75.0000028610231,10|0,0:2|0:0,0:0:0:0:
250,22,235382,1,0,1:2:0:0:
284,56,235493,1,8,0:2:0:0:
269,66,235604,6,0,P|236:79|225:117,1,50,2|0,1:2|0:0,0:0:0:0:
287,136,235827,1,0,1:2:0:0:
29,83,236049,1,10,0:2:0:0:
99,33,236160,2,0,P|66:78|66:179,1,150,0|0,1:2|0:0,0:0:0:0:
74,178,236493,6,0,P|142:187|156:189,1,75.0000028610231,2|0,1:2|0:0,0:0:0:0:
244,279,236716,2,0,P|312:288|326:290,1,75.0000028610231,0|0,1:2|0:0,0:0:0:0:
458,194,236938,2,0,B|468:159|468:159|448:127,1,75.0000028610231,10|0,0:2|0:0,0:0:0:0:
279,178,237160,5,0,1:2:0:0:
288,203,237271,1,8,0:2:0:0:
263,383,237493,5,8,0:2:0:0:
275,359,237604,1,0,1:2:0:0:
478,292,237827,5,8,0:2:0:0:
475,313,237938,1,8,0:2:0:0:
495,306,238049,1,0,1:2:0:0:
417,372,238271,5,2,1:2:0:0:
394,292,238493,2,0,B|386:257|386:257|379:253|379:253|372:222,1,75.0000028610231
469,93,238716,1,10,0:2:0:0:
417,372,238938,1,0,1:2:0:0:
383,349,239049,1,8,0:2:0:0:
388,308,239160,6,0,B|377:261|377:261|368:256|368:256|359:215,1,100,2|0,1:2|0:0,0:0:0:0:
498,166,239382,1,0,1:2:0:0:
328,82,239604,1,10,0:2:0:0:
387,20,239716,2,0,B|430:1|469:54|436:124|356:113|312:53,1,200,0|0,1:2|0:0,0:0:0:0:
267,17,240049,5,0,1:2:0:0:
267,17,240271,2,0,B|261:66|234:49|226:95,1,89.9999972534181,2|0,1:2|0:0,0:0:0:0:
5,171,240493,2,0,B|50:151|49:183|93:166,1,89.9999972534181,10|0,0:2|0:0,0:0:0:0:
128,75,240716,2,0,B|167:104|139:119|175:149,1,89.9999972534181,2|8,1:2|0:2,0:0:0:0:
225,263,240938,2,0,P|283:205|385:184,2,179.999994506836,2|0|10,0:2|1:2|0:2,0:0:0:0:
192,342,241493,1,8,0:2:0:0:
199,367,241604,1,0,1:2:0:0:
93,168,241827,6,0,B|95:225|38:252|38:252|54:288|87:381,1,225.000008583069,2|0,1:2|0:0,0:0:0:0:
87,384,242271,2,0,P|100:345|119:292,1,75.0000028610231,10|0,0:2|0:0,0:0:0:0:
224,178,242493,1,0,1:2:0:0:
181,190,242604,1,8,0:2:0:0:
197,173,242716,1,2,1:2:0:0:
225,263,242938,5,0,1:2:0:0:
395,175,243160,1,10,0:2:0:0:
381,253,243271,2,0,P|336:280|342:347,1,119.999996337891,0|0,1:2|0:0,0:0:0:0:
355,371,243604,6,0,P|387:340|438:346,1,75.0000028610231,2|0,1:2|0:0,0:0:0:0:
474,203,243827,2,0,P|431:190|410:143,1,75.0000028610231,0|0,1:2|0:0,0:0:0:0:
294,87,244049,2,0,P|286:46|283:26,1,50,10|0,0:2|0:0,0:0:0:0:
495,120,244271,1,0,1:2:0:0:
477,131,244382,1,8,0:2:0:0:
292,161,244604,5,8,0:2:0:0:
263,154,244716,1,0,1:2:0:0:
171,13,244938,5,8,0:2:0:0:
160,87,245049,2,0,P|130:91|131:150,1,100,8|0,0:2|0:0,0:0:0:0:
46,146,245382,6,0,P|83:152|120:160,1,75.0000028610231,2|0,1:2|0:0,0:0:0:0:
218,226,245604,2,0,P|223:263|231:299,1,75.0000028610231
374,380,245827,1,10,0:2:0:0:
205,150,246049,1,0,1:2:0:0:
189,193,246160,1,8,0:2:0:0:
206,226,246271,6,0,P|211:263|228:330,1,100,2|0,1:2|0:0,0:0:0:0:
402,165,246493,1,0,1:2:0:0:
506,314,246716,1,10,0:2:0:0:
437,345,246827,2,0,B|423:355|423:355|390:306|424:248|456:247,1,150.000005722046,0|0,1:2|0:0,0:0:0:0:
494,149,247160,1,0,1:2:0:0:
494,149,247382,6,0,B|478:161|478:161|432:148|389:141,1,89.9999972534181,2|0,1:2|0:0,0:0:0:0:
266,0,247604,2,0,B|284:7|284:7|296:54|311:94,1,89.9999972534181,10|0,0:2|0:0,0:0:0:0:
333,74,247827,6,0,B|335:93|335:93|301:127|273:160,1,89.9999972534181,10|8,0:2|0:2,0:0:0:0:
89,196,248049,2,0,B|104:184|104:184|150:197|194:203,1,89.9999972534181,2|0,0:2|0:0,0:0:0:0:
365,229,248271,5,8,0:2:0:0:
284,227,248382,1,8,0:2:0:0:
271,297,248493,1,10,0:2:0:0:
208,291,248604,1,8,0:2:0:0:
197,344,248716,1,8,0:2:0:0:
152,344,248827,1,8,0:2:0:0:
85,379,248938,6,0,P|74:311|29:168,1,209.999993591309,2|0,1:2|0:0,0:0:0:0:
63,112,249382,1,8,0:2:0:0:
76,377,249604,2,0,P|65:309|20:166,1,209.999993591309,2|0,1:2|0:0,0:0:0:0:
54,110,250048,1,0,0:0:0:0:
140,143,250271,5,10,0:2:0:0:
41,178,250382,2,0,P|74:277|88:328,1,139.999995727539,0|0,1:2|0:0,0:0:0:0:
156,340,250716,1,0,1:2:0:0:
273,374,250938,6,0,P|279:350|283:326,1,50,2|8,1:2|0:2,0:0:0:0:
224,212,251382,2,0,P|230:187|234:163,1,50,2|0,1:2|0:0,0:0:0:0:
374,20,251827,2,0,P|361:23|350:27,1,25,10|8,0:2|0:2,0:0:0:0:
233,24,252049,2,0,P|241:32|251:40,1,25,8|8,0:2|0:2,0:0:0:0:
306,144,252271,2,0,P|309:131|311:119,1,25,8|8,0:2|0:2,0:0:0:0:
474,18,252493,6,0,P|441:117|422:221,1,209.999993591309,2|0,1:2|0:0,0:0:0:0:
434,303,252937,1,8,0:2:0:0:
483,16,253159,2,0,P|459:82|441:149,2,139.999995727539,2|0|0,1:2|0:0|0:0,0:0:0:0:
503,218,253826,5,10,0:2:0:0:
441,149,253937,2,0,P|374:125|327:113,1,100,0|0,1:2|0:0,0:0:0:0:
320,13,254271,1,0,1:2:0:0:
196,40,254493,6,0,P|220:33|244:29,1,50,2|8,1:2|0:2,0:0:0:0:
220,185,254938,2,0,P|244:178|268:174,1,50,2|0,1:2|0:0,0:0:0:0:
258,361,255382,2,0,P|270:357|282:355,1,25,10|8,0:2|0:2,0:0:0:0:
352,327,255604,2,0,P|355:339|357:351,1,25,8|8,0:2|0:2,0:0:0:0:
188,384,255827,2,0,P|184:371|182:359,1,25,8|8,0:2|0:2,0:0:0:0:
268,174,256049,6,0,B|156:152|203:274|87:243,1,209.999993591309,2|0,1:2|0:0,0:0:0:0:
23,198,256493,1,8,0:2:0:0:
267,164,256716,2,0,B|155:142|202:264|86:233,1,209.999993591309,2|0,1:2|0:0,0:0:0:0:
22,188,257160,1,0,0:0:0:0:
266,154,257382,5,10,0:2:0:0:
167,99,257493,2,0,P|151:67|227:49,1,139.999995727539,0|0,1:2|0:0,0:0:0:0:
300,27,257827,1,0,1:2:0:0:
479,130,258049,6,0,P|485:154|489:178,1,50,2|8,1:2|0:2,0:0:0:0:
268,174,258493,2,0,P|243:180|219:184,1,50,2|0,1:2|0:0,0:0:0:0:
21,244,258938,2,0,P|17:231|15:219,1,25,10|8,0:2|0:2,0:0:0:0:
87,148,259160,2,0,P|99:151|110:155,1,25,8|8,0:2|0:2,0:0:0:0:
137,253,259382,2,0,P|128:261|118:269,1,25,8|8,0:2|0:2,0:0:0:0:
72,32,259604,6,0,B|184:10|137:132|253:101,1,209.999993591309,2|0,1:2|0:0,0:0:0:0:
317,56,260048,1,8,0:2:0:0:
73,22,260271,2,0,B|185:0|138:122|254:91,1,209.999993591309,2|0,1:2|0:0,0:0:0:0:
318,46,260715,1,0,0:0:0:0:
74,12,260937,5,10,0:2:0:0:
147,63,261049,2,0,P|157:103|73:125,1,139.999995727539,0|0,1:2|0:0,0:0:0:0:
6,132,261382,1,0,1:2:0:0:
105,322,261604,6,0,P|178:307|267:294,2,150.000005722046,2|8|2,1:2|0:2|1:2,0:0:0:0:
211,178,262271,1,0,0:0:0:0:
352,157,262493,5,10,0:2:0:0:
423,195,262604,1,8,0:2:0:0:
399,262,262715,1,8,0:2:0:0:
456,289,262826,1,8,0:2:0:0:
439,340,262938,1,8,0:2:0:0:
478,363,263049,1,8,0:2:0:0:
