osu file format v14

[General]
AudioFilename: audio.mp3
AudioLeadIn: 0
PreviewTime: 155716
Countdown: 0
SampleSet: Soft
StackLeniency: 0.7
Mode: 0
LetterboxInBreaks: 0
WidescreenStoryboard: 1

[Editor]
Bookmarks: 32049,60493,88938,117382,142271,170716,192049,220493,248938,259382
DistanceSpacing: 0.7
BeatDivisor: 4
GridSize: 8
TimelineZoom: 1.7

[Metadata]
Title:Makhluk Tuhan Paling Sexy
TitleUnicode:Makhluk Tuhan Paling Sexy
Artist:Mulan Jameela
ArtistUnicode:Mulan Jameela
Creator:Nakazawa
Version:Dedezawa's Insane
Source:
Tags:The Sexiest God's Creature Mulan Kwok Ahmad Dhani GP Records Republic Cinta Records Philharmonic Orchestra Ahmad Dhani Guntur Nur Puspito Indonesia Indonesian Pop Rock Soncak dedekind
BeatmapID:4526052
BeatmapSetID:2095029

[Difficulty]
HPDrainRate:5
CircleSize:4
OverallDifficulty:8
ApproachRate:8.5
SliderMultiplier:1.8
SliderTickRate:1

[Events]
//Background and Video events
0,0,"BGMulan.jpg",0,0
//Break Periods
//Storyboard Layer 0 (Background)
//Storyboard Layer 1 (Fail)
//Storyboard Layer 2 (Pass)
//Storyboard Layer 3 (Foreground)
//Storyboard Layer 4 (Overlay)
//Storyboard Sound Samples

[TimingPoints]
50,444.444444444444,4,2,1,60,1,0
50,-166.666666666667,4,2,1,60,0,0
3605,444.444444444444,4,2,1,60,1,0
3605,-125,4,2,1,60,0,0
9160,-100,4,2,1,60,0,0
9827,-125,4,2,1,60,0,0
10493,-83.3333333333333,4,2,1,60,0,0
10716,-100,4,2,1,60,0,0
11160,-125,4,2,1,60,0,0
14271,-83.3333333333333,4,2,1,60,0,0
14716,-125,4,2,1,60,0,0
16938,-166.666666666667,4,2,1,60,0,0
17382,-250,4,2,1,60,0,0
17827,-166.666666666667,4,2,2,60,0,0
24493,-250,4,2,2,60,0,0
24938,-142.857142857143,4,2,2,60,0,0
32049,-142.857142857143,4,2,1,70,0,0
33382,-111.111111111111,4,2,1,70,0,0
46271,-111.111111111111,4,2,2,50,0,0
60493,-125,4,2,2,55,0,0
74716,-111.111111111111,4,2,1,60,0,0
88938,-125,4,2,1,55,0,0
92049,-100,4,2,1,55,0,0
92493,-125,4,2,1,55,0,0
101382,-100,4,2,1,55,0,0
101827,-90.9090909090909,4,2,1,55,0,0
102493,-90.9090909090909,4,2,1,65,0,0
102827,-90.9090909090909,4,2,1,70,0,0
103160,-83.3333333333333,4,2,1,80,0,0
105382,-66.6666666666667,4,2,1,80,0,0
105827,-66.6666666666667,4,2,1,80,0,0
106271,-83.3333333333333,4,2,1,80,0,0
109382,-83.3333333333333,4,2,1,80,0,0
109827,-55.5555555555556,4,2,1,80,0,0
110271,-83.3333333333333,4,2,1,80,0,0
110716,-66.6666666666667,4,2,1,80,0,0
111160,-83.3333333333333,4,2,1,80,0,0
111604,-66.6666666666667,4,2,1,80,0,0
113827,-83.3333333333333,4,2,1,80,0,0
115827,-66.6666666666667,4,2,1,80,0,0
116938,-83.3333333333333,4,2,1,80,0,0
117382,-125,4,2,1,50,0,0
119382,-125,4,2,3,50,0,0
119456,-125,4,2,1,50,0,0
119827,-125,4,2,3,50,0,0
119901,-125,4,2,1,50,0,0
120271,-125,4,2,3,50,0,0
120345,-125,4,2,1,50,0,0
122938,-125,4,2,3,50,0,0
123012,-125,4,2,1,50,0,0
123382,-125,4,2,3,50,0,0
123456,-125,4,2,1,50,0,0
123827,-125,4,2,3,70,0,0
123901,-125,4,2,1,70,0,0
124493,-111.111111111111,4,2,1,45,0,0
127382,-111.111111111111,4,2,1,55,0,0
128049,-100,4,2,1,60,0,0
142271,-125,4,2,1,55,0,0
143604,-100,4,2,1,55,0,0
144049,-125,4,2,1,55,0,0
147271,-100,4,2,1,55,0,0
148271,-125,4,2,1,55,0,0
148938,-90.9090909090909,4,2,1,55,0,0
149604,-125,4,2,1,55,0,0
150716,-100,4,2,1,55,0,0
155826,-100,4,2,1,65,0,0
156160,-100,4,2,1,70,0,0
156493,-83.3333333333333,4,2,1,80,0,0
161382,-83.3333333333333,4,2,1,80,0,0
162716,-66.6666666666667,4,2,1,80,0,0
163160,-55.5555555555556,4,2,1,80,0,0
163604,-83.3333333333333,4,2,1,80,0,0
164938,-66.6666666666667,4,2,1,80,0,0
167382,-83.3333333333333,4,2,1,80,0,0
168493,-55.5555555555556,4,2,1,80,0,0
168938,-66.6666666666667,4,2,1,80,0,0
169160,-66.6666666666667,4,2,1,80,0,0
169827,-55.5555555555556,4,2,1,80,0,0
170271,-83.3333333333333,4,2,1,80,0,0
170716,-71.4285714285714,4,2,1,70,0,0
172716,-125,4,2,3,70,0,0
172790,-125,4,2,1,70,0,0
173160,-125,4,2,3,70,0,0
173234,-125,4,2,1,70,0,0
173604,-125,4,2,3,70,0,0
173678,-125,4,2,1,70,0,0
174271,-71.4285714285714,4,2,1,70,0,0
176271,-125,4,2,3,70,0,0
176345,-125,4,2,1,70,0,0
176716,-125,4,2,3,70,0,0
176790,-125,4,2,1,70,0,0
177160,-125,4,2,3,70,0,0
177234,-125,4,2,1,70,0,0
177827,-71.4285714285714,4,2,1,70,0,0
179827,-125,4,2,3,70,0,0
179901,-125,4,2,1,70,0,0
180271,-125,4,2,3,70,0,0
180345,-125,4,2,1,70,0,0
180716,-125,4,2,3,70,0,0
180790,-125,4,2,1,70,0,0
181382,-71.4285714285714,4,2,1,70,0,0
183382,-125,4,2,3,70,0,0
183456,-125,4,2,1,70,0,0
183827,-125,4,2,3,70,0,0
183901,-125,4,2,1,70,0,0
184271,-125,4,2,3,70,0,0
184345,-125,4,2,1,70,0,0
184938,-100,4,2,1,60,0,0
206271,-66.6666666666667,4,2,1,60,0,0
207160,-100,4,2,1,60,0,0
213827,-66.6666666666667,4,2,1,60,0,0
215160,-100,4,2,1,60,0,0
219160,-83.3333333333333,4,2,1,60,0,0
220493,-83.3333333333333,4,2,1,80,0,0
225382,-83.3333333333333,4,2,1,80,0,0
226716,-66.6666666666667,4,2,1,80,0,0
227160,-55.5555555555556,4,2,1,80,0,0
227604,-83.3333333333333,4,2,1,80,0,0
228938,-66.6666666666667,4,2,1,80,0,0
231382,-83.3333333333333,4,2,1,80,0,0
239604,-83.3333333333333,4,2,1,80,0,0
240938,-66.6666666666667,4,2,1,80,0,0
241382,-55.5555555555556,4,2,1,80,0,0
241826,-83.3333333333333,4,2,1,80,0,0
243160,-66.6666666666667,4,2,1,80,0,0
245604,-83.3333333333333,4,2,1,80,0,0
248938,-83.3333333333333,4,2,1,70,0,0
250938,-83.3333333333333,4,2,3,70,0,0
251012,-83.3333333333333,4,2,1,70,0,0
251382,-83.3333333333333,4,2,3,70,0,0
251456,-83.3333333333333,4,2,1,70,0,0
251827,-83.3333333333333,4,2,3,70,0,0
251901,-83.3333333333333,4,2,1,70,0,0
254493,-83.3333333333333,4,2,3,70,0,0
254567,-83.3333333333333,4,2,1,70,0,0
254938,-83.3333333333333,4,2,3,70,0,0
255012,-83.3333333333333,4,2,1,70,0,0
255382,-83.3333333333333,4,2,3,70,0,0
255456,-83.3333333333333,4,2,1,70,0,0
256049,-66.6666666666667,4,2,1,70,0,0
258049,-83.3333333333333,4,2,3,70,0,0
258123,-83.3333333333333,4,2,1,70,0,0
258493,-83.3333333333333,4,2,3,70,0,0
258567,-83.3333333333333,4,2,1,70,0,0
258938,-83.3333333333333,4,2,3,70,0,0
259012,-83.3333333333333,4,2,1,70,0,0
261604,-83.3333333333333,4,2,3,70,0,0
261678,-83.3333333333333,4,2,1,70,0,0
262049,-83.3333333333333,4,2,3,70,0,0
262123,-83.3333333333333,4,2,1,70,0,0
262493,-83.3333333333333,4,2,3,70,0,0
262567,-83.3333333333333,4,2,1,70,0,0

[Colours]
Combo1 : 183,94,202
Combo2 : 255,132,193
Combo3 : 213,255,255
Combo4 : 43,70,181

[HitObjects]
216,384,50,5,0,0:0:0:0:
287,315,272,2,0,L|280:249,1,53.9999983520508
269,177,716,1,0,0:0:0:0:
216,384,938,2,0,P|266:362|287:301,1,107.999996704102
216,384,1827,5,0,0:0:0:0:
287,315,2049,2,0,L|280:249,1,53.9999983520508
269,177,2493,1,0,0:0:0:0:
216,384,2715,2,0,P|266:362|287:301,1,107.999996704102
272,176,3605,6,0,P|223:206|159:211,1,108,2|0,0:2|0:0,0:0:0:0:
156,186,4049,2,0,P|187:142|199:90,1,108,2|0,0:2|0:0,0:0:0:0:
87,81,4493,2,0,P|115:126|123:180,1,108,2|0,0:2|0:0,0:0:0:0:
95,197,4938,2,0,P|52:165|0:154,1,108,2|0,0:2|0:0,0:0:0:0:
0,185,5382,6,0,P|18:227|23:264,1,72,2|0,0:2|0:0,0:0:0:0:
87,81,5827,2,0,P|56:61|23:48,1,72,2|0,0:2|0:0,0:0:0:0:
201,22,6271,2,0,P|233:6|345:0,1,144,2|0,0:2|0:0,0:0:0:0:
482,172,7160,6,0,P|458:209|454:274,1,108,2|0,0:2|0:0,0:0:0:0:
450,304,7604,2,0,P|404:275|378:229,1,108,2|0,0:2|0:0,0:0:0:0:
376,347,8049,2,0,P|450:347|516:312,1,144,2|2,0:2|0:2,0:0:0:0:
447,7,8938,1,0,0:0:0:0:
447,7,9160,6,0,P|449:40|503:46,2,90,2|2|2,0:2|0:2|0:2,0:0:0:0:
501,135,9827,2,0,P|452:85|368:79,1,144,2|2,0:2|0:2,0:0:0:0:
366,124,10493,2,0,P|380:102|375:60,1,53.9999983520508
303,185,10716,2,0,L|206:198,1,90,2|0,0:2|0:0,0:0:0:0:
123,357,11160,6,0,P|103:313|41:277,1,108,2|0,0:2|0:0,0:0:0:0:
54,249,11604,2,0,P|106:237|156:255,1,108,2|0,0:2|0:0,0:0:0:0:
109,160,12049,2,0,P|61:183|32:228,1,108,2|0,0:2|0:0,0:0:0:0:
0,228,12493,2,0,P|-8:191|4:155,1,72,2|0,0:2|0:0,0:0:0:0:
5,38,12938,2,0,P|22:69|52:88,1,72,2|0,0:2|0:0,0:0:0:0:
215,49,13382,2,0,P|150:59|99:-9,1,144,2|0,0:2|0:0,0:0:0:0:
373,10,14271,6,0,P|341:59|349:1,1,161.999995056153,2|0,0:2|0:0,0:0:0:0:
388,3,14716,2,0,P|405:49|360:89,1,108,2|0,0:2|0:0,0:0:0:0:
340,94,15160,2,0,P|388:102|400:161,1,108,2|0,0:2|0:0,0:0:0:0:
394,181,15604,2,0,P|427:142|477:155,1,108,2|0,0:2|0:0,0:0:0:0:
502,181,16049,1,0,0:0:0:0:
500,191,16716,5,2,0:2:0:0:
338,245,16938,2,0,L|247:252,1,80.9999975280763,2|0,0:2|0:0,0:0:0:0:
212,227,17382,2,0,L|270:224,1,54,2|0,0:2|0:0,0:0:0:0:
338,245,17827,6,0,P|350:289|361:360,1,107.999996704102,0|8,1:2|0:2,0:0:0:0:
438,384,18493,1,0,1:2:0:0:
508,335,18716,1,0,0:0:0:0:
508,335,18938,1,0,0:0:0:0:
419,232,19160,2,0,P|425:254|430:289,1,53.9999983520508,8|0,0:2|0:0,0:0:0:0:
497,205,19604,5,0,1:2:0:0:
497,205,19827,1,0,1:2:0:0:
512,57,20049,1,8,0:2:0:0:
466,128,20271,2,0,P|438:138|401:157,1,53.9999983520508,0|0,1:2|0:0,0:0:0:0:
424,52,20716,1,0,1:2:0:0:
309,21,20938,2,0,P|334:12|358:0,1,53.9999983520508,8|0,0:2|0:0,0:0:0:0:
223,13,21382,6,0,P|211:57|200:128,1,107.999996704102,0|8,1:2|0:2,0:0:0:0:
123,152,22048,1,0,1:2:0:0:
53,103,22271,1,0,0:0:0:0:
53,103,22493,1,0,0:0:0:0:
142,0,22715,2,0,P|135:22|130:57,1,53.9999983520508,8|0,0:2|0:0,0:0:0:0:
50,14,23160,5,0,1:2:0:0:
50,14,23382,1,0,1:2:0:0:
0,181,23604,1,8,0:2:0:0:
51,103,23827,1,0,1:2:0:0:
123,152,24049,2,0,L|223:164,1,80.9999975280763
249,137,24493,2,0,L|178:127,1,54,8|0,0:2|0:0,0:0:0:0:
123,152,24938,6,0,P|102:183|52:190,1,62.9999980773926,0|0,1:2|0:0,0:0:0:0:
249,137,25382,1,8,0:2:0:0:
191,206,25604,1,0,1:2:0:0:
177,79,25827,2,0,P|172:44|171:11,1,62.9999980773926
335,134,26271,1,8,0:2:0:0:
340,146,26382,2,0,P|360:147|380:149,1,31.4999990386963
512,204,26716,5,0,1:2:0:0:
430,215,26938,1,0,1:2:0:0:
348,226,27160,1,8,0:2:0:0:
430,215,27382,1,0,1:2:0:0:
512,289,27604,2,0,P|510:320|506:351,1,62.9999980773926,0|0,0:0|1:2,0:0:0:0:
512,208,28049,1,8,0:2:0:0:
512,208,28160,1,0,0:0:0:0:
512,208,28271,1,0,0:0:0:0:
451,134,28493,6,0,P|428:82|421:3,1,125.999996154785,0|8,1:2|0:2,0:0:0:0:
512,55,29160,1,0,1:2:0:0:
449,134,29382,1,0,0:0:0:0:
449,134,29604,1,0,0:0:0:0:
348,107,29827,1,8,0:2:0:0:
343,119,29938,2,0,P|322:120|302:122,1,31.4999990386963
236,169,30271,1,0,1:2:0:0:
236,169,30493,6,0,P|247:212|251:247,2,62.9999980773926,0|8|0,1:2|0:2|1:2,0:0:0:0:
156,127,31160,2,0,P|145:84|141:49,1,62.9999980773926,0|0,0:0|1:2,0:0:0:0:
113,255,31604,2,0,P|107:223|99:193,1,62.9999980773926,8|0,0:2|0:0,0:0:0:0:
0,356,32049,6,0,P|24:374|57:359,1,62.9999980773926,2|0,1:2|0:0,0:0:0:0:
75,118,32493,1,8,0:2:0:0:
89,282,32716,6,0,P|108:276|120:261,1,31.4999990386963,2|0,1:2|0:0,0:0:0:0:
99,193,32938,2,0,P|82:238|93:290,1,94.499997116089
127,351,33382,2,0,L|215:356,1,80.9999975280763,8|0,0:2|0:0,0:0:0:0:
430,373,33827,6,0,P|414:354|409:333,1,40.4999987640381,2|0,1:2|0:0,0:0:0:0:
493,124,34049,1,2,1:2:0:0:
491,316,34271,1,10,0:2:0:0:
312,297,34493,2,0,P|370:256|429:261,1,121.499996292114,2|0,1:2|0:0,0:0:0:0:
505,278,34938,6,0,P|501:297|491:314,1,40.4999987640381,0|0,1:2|0:0,0:0:0:0:
341,370,35160,1,8,0:2:0:0:
229,240,35382,1,0,0:0:0:0:
257,352,35604,6,0,P|296:376|360:375,1,80.9999975280763,2|0,1:2|0:0,0:0:0:0:
418,257,36049,1,8,0:2:0:0:
250,125,36271,2,0,P|266:111|288:103,1,40.4999987640381,2|0,1:2|0:0,0:0:0:0:
369,132,36493,2,0,P|310:141|239:119,1,121.499996292114
184,75,36938,2,0,P|165:117|164:169,1,80.9999975280763,8|0,0:2|0:0,0:0:0:0:
118,374,37382,5,0,1:2:0:0:
229,240,37604,2,0,P|199:222|160:220,1,40.4999987640381,2|0,1:2|0:0,0:0:0:0:
42,253,37827,2,0,P|35:295|65:346,1,80.9999975280763,10|2,0:2|1:2,0:0:0:0:
294,280,38271,6,0,P|310:250|307:208,1,40.4999987640381,2|0,0:2|0:0,0:0:0:0:
115,213,38493,1,2,1:2:0:0:
118,374,38716,2,0,P|180:323|222:316,1,121.499996292114,10|0,0:2|0:0,0:0:0:0:
365,343,39160,6,0,P|329:360|288:363,2,80.9999975280763,2|0|8,1:2|0:0|0:2,0:0:0:0:
466,214,39827,2,0,P|476:194|484:152,1,40.4999987640381,2|0,1:2|0:0,0:0:0:0:
386,126,40049,2,0,P|413:173|483:220,1,121.499996292114
503,284,40493,2,0,P|515:336|508:367,1,80.9999975280763,8|0,0:2|0:0,0:0:0:0:
299,178,40938,6,0,P|299:160|286:124,1,40.4999987640381,2|0,1:2|0:0,0:0:0:0:
165,14,41160,1,2,1:2:0:0:
104,63,41382,6,0,P|145:88|155:89,1,40.4999987640381,10|0,0:2|0:0,0:0:0:0:
376,91,41604,2,0,P|307:54|229:70,1,161.999995056153,2|0,1:2|1:2,0:0:0:0:
32,108,42271,2,0,P|18:62|27:24,1,80.9999975280763,8|0,0:2|0:0,0:0:0:0:
180,200,42716,6,0,P|144:184|104:182,2,80.9999975280763,2|0|8,1:2|0:0|0:2,0:0:0:0:
245,249,43382,2,0,P|257:267|262:291,1,40.4999987640381,2|0,1:2|0:0,0:0:0:0:
239,366,43604,2,0,P|228:321|250:240,1,121.499996292114
259,170,44049,2,0,P|270:136|262:85,1,80.9999975280763,8|0,0:2|0:0,0:0:0:0:
24,30,44493,1,0,1:2:0:0:
32,108,44716,6,0,P|49:118|69:121,1,40.4999987640381,2|0,1:2|0:0,0:0:0:0:
135,66,44938,2,0,P|174:42|198:43,1,40.4999987640381,10|0,0:2|0:0,0:0:0:0:
331,132,45160,1,2,1:2:0:0:
367,202,45382,6,0,P|403:184|413:172,1,40.4999987640381,2|0,0:2|0:0,0:0:0:0:
512,19,45604,1,2,1:2:0:0:
499,117,45827,6,0,P|443:75|423:16,1,121.499996292114,10|0,0:2|0:0,0:0:0:0:
425,24,46271,6,0,L|402:192,1,161.999995056153,0|10,1:2|0:2,0:0:0:0:
428,384,46938,1,2,1:2:0:0:
482,283,47160,2,0,P|441:264|385:274,1,80.9999975280763,2|0,0:2|0:0,0:0:0:0:
482,283,47604,2,0,P|417:307|324:293,1,161.999995056153,10|0,0:2|1:2,0:0:0:0:
273,204,48271,5,2,1:2:0:0:
264,344,48493,2,0,P|221:364|182:364,1,80.9999975280763,10|2,0:2|1:2,0:0:0:0:
25,302,48938,2,0,P|10:258|20:220,1,80.9999975280763,2|0,0:2|1:2,0:0:0:0:
111,347,49382,2,0,P|92:286|13:224,1,161.999995056153,10|0,0:2|1:2,0:0:0:0:
5,141,50049,5,2,0:2:0:0:
94,102,50271,1,10,0:2:0:0:
102,245,50493,1,2,1:2:0:0:
247,189,50716,2,0,P|264:153|236:185,1,121.499996292114,2|0,0:2|0:0,0:0:0:0:
284,261,51160,2,0,P|226:206|151:177,1,161.999995056153,10|0,0:2|1:2,0:0:0:0:
5,141,51827,5,2,1:2:0:0:
155,184,52049,1,10,0:2:0:0:
289,274,52271,1,2,1:2:0:0:
322,357,52493,2,0,P|313:320|284:270,1,80.9999975280763,2|2,0:2|1:2,0:0:0:0:
92,301,52938,2,0,P|135:271|204:254,1,121.499996292114,10|0,0:2|0:0,0:0:0:0:
296,288,53382,6,0,P|335:283|368:261,1,80.9999975280763,0|2,1:2|0:2,0:0:0:0:
315,89,53827,1,10,0:2:0:0:
222,103,54049,1,2,1:2:0:0:
365,178,54271,6,0,P|413:185|449:179,1,80.9999975280763,2|0,0:2|0:0,0:0:0:0:
315,89,54716,2,0,P|349:129|453:181,1,161.999995056153,10|0,0:2|1:2,0:0:0:0:
512,122,55382,5,2,1:2:0:0:
494,31,55604,2,0,P|511:85|509:136,1,80.9999975280763,10|2,0:2|1:2,0:0:0:0:
457,272,56049,2,0,P|453:318|488:381,1,80.9999975280763,2|0,0:2|1:2,0:0:0:0:
457,272,56493,2,0,P|428:309|315:373,1,161.999995056153,10|0,0:2|1:2,0:0:0:0:
203,374,57160,5,2,0:2:0:0:
99,314,57382,1,10,0:2:0:0:
94,194,57604,1,2,1:2:0:0:
268,139,57827,6,0,P|270:173|254:135,1,121.499996292114,2|0,0:2|0:0,0:0:0:0:
323,92,58271,2,0,P|279:105|147:102,1,161.999995056153,10|0,0:2|1:2,0:0:0:0:
68,38,58938,5,0,1:2:0:0:
160,113,59160,1,10,0:2:0:0:
91,201,59382,1,2,1:2:0:0:
104,317,59604,1,2,0:2:0:0:
209,378,59827,5,2,1:2:0:0:
331,368,60049,2,0,P|386:381|456:372,1,121.499996292114,10|0,0:2|0:0,0:0:0:0:
512,327,60493,6,0,L|366:302,1,144,2|8,1:2|0:2,0:0:0:0:
267,311,61160,1,2,1:2:0:0:
267,311,61271,1,0,0:0:0:0:
267,311,61382,6,0,L|334:286,1,72
158,384,61827,1,10,0:2:0:0:
121,383,61938,2,0,L|179:341,1,72,0|0,1:2|0:0,0:0:0:0:
173,259,62271,1,2,1:2:0:0:
85,250,62493,1,0,1:2:0:0:
0,241,62716,1,8,0:2:0:0:
85,250,62938,5,2,1:2:0:0:
85,250,63049,1,0,0:0:0:0:
85,250,63160,2,0,L|38:305,1,72,0|0,0:0|1:2,0:0:0:0:
87,151,63604,1,10,0:2:0:0:
51,165,63716,2,0,L|81:99,1,72,0|0,1:2|0:0,0:0:0:0:
12,0,64049,2,0,L|0:70,1,72,2|0,1:2|0:0,0:0:0:0:
152,87,64493,6,0,L|81:99,1,72,8|0,0:2|1:2,0:0:0:0:
246,77,64938,2,0,L|175:64,1,72
365,62,65382,1,10,0:2:0:0:
339,41,65493,2,0,L|269:54,1,72,0|0,1:2|0:0,0:0:0:0:
246,77,65827,5,2,1:2:0:0:
266,170,66049,1,0,1:2:0:0:
286,263,66271,1,8,0:2:0:0:
266,170,66493,1,2,1:2:0:0:
266,170,66604,1,0,0:0:0:0:
266,170,66716,2,0,L|179:161,1,72,0|0,0:0|1:2,0:0:0:0:
343,134,67160,1,10,0:2:0:0:
361,159,67271,6,0,L|456:174,1,72,0|0,1:2|0:0,0:0:0:0:
502,207,67604,2,0,P|479:248|478:304,2,72,2|0|8,1:2|0:0|0:2,0:0:0:0:
416,88,68271,2,0,P|408:53|388:22,1,72,0|0,1:2|0:0,0:0:0:0:
388,22,68716,1,0,0:0:0:0:
485,126,68938,1,10,0:2:0:0:
461,149,69049,2,0,L|378:158,1,72,0|0,1:2|0:0,0:0:0:0:
329,207,69382,5,2,1:2:0:0:
242,190,69604,1,0,1:2:0:0:
155,173,69827,1,8,0:2:0:0:
242,190,70049,1,2,1:2:0:0:
273,274,70271,1,0,0:0:0:0:
206,108,70493,1,2,1:2:0:0:
79,202,70716,1,10,0:2:0:0:
56,214,70827,2,0,L|47:293,1,72,0|0,1:2|0:0,0:0:0:0:
0,346,71160,1,2,1:2:0:0:
0,346,71604,5,8,0:2:0:0:
92,384,71827,1,0,1:2:0:0:
163,314,72049,1,0,0:0:0:0:
163,314,72271,1,0,0:0:0:0:
58,197,72493,1,8,0:2:0:0:
63,228,72604,2,0,L|75:312,1,72,0|0,1:2|0:0,0:0:0:0:
92,384,72938,5,0,1:2:0:0:
0,346,73160,1,2,1:2:0:0:
0,346,73382,1,10,0:2:0:0:
92,384,73604,1,2,1:2:0:0:
0,346,73827,1,2,0:2:0:0:
166,315,74049,1,2,1:2:0:0:
222,174,74271,1,10,0:2:0:0:
195,153,74382,2,0,L|112:139,1,72,0|0,1:2|0:0,0:0:0:0:
73,205,74716,6,0,P|12:185|21:73,1,161.999995056153,0|10,1:2|0:2,0:0:0:0:
124,141,75382,1,2,1:2:0:0:
228,14,75604,2,0,P|242:52|235:103,1,80.9999975280763,2|0,0:2|0:0,0:0:0:0:
228,14,76049,2,0,P|214:70|223:179,1,161.999995056153,10|0,0:2|1:2,0:0:0:0:
339,268,76716,1,2,1:2:0:0:
206,384,76938,2,0,P|218:345|263:317,1,80.9999975280763,10|2,0:2|1:2,0:0:0:0:
443,244,77382,2,0,P|482:256|510:301,1,80.9999975280763,2|0,0:2|1:2,0:0:0:0:
379,375,77827,6,0,P|424:343|438:231,1,161.999995056153,10|0,0:2|1:2,0:0:0:0:
372,183,78493,1,2,0:2:0:0:
512,155,78716,1,10,0:2:0:0:
377,165,78938,1,2,1:2:0:0:
299,11,79160,6,0,B|233:29|233:29|301:41,1,121.499996292114,2|0,0:2|0:0,0:0:0:0:
370,52,79604,2,0,P|306:61|212:107,1,161.999995056153,10|0,0:2|1:2,0:0:0:0:
0,0,80271,2,0,P|19:24|25:49,1,40.4999987640381,2|0,1:2|0:0,0:0:0:0:
98,50,80493,2,0,P|94:80|81:102,1,40.4999987640381,10|0,0:2|0:0,0:0:0:0:
0,154,80716,1,2,1:2:0:0:
158,199,80938,1,2,0:2:0:0:
78,180,81160,2,0,P|60:206|55:230,1,40.4999987640381,2|0,1:2|0:0,0:0:0:0:
0,346,81382,6,0,P|57:293|53:206,1,161.999995056153,10|0,0:2|1:2,0:0:0:0:
0,154,82049,1,2,0:2:0:0:
137,240,82271,1,10,0:2:0:0:
0,154,82493,1,2,1:2:0:0:
186,166,82716,2,0,P|193:120|178:81,1,80.9999975280763,2|0,0:2|0:0,0:0:0:0:
186,166,83160,2,0,P|251:179|325:260,1,161.999995056153,10|0,0:2|1:2,0:0:0:0:
241,384,83827,1,2,1:2:0:0:
388,293,84049,2,0,P|347:322|299:318,1,80.9999975280763,10|2,0:2|1:2,0:0:0:0:
186,167,84493,2,0,P|180:116|207:77,1,80.9999975280763,2|0,0:2|1:2,0:0:0:0:
47,126,84938,6,0,P|86:167|190:164,1,161.999995056153,10|0,0:2|1:2,0:0:0:0:
268,140,85604,1,2,0:2:0:0:
171,0,85827,1,10,0:2:0:0:
269,158,86049,1,2,1:2:0:0:
439,83,86271,2,0,P|399:90|435:92,1,121.499996292114,2|0,0:2|0:0,0:0:0:0:
402,11,86716,6,0,P|357:35|366:111,1,121.499996292114,10|0,0:2|0:0,0:0:0:0:
408,159,87160,1,0,1:2:0:0:
408,159,87382,2,0,P|429:166|450:195,1,40.4999987640381,0|0,1:2|0:0,0:0:0:0:
512,235,87604,2,0,P|516:256|501:289,1,40.4999987640381,10|0,0:2|0:0,0:0:0:0:
453,384,87827,1,2,1:2:0:0:
379,283,88049,1,2,0:2:0:0:
336,381,88271,6,0,P|360:374|386:354,1,40.4999987640381,2|0,1:2|0:0,0:0:0:0:
512,237,88493,1,10,0:2:0:0:
512,237,88938,6,0,P|451:277|375:283,1,144,2|8,1:2|0:2,0:0:0:0:
229,235,89604,1,2,1:2:0:0:
229,256,89716,1,0,0:0:0:0:
240,272,89827,2,0,P|286:276|326:257,1,72
512,89,90271,5,10,0:2:0:0:
500,112,90382,2,0,P|444:98|395:62,1,108,0|2,1:2|1:2,0:0:0:0:
195,59,90938,1,0,1:2:0:0:
260,123,91160,2,0,P|304:111|317:98,1,36,8|0,0:2|0:0,0:0:0:0:
393,164,91382,2,0,P|350:164|252:115,1,144,2|0,1:2|1:2,0:0:0:0:
106,69,92049,1,10,0:2:0:0:
106,69,92160,6,0,P|89:138|87:187,1,90,0|0,1:2|0:0,0:0:0:0:
96,190,92493,5,2,1:2:0:0:
148,182,92604,1,0,0:0:0:0:
185,224,92716,1,0,0:0:0:0:
172,246,92827,1,0,0:0:0:0:
178,282,92938,6,0,P|217:301|262:309,1,72,8|0,0:2|1:2,0:0:0:0:
489,247,93382,2,0,P|487:282|477:317,1,72
389,253,93827,5,10,0:2:0:0:
392,272,93938,2,0,P|360:255|325:246,1,72,0|0,1:2|0:0,0:0:0:0:
264,190,94271,6,0,P|250:144|250:44,1,144,2|8,1:2|0:2,0:0:0:0:
422,35,94938,2,0,P|436:81|436:181,1,144,2|0,1:2|1:2,0:0:0:0:
285,353,95604,2,0,P|213:328|154:333,1,108,10|0,0:2|0:0,0:0:0:0:
100,292,96049,6,0,P|92:253|93:224,2,36,2|0|0,1:2|0:0|0:0,0:0:0:0:
38,384,96493,2,0,P|49:316|114:243,1,144,8|0,0:2|0:0,0:0:0:0:
241,227,97160,1,0,0:0:0:0:
417,276,97382,5,10,0:2:0:0:
417,276,97493,2,0,P|343:289|297:264,1,108,0|2,1:2|1:2,0:0:0:0:
220,143,98049,1,0,1:2:0:0:
153,89,98271,2,0,P|138:138|145:190,1,72,8|2,0:2|1:2,0:0:0:0:
173,294,98716,1,0,0:0:0:0:
243,66,98938,6,0,P|263:51|287:42,1,36,2|0,1:2|0:0,0:0:0:0:
349,60,99160,2,0,P|305:70|223:59,1,108,10|0,0:2|0:0,0:0:0:0:
176,8,99604,6,0,P|120:3|20:37,1,144,2|8,1:2|0:2,0:0:0:0:
35,165,100271,2,0,P|102:138|158:81,1,144,0|0,1:2|0:0,0:0:0:0:
207,181,100938,1,8,0:2:0:0:
189,174,101049,2,0,P|210:218|245:243,1,72,0|0,1:2|0:0,0:0:0:0:
302,280,101382,6,0,P|319:219|321:184,1,90,0|2,1:2|1:2,0:0:0:0:
242,43,101827,1,10,0:2:0:0:
325,187,102049,1,2,1:2:0:0:
266,357,102271,1,2,0:2:0:0:
124,384,102493,5,10,1:2:0:0:
93,352,102604,1,8,0:2:0:0:
88,316,102716,1,10,0:2:0:0:
115,284,102827,1,8,0:2:0:0:
129,251,102938,1,8,0:2:0:0:
121,206,103049,1,8,0:2:0:0:
88,164,103160,6,0,P|192:158|296:211,1,215.999993408203,2|10,1:2|0:2,0:0:0:0:
425,330,103827,2,0,P|384:347|356:344,1,53.9999983520508,0|0,1:2|0:0,0:0:0:0:
274,329,104049,2,0,P|374:306|452:362,1,161.999995056153,2|0,0:2|0:0,0:0:0:0:
494,384,104493,6,0,P|514:324|504:248,1,107.999996704102,10|0,0:2|0:0,0:0:0:0:
438,30,104938,6,0,P|428:62|431:100,1,53.9999983520508,2|0,1:2|0:0,0:0:0:0:
424,329,105160,2,0,P|402:275|400:242,1,53.9999983520508,0|0,1:2|0:0,0:0:0:0:
317,152,105382,2,0,P|359:167|397:167,1,67.5000025749208,10|0,0:2|0:0,0:0:0:0:
484,212,105604,5,0,1:2:0:0:
512,179,105716,1,0,0:0:0:0:
494,132,105827,2,0,P|398:194|226:193,1,270.000010299683,2|8,0:2|0:2,0:0:0:0:
114,281,106493,6,0,P|141:295|188:301,1,53.9999983520508
257,333,106716,2,0,P|161:316|32:358,1,215.999993408203,2|10,1:2|0:2,0:0:0:0:
66,214,107382,2,0,P|62:185|35:146,1,53.9999983520508,0|0,1:2|0:0,0:0:0:0:
90,77,107604,6,0,B|180:77|180:77|110:106,1,161.999995056153,2|0,0:2|0:0,0:0:0:0:
47,11,108049,2,0,P|109:50|254:31,1,215.999993408203,10|0,0:2|1:2,0:0:0:0:
378,187,108716,6,0,P|336:177|313:153,1,53.9999983520508,2|0,1:2|0:0,0:0:0:0:
245,36,108938,2,0,P|257:77|248:124,1,53.9999983520508,10|0,0:2|0:0,0:0:0:0:
230,304,109160,2,0,P|265:323|284:323,1,53.9999983520508,2|0,1:2|0:0,0:0:0:0:
374,299,109382,6,0,P|320:254|256:249,1,107.999996704102,2|0,0:2|1:2,0:0:0:0:
374,299,109827,2,0,P|295:334|149:271,1,242.999992584229,10|0,0:2|0:0,0:0:0:0:
205,222,110271,6,0,P|165:200|90:211,1,107.999996704102,2|0,1:2|0:0,0:0:0:0:
2,334,110716,1,10,0:2:0:0:
151,384,110938,2,0,P|67:376|8:335,1,135.000005149842,0|2,1:2|0:2,0:0:0:0:
6,209,111382,5,0,0:0:0:0:
74,90,111604,2,0,P|175:90|266:132,1,202.500007724762,10|0,0:2|0:0,0:0:0:0:
268,211,112049,6,0,P|314:211|343:196,1,67.5000025749208,2|0,1:2|0:0,0:0:0:0:
501,55,112271,2,0,P|512:111|504:143,1,67.5000025749208,0|0,1:2|0:0,0:0:0:0:
347,366,112493,2,0,P|346:332|356:300,1,67.5000025749208,10|0,0:2|0:0,0:0:0:0:
437,223,112716,1,0,1:2:0:0:
462,260,112827,1,0,0:0:0:0:
445,297,112938,6,0,P|426:250|441:75,1,202.500007724762,2|0,0:2|0:0,0:0:0:0:
419,18,113382,2,0,P|360:5|275:36,1,135.000005149842,8|0,0:2|0:0,0:0:0:0:
442,302,113827,6,0,P|364:339|191:325,1,215.999993408203,2|10,1:2|0:2,0:0:0:0:
41,252,114493,2,0,P|37:195|44:178,1,53.9999983520508,0|0,1:2|0:0,0:0:0:0:
95,107,114716,2,0,P|89:181|24:264,1,161.999995056153,2|0,0:2|0:0,0:0:0:0:
39,340,115160,6,0,P|98:370|153:370,1,107.999996704102,10|0,0:2|0:0,0:0:0:0:
256,196,115604,5,0,1:2:0:0:
205,58,115827,6,0,P|223:85|233:118,1,67.5000025749208,2|0,1:2|0:0,0:0:0:0:
142,294,116049,2,0,P|157:264|180:239,1,67.5000025749208,10|0,0:2|0:0,0:0:0:0:
398,239,116271,2,0,P|364:241|331:233,1,67.5000025749208,2|0,1:2|0:0,0:0:0:0:
2,80,116493,6,0,P|78:35|164:39,1,135.000005149842,2|0,0:2|1:2,0:0:0:0:
314,133,116938,2,0,P|393:154|480:139,1,161.999995056153,10|0,0:2|0:0,0:0:0:0:
512,73,117382,5,2,1:2:0:0:
512,73,117604,1,0,0:0:0:0:
471,142,117827,1,8,0:2:0:0:
393,125,118049,1,2,1:2:0:0:
386,46,118271,2,0,P|420:37|445:-2,1,72
321,91,118716,1,8,0:2:0:0:
317,104,118827,1,0,1:2:0:0:
75,192,119160,5,0,1:2:0:0:
75,192,119382,2,0,L|146:192,1,72,2|8,1:2|0:2,0:0:0:0:
296,192,119827,2,0,L|224:192,1,72,2|0,1:2|0:0,0:0:0:0:
296,192,120271,2,0,L|348:192,1,36,10|8,0:2|0:2,0:0:0:0:
432,244,120493,2,0,L|396:244,1,36,8|8,0:2|1:2,0:0:0:0:
296,184,120716,2,0,L|348:184,1,36,8|8,0:2|0:2,0:0:0:0:
204,320,120938,5,2,1:2:0:0:
204,320,121160,1,0,0:0:0:0:
245,251,121383,1,8,0:2:0:0:
323,268,121605,1,2,1:2:0:0:
330,347,121827,2,0,P|296:356|271:395,1,72
395,302,122272,1,8,0:2:0:0:
399,289,122383,1,0,1:2:0:0:
256,11,122716,5,0,1:2:0:0:
256,11,122938,2,0,L|256:82,1,72,2|8,1:2|0:2,0:0:0:0:
256,232,123383,2,0,L|256:160,1,72,2|0,1:2|0:0,0:0:0:0:
256,232,123827,2,0,L|256:284,1,36,10|8,0:2|0:2,0:0:0:0:
204,368,124049,2,0,L|203:332,1,36,8|8,0:2|1:2,0:0:0:0:
264,232,124272,2,0,L|264:284,1,36,8|8,0:2|0:2,0:0:0:0:
343,281,124493,6,0,P|403:289|468:378,1,161.999995056153,0|8,1:2|0:2,0:0:0:0:
511,229,125160,1,0,1:2:0:0:
511,229,125382,2,0,P|487:272|452:272,1,80.9999975280763
373,122,125827,1,8,0:2:0:0:
344,98,125938,2,0,L|333:-2,1,80.9999975280763,0|0,1:2|0:0,0:0:0:0:
366,11,126271,1,0,1:2:0:0:
366,11,126493,1,0,1:2:0:0:
405,203,126716,1,8,0:2:0:0:
512,192,126938,1,0,1:2:0:0:
512,192,127382,5,8,0:2:0:0:
489,232,127493,1,8,0:2:0:0:
447,249,127604,1,8,0:2:0:0:
421,226,127716,1,8,1:2:0:0:
374,218,127827,1,8,0:2:0:0:
336,245,127938,1,8,0:2:0:0:
285,247,128049,6,0,P|297:202|293:114,1,135,0|0,1:2|0:0,0:0:0:0:
281,85,128493,1,10,0:2:0:0:
244,230,128716,2,0,P|275:239|298:265,1,45,2|0,1:2|0:0,0:0:0:0:
165,384,128938,2,0,P|141:337|177:261,1,135,2|0,0:2|0:0,0:0:0:0:
190,290,129382,6,0,P|130:303|48:329,1,135,10|0,0:2|0:0,0:0:0:0:
2,274,129827,2,0,P|6:243|6:215,1,45,0|0,1:2|0:0,0:0:0:0:
0,148,130049,1,2,1:2:0:0:
145,285,130271,2,0,P|167:286|189:289,1,45,10|0,0:2|0:0,0:0:0:0:
286,384,130493,2,0,P|271:337|272:273,1,90,2|2,1:2|0:2,0:0:0:0:
352,267,130938,1,0,1:2:0:0:
296,82,131160,6,0,L|279:228,1,135,10|0,0:2|0:0,0:0:0:0:
259,206,131604,2,0,L|207:201,1,45,0|0,1:2|0:0,0:0:0:0:
405,0,132049,1,10,0:2:0:0:
512,76,132271,2,0,L|460:71,1,45,2|0,1:2|0:0,0:0:0:0:
322,1,132493,2,0,P|401:24|432:86,1,135,2|0,0:2|0:0,0:0:0:0:
413,86,132938,2,0,P|396:131|496:144,1,180,10|0,0:2|1:2,0:0:0:0:
492,150,133604,6,0,L|435:155,1,45,2|0,1:2|0:0,0:0:0:0:
385,209,133827,2,0,L|340:205,1,45,10|0,0:2|0:0,0:0:0:0:
234,263,134049,2,0,L|278:259,1,45,2|0,1:2|0:0,0:0:0:0:
406,381,134271,2,0,P|420:340|422:279,1,90,2|2,0:2|1:2,0:0:0:0:
247,93,134716,2,0,P|250:137|264:180,1,90,10|0,0:2|0:0,0:0:0:0:
496,5,135160,6,0,P|465:46|380:58,1,135,0|0,1:2|0:0,0:0:0:0:
363,37,135604,1,10,0:2:0:0:
512,47,135827,2,0,P|500:24|497:-3,1,45,2|0,1:2|0:0,0:0:0:0:
327,120,136049,2,0,P|260:128|192:147,1,135,2|0,0:2|0:0,0:0:0:0:
169,147,136493,6,0,P|235:123|237:39,1,135,10|0,0:2|0:0,0:0:0:0:
196,5,136938,2,0,P|169:14|139:15,1,45,0|0,1:2|0:0,0:0:0:0:
77,0,137160,1,2,1:2:0:0:
169,147,137382,2,0,P|181:172|186:202,1,45,10|0,0:2|0:0,0:0:0:0:
180,265,137604,2,0,P|141:304|137:348,1,90,2|2,1:2|0:2,0:0:0:0:
206,384,138049,1,0,1:2:0:0:
113,214,138271,6,0,P|62:183|0:235,1,135,10|0,0:2|0:0,0:0:0:0:
0,262,138716,2,0,L|11:317,1,45,0|0,1:2|0:0,0:0:0:0:
194,3,139160,1,10,0:2:0:0:
124,66,139382,2,0,L|113:121,1,45,2|0,1:2|0:0,0:0:0:0:
43,151,139604,2,0,P|94:138|152:203,1,135,2|0,0:2|0:0,0:0:0:0:
184,186,140049,6,0,P|141:243|137:366,1,180,10|0,0:2|1:2,0:0:0:0:
131,348,140716,2,0,L|188:343,1,45,0|0,1:2|0:0,0:0:0:0:
238,290,140939,2,0,L|282:293,1,45,10|0,0:2|0:0,0:0:0:0:
389,236,141161,2,0,L|344:239,1,45,2|0,1:2|0:0,0:0:0:0:
495,384,141382,6,0,P|462:352|446:305,1,90,2|2,0:2|1:2,0:0:0:0:
512,112,141827,2,0,P|495:153|463:184,1,90,10|0,0:2|0:0,0:0:0:0:
255,195,142271,6,0,P|256:118|297:45,1,144,2|8,1:2|0:2,0:0:0:0:
460,71,142938,1,2,1:2:0:0:
484,85,143049,1,0,0:0:0:0:
500,107,143160,6,0,P|491:54|458:2,1,108
364,51,143604,5,10,0:2:0:0:
372,65,143716,2,0,P|311:67|275:54,1,90,0|0,1:2|0:0,0:0:0:0:
211,0,144049,5,2,1:2:0:0:
211,0,144271,1,0,1:2:0:0:
169,97,144493,2,0,P|203:84|218:81,1,36,8|0,0:2|0:0,0:0:0:0:
270,129,144716,2,0,P|216:121|168:96,1,108,2|0,1:2|0:0,0:0:0:0:
102,33,145160,5,0,1:2:0:0:
8,211,145382,1,10,0:2:0:0:
0,191,145493,2,0,P|41:172|81:168,1,72,0|0,1:2|0:0,0:0:0:0:
99,163,145827,5,2,1:2:0:0:
133,173,145938,1,2,0:0:0:0:
148,212,146049,1,2,0:0:0:0:
150,254,146160,1,2,0:0:0:0:
178,285,146271,2,0,P|228:297|280:290,1,72,8|0,0:2|1:2,0:0:0:0:
504,262,146716,5,0,0:0:0:0:
504,262,146827,1,0,0:0:0:0:
504,262,146938,1,0,0:0:0:0:
304,376,147160,5,10,0:2:0:0:
289,364,147271,2,0,P|346:335|390:330,1,90,0|0,1:2|0:0,0:0:0:0:
435,381,147604,2,0,P|488:364|513:340,1,90,2|0,1:2|1:2,0:0:0:0:
512,175,148049,1,8,0:2:0:0:
380,96,148271,5,2,1:2:0:0:
376,118,148382,1,0,0:0:0:0:
390,138,148493,2,0,P|435:114|486:112,1,72,0|0,0:0|1:2,0:0:0:0:
438,246,148938,5,10,0:2:0:0:
431,230,149049,2,0,P|359:227|310:192,1,99.0000030212403,0|0,1:2|0:0,0:0:0:0:
274,157,149382,6,0,P|264:126|262:101,2,49.5000015106202,2|0|0,1:2|0:0|0:0,0:0:0:0:
322,300,149827,1,8,0:2:0:0:
209,239,150049,2,0,P|247:178|261:108,1,144,0|0,1:2|0:0,0:0:0:0:
70,92,150716,5,10,0:2:0:0:
70,78,150827,2,0,P|43:119|33:168,1,90,0|0,1:2|0:0,0:0:0:0:
138,289,151160,2,0,P|108:260|56:240,1,90,2|0,1:2|1:2,0:0:0:0:
6,358,151604,1,8,0:2:0:0:
187,375,151827,6,0,P|210:324|207:208,1,135,2|0,1:2|0:0,0:0:0:0:
269,182,152271,2,0,P|304:210|340:211,1,45,2|0,1:2|0:0,0:0:0:0:
441,212,152493,2,0,P|385:185|261:184,1,180,10|2,0:2|1:2,0:0:0:0:
456,313,153382,5,8,0:2:0:0:
456,313,153604,2,0,P|376:353|287:358,1,180,0|0,1:2|0:0,0:0:0:0:
118,203,154271,1,8,0:2:0:0:
124,183,154382,2,0,P|167:220|196:319,1,135,0|0,1:2|1:2,0:0:0:0:
192,384,154938,5,2,1:2:0:0:
71,384,155160,1,10,0:2:0:0:
9,265,155382,1,2,1:2:0:0:
29,138,155604,1,2,0:2:0:0:
194,81,155827,1,10,1:2:0:0:
212,87,155938,5,8,0:2:0:0:
208,122,156049,1,10,0:2:0:0:
230,163,156160,1,8,0:2:0:0:
273,177,156271,1,8,0:2:0:0:
322,170,156382,1,8,0:2:0:0:
350,118,156493,6,0,P|399:202|411:332,1,215.999993408203,2|10,1:2|0:2,0:0:0:0:
159,298,157160,2,0,P|138:280|112:272,1,53.9999983520508,0|0,1:2|0:0,0:0:0:0:
14,359,157382,6,0,P|72:352|166:291,1,161.999995056153,2|0,0:2|0:0,0:0:0:0:
230,248,157827,2,0,P|281:254|344:290,1,107.999996704102,10|0,0:2|0:0,0:0:0:0:
510,222,158271,6,0,P|504:185|472:144,1,53.9999983520508,2|0,1:2|0:0,0:0:0:0:
305,62,158493,2,0,P|281:109|283:139,1,53.9999983520508,0|0,1:2|0:0,0:0:0:0:
351,328,158716,2,0,P|336:304|330:279,1,53.9999983520508,10|0,0:2|0:0,0:0:0:0:
377,182,158938,5,0,1:2:0:0:
411,177,159049,1,0,0:0:0:0:
425,206,159160,2,0,P|383:172|357:125,1,107.999996704102,2|0,0:2|1:2,0:0:0:0:
512,384,159604,2,0,P|465:344|416:325,1,107.999996704102,8|0,0:2|0:0,0:0:0:0:
410,330,159938,1,0,0:0:0:0:
403,340,160049,5,2,1:2:0:0:
177,309,160271,2,0,L|124:297,1,53.9999983520508
16,281,160493,5,10,0:2:0:0:
326,326,160716,1,0,1:2:0:0:
177,309,160938,2,0,B|104:290|104:290|213:291,1,161.999995056153,2|0,0:2|0:0,0:0:0:0:
256,346,161382,6,0,P|151:309|80:229,1,215.999993408203,10|0,0:2|1:2,0:0:0:0:
362,229,162049,5,2,1:2:0:0:
351,240,162160,1,0,0:0:0:0:
342,239,162271,2,0,P|325:218|316:192,1,53.9999983520508,10|0,0:2|0:0,0:0:0:0:
375,25,162493,2,0,P|412:16|444:22,1,53.9999983520508,2|0,1:2|0:0,0:0:0:0:
512,140,162716,6,0,P|441:164|367:151,1,135.000005149842,2|0,0:2|1:2,0:0:0:0:
511,139,163161,2,0,P|423:60|304:60,1,242.999992584229,10|0,0:2|0:0,0:0:0:0:
259,129,163604,6,0,P|197:122|146:91,1,107.999996704102,2|0,1:2|0:0,0:0:0:0:
36,7,164049,1,10,0:2:0:0:
33,164,164271,6,0,P|65:143|83:123,1,53.9999983520508,0|0,1:2|0:0,0:0:0:0:
36,7,164493,2,0,P|17:93|33:165,1,161.999995056153,2|0,0:2|0:0,0:0:0:0:
69,366,164938,6,0,P|122:287|143:180,1,202.500007724762,10|0,0:2|0:0,0:0:0:0:
156,100,165382,2,0,P|190:87|234:88,1,67.5000025749208,2|0,1:2|0:0,0:0:0:0:
254,172,165604,2,0,P|286:187|321:192,1,67.5000025749208,0|0,1:2|0:0,0:0:0:0:
504,49,165827,2,0,P|469:55|438:72,1,67.5000025749208,10|0,0:2|0:0,0:0:0:0:
494,228,166049,5,0,1:2:0:0:
509,214,166160,1,0,0:0:0:0:
506,193,166271,2,0,P|445:154|335:153,1,135.000005149842,2|0,0:2|1:2,0:0:0:0:
474,354,166716,2,0,P|408:342|352:305,1,135.000005149842,8|0,0:2|0:0,0:0:0:0:
347,285,167049,1,0,0:0:0:0:
361,268,167160,5,2,1:2:0:0:
178,297,167382,2,0,L|125:309,1,53.9999983520508
42,267,167604,1,10,0:2:0:0:
272,332,167827,6,0,P|285:356|290:383,1,53.9999983520508,0|0,1:2|0:0,0:0:0:0:
178,297,168049,2,0,B|105:316|105:316|191:315,1,161.999995056153,2|0,0:2|0:0,0:0:0:0:
272,332,168493,6,0,P|141:315|10:243,1,242.999992584229,10|0,0:2|0:0,0:0:0:0:
28,217,168938,5,0,1:2:0:0:
393,206,169160,6,0,P|373:178|344:161,1,67.5000025749208,2|0,1:2|0:0,0:0:0:0:
289,43,169382,2,0,P|275:73|275:107,1,67.5000025749208,10|0,0:2|0:0,0:0:0:0:
200,214,169604,2,0,P|233:210|262:194,1,67.5000025749208,2|0,1:2|0:0,0:0:0:0:
510,80,169827,6,0,P|434:35|343:36,1,161.999995056153,2|0,0:2|1:2,0:0:0:0:
198,133,170272,2,0,P|119:154|32:139,1,161.999995056153,10|0,0:2|0:0,0:0:0:0:
0,72,170716,6,0,P|65:118|76:235,1,188.999994232178,2|0,1:2|0:0,0:0:0:0:
76,243,171160,1,8,0:2:0:0:
251,213,171382,6,0,P|186:259|175:376,1,188.999994232178,2|0,1:2|0:0,0:0:0:0:
175,384,171826,1,0,0:0:0:0:
0,304,172049,1,8,0:2:0:0:
2,323,172160,2,0,P|96:309|191:284,1,188.999994232178,0|0,1:2|1:2,0:0:0:0:
256,384,172716,6,0,L|256:302,1,72,2|8,1:2|0:2,0:0:0:0:
256,160,173160,2,0,L|256:232,1,72,2|0,1:2|0:0,0:0:0:0:
256,160,173604,2,0,L|256:103,1,36,10|8,0:2|0:2,0:0:0:0:
216,24,173827,2,0,L|216:60,1,36,8|8,0:2|1:2,0:0:0:0:
264,164,174049,2,0,L|264:128,1,36,8|8,0:2|0:2,0:0:0:0:
312,18,174272,6,0,P|266:83|149:94,1,188.999994232178,2|0,1:2|0:0,0:0:0:0:
141,94,174716,1,8,0:2:0:0:
171,269,174938,6,0,P|125:204|8:193,1,188.999994232178,2|0,1:2|0:0,0:0:0:0:
0,193,175382,1,0,0:0:0:0:
80,18,175605,1,8,0:2:0:0:
61,20,175716,2,0,P|74:114|100:209,1,188.999994232178,0|0,1:2|1:2,0:0:0:0:
0,193,176271,6,0,L|82:193,1,72,2|8,1:2|0:2,0:0:0:0:
224,192,176715,2,0,L|152:192,1,72,2|0,1:2|0:0,0:0:0:0:
224,192,177159,2,0,L|281:192,1,36,10|8,0:2|0:2,0:0:0:0:
360,153,177382,2,0,L|324:153,1,36,8|8,0:2|1:2,0:0:0:0:
220,201,177604,2,0,L|256:201,1,36,8|8,0:2|0:2,0:0:0:0:
360,384,177827,6,0,P|364:361|512:294,1,188.999994232178,2|0,1:2|0:0,0:0:0:0:
512,311,178271,1,8,0:2:0:0:
353,367,178493,6,0,P|331:375|199:280,1,188.999994232178,2|0,1:2|0:0,0:0:0:0:
213,272,178937,1,0,0:0:0:0:
94,384,179160,1,8,0:2:0:0:
70,380,179271,2,0,P|58:323|0:204,1,188.999994232178,0|0,1:2|1:2,0:0:0:0:
0,332,179827,6,0,L|68:277,1,72,2|8,1:2|0:2,0:0:0:0:
183,188,180271,2,0,L|120:238,1,72,2|0,1:2|0:0,0:0:0:0:
183,188,180716,2,0,L|214:162,1,36,10|8,0:2|0:2,0:0:0:0:
262,56,180938,2,0,L|234:78,1,36,8|8,0:2|1:2,0:0:0:0:
193,197,181160,2,0,L|224:171,1,36,8|8,0:2|0:2,0:0:0:0:
152,0,181382,6,0,P|148:23|0:90,1,188.999994232178,2|0,1:2|0:0,0:0:0:0:
0,73,181826,1,8,0:2:0:0:
159,17,182048,6,0,P|180:8|312:103,1,188.999994232178,2|0,1:2|0:0,0:0:0:0:
299,112,182492,1,0,0:0:0:0:
418,0,182715,1,8,0:2:0:0:
442,4,182826,2,0,P|454:61|512:180,1,188.999994232178,0|0,1:2|1:2,0:0:0:0:
512,52,183382,6,0,L|444:107,1,72,2|8,1:2|0:2,0:0:0:0:
329,196,183826,2,0,L|391:145,1,72,2|0,1:2|0:0,0:0:0:0:
329,196,184271,2,0,L|297:221,1,36,10|8,0:2|0:2,0:0:0:0:
250,328,184493,2,0,L|277:305,1,36,8|8,0:2|1:2,0:0:0:0:
319,187,184715,2,0,L|287:212,1,36,8|8,0:2|0:2,0:0:0:0:
307,384,184938,6,0,B|321:358|321:358|164:338,1,180,0|8,1:2|0:2,0:0:0:0:
2,328,185604,2,0,P|26:370|70:289,1,180,0|0,1:2|0:0,0:0:0:0:
12,151,186271,1,8,0:2:0:0:
1,160,186382,2,0,B|-2:171|-2:171|23:262,1,90,0|0,1:2|0:0,0:0:0:0:
80,297,186716,1,0,1:2:0:0:
155,245,186938,1,0,1:2:0:0:
245,262,187160,1,8,0:2:0:0:
297,338,187382,1,0,1:2:0:0:
297,338,187827,5,8,0:2:0:0:
280,327,187938,1,8,0:2:0:0:
293,294,188049,1,8,0:2:0:0:
282,248,188160,1,8,1:2:0:0:
244,224,188271,2,0,P|218:245|192:250,1,45,8|8,0:2|0:2,0:0:0:0:
79,112,188493,2,0,B|102:118|102:118|148:43|237:61,1,180,0|8,1:2|0:2,0:0:0:0:
196,152,189160,1,0,1:2:0:0:
504,194,189827,5,8,0:2:0:0:
490,200,189938,1,0,1:2:0:0:
476,206,190049,2,0,P|502:227|528:232,1,45
512,105,190271,1,0,1:2:0:0:
426,74,190493,1,0,1:2:0:0:
343,113,190715,1,8,0:2:0:0:
313,200,190937,1,0,1:2:0:0:
313,200,191382,5,8,0:2:0:0:
318,184,191493,1,8,0:2:0:0:
355,188,191604,1,8,0:2:0:0:
398,175,191715,1,8,1:2:0:0:
421,140,191826,1,8,0:2:0:0:
425,96,191937,1,8,0:2:0:0:
397,56,192049,6,0,B|317:6|213:22,1,180,0|10,1:2|0:2,0:0:0:0:
23,158,192716,1,2,1:2:0:0:
55,74,192938,1,2,0:2:0:0:
138,35,193160,1,2,0:2:0:0:
252,19,193382,1,10,0:2:0:0:
265,24,193493,1,0,1:2:0:0:
391,108,193716,5,0,0:0:0:0:
387,90,193827,2,0,P|330:132|212:149,1,180,2|10,1:2|0:2,0:0:0:0:
405,14,194493,5,2,1:2:0:0:
146,170,194716,1,2,0:2:0:0:
36,96,194938,1,8,0:2:0:0:
47,71,195049,1,8,0:2:0:0:
83,59,195160,1,10,0:2:0:0:
119,64,195271,1,8,1:2:0:0:
150,94,195382,1,8,0:2:0:0:
155,132,195493,1,8,0:2:0:0:
137,163,195604,6,0,P|144:108|218:40,1,135,0|0,1:2|0:0,0:0:0:0:
222,38,196049,1,10,0:2:0:0:
160,236,196271,1,2,1:2:0:0:
241,366,196493,5,2,0:2:0:0:
221,291,196716,1,0,0:0:0:0:
77,224,196938,1,10,0:2:0:0:
63,227,197049,1,0,1:2:0:0:
52,231,197160,1,0,0:0:0:0:
232,177,197382,6,0,B|332:144|332:144|300:189,1,135,0|0,1:2|0:0,0:0:0:0:
290,249,197827,1,10,0:2:0:0:
263,64,198049,1,2,1:2:0:0:
332,144,198271,5,2,0:2:0:0:
490,106,198493,1,10,0:2:0:0:
488,83,198604,1,8,0:2:0:0:
447,79,198716,1,10,0:2:0:0:
419,95,198827,1,8,1:2:0:0:
411,155,198938,1,8,0:2:0:0:
453,195,199049,1,8,0:2:0:0:
509,222,199160,6,0,B|522:201|522:201|357:220,1,180,0|10,1:2|0:2,0:0:0:0:
85,265,199827,1,2,1:2:0:0:
217,236,200049,1,2,0:2:0:0:
293,287,200271,5,2,0:2:0:0:
27,215,200493,1,10,0:2:0:0:
206,367,200716,6,0,P|215:344|212:306,1,45,2|0,0:2|0:0,0:0:0:0:
97,145,200938,2,0,P|98:167|105:188,1,45,2|0,1:2|0:0,0:0:0:0:
183,157,201160,5,2,1:2:0:0:
188,133,201271,1,2,0:2:0:0:
192,115,201382,1,10,0:2:0:0:
284,275,201604,2,0,P|303:285|325:289,1,45,2|0,1:2|1:2,0:0:0:0:
501,270,201827,6,0,P|448:290|397:294,1,90,2|10,0:2|0:2,0:0:0:0:
386,295,202160,1,10,0:2:0:0:
348,283,202271,1,10,0:2:0:0:
309,265,202382,1,0,1:2:0:0:
273,231,202493,1,10,0:2:0:0:
251,185,202604,1,10,0:2:0:0:
246,134,202716,1,2,1:2:0:0:
353,61,202938,6,0,P|330:81|306:92,1,45,2|2,0:2|0:2,0:0:0:0:
46,101,203160,1,10,0:2:0:0:
246,134,203382,5,2,1:2:0:0:
171,106,203493,2,0,P|152:96|128:95,1,45,2|2,0:2|0:2,0:0:0:0:
255,262,203827,5,2,0:2:0:0:
274,188,203938,1,2,0:2:0:0:
246,134,204049,6,0,L|258:196,2,45,10|0|2,0:2|1:2|0:2,0:0:0:0:
262,21,204493,5,2,1:2:0:0:
268,0,204604,1,2,0:2:0:0:
276,23,204716,2,0,L|292:68,1,45,2|2,1:2|0:2,0:0:0:0:
259,155,204938,5,10,0:2:0:0:
246,134,205049,1,2,0:2:0:0:
277,139,205160,2,0,L|330:155,1,45,2|2,1:2|0:2,0:0:0:0:
490,206,205382,6,0,L|480:250,1,45,2|2,0:2|0:2,0:0:0:0:
400,203,205604,2,0,L|365:231,1,45,10|10,0:2|0:2,0:0:0:0:
320,152,205827,2,0,L|271:138,1,45,10|2,0:2|1:2,0:0:0:0:
291,58,206049,2,0,L|276:16,1,45,10|10,0:2|0:2,0:0:0:0:
498,101,206271,6,0,B|490:90|490:90|323:61,2,135.000005149842,2|2|10,1:2|0:2|0:2,0:0:0:0:
187,43,206938,1,2,1:2:0:0:
22,110,207160,1,2,0:2:0:0:
22,110,207382,6,0,L|83:99,1,45
231,35,207604,6,0,L|186:42,1,45,10|0,0:2|0:0,0:0:0:0:
199,119,207827,2,0,L|244:112,1,45,2|0,0:2|0:0,0:0:0:0:
312,63,208049,6,0,P|327:93|322:125,1,45,0|0,1:2|0:0,0:0:0:0:
225,309,208271,1,0,1:2:0:0:
174,232,208493,2,0,P|216:206|239:206,1,45,8|0,0:2|0:0,0:0:0:0:
512,225,208716,6,0,B|501:233|501:233|384:216,1,90,0|2,1:2|0:2,0:0:0:0:
216,206,209160,1,2,1:2:0:0:
128,96,209382,5,10,0:2:0:0:
134,176,209604,1,2,0:2:0:0:
337,181,209827,6,0,P|377:166|397:144,1,45,2|0,1:2|0:0,0:0:0:0:
422,15,210049,2,0,P|438:66|434:113,1,90,2|8,0:2|0:2,0:0:0:0:
257,223,210493,6,0,P|237:211|216:207,1,45,2|0,1:2|0:0,0:0:0:0:
301,371,210715,2,0,P|315:328|315:284,1,90,2|0,0:2|0:0,0:0:0:0:
256,152,211160,5,8,0:2:0:0:
256,152,211271,1,0,1:2:0:0:
17,50,211604,5,2,1:2:0:0:
65,34,211753,5,2,0:2:0:0:
90,83,211901,5,2,0:2:0:0:
150,81,212049,5,8,0:2:0:0:
200,125,212197,5,2,0:2:0:0:
256,104,212346,5,2,0:2:0:0:
320,125,212494,5,2,0:2:0:0:
362,81,212642,5,2,0:2:0:0:
422,83,212790,5,2,0:2:0:0:
447,34,212938,5,10,0:2:0:0:
496,50,213086,5,0,0:0:0:0:
256,192,213382,5,2,1:2:0:0:
64,266,213604,1,2,0:2:0:0:
149,299,213827,2,0,B|163:186|163:186|146:163,1,135.000005149842,10|2,0:2|1:2,0:0:0:0:
349,318,214271,5,2,0:2:0:0:
433,291,214493,1,0,0:0:0:0:
256,192,214715,5,10,0:2:0:0:
272,272,214938,1,2,0:2:0:0:
322,92,215160,6,0,P|323:128|315:151,1,45,0|0,1:2|0:0,0:0:0:0:
224,351,215382,1,0,1:2:0:0:
109,319,215604,2,0,P|154:298|174:298,1,45,8|0,0:2|0:0,0:0:0:0:
435,320,215827,6,0,B|424:328|424:328|307:311,1,90,0|2,1:2|0:2,0:0:0:0:
56,259,216271,1,2,1:2:0:0:
34,179,216493,5,10,0:2:0:0:
148,298,216716,1,2,0:2:0:0:
359,200,216938,6,0,P|319:215|299:237,1,45,2|0,1:2|0:0,0:0:0:0:
274,366,217160,2,0,P|258:315|262:268,1,90,2|8,0:2|0:2,0:0:0:0:
439,158,217604,6,0,P|459:170|480:174,1,45,2|0,1:2|0:0,0:0:0:0:
395,10,217826,2,0,P|381:53|381:97,1,90,2|0,0:2|0:0,0:0:0:0:
435,320,218271,5,8,0:2:0:0:
435,320,218382,2,0,P|460:277|383:289,1,135,0|2,1:2|1:2,0:0:0:0:
473,384,218938,2,0,P|494:376|512:364,1,45,0|0,1:2|0:0,0:0:0:0:
320,220,219160,6,0,P|302:168|299:115,1,107.999996704102,8|0,0:2|1:2,0:0:0:0:
435,131,219604,2,0,P|415:156|385:177,1,53.9999983520508,2|0,0:2|0:0,0:0:0:0:
216,236,219827,5,8,1:2:0:0:
150,227,219938,1,8,0:2:0:0:
98,201,220049,1,10,0:2:0:0:
48,169,220160,1,8,0:2:0:0:
21,133,220271,1,8,0:2:0:0:
8,107,220382,5,8,0:2:0:0:
0,71,220493,6,0,P|116:58|193:-1,1,215.999993408203,2|10,1:2|0:2,0:0:0:0:
49,156,221160,2,0,P|16:178|6:208,1,53.9999983520508,0|8,1:2|0:2,0:0:0:0:
0,365,221382,2,0,P|28:330|33:257,1,107.999996704102,2|0,1:2|1:2,0:0:0:0:
0,71,221827,1,10,0:2:0:0:
13,37,221938,2,0,L|128:50,1,107.999996704102,0|0,1:2|0:0,0:0:0:0:
187,2,222271,6,0,P|216:32|224:53,1,53.9999983520508,2|0,1:2|0:0,0:0:0:0:
106,228,222493,2,0,P|117:187|131:170,1,53.9999983520508,0|0,1:2|0:0,0:0:0:0:
341,64,222716,2,0,P|311:93|290:101,1,53.9999983520508,10|0,0:2|0:0,0:0:0:0:
171,111,222938,1,0,1:2:0:0:
199,138,223049,1,8,0:2:0:0:
423,100,223271,1,8,0:2:0:0:
450,72,223382,1,0,1:2:0:0:
273,179,223604,6,0,L|279:241,1,53.9999983520508,8|8,0:2|0:2,0:0:0:0:
287,318,223827,1,0,1:2:0:0:
287,318,224049,6,0,L|350:329,1,53.9999983520508,2|0,1:2|0:0,0:0:0:0:
163,368,224271,2,0,L|42:378,1,107.999996704102,0|10,0:0|0:2,0:0:0:0:
173,245,224716,2,0,L|209:297,1,53.9999983520508,0|8,1:2|0:2,0:0:0:0:
0,233,224938,6,0,B|-1:179|-1:179|30:234,1,107.999996704102,2|0,1:2|1:2,0:0:0:0:
55,376,225382,1,10,0:2:0:0:
43,340,225493,1,0,1:2:0:0:
43,340,225827,5,0,1:2:0:0:
206,201,226049,1,2,1:2:0:0:
210,220,226160,1,0,0:0:0:0:
213,235,226271,2,0,L|201:298,1,53.9999983520508,10|0,0:2|0:0,0:0:0:0:
0,142,226493,2,0,L|63:153,1,53.9999983520508,2|8,1:2|0:2,0:0:0:0:
129,174,226716,6,0,P|68:231|9:227,1,135.000005149842,2|0,0:2|1:2,0:0:0:0:
249,17,227160,2,0,P|291:0|332:11,1,80.9999975280763,10|8,0:2|0:2,0:0:0:0:
380,68,227382,1,0,1:2:0:0:
135,35,227604,6,0,P|202:64|336:-17,1,215.999993408203,2|10,1:2|0:2,0:0:0:0:
512,122,228271,2,0,P|482:115|433:111,1,53.9999983520508,0|8,1:2|0:2,0:0:0:0:
363,152,228493,2,0,P|414:145|469:95,1,107.999996704102,2|0,1:2|1:2,0:0:0:0:
249,17,228938,1,10,0:2:0:0:
237,56,229049,2,0,L|261:197,1,135.000005149842,0|0,1:2|0:0,0:0:0:0:
326,230,229382,6,0,P|362:237|405:235,1,67.5000025749208,2|0,1:2|0:0,0:0:0:0:
173,174,229604,2,0,P|137:167|94:169,1,67.5000025749208,0|0,1:2|0:0,0:0:0:0:
258,384,229827,2,0,P|282:356|301:318,1,67.5000025749208,10|0,0:2|0:0,0:0:0:0:
245,134,230049,1,0,1:2:0:0:
255,172,230160,1,8,0:2:0:0:
38,202,230382,1,8,0:2:0:0:
0,212,230493,1,0,1:2:0:0:
326,230,230716,2,0,L|410:239,1,67.5000025749208,8|8,0:2|0:2,0:0:0:0:
479,244,230938,1,0,1:2:0:0:
479,244,231160,6,0,L|460:318,1,67.5000025749208,2|0,1:2|0:0,0:0:0:0:
258,384,231382,2,0,B|203:374|203:374|255:356,1,107.999996704102,0|10,0:0|0:2,0:0:0:0:
393,237,231827,2,0,L|376:171,1,53.9999983520508,0|8,1:2|0:2,0:0:0:0:
258,0,232049,2,0,B|203:10|203:10|255:28,1,107.999996704102,2|0,1:2|1:2,0:0:0:0:
466,10,232493,5,10,0:2:0:0:
454,1,232604,1,0,1:2:0:0:
440,0,232716,2,0,L|391:47,1,53.9999983520508,0|0,1:2|0:0,0:0:0:0:
435,115,232938,1,0,1:2:0:0:
435,115,233160,6,0,P|455:154|463:182,1,53.9999983520508,2|0,1:2|0:0,0:0:0:0:
290,292,233382,2,0,P|299:266|313:243,1,53.9999983520508,10|0,0:2|0:0,0:0:0:0:
436,235,233604,2,0,P|387:272|274:290,1,161.999995056153,10|0,0:2|0:0,0:0:0:0:
271,271,234049,5,8,0:2:0:0:
277,250,234160,1,8,0:2:0:0:
231,238,234271,1,10,0:2:0:0:
196,207,234382,1,8,0:2:0:0:
180,163,234493,1,8,0:2:0:0:
190,115,234604,1,8,0:2:0:0:
206,123,234716,6,0,P|124:174|0:189,1,215.999993408203,2|10,1:2|0:2,0:0:0:0:
233,0,235382,2,0,P|248:24|255:74,1,53.9999983520508,0|8,1:2|0:2,0:0:0:0:
237,223,235604,2,0,P|213:181|206:117,1,107.999996704102,2|0,1:2|1:2,0:0:0:0:
337,43,236049,5,10,0:2:0:0:
370,63,236160,2,0,L|489:69,1,107.999996704102,0|0,1:2|0:0,0:0:0:0:
512,137,236493,2,0,P|496:171|472:192,1,53.9999983520508,2|0,1:2|0:0,0:0:0:0:
342,284,236716,2,0,P|320:253|314:221,1,53.9999983520508,0|0,1:2|0:0,0:0:0:0:
512,339,236938,2,0,P|502:364|484:384,1,53.9999983520508,10|0,0:2|0:0,0:0:0:0:
402,217,237160,1,0,1:2:0:0:
388,183,237271,1,8,0:2:0:0:
252,350,237493,1,8,0:2:0:0:
288,354,237604,1,0,1:2:0:0:
512,262,237827,6,0,L|453:271,1,53.9999983520508,8|8,0:2|0:2,0:0:0:0:
342,284,238049,1,0,1:2:0:0:
342,284,238271,6,0,L|333:218,1,53.9999983520508,2|0,1:2|0:0,0:0:0:0:
153,171,238493,2,0,L|266:189,1,107.999996704102,0|10,0:0|0:2,0:0:0:0:
121,90,238938,6,0,L|128:36,1,53.9999983520508,0|8,1:2|0:2,0:0:0:0:
39,250,239160,2,0,B|-12:261|-12:261|27:223,1,107.999996704102,2|0,1:2|1:2,0:0:0:0:
259,187,239604,1,10,0:2:0:0:
218,202,239716,1,0,1:2:0:0:
218,202,240049,5,0,1:2:0:0:
70,157,240271,2,0,L|36:115,1,53.9999983520508,2|0,1:2|0:0,0:0:0:0:
222,114,240493,2,0,L|264:80,1,53.9999983520508,10|0,0:2|0:0,0:0:0:0:
127,292,240716,2,0,L|132:238,1,53.9999983520508,2|8,1:2|0:2,0:0:0:0:
330,235,240938,2,0,P|301:259|263:270,1,67.5000025749208,2|8,0:2|0:2,0:0:0:0:
218,202,241160,1,0,1:2:0:0:
404,190,241382,1,10,0:2:0:0:
418,198,241493,1,8,0:2:0:0:
430,204,241604,2,0,L|510:206,1,80.9999975280763,0|0,1:2|0:0,0:0:0:0:
366,24,241827,6,0,P|340:102|330:247,1,215.999993408203,2|10,1:2|0:2,0:0:0:0:
512,35,242493,2,0,P|481:17|444:7,1,53.9999983520508,0|8,1:2|0:2,0:0:0:0:
326,115,242716,2,0,P|389:113|430:79,1,107.999996704102,2|0,1:2|1:2,0:0:0:0:
227,20,243160,1,10,0:2:0:0:
187,11,243271,2,0,L|32:30,1,135.000005149842,0|0,1:2|0:0,0:0:0:0:
0,90,243604,6,0,L|14:162,1,67.5000025749208,2|0,1:2|0:0,0:0:0:0:
244,120,243827,2,0,L|174:96,1,67.5000025749208,0|0,1:2|0:0,0:0:0:0:
30,163,244049,2,0,L|16:235,1,67.5000025749208,10|0,0:2|0:0,0:0:0:0:
165,121,244271,1,0,1:2:0:0:
127,127,244382,1,8,0:2:0:0:
38,312,244604,1,8,0:2:0:0:
0,306,244715,1,0,1:2:0:0:
194,384,244938,1,8,0:2:0:0:
206,342,245049,1,8,0:2:0:0:
206,342,245382,6,0,L|127:329,1,67.5000025749208,2|0,1:2|0:0,0:0:0:0:
323,348,245604,2,0,B|368:376|368:376|308:385,1,107.999996704102,0|10,0:0|0:2,0:0:0:0:
459,224,246049,6,0,L|538:211,1,53.9999983520508,0|8,1:2|0:2,0:0:0:0:
329,225,246271,2,0,B|284:253|284:253|344:262,1,107.999996704102,2|0,1:2|1:2,0:0:0:0:
512,131,246716,1,10,0:2:0:0:
506,102,246827,1,0,1:2:0:0:
506,102,247160,5,0,1:2:0:0:
288,0,247382,2,0,P|281:35|285:71,1,53.9999983520508,2|0,1:2|0:0,0:0:0:0:
344,144,247604,2,0,P|351:109|347:73,1,53.9999983520508,10|0,0:2|0:0,0:0:0:0:
222,108,247827,2,0,P|195:107|168:101,1,53.9999983520508,10|8,0:2|0:2,0:0:0:0:
406,31,248049,2,0,P|467:44|502:94,1,107.999996704102,2|8,0:2|0:2,0:0:0:0:
488,92,248382,5,8,0:2:0:0:
473,97,248493,1,10,0:2:0:0:
442,133,248604,1,8,0:2:0:0:
435,181,248716,1,8,0:2:0:0:
459,221,248827,1,8,0:2:0:0:
502,213,248938,6,0,B|505:192|505:192|467:243|425:270|358:268,1,161.999995056153,2|0,1:2|0:0,0:0:0:0:
261,277,249382,1,8,0:2:0:0:
466,337,249604,5,2,1:2:0:0:
479,359,249715,2,0,B|495:372|495:372|470:313|468:263|503:206,1,161.999995056153,8|0,0:2|0:0,0:0:0:0:
390,266,250271,5,10,0:2:0:0:
364,266,250382,2,0,B|344:273|344:273|407:281|451:304|483:363,1,161.999995056153,0|0,1:2|1:2,0:0:0:0:
93,234,250938,6,0,P|45:196|-12:183,1,107.999996704102,2|8,1:2|0:2,0:0:0:0:
197,299,251382,2,0,P|189:238|158:188,1,107.999996704102,2|0,1:2|0:0,0:0:0:0:
249,364,251827,1,10,0:2:0:0:
258,379,251938,1,8,0:2:0:0:
272,383,252049,6,0,P|285:356|289:330,1,53.9999983520508,8|8,0:2|0:2,0:0:0:0:
76,183,252271,2,0,P|80:209|92:233,1,53.9999983520508,8|8,0:2|0:2,0:0:0:0:
429,180,252493,6,0,B|437:166|454:161|454:161|411:145|353:168|328:207,1,161.999995056153,2|0,1:2|0:0,0:0:0:0:
295,257,252938,1,8,0:2:0:0:
437,308,253160,5,2,1:2:0:0:
451,321,253271,2,0,B|459:335|454:352|454:352|489:328|498:262|482:234,1,161.999995056153,8|0,0:2|0:0,0:0:0:0:
295,257,253827,5,10,0:2:0:0:
276,263,253938,2,0,B|259:262|247:250|247:250|252:299|303:333|335:333,1,161.999995056153,0|0,1:2|1:2,0:0:0:0:
64,103,254493,6,0,P|36:65|19:-3,1,107.999996704102,2|8,1:2|0:2,0:0:0:0:
100,199,254938,2,0,P|53:192|-6:155,1,107.999996704102,2|0,1:2|0:0,0:0:0:0:
187,222,255382,1,10,0:2:0:0:
191,249,255493,1,8,0:2:0:0:
191,264,255604,2,0,P|176:302|129:331,1,53.9999983520508,8|8,0:2|0:2,0:0:0:0:
152,128,255827,5,8,0:2:0:0:
164,50,255938,1,8,0:2:0:0:
222,7,256049,6,0,P|204:71|164:125,2,135.000005149842,2|0|8,1:2|0:0|0:2,0:0:0:0:
100,200,256716,1,2,1:2:0:0:
58,212,256827,6,0,P|148:210|247:154,1,202.500007724762,8|0,0:2|0:0,0:0:0:0:
76,292,257382,1,10,0:2:0:0:
0,281,257493,6,0,P|67:309|202:296,1,202.500007724762,0|0,1:2|1:2,0:0:0:0:
340,142,258049,6,0,P|296:110|243:99,1,107.999996704102,2|8,1:2|0:2,0:0:0:0:
434,172,258493,2,0,P|423:118|395:73,1,107.999996704102,2|0,1:2|0:0,0:0:0:0:
433,269,258938,5,10,0:2:0:0:
455,275,259049,1,8,0:2:0:0:
479,263,259160,2,0,P|512:218|509:188,1,53.9999983520508,8|8,0:2|0:2,0:0:0:0:
347,0,259382,2,0,P|322:39|322:73,1,53.9999983520508,8|8,0:2|0:2,0:0:0:0:
335,291,259604,6,0,B|325:266|325:266|482:322,1,161.999995056153,2|0,1:2|0:0,0:0:0:0:
475,319,260049,1,8,0:2:0:0:
185,291,260271,1,2,1:2:0:0:
212,293,260382,6,0,B|238:296|238:296|135:384,1,161.999995056153,8|0,0:2|0:0,0:0:0:0:
285,166,260938,1,10,0:2:0:0:
272,185,261049,6,0,B|255:206|255:206|231:73,1,161.999995056153,0|0,1:2|1:2,0:0:0:0:
394,185,261604,6,0,P|363:209|330:215,1,53.9999983520508,2|0,1:2|0:0,0:0:0:0:
62,156,261827,2,0,B|76:142|76:142|194:164,1,107.999996704102,8|2,0:2|1:2,0:0:0:0:
340,292,262271,6,0,P|314:284|293:268,1,53.9999983520508,0|8,0:0|0:2,0:0:0:0:
210,276,262493,6,0,P|203:249|207:223,1,53.9999983520508,10|8,0:2|0:2,0:0:0:0:
368,98,262716,5,8,0:2:0:0:
455,104,262827,1,8,0:2:0:0:
488,139,262938,1,8,0:2:0:0:
496,169,263049,5,8,0:2:0:0:
